<?xml version="1.0" standalone="no"?>
<!DOCTYPE svg PUBLIC "-//W3C//DTD SVG 1.1//EN" "http://www.w3.org/Graphics/SVG/1.1/DTD/svg11.dtd" >
<svg xmlns="http://www.w3.org/2000/svg" xmlns:xlink="http://www.w3.org/1999/xlink" version="1.1">
<metadata>
Created by FontForge 20160405 at Thu Dec  6 07:09:41 2018
 By www-data
Copyright (c) 2017 by Misti's Fonts. All rights reserved.
</metadata>
<defs>
<font id="LietoMe" horiz-adv-x="700" >
  <font-face 
    font-family="Lie to Me"
    font-weight="400"
    font-stretch="normal"
    units-per-em="1000"
    panose-1="0 0 0 0 0 0 0 0 0 0"
    ascent="800"
    descent="-200"
    x-height="412"
    cap-height="807"
    bbox="-212 -531 2520.52 1040.7"
    underline-thickness="50"
    underline-position="-150"
    unicode-range="U+000D-FB00"
  />
<missing-glyph horiz-adv-x="250" 
 />
    <glyph glyph-name="t_t" unicode="tt" horiz-adv-x="470" 
d="M582 625q2 -12 -5 -22.5t-19 -12.5l-142 -27l-19 -48q-24 -60 -42.5 -111.5t-32.5 -96.5q-29 -94 -35 -152q-5 -41 -1 -59.5t9 -25.5q2 -4 7.5 -7.5t16.5 -3.5q18 0 43 19t53 54q12 14 21.5 28.5t17.5 25.5q9 13 16 25q6 11 18 14.5t23 -2.5t14 -18t-3 -23
q0 -1 -4.5 -8.5t-12.5 -20t-19 -28t-24 -31.5q-31 -38 -62 -63q-43 -32 -81 -32q-31 0 -48.5 12.5t-26.5 25.5q-14 20 -19 55q-30 -37 -60 -61q-43 -32 -81 -32q-31 0 -48.5 12.5t-26.5 25.5q-24 37 -19 106.5t39 181.5q14 44 29.5 88t32.5 88l-32 -7h-6q-11 0 -19 6.5
t-10 17.5q-2 12 4.5 22.5t18.5 12.5l71 15q13 31 25 59t23 53q5 11 16.5 16t22.5 0q12 -5 16.5 -17t-0.5 -23l-32 -74l184 34l28 64q5 11 16.5 16t22.5 0q12 -5 16.5 -17t-0.5 -23l-11 -26l101 19q12 2 22.5 -5t13.5 -19zM264 325q14 44 29.5 88t32.5 88l19 49l-183 -35
q-24 -60 -42.5 -111.5t-32.5 -96.5q-29 -94 -35 -152q-5 -41 -1 -59.5t9 -25.5q2 -4 7.5 -7.5t16.5 -3.5q18 0 43 19t53 54q22 26 36.5 49t17.5 28q11 53 30 116z" />
    <glyph glyph-name="o_r" unicode="or" horiz-adv-x="864" 
d="M108 -1q-39 0 -62.5 12.5t-34.5 26.5q-29 34 -29 89q0 33 11 70t31 70q18 32 43 52q20 17 38 21q4 10 7 14q36 59 92 59q50 0 78 -53q20 -42 20 -101q0 -64 -21 -119q123 37 169 158q-17 10 -29 21q-33 30 -43 66q-9 34 1 65q8 23 25 38.5t38 17.5q42 3 67 -42
q25 -46 17 -109l-3 -17q18 -2 37.5 2.5t42.5 13.5q18 8 34 17t27 17q13 9 25 18q8 7 18.5 7.5t18.5 -5.5t11.5 -15.5t-0.5 -19.5q-29 -84 -42 -140t-15.5 -90.5t1.5 -51t8 -22.5q3 -4 8 -7t16 -3q18 0 43 19t53 54q12 14 21.5 28.5t17.5 25.5q9 13 16 25q6 11 18 14.5
t23 -2.5t14.5 -18t-3.5 -23q0 -1 -4.5 -8.5t-12.5 -20t-19 -28t-24 -31.5q-31 -38 -62 -63q-43 -32 -81 -32q-29 0 -46.5 11.5t-26.5 23.5q-33 46 -15 153q7 52 29 125q-12 -6 -28 -13q-65 -27 -120 -20q-15 -44 -41 -80.5t-60 -63t-74 -42.5t-84 -19q-23 -30 -50 -49
q-41 -26 -89 -26zM152 297q-4 -12 -6.5 -26t-2.5 -30q0 -47 22 -77q17 -24 49 -30q14 27 21 59.5t7 65.5q0 40 -10.5 67t-27.5 27q-14 0 -26.5 -12t-20.5 -32q-1 -4 -5 -12zM83 249l-8 -13q-15 -26 -24 -55t-9 -54q0 -11 3 -25t11 -25q16 -18 52 -18q37 0 66 24
q-33 13 -58 46q-16 22 -24.5 51t-8.5 61v8zM448 446q-2 0 -5.5 -3.5t-6.5 -11.5q-1 -3 -2 -9.5t0.5 -15.5t7.5 -20t19 -23l5 -3q2 20 0.5 39.5t-10.5 36.5q-2 2 -3.5 4t-2.5 4z" />
    <glyph glyph-name="o_s" unicode="os" horiz-adv-x="757" 
d="M108 -1q-39 0 -62.5 12.5t-34.5 26.5q-29 34 -29 89q0 33 11 70t31 70q18 32 43 52q20 17 38 21q4 10 7 14q36 59 92 59q50 0 78 -53q20 -42 20 -101q0 -64 -21 -119q35 6 74 35.5t72 70t55 85t22 80.5q0 11 7.5 19.5t19.5 10.5q11 1 20.5 -6t11.5 -18q3 -13 17.5 -27
t31.5 -29q15 -14 31.5 -29t30 -33.5t22.5 -41t9 -50.5q0 -61 -19 -98.5t-39 -57.5q-24 -23 -55 -36.5t-64 -13.5q-20 0 -38 5.5t-32 15.5q-34 25 -34 66q0 13 8.5 21.5t21.5 8.5t21.5 -8.5t8.5 -21.5q0 -16 16 -21.5t28 -5.5q44 0 77 33q40 40 40 113q0 35 -22 60t-50 49
l-28 24q-24 -51 -50.5 -96.5t-61.5 -80.5t-80.5 -58.5t-105.5 -30.5q-23 -30 -50 -49q-41 -26 -89 -26zM152 297q-4 -12 -6.5 -26t-2.5 -30q0 -47 22 -77q17 -24 49 -30q14 27 21 59.5t7 65.5q0 40 -10.5 67t-27.5 27q-14 0 -26.5 -12t-20.5 -32q-1 -4 -5 -12zM83 249
l-8 -13q-15 -26 -24 -55t-9 -54q0 -11 3 -25t11 -25q16 -18 52 -18q37 0 66 24q-33 13 -58 46q-16 22 -24.5 51t-8.5 61v8z" />
    <glyph glyph-name="a_z" unicode="az" horiz-adv-x="936" 
d="M977 225q11 -6 14.5 -17.5t-2.5 -22.5q-1 -2 -17 -29.5t-44 -61.5q-82 -96 -161 -96q-41 0 -80.5 11t-72.5 22l-9 3q-42 -36 -74 -36h-2q-29 0 -43 14t-16 31q-2 24 19 45q19 16 46 20q11 2 24.5 0.5t29.5 -6.5h1q23 23 47.5 53.5t51.5 63.5q25 31 49.5 61.5t49.5 56.5
q-21 2 -40.5 6t-36.5 8q-27 7 -49.5 10.5t-42.5 -3.5q-56 -18 -78 -67q-10 -20 -20.5 -50t-23.5 -62.5t-29.5 -64.5t-38 -57.5t-48 -41.5t-60.5 -16q-42 0 -65 31q-21 27 -24 73q-13 -17 -27 -31.5t-28 -26.5q-35 -29 -69 -39q-36 -12 -67 -1q-21 8 -35.5 25t-21.5 41
q-12 44 5 107q14 50 41.5 94t65.5 79q36 33 72 48t65 8q6 -2 16 -7t19 -16.5t13 -31.5t-3 -51q-2 -12 -12.5 -19t-22.5 -4q-12 2 -19 12.5t-4 22.5q3 16 2.5 23.5t-1.5 9.5q-2 3 -3 3q-8 2 -30.5 -6.5t-51.5 -35.5q-31 -29 -54.5 -66.5t-34.5 -78.5q-11 -39 -7 -66.5
t21 -33.5q11 -4 31 1.5t47 27.5q22 19 53 58t63 111q5 11 15.5 15.5t21.5 0.5q11 -5 16.5 -15t2.5 -21q-20 -75 -19.5 -117t11.5 -56q2 -3 6 -5.5t12 -2.5q21 0 39 14.5t34 37.5t29.5 51.5t25 57.5t20.5 54t17 42q17 36 46 61t68 38q32 11 63 6.5t62 -12.5q19 -5 38 -8.5
t37.5 -4t38 4t40.5 15.5q11 6 23 2.5t18 -14.5t2.5 -23t-14.5 -18q-18 -10 -39 -29.5t-43.5 -44t-45 -52.5t-44.5 -55q-23 -29 -44 -54.5t-39 -45.5q28 -9 56.5 -16.5t57.5 -7.5q16 0 32 7t31 18t28 24t24 26q12 15 22 29t17 25t11 18.5l4 7.5q6 11 18 14.5t23 -2.5z" />
    <glyph glyph-name="a_x" unicode="ax" horiz-adv-x="956" 
d="M997 224q11 -6 14.5 -18t-2.5 -23q0 -1 -4.5 -8.5t-12.5 -20t-19.5 -28.5t-24.5 -32q-78 -96 -150 -96q-37 0 -60 25q-20 21 -25.5 54t-4.5 73l-145 -143q-10 -8 -21 -8q-13 0 -22 9q-8 9 -8 21.5t9 20.5l192 189q2 21 2.5 41t-1.5 37q-2 25 -7 33t-8 10t-7.5 3.5
t-12.5 -0.5q-6 -2 -15 -6.5t-21 -15t-27.5 -27.5t-34.5 -44q-30 -43 -55.5 -88t-60.5 -88q-16 -20 -32 -35.5t-31 -27.5q-43 -32 -81 -32q-42 0 -65 31q-21 27 -24 73q-13 -17 -27 -31.5t-28 -26.5q-35 -29 -69 -39q-36 -12 -67 -1q-21 8 -35.5 25t-21.5 41q-12 44 5 107
q14 50 41.5 94t65.5 79q36 33 72 48t65 8q6 -2 16 -7t19 -16.5t13 -31.5t-3 -51q-2 -12 -12.5 -19t-22.5 -4q-12 2 -19 12.5t-4 22.5q3 16 2.5 23.5t-1.5 9.5q-2 3 -3 3q-8 2 -30.5 -6.5t-51.5 -35.5q-31 -29 -54.5 -66.5t-34.5 -78.5q-11 -39 -7 -66.5t21 -33.5
q11 -4 31 1.5t47 27.5q22 19 53 58t63 111q5 11 15.5 15.5t21.5 0.5q11 -5 16.5 -15t2.5 -21q-20 -75 -19.5 -117t11.5 -56q2 -3 6 -5.5t12 -2.5q18 0 43.5 19t54.5 54q32 40 56.5 84t56.5 88q71 99 131 116q36 10 68 -8q14 -9 22 -21.5t12.5 -25.5t6 -25t2.5 -18
q0 -5 0.5 -11t0.5 -12l118 115q9 9 21.5 9t20.5 -9q9 -9 8.5 -21.5t-8.5 -21.5l-163 -159v-1q-2 -25 -3.5 -50t0.5 -46q2 -25 5.5 -36t7.5 -15q2 -2 5.5 -4t10.5 -2q43 0 103 74q12 15 22 29.5t18 25.5q9 13 15 25q6 11 18 14.5t23 -2.5z" />
    <glyph glyph-name="a_s" unicode="as" horiz-adv-x="824" 
d="M595 1q-20 0 -38 5.5t-32 15.5q-34 25 -34 66q0 13 8.5 21.5t21.5 8.5t21.5 -8.5t8.5 -21.5q0 -16 16 -21.5t28 -5.5q44 0 77 33q40 40 40 113q0 35 -22 60t-50 49l-28 24q-8 -17 -19 -40t-28 -53q-25 -43 -48 -80.5t-52 -72.5q-16 -20 -32 -35.5t-31 -27.5
q-43 -32 -81 -32q-42 0 -65 31q-21 27 -24 73q-13 -17 -27 -31.5t-28 -26.5q-35 -29 -69 -39q-36 -12 -67 -1q-21 8 -35.5 25t-21.5 41q-12 44 5 107q14 50 41.5 94t65.5 79q36 33 72 48t65 8q6 -2 16 -7t19 -16.5t13 -31.5t-3 -51q-2 -12 -12.5 -19t-22.5 -4
q-12 2 -19 12.5t-4 22.5q3 16 2.5 23.5t-1.5 9.5q-2 3 -3 3q-8 2 -30.5 -6.5t-51.5 -35.5q-31 -29 -54.5 -66.5t-34.5 -78.5q-11 -39 -7 -66.5t21 -33.5q11 -4 31 1.5t47 27.5q22 19 53 58t63 111q5 11 15.5 15.5t21.5 0.5q11 -5 16.5 -15t2.5 -21q-20 -75 -19.5 -117
t11.5 -56q2 -3 6 -5.5t12 -2.5q18 0 43.5 19t54.5 54q27 34 50 71t44 74q20 35 31.5 59.5t17.5 40t7.5 23.5t1.5 11q0 11 7.5 19.5t19.5 10.5q11 1 20.5 -6t11.5 -18q3 -13 17.5 -27t31.5 -29q15 -14 31.5 -29t30 -33.5t22.5 -41t9 -50.5q0 -61 -19 -98.5t-39 -57.5
q-24 -23 -55 -36.5t-64 -13.5z" />
    <glyph glyph-name="a_r" unicode="ar" horiz-adv-x="931" 
d="M780 -1q-29 0 -46.5 11.5t-26.5 23.5q-33 46 -15 153q7 52 29 125q-12 -6 -28 -13q-65 -27 -120 -20q-2 -7 -4.5 -13.5t-5.5 -13.5q-20 -46 -44.5 -84t-53.5 -74q-16 -20 -32 -35.5t-31 -27.5q-43 -32 -81 -32q-42 0 -65 31q-21 27 -24 73q-13 -17 -27 -31.5t-28 -26.5
q-35 -29 -69 -39q-36 -12 -67 -1q-21 8 -35.5 25t-21.5 41q-12 44 5 107q14 50 41.5 94t65.5 79q36 33 72 48t65 8q6 -2 16 -7t19 -16.5t13 -31.5t-3 -51q-2 -12 -12.5 -19t-22.5 -4q-12 2 -19 12.5t-4 22.5q3 16 2.5 23.5t-1.5 9.5q-2 3 -3 3q-8 2 -30.5 -6.5t-51.5 -35.5
q-31 -29 -54.5 -66.5t-34.5 -78.5q-11 -39 -7 -66.5t21 -33.5q11 -4 31 1.5t47 27.5q22 19 53 58t63 111q5 11 15.5 15.5t21.5 0.5q11 -5 16.5 -15t2.5 -21q-20 -75 -19.5 -117t11.5 -56q2 -3 6 -5.5t12 -2.5q18 0 43.5 19t54.5 54t50.5 70.5t38.5 73.5l9 22q-17 10 -29 21
q-33 30 -43 66q-9 34 1 65q8 23 25 38.5t38 17.5q42 3 67 -42q25 -46 17 -109l-3 -17q18 -2 37.5 2.5t42.5 13.5q18 8 34 17t27 17q13 9 25 18q8 7 18.5 7.5t18.5 -5.5t11.5 -15.5t-0.5 -19.5q-29 -84 -42 -140t-15.5 -90.5t1.5 -51t8 -22.5q3 -4 8 -7t16 -3q18 0 43 19
t53 54q12 14 21.5 28.5t17.5 25.5q9 13 16 25q6 11 18 14.5t23 -2.5t14.5 -18t-3.5 -23q0 -1 -4.5 -8.5t-12.5 -20t-19 -28t-24 -31.5q-31 -38 -62 -63q-43 -32 -81 -32zM515 446q-2 0 -5.5 -3.5t-6.5 -11.5q-1 -3 -2 -9.5t0.5 -15.5t7.5 -20t19 -23l5 -3q2 20 0.5 39.5
t-10.5 36.5q-2 2 -3.5 4t-2.5 4z" />
    <glyph glyph-name="b_r" unicode="br" horiz-adv-x="844" 
d="M693 -1q-29 0 -46.5 11.5t-26.5 23.5q-33 46 -15 153q7 52 29 125q-12 -6 -28 -13q-65 -27 -120 -20l-92 -258q-5 -14 -16.5 -17.5t-21.5 1t-16 14.5t0 24q1 3 7 19.5t14.5 40t18.5 52t19.5 56t17.5 50.5t13 37q-17 10 -29 21q-33 30 -43 66q-9 34 1 65q8 23 25 38.5
t38 17.5q42 3 67 -42q25 -46 17 -109l-3 -17q18 -2 37.5 2.5t42.5 13.5q18 8 34 17t27 17q13 9 25 18q8 7 18.5 7.5t18.5 -5.5t11.5 -15.5t-0.5 -19.5q-29 -84 -42 -140t-15.5 -90.5t1.5 -51t8 -22.5q3 -4 8 -7t16 -3q18 0 43 19t53 54q12 14 21.5 28.5t17.5 25.5
q9 13 16 25q6 11 18 14.5t23 -2.5t14.5 -18t-3.5 -23q0 -1 -4.5 -8.5t-12.5 -20t-19 -28t-24 -31.5q-31 -38 -62 -63q-43 -32 -81 -32zM331 338q14 -46 -4 -107q-14 -49 -41 -93.5t-65 -79.5q-31 -28 -62 -43t-57 -15q-8 0 -18 2q-6 1 -16.5 6.5t-19.5 17t-13 31.5t3 51
q2 13 12.5 19.5t22.5 3.5q13 -2 19.5 -12.5t3.5 -22.5q-3 -16 -2.5 -23.5t1.5 -9.5t1.5 -2t1.5 -1q8 -2 30.5 7t51.5 36q32 28 55 65.5t34 78.5q8 29 7.5 46.5t-2.5 28.5q-6 19 -21 25q-16 5 -38 -2t-45 -27q-23 -18 -54.5 -57t-63.5 -111q-2 -3 -3 -5t-3 -4l-34 -121
q-7 -22 -29 -22q-5 0 -8 1q-12 4 -18 14.5t-3 22.5l181 640q3 12 14 18t23 3q12 -4 18 -14.5t3 -22.5l-92 -323q16 16 31 28q36 28 72 39q37 11 69 0q44 -17 58 -66zM428 446q-2 0 -5.5 -3.5t-6.5 -11.5q-1 -3 -2 -9.5t0.5 -15.5t7.5 -20t19 -23l5 -3q2 20 0.5 39.5
t-10.5 36.5q-2 2 -3.5 4t-2.5 4z" />
    <glyph glyph-name="b_s" unicode="bs" horiz-adv-x="737" 
d="M331 338q14 -46 -4 -107q-14 -49 -41 -93.5t-65 -79.5q-31 -28 -62 -43t-57 -15q-8 0 -18 2q-6 1 -16.5 6.5t-19.5 17t-13 31.5t3 51q2 13 12.5 19.5t22.5 3.5q13 -2 19.5 -12.5t3.5 -22.5q-3 -16 -2.5 -23.5t1.5 -9.5t1.5 -2t1.5 -1q8 -2 30.5 7t51.5 36q32 28 55 65.5
t34 78.5q8 29 7.5 46.5t-2.5 28.5q-6 19 -21 25q-16 5 -38 -2t-45 -27q-23 -18 -54.5 -57t-63.5 -111q-2 -3 -3 -5t-3 -4l-34 -121q-7 -22 -29 -22q-5 0 -8 1q-12 4 -18 14.5t-3 22.5l181 640q3 12 14 18t23 3q12 -4 18 -14.5t3 -22.5l-92 -323q16 16 31 28q36 28 72 39
q37 11 69 0q44 -17 58 -66zM508 1q-20 0 -38 5.5t-32 15.5q-34 25 -34 66q0 13 8.5 21.5t21.5 8.5t21.5 -8.5t8.5 -21.5q0 -16 16 -21.5t28 -5.5q44 0 77 33q40 40 40 113q0 35 -22 60t-50 49l-28 24q-5 -12 -19.5 -38t-33.5 -59.5t-41 -70t-42 -68t-36 -55.5t-23 -31
q-7 -11 -19 -13t-22 5q-11 7 -13.5 19t4.5 22q8 11 26 38.5t40.5 63t47 75.5t44.5 76t33 65t13 42q0 11 7.5 19.5t19.5 10.5q11 1 20.5 -6t11.5 -18q3 -13 17.5 -27t31.5 -29q15 -14 31.5 -29t30 -33.5t22.5 -41t9 -50.5q0 -61 -19 -98.5t-39 -57.5q-24 -23 -55 -36.5
t-64 -13.5z" />
    <glyph glyph-name="t_b" unicode="tb" horiz-adv-x="623" 
d="M566 338q14 -46 -4 -107q-14 -49 -41 -93.5t-65 -79.5q-31 -28 -62 -43t-57 -15q-8 0 -18 2q-6 1 -16.5 6.5t-19.5 17t-13 31.5t3 51q2 13 12.5 19.5t22.5 3.5q13 -2 19.5 -12.5t3.5 -22.5q-3 -16 -2.5 -23.5t1.5 -9.5t1.5 -2t1.5 -1q8 -2 30.5 7t51.5 36q32 28 55 65.5
t34 78.5q8 29 7.5 46.5t-2.5 28.5q-6 19 -21 25q-16 5 -38 -2t-45 -27q-23 -18 -54.5 -57t-63.5 -111q-2 -3 -3 -5t-3 -4l-34 -121q-7 -22 -29 -22q-5 0 -8 1q-12 4 -18 14.5t-3 22.5l6 22q-15 -15 -30 -27q-43 -32 -81 -32q-31 0 -48.5 12.5t-26.5 25.5q-24 37 -19 106.5
t39 181.5q14 44 29.5 88t32.5 88l-32 -7h-6q-11 0 -19 6.5t-10 17.5q-2 12 4.5 22.5t18.5 12.5l71 15q13 31 25 59t23 53q5 11 16.5 16t22.5 0q12 -5 16.5 -17t-0.5 -23l-32 -74l163 29l18 65q3 12 14 18t23 3q12 -4 18 -14.5t3 -22.5l-11 -37l79 15q12 2 22.5 -5t13.5 -19
q2 -12 -5 -22.5t-19 -12.5l-109 -21l-63 -221q16 16 31 28q36 28 72 39q37 11 69 0q44 -17 58 -66zM235 211q2 5 6 8l92 327l-171 -31q-24 -60 -42.5 -111.5t-32.5 -96.5q-29 -94 -35 -152q-5 -41 -1 -59.5t9 -25.5q2 -4 7.5 -7.5t16.5 -3.5q18 0 43 19t53 54
q12 14 21.5 28.5t17.5 25.5q9 13 16 25z" />
    <glyph glyph-name="b_x" unicode="bx" horiz-adv-x="799" 
d="M840 224q11 -6 14.5 -18t-2.5 -23q0 -1 -4.5 -8.5t-12.5 -20t-19.5 -28.5t-24.5 -32q-78 -96 -150 -96q-37 0 -60 25q-20 21 -25.5 54t-4.5 73l-145 -143q-10 -8 -21 -8q-13 0 -22 9q-8 9 -8 21.5t9 20.5l192 189q2 21 2.5 41t-1.5 37q-1 7 -2 15t-4 15.5t-9 12.5t-17 5
q-10 0 -33.5 -10.5t-52 -26t-57 -34t-48.5 -34.5q-2 -8 -3.5 -14.5t-3.5 -14.5q-14 -49 -41 -93.5t-65 -79.5q-31 -28 -62 -43t-57 -15q-8 0 -18 2q-6 1 -16.5 6.5t-19.5 17t-13 31.5t3 51q2 13 12.5 19.5t22.5 3.5q13 -2 19.5 -12.5t3.5 -22.5q-3 -16 -2.5 -23.5t1.5 -9.5
t1.5 -2t1.5 -1q8 -2 30.5 7t51.5 36q32 28 55 65.5t34 78.5q8 29 7.5 46.5t-2.5 28.5q-6 19 -21 25q-16 5 -38 -2t-45 -27q-23 -18 -54.5 -57t-63.5 -111q-2 -3 -3 -5t-3 -4l-34 -121q-7 -22 -29 -22q-5 0 -8 1q-12 4 -18 14.5t-3 22.5l181 640q3 12 14 18t23 3
q12 -4 18 -14.5t3 -22.5l-92 -323q16 16 31 28q36 28 72 39q37 11 69 0q44 -17 58 -66q0 -2 0.5 -3t0.5 -3q21 16 47 32.5t52.5 29.5t52.5 21.5t47 8.5q22 0 43 -12q14 -9 22 -21.5t12.5 -25.5t6 -25t2.5 -18q0 -5 0.5 -11t0.5 -12l118 115q9 9 21.5 9t20.5 -9
q9 -9 8.5 -21.5t-8.5 -21.5l-163 -159v-1q-2 -25 -3.5 -50t0.5 -46q2 -25 5.5 -36t7.5 -15q2 -2 5.5 -4t10.5 -2q43 0 103 74q12 15 22 29.5t18 25.5q9 13 15 25q6 11 18 14.5t23 -2.5z" />
    <glyph glyph-name="c_r" unicode="cr" horiz-adv-x="823" 
d="M672 -1q-29 0 -46.5 11.5t-26.5 23.5q-33 46 -15 153q7 52 29 125q-12 -6 -28 -13q-65 -27 -120 -20q-17 -52 -46.5 -99.5t-67.5 -85.5q-45 -45 -96.5 -68.5t-106.5 -23.5q-91 0 -134 52q-13 16 -23 45.5t-1 76.5t31.5 90t55.5 78q31 32 65.5 50.5t64.5 18.5
q26 0 44.5 -16.5t25.5 -45.5q4 -15 3 -32t-6 -33q-12 -39 -42 -53q-11 -5 -23 -1t-17 15t-1 23t15 17q6 3 11 18.5t1 32.5q-2 11 -5.5 13t-5.5 2q-14 0 -37 -11t-50 -39q-27 -29 -45 -64.5t-26 -73.5q-9 -48 12 -73q25 -30 87 -30q85 0 160 73q30 30 54 69.5t47 93.5
q-17 10 -29 21q-33 30 -43 66q-9 34 1 65q8 23 25 38.5t38 17.5q42 3 67 -42q25 -46 17 -109l-3 -17q18 -2 37.5 2.5t42.5 13.5q18 8 34 17t27 17q13 9 25 18q8 7 18.5 7.5t18.5 -5.5t11.5 -15.5t-0.5 -19.5q-29 -84 -42 -140t-15.5 -90.5t1.5 -51t8 -22.5q3 -4 8 -7t16 -3
q18 0 43 19t53 54q12 14 21.5 28.5t17.5 25.5q9 13 16 25q6 11 18 14.5t23 -2.5t14.5 -18t-3.5 -23q0 -1 -4.5 -8.5t-12.5 -20t-19 -28t-24 -31.5q-31 -38 -62 -63q-43 -32 -81 -32zM407 446q-2 0 -5.5 -3.5t-6.5 -11.5q-1 -3 -2 -9.5t0.5 -15.5t7.5 -20t19 -23l5 -3
q2 20 0.5 39.5t-10.5 36.5q-2 2 -3.5 4t-2.5 4z" />
    <glyph glyph-name="c_s" unicode="cs" horiz-adv-x="716" 
d="M487 1q-20 0 -38 5.5t-32 15.5q-34 25 -34 66q0 13 8.5 21.5t21.5 8.5t21.5 -8.5t8.5 -21.5q0 -16 16 -21.5t28 -5.5q44 0 77 33q40 40 40 113q0 35 -22 60t-50 49l-28 24q-29 -67 -66 -131.5t-87 -114.5q-45 -45 -96.5 -68.5t-106.5 -23.5q-91 0 -134 52
q-13 16 -23 45.5t-1 76.5t31.5 90t55.5 78q31 32 65.5 50.5t64.5 18.5q26 0 44.5 -16.5t25.5 -45.5q4 -15 3 -32t-6 -33q-12 -39 -42 -53q-11 -5 -23 -1t-17 15t-1 23t15 17q6 3 11 18.5t1 32.5q-2 11 -5.5 13t-5.5 2q-14 0 -37 -11t-50 -39q-27 -29 -45 -64.5t-26 -73.5
q-9 -48 12 -73q25 -30 87 -30q85 0 160 73q13 13 30 36t34 50.5t33.5 57.5t29 56t20.5 46.5t8 29.5q0 11 7.5 19.5t19.5 10.5q11 1 20.5 -6t11.5 -18q3 -13 17.5 -27t31.5 -29q15 -14 31.5 -29t30 -33.5t22.5 -41t9 -50.5q0 -61 -19 -98.5t-39 -57.5q-24 -23 -55 -36.5
t-64 -13.5z" />
    <glyph glyph-name="c_x" unicode="cx" horiz-adv-x="848" 
d="M889 224q11 -6 14.5 -18t-2.5 -23q0 -1 -4.5 -8.5t-12.5 -20t-19.5 -28.5t-24.5 -32q-78 -96 -150 -96q-37 0 -60 25q-20 21 -25.5 54t-4.5 73l-145 -143q-10 -8 -21 -8q-13 0 -22 9q-8 9 -8 21.5t9 20.5l192 189q2 21 2.5 41t-1.5 37q-2 25 -7 33t-8 10t-7.5 3.5
t-12.5 -0.5q-34 -11 -62.5 -44.5t-55 -74.5t-51 -82t-51.5 -68q-45 -45 -96.5 -68.5t-106.5 -23.5q-91 0 -134 52q-13 16 -23 45.5t-1 76.5t31.5 90t55.5 78q31 32 65.5 50.5t64.5 18.5q26 0 44.5 -16.5t25.5 -45.5q4 -15 3 -32t-6 -33q-12 -39 -42 -53q-11 -5 -23 -1
t-17 15t-1 23t15 17q6 3 11 18.5t1 32.5q-2 11 -5.5 13t-5.5 2q-14 0 -37 -11t-50 -39q-27 -29 -45 -64.5t-26 -73.5q-9 -48 12 -73q25 -30 87 -30q85 0 160 73q29 29 55 72.5t54.5 87t61.5 78.5t76 47q36 10 68 -8q14 -9 22 -21.5t12.5 -25.5t6 -25t2.5 -18q0 -5 0.5 -11
t0.5 -12l118 115q9 9 21.5 9t20.5 -9q9 -9 8.5 -21.5t-8.5 -21.5l-163 -159v-1q-2 -25 -3.5 -50t0.5 -46q2 -25 5.5 -36t7.5 -15q2 -2 5.5 -4t10.5 -2q43 0 103 74q12 15 22 29.5t18 25.5q9 13 15 25q6 11 18 14.5t23 -2.5z" />
    <glyph glyph-name="c_z" unicode="cz" horiz-adv-x="828" 
d="M869 225q11 -6 14.5 -17.5t-2.5 -22.5q-1 -2 -17 -29.5t-44 -61.5q-82 -96 -161 -96q-41 0 -80.5 11t-72.5 22l-9 3q-42 -36 -74 -36h-2q-29 0 -43 14t-16 31q-2 24 19 45q19 16 46 20q11 2 24.5 0.5t29.5 -6.5h1q23 23 47.5 53.5t51.5 63.5q25 31 49.5 61.5t49.5 56.5
q-21 2 -40.5 6t-36.5 8q-27 7 -49.5 10.5t-42.5 -3.5q-56 -18 -78 -67q-22 -48 -41 -99t-48.5 -93.5t-75 -69.5t-120.5 -27q-91 0 -134 52q-13 16 -23 45.5t-1 76.5t31.5 90t55.5 78q31 32 65.5 50.5t64.5 18.5q26 0 44.5 -16.5t25.5 -45.5q4 -15 3 -32t-6 -33
q-12 -39 -42 -53q-11 -5 -23 -1t-17 15t-1 23t15 17q6 3 11 18.5t1 32.5q-2 11 -5.5 13t-5.5 2q-14 0 -37 -11t-50 -39q-27 -29 -45 -64.5t-26 -73.5q-9 -48 12 -73q25 -30 87 -30q65 0 102 24t59 61.5t36 82.5t33 86q17 36 46 61t68 38q32 11 63 6.5t62 -12.5
q19 -5 38 -8.5t37.5 -4t38 4t40.5 15.5q11 6 23 2.5t18 -14.5t2.5 -23t-14.5 -18q-18 -10 -39 -29.5t-43.5 -44t-45 -52.5t-44.5 -55q-23 -29 -44 -54.5t-39 -45.5q28 -9 56.5 -16.5t57.5 -7.5q16 0 32 7t31 18t28 24t24 26q12 15 22 29t17 25t11 18.5l4 7.5q6 11 18 14.5
t23 -2.5z" />
    <glyph glyph-name="d_r" unicode="dr" horiz-adv-x="937" 
d="M786 -1q-29 0 -46.5 11.5t-26.5 23.5q-33 46 -15 153q7 52 29 125q-12 -6 -28 -13q-65 -27 -120 -20q-7 -22 -21 -51.5t-33 -60.5t-42 -61t-48 -54t-52 -38.5t-53 -14.5q-31 0 -48.5 12.5t-26.5 25.5q-8 14 -13 30.5t-6 38.5q-14 -18 -28.5 -33t-29.5 -28
q-35 -29 -69 -39q-18 -6 -35 -6q-9 0 -16.5 1.5t-15.5 3.5q-21 8 -35.5 25t-21.5 41q-12 44 5 107q14 50 41.5 94t65.5 79q36 33 72 48t65 8q4 -1 11.5 -4t15 -10t14 -17.5t8.5 -26.5q14 44 30.5 89t34 88t34 82t30.5 72q5 11 16.5 16t22.5 0q12 -5 16.5 -17t-0.5 -23
q-47 -108 -80 -194t-54 -155q-29 -94 -35 -152q-5 -41 -1 -59.5t9 -25.5q2 -4 7.5 -7.5t16.5 -3.5q25 0 54 26t55.5 63t49 78t34.5 72q-17 10 -29 21q-33 30 -43 66q-9 34 1 65q8 23 25 38.5t38 17.5q42 3 67 -42q25 -46 17 -109l-3 -17q18 -2 37.5 2.5t42.5 13.5
q18 8 34 17t27 17q13 9 25 18q8 7 18.5 7.5t18.5 -5.5t11.5 -15.5t-0.5 -19.5q-29 -84 -42 -140t-15.5 -90.5t1.5 -51t8 -22.5q3 -4 8 -7t16 -3q18 0 43 19t53 54q12 14 21.5 28.5t17.5 25.5q9 13 16 25q6 11 18 14.5t23 -2.5t14.5 -18t-3.5 -23q0 -1 -4.5 -8.5t-12.5 -20
t-19 -28t-24 -31.5q-31 -38 -62 -63q-43 -32 -81 -32zM140 91q22 19 53 58t63 111q0 1 2 3q2 10 4 17q-10 -5 -18 -2q-12 2 -19 12.5t-4 22.5q3 16 2.5 23.5t-1.5 9.5q-2 3 -3 3q-8 2 -30.5 -6.5t-51.5 -35.5q-31 -29 -54.5 -66.5t-34.5 -78.5q-11 -39 -7 -66.5t21 -33.5
q11 -4 31 1.5t47 27.5zM521 446q-2 0 -5.5 -3.5t-6.5 -11.5q-1 -3 -2 -9.5t0.5 -15.5t7.5 -20t19 -23l5 -3q2 20 0.5 39.5t-10.5 36.5q-2 2 -3.5 4t-2.5 4z" />
    <glyph glyph-name="d_s" unicode="ds" horiz-adv-x="830" 
d="M685 360q15 -14 31.5 -29t30 -33.5t22.5 -41t9 -50.5q0 -61 -19 -98.5t-39 -57.5q-24 -23 -55 -36.5t-64 -13.5q-20 0 -38 5.5t-32 15.5q-34 25 -34 66q0 13 8.5 21.5t21.5 8.5t21.5 -8.5t8.5 -21.5q0 -16 16 -21.5t28 -5.5q44 0 77 33q40 40 40 113q0 35 -22 60t-50 49
l-28 24q-13 -24 -30.5 -59t-40 -72.5t-48 -75t-53 -67.5t-57 -48.5t-59.5 -18.5q-31 0 -48.5 12.5t-26.5 25.5q-8 14 -13 30.5t-6 38.5q-14 -18 -28.5 -33t-29.5 -28q-35 -29 -69 -39q-18 -6 -35 -6q-9 0 -16.5 1.5t-15.5 3.5q-21 8 -35.5 25t-21.5 41q-12 44 5 107
q14 50 41.5 94t65.5 79q36 33 72 48t65 8q4 -1 11.5 -4t15 -10t14 -17.5t8.5 -26.5q14 44 30.5 89t34 88t34 82t30.5 72q5 11 16.5 16t22.5 0q12 -5 16.5 -17t-0.5 -23q-47 -108 -80 -194t-54 -155q-29 -94 -35 -152q-5 -41 -1 -59.5t9 -25.5q2 -4 7.5 -7.5t16.5 -3.5
q20 0 46.5 22.5t54 57.5t54 77t47 81.5t33 70t12.5 43.5q0 11 7.5 19.5t19.5 10.5q11 1 20.5 -6t11.5 -18q3 -13 17.5 -27t31.5 -29zM258 262q2 10 4 17q-10 -5 -18 -2q-12 2 -19 12.5t-4 22.5q3 16 2.5 23.5t-1.5 9.5q-2 3 -3 3q-8 2 -30.5 -6.5t-51.5 -35.5
q-31 -29 -54.5 -66.5t-34.5 -78.5q-11 -39 -7 -66.5t21 -33.5q11 -4 31 1.5t47 27.5q22 19 53 58t63 111q0 1 2 3z" />
    <glyph glyph-name="d_x" unicode="dx" horiz-adv-x="962" 
d="M1003 224q11 -6 14.5 -18t-2.5 -23q0 -1 -4.5 -8.5t-12.5 -20t-19.5 -28.5t-24.5 -32q-78 -96 -150 -96q-37 0 -60 25q-20 21 -25.5 54t-4.5 73l-145 -143q-10 -8 -21 -8q-13 0 -22 9q-8 9 -8 21.5t9 20.5l192 189q2 21 2.5 41t-1.5 37q0 6 -1 14t-4 15.5t-8 12.5t-14 5
q-25 0 -50.5 -27t-52.5 -67.5t-56 -88t-61 -88t-67.5 -67.5t-75.5 -27q-31 0 -48.5 12.5t-26.5 25.5q-8 14 -13 30.5t-6 38.5q-14 -18 -28.5 -33t-29.5 -28q-35 -29 -69 -39q-18 -6 -35 -6q-9 0 -16.5 1.5t-15.5 3.5q-21 8 -35.5 25t-21.5 41q-12 44 5 107q14 50 41.5 94
t65.5 79q36 33 72 48t65 8q4 -1 11.5 -4t15 -10t14 -17.5t8.5 -26.5q14 44 30.5 89t34 88t34 82t30.5 72q5 11 16.5 16t22.5 0q12 -5 16.5 -17t-0.5 -23q-47 -108 -80 -194t-54 -155q-29 -94 -35 -152q-5 -41 -1 -59.5t9 -25.5q2 -4 7.5 -7.5t16.5 -3.5q27 0 54.5 27
t56 67.5t58 88t61 88t65 67.5t69.5 27q22 0 43 -12q14 -9 22 -21.5t12.5 -25.5t6 -25t2.5 -18q0 -5 0.5 -11t0.5 -12l118 115q9 9 21.5 9t20.5 -9q9 -9 8.5 -21.5t-8.5 -21.5l-163 -159v-1q-2 -25 -3.5 -50t0.5 -46q2 -25 5.5 -36t7.5 -15q2 -2 5.5 -4t10.5 -2q43 0 103 74
q12 15 22 29.5t18 25.5q9 13 15 25q6 11 18 14.5t23 -2.5zM140 91q22 19 53 58t63 111q0 1 2 3q2 10 4 17q-10 -5 -18 -2q-12 2 -19 12.5t-4 22.5q3 16 2.5 23.5t-1.5 9.5q-2 3 -3 3q-8 2 -30.5 -6.5t-51.5 -35.5q-31 -29 -54.5 -66.5t-34.5 -78.5q-11 -39 -7 -66.5
t21 -33.5q11 -4 31 1.5t47 27.5z" />
    <glyph glyph-name="d_z" unicode="dz" horiz-adv-x="942" 
d="M983 225q11 -6 14.5 -17.5t-2.5 -22.5q-1 -2 -17 -29.5t-44 -61.5q-82 -96 -161 -96q-41 0 -80.5 11t-72.5 22l-9 3q-42 -36 -74 -36h-2q-29 0 -43 14t-16 31q-2 24 19 45q19 16 46 20q11 2 24.5 0.5t29.5 -6.5h1q23 23 47.5 53.5t51.5 63.5q25 31 49.5 61.5t49.5 56.5
q-21 2 -40.5 6t-36.5 8q-27 7 -49.5 10.5t-42.5 -3.5q-56 -18 -78 -67q-9 -20 -19.5 -49.5t-23.5 -62t-29.5 -65t-37.5 -58t-47.5 -41.5t-59.5 -16q-31 0 -48.5 12.5t-26.5 25.5q-8 14 -13 30.5t-6 38.5q-14 -18 -28.5 -33t-29.5 -28q-35 -29 -69 -39q-18 -6 -35 -6
q-9 0 -16.5 1.5t-15.5 3.5q-21 8 -35.5 25t-21.5 41q-12 44 5 107q14 50 41.5 94t65.5 79q36 33 72 48t65 8q4 -1 11.5 -4t15 -10t14 -17.5t8.5 -26.5q14 44 30.5 89t34 88t34 82t30.5 72q5 11 16.5 16t22.5 0q12 -5 16.5 -17t-0.5 -23q-47 -108 -80 -194t-54 -155
q-29 -94 -35 -152q-5 -41 -1 -59.5t9 -25.5q2 -4 7.5 -7.5t16.5 -3.5q21 0 39 14.5t33.5 37.5t28.5 51.5t24 57.5t20 54t17 42q17 36 46 61t68 38q32 11 63 6.5t62 -12.5q19 -5 38 -8.5t37.5 -4t38 4t40.5 15.5q11 6 23 2.5t18 -14.5t2.5 -23t-14.5 -18q-18 -10 -39 -29.5
t-43.5 -44t-45 -52.5t-44.5 -55q-23 -29 -44 -54.5t-39 -45.5q28 -9 56.5 -16.5t57.5 -7.5q16 0 32 7t31 18t28 24t24 26q12 15 22 29t17 25t11 18.5l4 7.5q6 11 18 14.5t23 -2.5zM140 91q22 19 53 58t63 111q0 1 2 3q2 10 4 17q-10 -5 -18 -2q-12 2 -19 12.5t-4 22.5
q3 16 2.5 23.5t-1.5 9.5q-2 3 -3 3q-8 2 -30.5 -6.5t-51.5 -35.5q-31 -29 -54.5 -66.5t-34.5 -78.5q-11 -39 -7 -66.5t21 -33.5q11 -4 31 1.5t47 27.5z" />
    <glyph glyph-name="e_r" unicode="er" horiz-adv-x="824" 
d="M673 -1q-29 0 -46.5 11.5t-26.5 23.5q-33 46 -15 153q7 52 29 125q-12 -6 -28 -13q-65 -27 -120 -20q-17 -52 -46.5 -99.5t-67.5 -85.5q-45 -45 -96.5 -68.5t-106.5 -23.5q-91 0 -134 52q-13 16 -23 45.5t-1 76.5q9 46 31 88.5t56 77.5q29 30 63 49t63 22q27 3 47 -7.5
t30 -33.5q11 -28 2.5 -66.5t-34.5 -77.5q-17 -25 -39.5 -46t-48.5 -36q-49 -30 -110 -35q13 -29 41 -39t57 -10q86 0 159 73q32 32 55 70.5t47 92.5q-17 10 -29 21q-33 30 -43 66q-9 34 1 65q8 23 25 38.5t38 17.5q42 3 67 -42q25 -46 17 -109l-3 -17q18 -2 37.5 2.5
t42.5 13.5q18 8 34 17t27 17q13 9 25 18q8 7 18.5 7.5t18.5 -5.5t11.5 -15.5t-0.5 -19.5q-29 -84 -42 -140t-15.5 -90.5t1.5 -51t8 -22.5q3 -4 8 -7t16 -3q18 0 43 19t53 54q12 14 21.5 28.5t17.5 25.5q9 13 16 25q6 11 18 14.5t23 -2.5t14.5 -18t-3.5 -23q0 -1 -4.5 -8.5
t-12.5 -20t-19 -28t-24 -31.5q-31 -38 -62 -63q-43 -32 -81 -32zM215 354q-3 0 -5 -1q-14 -2 -38.5 -14t-50.5 -39t-44 -60t-26 -69q45 5 83.5 28.5t64.5 62.5q19 28 25 52t1 35q0 5 -10 5zM408 446q-2 0 -5.5 -3.5t-6.5 -11.5q-1 -3 -2 -9.5t0.5 -15.5t7.5 -20t19 -23l5 -3
q2 20 0.5 39.5t-10.5 36.5q-2 2 -3.5 4t-2.5 4z" />
    <glyph glyph-name="e_s" unicode="es" horiz-adv-x="717" 
d="M488 1q-20 0 -38 5.5t-32 15.5q-34 25 -34 66q0 13 8.5 21.5t21.5 8.5t21.5 -8.5t8.5 -21.5q0 -16 16 -21.5t28 -5.5q44 0 77 33q40 40 40 113q0 35 -22 60t-50 49l-28 24q-29 -66 -66 -131t-87 -115q-45 -45 -96.5 -68.5t-106.5 -23.5q-91 0 -134 52q-13 16 -23 45.5
t-1 76.5q9 46 31 88.5t56 77.5q29 30 63 49t63 22q27 3 47 -7.5t30 -33.5q11 -28 2.5 -66.5t-34.5 -77.5q-17 -25 -39.5 -46t-48.5 -36q-49 -30 -110 -35q13 -29 41 -39t57 -10q86 0 159 73q14 14 31 36t34.5 47.5t34 53.5t29 53.5t20 48t7.5 37.5q0 11 7.5 19.5t19.5 10.5
q11 1 20.5 -6t11.5 -18q3 -13 17.5 -27t31.5 -29q15 -14 31.5 -29t30 -33.5t22.5 -41t9 -50.5q0 -61 -19 -98.5t-39 -57.5q-24 -23 -55 -36.5t-64 -13.5zM215 354q-3 0 -5 -1q-14 -2 -38.5 -14t-50.5 -39t-44 -60t-26 -69q45 5 83.5 28.5t64.5 62.5q19 28 25 52t1 35
q0 5 -10 5z" />
    <glyph glyph-name="e_x" unicode="ex" horiz-adv-x="849" 
d="M890 224q11 -6 14.5 -18t-2.5 -23q0 -1 -4.5 -8.5t-12.5 -20t-19.5 -28.5t-24.5 -32q-78 -96 -150 -96q-37 0 -60 25q-20 21 -25.5 54t-4.5 73l-145 -143q-10 -8 -21 -8q-13 0 -22 9q-8 9 -8 21.5t9 20.5l192 189q2 21 2.5 41t-1.5 37q-1 6 -2 14t-3.5 15t-7.5 12t-14 6
q-18 0 -37.5 -15.5t-39.5 -40t-40 -55t-39.5 -60.5t-37.5 -56.5t-34 -42.5q-40 -42 -94 -67t-109 -25q-91 0 -134 52q-13 16 -23 45.5t-1 76.5q9 46 31 88.5t56 77.5q29 30 63 49t63 22q27 3 47 -7.5t30 -33.5q11 -28 2.5 -66.5t-34.5 -77.5q-17 -25 -39.5 -46t-48.5 -36
q-49 -30 -110 -35q13 -29 41 -39t57 -10q86 0 159 73q18 18 37 46.5t39 60.5t42 64.5t46 58.5t51 42.5t58 16.5q22 0 43 -12q14 -9 22 -21.5t12.5 -25.5t6 -25t2.5 -18q0 -5 0.5 -11t0.5 -12l118 115q9 9 21.5 9t20.5 -9q9 -9 8.5 -21.5t-8.5 -21.5l-163 -159v-1
q-2 -25 -3.5 -50t0.5 -46q2 -25 5.5 -36t7.5 -15q2 -2 5.5 -4t10.5 -2q43 0 103 74q12 15 22 29.5t18 25.5q9 13 15 25q6 11 18 14.5t23 -2.5zM215 354q-3 0 -5 -1q-14 -2 -38.5 -14t-50.5 -39t-44 -60t-26 -69q45 5 83.5 28.5t64.5 62.5q19 28 25 52t1 35q0 5 -10 5z" />
    <glyph glyph-name="e_z" unicode="ez" horiz-adv-x="829" 
d="M870 225q11 -6 14.5 -17.5t-2.5 -22.5q-1 -2 -17 -29.5t-44 -61.5q-82 -96 -161 -96q-41 0 -80.5 11t-72.5 22l-9 3q-42 -36 -74 -36h-2q-29 0 -43 14t-16 31q-2 24 19 45q19 16 46 20q11 2 24.5 0.5t29.5 -6.5h1q23 23 47.5 53.5t51.5 63.5q25 31 49.5 61.5t49.5 56.5
q-21 2 -40.5 6t-36.5 8q-27 7 -49.5 10.5t-42.5 -3.5q-56 -18 -78 -67q-22 -48 -41 -99t-48.5 -93.5t-75 -69.5t-120.5 -27q-91 0 -134 52q-13 16 -23 45.5t-1 76.5q9 46 31 88.5t56 77.5q29 30 63 49t63 22q27 3 47 -7.5t30 -33.5q11 -28 2.5 -66.5t-34.5 -77.5
q-17 -25 -39.5 -46t-48.5 -36q-49 -30 -110 -35q13 -29 41 -39t57 -10q65 0 102 24.5t59 62t36 82t33 85.5q17 36 46 61t68 38q32 11 63 6.5t62 -12.5q19 -5 38 -8.5t37.5 -4t38 4t40.5 15.5q11 6 23 2.5t18 -14.5t2.5 -23t-14.5 -18q-18 -10 -39 -29.5t-43.5 -44t-45 -52.5
t-44.5 -55q-23 -29 -44 -54.5t-39 -45.5q28 -9 56.5 -16.5t57.5 -7.5q16 0 32 7t31 18t28 24t24 26q12 15 22 29t17 25t11 18.5l4 7.5q6 11 18 14.5t23 -2.5zM215 354q-3 0 -5 -1q-14 -2 -38.5 -14t-50.5 -39t-44 -60t-26 -69q45 5 83.5 28.5t64.5 62.5q19 28 25 52t1 35
q0 5 -10 5z" />
    <glyph glyph-name="f_r" unicode="fr" horiz-adv-x="911" 
d="M397 225q12 0 21 -8.5t9 -21.5q0 -12 -9 -21t-21 -9h-248q-19 -78 -36.5 -148.5t-36.5 -127.5q-21 -60 -42 -94q-29 -47 -67 -47q-12 0 -21 9t-9 21q0 13 8.5 21.5t21.5 8.5q1 0 5 3.5t11 15t17 33.5t22 59q17 51 32.5 114t32.5 132h-63q-12 0 -21 9t-9 21q0 13 9 21.5
t21 8.5h78q19 80 39 156t43 139q14 41 28.5 70.5t29.5 51.5q41 56 88 56q32 0 51 -25q35 -44 22 -165q-4 -43 -10 -74.5t-6 -33.5q-3 -12 -13.5 -18.5t-22.5 -4.5q-12 3 -19 13.5t-4 22.5q0 1 6 31t10 70q3 34 2.5 56.5t-2.5 36.5t-5 20.5t-5 8.5q-1 2 -4 2q-17 0 -39 -31
q-24 -34 -50 -107q-21 -58 -40 -129t-37 -146h233zM760 -1q-29 0 -46.5 11.5t-26.5 23.5q-33 46 -15 153q7 52 29 125q-12 -6 -28 -13q-65 -27 -120 -20l-92 -258q-5 -14 -16.5 -17.5t-21.5 1t-16 14.5t0 24q1 3 7 19.5t14.5 40t18.5 52t19.5 56t17.5 50.5t13 37
q-17 10 -29 21q-33 30 -43 66q-9 34 1 65q8 23 25 38.5t38 17.5q42 3 67 -42q25 -46 17 -109l-3 -17q18 -2 37.5 2.5t42.5 13.5q18 8 34 17t27 17q13 9 25 18q8 7 18.5 7.5t18.5 -5.5t11.5 -15.5t-0.5 -19.5q-29 -84 -42 -140t-15.5 -90.5t1.5 -51t8 -22.5q3 -4 8 -7t16 -3
q18 0 43 19t53 54q12 14 21.5 28.5t17.5 25.5q9 13 16 25q6 11 18 14.5t23 -2.5t14.5 -18t-3.5 -23q0 -1 -4.5 -8.5t-12.5 -20t-19 -28t-24 -31.5q-31 -38 -62 -63q-43 -32 -81 -32zM495 446q-2 0 -5.5 -3.5t-6.5 -11.5q-1 -3 -2 -9.5t0.5 -15.5t7.5 -20t19 -23l5 -3
q2 20 0.5 39.5t-10.5 36.5q-2 2 -3.5 4t-2.5 4z" />
    <glyph glyph-name="f_s" unicode="fs" horiz-adv-x="859" 
d="M397 225q12 0 21 -8.5t9 -21.5q0 -12 -9 -21t-21 -9h-248q-19 -78 -36.5 -148.5t-36.5 -127.5q-21 -60 -42 -94q-29 -47 -67 -47q-12 0 -21 9t-9 21q0 13 8.5 21.5t21.5 8.5q1 0 5 3.5t11 15t17 33.5t22 59q17 51 32.5 114t32.5 132h-63q-12 0 -21 9t-9 21q0 13 9 21.5
t21 8.5h78q19 80 39 156t43 139q14 41 28.5 70.5t29.5 51.5q41 56 88 56q32 0 51 -25q35 -44 22 -165q-4 -43 -10 -74.5t-6 -33.5q-3 -12 -13.5 -18.5t-22.5 -4.5q-12 3 -19 13.5t-4 22.5q0 1 6 31t10 70q3 34 2.5 56.5t-2.5 36.5t-5 20.5t-5 8.5q-1 2 -4 2q-17 0 -39 -31
q-24 -34 -50 -107q-21 -58 -40 -129t-37 -146h233zM608 1q-20 0 -38 5.5t-32 15.5q-34 25 -34 66q0 13 8.5 21.5t21.5 8.5t21.5 -8.5t8.5 -21.5q0 -16 16 -21.5t28 -5.5q44 0 77 33q40 40 40 113q0 35 -22 60t-50 49l-28 24q-5 -12 -19.5 -38t-33.5 -59.5t-41 -70t-42 -68
t-36 -55.5t-23 -31q-7 -11 -19 -13t-22 5q-11 7 -13.5 19t4.5 22q8 11 26 38.5t40.5 63t47 75.5t44.5 76t33 65t13 42q0 11 7.5 19.5t19.5 10.5q11 1 20.5 -6t11.5 -18q3 -13 17.5 -27t31.5 -29q15 -14 31.5 -29t30 -33.5t22.5 -41t9 -50.5q0 -61 -19 -98.5t-39 -57.5
q-24 -23 -55 -36.5t-64 -13.5z" />
    <glyph glyph-name="h_r" unicode="hr" horiz-adv-x="886" 
d="M735 -1q-29 0 -46.5 11.5t-26.5 23.5q-33 46 -15 153q7 52 29 125q-12 -6 -28 -13q-65 -27 -120 -20q-22 -51 -48 -97t-59 -88q-32 -39 -62 -62q-42 -33 -81 -33q-43 0 -64 27q-12 15 -15 34.5t-1 43t7.5 50.5t12.5 56l11 41q5 22 9.5 40t6.5 33q2 11 2.5 17.5t0.5 9.5
q-4 -1 -14.5 -7t-28 -23.5t-43 -49t-59.5 -83.5q-22 -32 -41 -63t-33.5 -55.5t-22.5 -40l-8 -15.5q-10 -16 -27 -16q-7 0 -11 3q-11 5 -16 15t-1 21q0 1 10 32t27 82.5t39.5 118t48 137.5t52.5 141.5t54 131.5q5 11 16.5 16t22.5 0q12 -5 16.5 -17t-0.5 -23
q-19 -44 -38.5 -93t-39 -100.5t-38 -103t-34.5 -99.5q37 52 69 87q59 65 103 65q18 0 28.5 -6.5t15.5 -13.5q17 -23 11.5 -60t-19.5 -96q-3 -10 -5.5 -19.5t-4.5 -20.5q-15 -57 -19 -92q-2 -20 0.5 -32.5t19.5 -12.5t42 18.5t54 53.5q26 33 50.5 74.5t47.5 92.5
q-17 10 -29 21q-33 30 -43 66q-9 34 1 65q8 23 25 38.5t38 17.5q42 3 67 -42q25 -46 17 -109l-3 -17q18 -2 37.5 2.5t42.5 13.5q18 8 34 17t27 17q13 9 25 18q8 7 18.5 7.5t18.5 -5.5t11.5 -15.5t-0.5 -19.5q-29 -84 -42 -140t-15.5 -90.5t1.5 -51t8 -22.5q3 -4 8 -7t16 -3
q18 0 43 19t53 54q12 14 21.5 28.5t17.5 25.5q9 13 16 25q6 11 18 14.5t23 -2.5t14.5 -18t-3.5 -23q0 -1 -4.5 -8.5t-12.5 -20t-19 -28t-24 -31.5q-31 -38 -62 -63q-43 -32 -81 -32zM470 446q-2 0 -5.5 -3.5t-6.5 -11.5q-1 -3 -2 -9.5t0.5 -15.5t7.5 -20t19 -23l5 -3
q2 20 0.5 39.5t-10.5 36.5q-2 2 -3.5 4t-2.5 4z" />
    <glyph glyph-name="h_s" unicode="hs" horiz-adv-x="779" 
d="M-29 -2q-7 0 -11 3q-11 5 -16 15t-1 21q0 1 10 32t27 82.5t39.5 118t48 137.5t52.5 141.5t54 131.5q5 11 16.5 16t22.5 0q12 -5 16.5 -17t-0.5 -23q-19 -44 -38.5 -93t-39 -100.5t-38 -103t-34.5 -99.5q37 52 69 87q59 65 103 65q18 0 28.5 -6.5t15.5 -13.5
q17 -23 11.5 -60t-19.5 -96q-3 -10 -5.5 -19.5t-4.5 -20.5q-15 -57 -19 -92q-2 -22 -0.5 -30.5t3.5 -10.5t7.5 -3t9.5 -1q19 0 44.5 20t53 52t54.5 72t48.5 79t34.5 73.5t13 55.5q0 11 7.5 19.5t19.5 10.5q11 1 20.5 -6t11.5 -18q3 -13 17.5 -27t31.5 -29q15 -14 31.5 -29
t30 -33.5t22.5 -41t9 -50.5q0 -61 -19 -98.5t-39 -57.5q-24 -23 -55 -36.5t-64 -13.5q-20 0 -38 5.5t-32 15.5q-34 25 -34 66q0 13 8.5 21.5t21.5 8.5t21.5 -8.5t8.5 -21.5q0 -16 16 -21.5t28 -5.5q44 0 77 33q40 40 40 113q0 35 -22 60t-50 49l-28 24q-18 -41 -40 -84.5
t-47.5 -84.5t-55.5 -77t-65 -62q-42 -33 -81 -33q-43 0 -64 27q-12 15 -15 34.5t-1 43t7.5 50.5t12.5 56l11 41q5 22 9.5 40t6.5 33q2 11 2.5 17.5t0.5 9.5q-4 -1 -14.5 -7t-28 -23.5t-43 -49t-59.5 -83.5q-22 -32 -41 -63t-33.5 -55.5t-22.5 -40l-8 -15.5q-10 -16 -27 -16z
" />
    <glyph glyph-name="h_x" unicode="hx" horiz-adv-x="911" 
d="M952 224q11 -6 14.5 -18t-2.5 -23q0 -1 -4.5 -8.5t-12.5 -20t-19.5 -28.5t-24.5 -32q-78 -96 -150 -96q-37 0 -60 25q-20 21 -25.5 54t-4.5 73l-145 -143q-10 -8 -21 -8q-13 0 -22 9q-8 9 -8 21.5t9 20.5l192 189q2 21 2.5 41t-1.5 37q-2 25 -7 33t-8 10t-7.5 3.5
t-12.5 -0.5q-6 -2 -15 -6.5t-21 -15t-27.5 -27.5t-34.5 -44q-13 -19 -29 -46t-35 -57.5t-41 -60.5t-46 -53.5t-51 -38.5t-56 -15q-43 0 -64 27q-12 15 -15 34.5t-1 43t7.5 50.5t12.5 56l11 41q5 22 9.5 40t6.5 33q2 11 2.5 17.5t0.5 9.5q-4 -1 -14.5 -7t-28 -23.5t-43 -49
t-59.5 -83.5q-22 -32 -41 -63t-33.5 -55.5t-22.5 -40l-8 -15.5q-10 -16 -27 -16q-7 0 -11 3q-11 5 -16 15t-1 21q0 1 10 32t27 82.5t39.5 118t48 137.5t52.5 141.5t54 131.5q5 11 16.5 16t22.5 0q12 -5 16.5 -17t-0.5 -23q-19 -44 -38.5 -93t-39 -100.5t-38 -103
t-34.5 -99.5q37 52 69 87q59 65 103 65q18 0 28.5 -6.5t15.5 -13.5q17 -23 11.5 -60t-19.5 -96q-3 -10 -5.5 -19.5t-4.5 -20.5q-15 -57 -19 -92q-2 -22 -0.5 -30.5t3.5 -10.5t7.5 -3t9.5 -1q18 0 37.5 14t39 36t38.5 49.5t36.5 55t32 51.5t25.5 39q71 99 131 116
q36 10 68 -8q14 -9 22 -21.5t12.5 -25.5t6 -25t2.5 -18q0 -5 0.5 -11t0.5 -12l118 115q9 9 21.5 9t20.5 -9q9 -9 8.5 -21.5t-8.5 -21.5l-163 -159v-1q-2 -25 -3.5 -50t0.5 -46q2 -25 5.5 -36t7.5 -15q2 -2 5.5 -4t10.5 -2q43 0 103 74q12 15 22 29.5t18 25.5q9 13 15 25
q6 11 18 14.5t23 -2.5z" />
    <glyph glyph-name="h_z" unicode="hz" horiz-adv-x="891" 
d="M932 225q11 -6 14.5 -17.5t-2.5 -22.5q-1 -2 -17 -29.5t-44 -61.5q-82 -96 -161 -96q-41 0 -80.5 11t-72.5 22l-9 3q-42 -36 -74 -36h-2q-29 0 -43 14t-16 31q-2 24 19 45q19 16 46 20q11 2 24.5 0.5t29.5 -6.5h1q23 23 47.5 53.5t51.5 63.5q25 31 49.5 61.5t49.5 56.5
q-21 2 -40.5 6t-36.5 8q-27 7 -49.5 10.5t-42.5 -3.5q-56 -18 -78 -67q-10 -22 -21 -52t-24.5 -62.5t-30 -64t-37.5 -57t-47 -41t-58 -15.5q-43 0 -64 27q-12 15 -15 34.5t-1 43t7.5 50.5t12.5 56l11 41q5 22 9.5 40t6.5 33q2 11 2.5 17.5t0.5 9.5q-4 -1 -14.5 -7t-28 -23.5
t-43 -49t-59.5 -83.5q-22 -32 -41 -63t-33.5 -55.5t-22.5 -40l-8 -15.5q-10 -16 -27 -16q-7 0 -11 3q-11 5 -16 15t-1 21q0 1 10 32t27 82.5t39.5 118t48 137.5t52.5 141.5t54 131.5q5 11 16.5 16t22.5 0q12 -5 16.5 -17t-0.5 -23q-19 -44 -38.5 -93t-39 -100.5t-38 -103
t-34.5 -99.5q37 52 69 87q59 65 103 65q18 0 28.5 -6.5t15.5 -13.5q17 -23 11.5 -60t-19.5 -96q-3 -10 -5.5 -19.5t-4.5 -20.5q-15 -57 -19 -92q-1 -7 -1.5 -15t1 -14.5t6 -11t14.5 -4.5q30 0 55 31t45 73.5t36 85.5t27 67q17 36 46 61t68 38q32 11 63 6.5t62 -12.5
q19 -5 38 -8.5t37.5 -4t38 4t40.5 15.5q11 6 23 2.5t18 -14.5t2.5 -23t-14.5 -18q-18 -10 -39 -29.5t-43.5 -44t-45 -52.5t-44.5 -55q-23 -29 -44 -54.5t-39 -45.5q28 -9 56.5 -16.5t57.5 -7.5q16 0 32 7t31 18t28 24t24 26q12 15 22 29t17 25t11 18.5l4 7.5q6 11 18 14.5
t23 -2.5z" />
    <glyph glyph-name="i_r" unicode="ir" horiz-adv-x="693" 
d="M542 -1q-29 0 -46.5 11.5t-26.5 23.5q-33 46 -15 153q7 52 29 125q-12 -6 -28 -13q-65 -27 -120 -20q-7 -22 -21 -51.5t-33 -61t-42 -61.5t-48.5 -53.5t-52.5 -38t-53 -14.5q-29 0 -46.5 11.5t-25.5 23.5q-34 47 -16 153q12 81 56 206q4 12 15 17.5t23 1.5
q12 -5 17.5 -16t0.5 -23q-29 -84 -42 -140t-15.5 -90.5t1.5 -51t8 -22.5q3 -4 8 -7t16 -3q27 0 56 26t55.5 63t48.5 78.5t34 71.5q-17 10 -29 21q-33 30 -43 66q-9 34 1 65q8 23 25 38.5t38 17.5q42 3 67 -42q25 -46 17 -109l-3 -17q18 -2 37.5 2.5t42.5 13.5q18 8 34 17
t27 17q13 9 25 18q8 7 18.5 7.5t18.5 -5.5t11.5 -15.5t-0.5 -19.5q-29 -84 -42 -140t-15.5 -90.5t1.5 -51t8 -22.5q3 -4 8 -7t16 -3q18 0 43 19t53 54q12 14 21.5 28.5t17.5 25.5q9 13 16 25q6 11 18 14.5t23 -2.5t14.5 -18t-3.5 -23q0 -1 -4.5 -8.5t-12.5 -20t-19 -28
t-24 -31.5q-31 -38 -62 -63q-43 -32 -81 -32zM140 506q-4 -13 -15.5 -22t-24.5 -10q-12 -1 -18.5 7.5t-2.5 21.5q4 12 15.5 21.5t24.5 9.5q13 1 19 -7t2 -21zM277 446q-2 0 -5.5 -3.5t-6.5 -11.5q-1 -3 -2 -9.5t0.5 -15.5t7.5 -20t19 -23l5 -3q2 20 0.5 39.5t-10.5 36.5
q-2 2 -3.5 4t-2.5 4z" />
    <glyph glyph-name="i_s" unicode="is" horiz-adv-x="586" 
d="M357 1q-20 0 -38 5.5t-32 15.5q-34 25 -34 66q0 13 8.5 21.5t21.5 8.5t21.5 -8.5t8.5 -21.5q0 -16 16 -21.5t28 -5.5q44 0 77 33q40 40 40 113q0 35 -22 60t-50 49l-28 24q-12 -23 -29 -57.5t-38 -72.5t-46 -75.5t-53 -67.5t-59 -49t-64 -19q-29 0 -46.5 11.5t-25.5 23.5
q-34 47 -16 153q12 81 56 206q4 12 15 17.5t23 1.5q12 -5 17.5 -16t0.5 -23q-29 -84 -42 -140t-15.5 -90.5t1.5 -51t8 -22.5q3 -4 8 -7t16 -3q23 0 50.5 23t55 58t53 77.5t45.5 81.5t32 69.5t12 42.5q0 11 7.5 19.5t19.5 10.5q11 1 20.5 -6t11.5 -18q3 -13 17.5 -27
t31.5 -29q15 -14 31.5 -29t30 -33.5t22.5 -41t9 -50.5q0 -61 -19 -98.5t-39 -57.5q-24 -23 -55 -36.5t-64 -13.5zM140 506q-4 -13 -15.5 -22t-24.5 -10q-12 -1 -18.5 7.5t-2.5 21.5q4 12 15.5 21.5t24.5 9.5q13 1 19 -7t2 -21z" />
    <glyph glyph-name="i_x" unicode="ix" horiz-adv-x="718" 
d="M759 224q11 -6 14.5 -18t-2.5 -23q0 -1 -4.5 -8.5t-12.5 -20t-19.5 -28.5t-24.5 -32q-78 -96 -150 -96q-37 0 -60 25q-20 21 -25.5 54t-4.5 73l-145 -143q-10 -8 -21 -8q-13 0 -22 9q-8 9 -8 21.5t9 20.5l192 189q2 21 2.5 41t-1.5 37q-2 25 -7 33t-8 10t-7.5 3.5
t-12.5 -0.5q-6 -2 -15 -6.5t-21 -15t-27.5 -27.5t-34.5 -44q-21 -29 -47 -75t-58.5 -89.5t-70.5 -75t-82 -31.5q-29 0 -46.5 11.5t-25.5 23.5q-34 47 -16 153q12 81 56 206q4 12 15 17.5t23 1.5q12 -5 17.5 -16t0.5 -23q-29 -84 -42 -140t-15.5 -90.5t1.5 -51t8 -22.5
q3 -4 8 -7t16 -3q20 0 39.5 13.5t39 35.5t37.5 49t35 54t31.5 51.5t26.5 41.5q71 99 131 116q36 10 68 -8q14 -9 22 -21.5t12.5 -25.5t6 -25t2.5 -18q0 -5 0.5 -11t0.5 -12l118 115q9 9 21.5 9t20.5 -9q9 -9 8.5 -21.5t-8.5 -21.5l-163 -159v-1q-2 -25 -3.5 -50t0.5 -46
q2 -25 5.5 -36t7.5 -15q2 -2 5.5 -4t10.5 -2q43 0 103 74q12 15 22 29.5t18 25.5q9 13 15 25q6 11 18 14.5t23 -2.5zM140 506q-4 -13 -15.5 -22t-24.5 -10q-12 -1 -18.5 7.5t-2.5 21.5q4 12 15.5 21.5t24.5 9.5q13 1 19 -7t2 -21z" />
    <glyph glyph-name="i_z" unicode="iz" horiz-adv-x="698" 
d="M739 225q11 -6 14.5 -17.5t-2.5 -22.5q-1 -2 -17 -29.5t-44 -61.5q-82 -96 -161 -96q-41 0 -80.5 11t-72.5 22l-9 3q-42 -36 -74 -36h-2q-29 0 -43 14t-16 31q-2 24 19 45q19 16 46 20q11 2 24.5 0.5t29.5 -6.5h1q23 23 47.5 53.5t51.5 63.5q25 31 49.5 61.5t49.5 56.5
q-21 2 -40.5 6t-36.5 8q-27 7 -49.5 10.5t-42.5 -3.5q-56 -18 -78 -67q-10 -21 -21 -51t-25 -62.5t-31 -64.5t-38 -57.5t-46.5 -41t-56.5 -15.5q-29 0 -46.5 11.5t-25.5 23.5q-34 47 -16 153q12 81 56 206q4 12 15 17.5t23 1.5q12 -5 17.5 -16t0.5 -23q-29 -84 -42 -140
t-15.5 -90.5t1.5 -51t8 -22.5q3 -4 8 -7t16 -3q17 0 34 14.5t32.5 37.5t29.5 52t26.5 57.5t22.5 54t18 41.5q17 36 46 61t68 38q32 11 63 6.5t62 -12.5q19 -5 38 -8.5t37.5 -4t38 4t40.5 15.5q11 6 23 2.5t18 -14.5t2.5 -23t-14.5 -18q-18 -10 -39 -29.5t-43.5 -44
t-45 -52.5t-44.5 -55q-23 -29 -44 -54.5t-39 -45.5q28 -9 56.5 -16.5t57.5 -7.5q16 0 32 7t31 18t28 24t24 26q12 15 22 29t17 25t11 18.5l4 7.5q6 11 18 14.5t23 -2.5zM140 506q-4 -13 -15.5 -22t-24.5 -10q-12 -1 -18.5 7.5t-2.5 21.5q4 12 15.5 21.5t24.5 9.5q13 1 19 -7
t2 -21z" />
    <glyph glyph-name="k_r" unicode="kr" horiz-adv-x="899" 
d="M749 -1q-29 0 -46.5 11.5t-26.5 23.5q-33 46 -15 153q7 52 29 125q-12 -6 -28 -13q-65 -27 -120 -20q-7 -21 -23.5 -50t-40 -60t-52.5 -61.5t-59.5 -54.5t-61.5 -39t-59 -15q-30 0 -45 18q-14 14 -14.5 33t1.5 39q2 17 1.5 33t-8.5 25q-5 5 -13.5 9.5t-25.5 6.5
q-25 -2 -43 1q-12 2 -20 11t-7 22q1 12 10 20.5t21 8.5q11 0 21 -0.5t19 -1.5q29 3 60 14q29 10 51.5 23.5t35.5 27.5t13.5 23.5t-1.5 13.5q-2 8 -7 14.5t-21 9.5q-22 4 -50.5 -2.5t-56.5 -19t-50.5 -28t-32.5 -28.5l-6 -7l-70 -245q-2 -10 -10 -16t-19 -6q-2 0 -4 0.5
t-4 0.5q-12 4 -18 14.5t-2 22.5l180 640q4 12 14.5 18.5t22.5 2.5q12 -3 18.5 -14t2.5 -23l-83 -295q18 10 38 19q12 5 28 11t35 10.5t39 6t40 -2.5q60 -12 75 -68q4 -17 0.5 -41t-26.5 -51q-19 -21 -47 -38t-59 -28q19 -23 19.5 -50.5t-1.5 -49.5q0 -5 -0.5 -12t-0.5 -12
q30 0 66 27t70.5 65t62.5 78.5t41 68.5q-17 10 -29 21q-33 30 -43 66q-9 34 1 65q8 23 25 38.5t38 17.5q42 3 67 -42q25 -46 17 -109l-3 -17q18 -2 37.5 2.5t42.5 13.5q18 8 34 17t27 17q13 9 25 18q8 7 18.5 7.5t18.5 -5.5t11.5 -15.5t-0.5 -19.5q-29 -84 -42 -140
t-15.5 -90.5t1.5 -51t8 -22.5q3 -4 8 -7t16 -3q18 0 43 19t53 54q12 14 21.5 28.5t17.5 25.5q9 13 16 25q6 11 18 14.5t23 -2.5t14.5 -18t-3.5 -23q0 -1 -4.5 -8.5t-12.5 -20t-19 -28t-24 -31.5q-31 -38 -62 -63q-43 -32 -81 -32zM484 446q-2 0 -5.5 -3.5t-6.5 -11.5
q-1 -3 -2 -9.5t0.5 -15.5t7.5 -20t19 -23l5 -3q2 20 0.5 39.5t-10.5 36.5q-2 2 -3.5 4t-2.5 4z" />
    <glyph glyph-name="k_s" unicode="ks" horiz-adv-x="753" 
d="M524 1q-20 0 -38 5.5t-32 15.5q-34 25 -34 66q0 13 8.5 21.5t21.5 8.5t21.5 -8.5t8.5 -21.5q0 -16 16 -21.5t28 -5.5q44 0 77 33q40 40 40 113q0 35 -22 60t-50 49l-28 24q-8 -17 -19 -40t-28 -53q-16 -28 -41.5 -70t-57.5 -81.5t-70 -68t-79 -28.5q-30 0 -45 18
q-14 14 -14.5 33t1.5 39q2 17 1.5 33t-8.5 25q-5 5 -13.5 9.5t-25.5 6.5q-25 -2 -43 1q-12 2 -20 11t-7 22q1 12 10 20.5t21 8.5q11 0 21 -0.5t19 -1.5q29 3 60 14q29 10 51.5 23.5t35.5 27.5t13.5 23.5t-1.5 13.5q-2 8 -7 14.5t-21 9.5q-22 4 -50.5 -2.5t-56.5 -19
t-50.5 -28t-32.5 -28.5l-6 -7l-70 -245q-2 -10 -10 -16t-19 -6q-2 0 -4 0.5t-4 0.5q-12 4 -18 14.5t-2 22.5l180 640q4 12 14.5 18.5t22.5 2.5q12 -3 18.5 -14t2.5 -23l-83 -295q18 10 38 19q12 5 28 11t35 10.5t39 6t40 -2.5q60 -12 75 -68q4 -17 0.5 -41t-26.5 -51
q-19 -21 -47 -38t-59 -28q19 -23 19.5 -50.5t-1.5 -49.5q0 -5 -0.5 -12t-0.5 -12q19 0 38.5 12t38.5 31.5t37 44t33.5 48.5t28 46t20.5 36q20 35 31.5 59.5t17.5 40t7.5 23.5t1.5 11q0 11 7.5 19.5t19.5 10.5q11 1 20.5 -6t11.5 -18q3 -13 17.5 -27t31.5 -29
q15 -14 31.5 -29t30 -33.5t22.5 -41t9 -50.5q0 -61 -19 -98.5t-39 -57.5q-24 -23 -55 -36.5t-64 -13.5z" />
    <glyph glyph-name="k_x" unicode="kx" horiz-adv-x="885" 
d="M926 224q11 -6 14.5 -18t-2.5 -23q0 -1 -4.5 -8.5t-12.5 -20t-19.5 -28.5t-24.5 -32q-78 -96 -150 -96q-37 0 -60 25q-20 21 -25.5 54t-4.5 73l-145 -143q-10 -8 -21 -8q-13 0 -22 9q-8 9 -8 21.5t9 20.5l192 189q2 21 2.5 41t-1.5 37q-2 25 -7 33t-8 10t-7.5 3.5
t-12.5 -0.5q-6 -2 -15 -6.5t-21 -15t-27.5 -27.5t-34.5 -44q-13 -19 -29.5 -46t-35.5 -57.5t-41.5 -60.5t-47.5 -53.5t-52.5 -38.5t-57.5 -15t-45 18q-14 14 -14.5 33t1.5 39q2 17 1.5 33t-8.5 25q-5 5 -13.5 9.5t-25.5 6.5q-25 -2 -43 1q-12 2 -20 11t-7 22q1 12 10 20.5
t21 8.5q11 0 21 -0.5t19 -1.5q29 3 60 14q29 10 51.5 23.5t35.5 27.5t13.5 23.5t-1.5 13.5q-2 8 -7 14.5t-21 9.5q-22 4 -50.5 -2.5t-56.5 -19t-50.5 -28t-32.5 -28.5l-6 -7l-70 -245q-2 -10 -10 -16t-19 -6q-2 0 -4 0.5t-4 0.5q-12 4 -18 14.5t-2 22.5l180 640
q4 12 14.5 18.5t22.5 2.5q12 -3 18.5 -14t2.5 -23l-83 -295q18 10 38 19q12 5 28 11t35 10.5t39 6t40 -2.5q60 -12 75 -68q4 -17 0.5 -41t-26.5 -51q-19 -21 -47 -38t-59 -28q19 -23 19.5 -50.5t-1.5 -49.5q0 -5 -0.5 -12t-0.5 -12q36 5 66 32.5t56.5 65t49 77.5t43.5 70
q71 99 131 116q36 10 68 -8q14 -9 22 -21.5t12.5 -25.5t6 -25t2.5 -18q0 -5 0.5 -11t0.5 -12l118 115q9 9 21.5 9t20.5 -9q9 -9 8.5 -21.5t-8.5 -21.5l-163 -159v-1q-2 -25 -3.5 -50t0.5 -46q2 -25 5.5 -36t7.5 -15q2 -2 5.5 -4t10.5 -2q43 0 103 74q12 15 22 29.5t18 25.5
q9 13 15 25q6 11 18 14.5t23 -2.5z" />
    <glyph glyph-name="k_z" unicode="kz" horiz-adv-x="905" 
d="M946 225q11 -6 14.5 -17.5t-2.5 -22.5q-1 -2 -17 -29.5t-44 -61.5q-82 -96 -161 -96q-41 0 -80.5 11t-72.5 22l-9 3q-42 -36 -74 -36h-2q-29 0 -43 14t-16 31q-2 24 19 45q19 16 46 20q11 2 24.5 0.5t29.5 -6.5h1q23 23 47.5 53.5t51.5 63.5q25 31 49.5 61.5t49.5 56.5
q-21 2 -40.5 6t-36.5 8q-27 7 -49.5 10.5t-42.5 -3.5q-56 -18 -78 -67q-17 -36 -41.5 -86t-57.5 -96t-74.5 -78t-90.5 -32q-30 0 -45 18q-14 14 -14.5 33t1.5 39q2 17 1.5 33t-8.5 25q-5 5 -13.5 9.5t-25.5 6.5q-25 -2 -43 1q-12 2 -20 11t-7 22q1 12 10 20.5t21 8.5
q11 0 21 -0.5t19 -1.5q29 3 60 14q29 10 51.5 23.5t35.5 27.5t13.5 23.5t-1.5 13.5q-2 8 -7 14.5t-21 9.5q-22 4 -50.5 -2.5t-56.5 -19t-50.5 -28t-32.5 -28.5l-6 -7l-70 -245q-2 -10 -10 -16t-19 -6q-2 0 -4 0.5t-4 0.5q-12 4 -18 14.5t-2 22.5l180 640q4 12 14.5 18.5
t22.5 2.5q12 -3 18.5 -14t2.5 -23l-83 -295q18 10 38 19q12 5 28 11t35 10.5t39 6t40 -2.5q60 -12 75 -68q4 -17 0.5 -41t-26.5 -51q-19 -21 -47 -38t-59 -28q19 -23 19.5 -50.5t-1.5 -49.5q0 -5 -0.5 -12t-0.5 -12q35 0 67 29t59 70t48 85t35 73q17 36 46 61t68 38
q32 11 63 6.5t62 -12.5q19 -5 38 -8.5t37.5 -4t38 4t40.5 15.5q11 6 23 2.5t18 -14.5t2.5 -23t-14.5 -18q-18 -10 -39 -29.5t-43.5 -44t-45 -52.5t-44.5 -55q-23 -29 -44 -54.5t-39 -45.5q28 -9 56.5 -16.5t57.5 -7.5q16 0 32 7t31 18t28 24t24 26q12 15 22 29t17 25
t11 18.5l4 7.5q6 11 18 14.5t23 -2.5z" />
    <glyph glyph-name="l_r" unicode="lr" horiz-adv-x="692" 
d="M541 -1q-29 0 -46.5 11.5t-26.5 23.5q-33 46 -15 153q7 52 29 125q-12 -6 -28 -13q-65 -27 -120 -20q-7 -22 -20.5 -51.5t-32 -60.5t-41 -61t-48 -54t-53 -38.5t-54.5 -14.5q-31 0 -48.5 12.5t-25.5 25.5q-24 37 -19.5 106.5t38.5 181.5q15 47 32.5 95.5t35.5 94.5t36 88
l33 77q5 11 16.5 16t23.5 0q11 -5 15.5 -17t-0.5 -23q-93 -214 -134 -348q-29 -93 -35 -153q-5 -41 -1 -59.5t9 -25.5q2 -4 7.5 -7.5t16.5 -3.5q26 0 54.5 25.5t55 62.5t48.5 78.5t35 72.5q-17 10 -29 21q-33 30 -43 66q-9 34 1 65q8 23 25 38.5t38 17.5q42 3 67 -42
q25 -46 17 -109l-3 -17q18 -2 37.5 2.5t42.5 13.5q18 8 34 17t27 17q13 9 25 18q8 7 18.5 7.5t18.5 -5.5t11.5 -15.5t-0.5 -19.5q-29 -84 -42 -140t-15.5 -90.5t1.5 -51t8 -22.5q3 -4 8 -7t16 -3q18 0 43 19t53 54q12 14 21.5 28.5t17.5 25.5q9 13 16 25q6 11 18 14.5
t23 -2.5t14.5 -18t-3.5 -23q0 -1 -4.5 -8.5t-12.5 -20t-19 -28t-24 -31.5q-31 -38 -62 -63q-43 -32 -81 -32zM276 446q-2 0 -5.5 -3.5t-6.5 -11.5q-1 -3 -2 -9.5t0.5 -15.5t7.5 -20t19 -23l5 -3q2 20 0.5 39.5t-10.5 36.5q-2 2 -3.5 4t-2.5 4z" />
    <glyph glyph-name="l_s" unicode="ls" horiz-adv-x="585" 
d="M440 361q15 -14 31.5 -29t30 -33.5t22.5 -41t9 -50.5q0 -61 -19 -98.5t-39 -57.5q-24 -23 -55 -36.5t-64 -13.5q-20 0 -38 5.5t-32 15.5q-34 25 -34 66q0 13 8.5 21.5t21.5 8.5t21.5 -8.5t8.5 -21.5q0 -16 16 -21.5t28 -5.5q44 0 77 33q40 40 40 113q0 35 -22 60t-50 49
l-28 24q-8 -17 -19 -40t-28 -53q-17 -29 -41 -71t-55 -81.5t-67.5 -67.5t-77.5 -28q-31 0 -48.5 12.5t-25.5 25.5q-24 37 -19.5 106.5t38.5 181.5q15 47 32.5 95.5t35.5 94.5t36 88l33 77q5 11 16.5 16t23.5 0q11 -5 15.5 -17t-0.5 -23q-93 -214 -134 -348q-29 -93 -35 -153
q-5 -41 -1 -59.5t9 -25.5q2 -4 7.5 -7.5t16.5 -3.5q27 0 55 25.5t53.5 60.5t46.5 72t34 60q20 35 31.5 59.5t17.5 40t7.5 23.5t1.5 11q0 11 7.5 19.5t19.5 10.5q11 1 20.5 -6t11.5 -18q3 -13 17.5 -27t31.5 -29z" />
    <glyph glyph-name="l_x" unicode="lx" horiz-adv-x="717" 
d="M758 224q11 -6 14.5 -18t-2.5 -23q0 -1 -4.5 -8.5t-12.5 -20t-19.5 -28.5t-24.5 -32q-78 -96 -150 -96q-37 0 -60 25q-20 21 -25.5 54t-4.5 73l-145 -143q-10 -8 -21 -8q-13 0 -22 9q-8 9 -8 21.5t9 20.5l192 189q2 21 2.5 41t-1.5 37q-2 25 -7 33t-8 10t-7.5 3.5
t-12.5 -0.5q-6 -2 -15 -6.5t-21 -15t-27.5 -27.5t-34.5 -44q-14 -19 -30 -46t-35 -57.5t-40.5 -60.5t-45.5 -53.5t-50.5 -38.5t-55.5 -15q-31 0 -48.5 12.5t-25.5 25.5q-24 37 -19.5 106.5t38.5 181.5q15 47 32.5 95.5t35.5 94.5t36 88l33 77q5 11 16.5 16t23.5 0
q11 -5 15.5 -17t-0.5 -23q-93 -214 -134 -348q-29 -93 -35 -153q-5 -41 -1 -59.5t9 -25.5q2 -4 7.5 -7.5t16.5 -3.5q31 0 61.5 29.5t57.5 70t50 81.5t39 64q71 99 131 116q36 10 68 -8q14 -9 22 -21.5t12.5 -25.5t6 -25t2.5 -18q0 -5 0.5 -11t0.5 -12l118 115q9 9 21.5 9
t20.5 -9q9 -9 8.5 -21.5t-8.5 -21.5l-163 -159v-1q-2 -25 -3.5 -50t0.5 -46q2 -25 5.5 -36t7.5 -15q2 -2 5.5 -4t10.5 -2q43 0 103 74q12 15 22 29.5t18 25.5q9 13 15 25q6 11 18 14.5t23 -2.5z" />
    <glyph glyph-name="l_z" unicode="lz" horiz-adv-x="697" 
d="M738 225q11 -6 14.5 -17.5t-2.5 -22.5q-1 -2 -17 -29.5t-44 -61.5q-82 -96 -161 -96q-41 0 -80.5 11t-72.5 22l-9 3q-42 -36 -74 -36h-2q-29 0 -43 14t-16 31q-2 24 19 45q19 16 46 20q11 2 24.5 0.5t29.5 -6.5h1q23 23 47.5 53.5t51.5 63.5q25 31 49.5 61.5t49.5 56.5
q-21 2 -40.5 6t-36.5 8q-27 7 -49.5 10.5t-42.5 -3.5q-56 -18 -78 -67q-10 -20 -21 -50t-25.5 -62.5t-31.5 -64.5t-38 -57.5t-46 -41.5t-55 -16q-31 0 -48.5 12.5t-25.5 25.5q-24 37 -19.5 106.5t38.5 181.5q15 47 32.5 95.5t35.5 94.5t36 88l33 77q5 11 16.5 16t23.5 0
q11 -5 15.5 -17t-0.5 -23q-93 -214 -134 -348q-29 -93 -35 -153q-5 -41 -1 -59.5t9 -25.5q2 -4 7.5 -7.5t16.5 -3.5q20 0 38 14.5t33.5 37.5t28.5 51.5t24.5 57.5t20.5 54t17 42q17 36 46 61t68 38q32 11 63 6.5t62 -12.5q19 -5 38 -8.5t37.5 -4t38 4t40.5 15.5q11 6 23 2.5
t18 -14.5t2.5 -23t-14.5 -18q-18 -10 -39 -29.5t-43.5 -44t-45 -52.5t-44.5 -55q-23 -29 -44 -54.5t-39 -45.5q28 -9 56.5 -16.5t57.5 -7.5q16 0 32 7t31 18t28 24t24 26q12 15 22 29t17 25t11 18.5l4 7.5q6 11 18 14.5t23 -2.5z" />
    <glyph glyph-name="m_r" unicode="mr" horiz-adv-x="1133" 
d="M982 -1q-29 0 -46.5 11.5t-26.5 23.5q-33 46 -15 153q7 52 29 125q-12 -6 -28 -13q-65 -27 -120 -20q-13 -32 -37.5 -80t-57.5 -92.5t-72.5 -76t-81.5 -31.5t-64 27q-11 15 -14.5 34.5t-1.5 43t8 50.5t13 56l10 41q5 22 9.5 40t7.5 33q2 11 2 17v10q-4 -1 -14 -7
t-27.5 -23.5t-43 -49t-60.5 -83.5q-21 -32 -40.5 -63t-33.5 -55.5t-22.5 -40l-8.5 -15.5q-5 -11 -16 -15t-22 1t-16 15.5t-1 21.5q2 6 6 22l9.5 38t11.5 48.5t11 55.5q7 36 10 61.5t4 43t0.5 28t-1.5 15.5q-6 -3 -17 -11t-28.5 -26t-41 -48t-54.5 -76q-21 -32 -40.5 -63
t-33.5 -55.5t-22.5 -40l-8.5 -15.5q-4 -8 -11 -12t-15 -4q-6 0 -12 3q-11 5 -16 15t-1 21q0 1 10 30.5t26.5 78t38.5 112.5t47 134q4 11 15.5 16.5t22.5 1.5q12 -5 17.5 -16t0.5 -23l-37 -105q17 24 33.5 44t30.5 37q31 33 55.5 49t47.5 16q12 0 21.5 -5.5t17.5 -14.5
q5 -7 9 -19t5.5 -33t-0.5 -53t-11 -80l10 14q26 40 50 71.5t45 54.5q31 33 55.5 49t47.5 16q18 0 28.5 -6.5t16.5 -13.5q17 -23 11.5 -60t-20.5 -96l-10 -40q-7 -29 -12 -51.5t-7 -40.5q-1 -6 -1.5 -14t1 -15t6 -11.5t14.5 -4.5q19 0 44.5 20t52.5 53.5t52.5 76.5t43.5 89
q-17 10 -29 21q-33 30 -43 66q-9 34 1 65q8 23 25 38.5t38 17.5q42 3 67 -42q25 -46 17 -109l-3 -17q18 -2 37.5 2.5t42.5 13.5q18 8 34 17t27 17q13 9 25 18q8 7 18.5 7.5t18.5 -5.5t11.5 -15.5t-0.5 -19.5q-29 -84 -42 -140t-15.5 -90.5t1.5 -51t8 -22.5q3 -4 8 -7t16 -3
q18 0 43 19t53 54q12 14 21.5 28.5t17.5 25.5q9 13 16 25q6 11 18 14.5t23 -2.5t14.5 -18t-3.5 -23q0 -1 -4.5 -8.5t-12.5 -20t-19 -28t-24 -31.5q-31 -38 -62 -63q-43 -32 -81 -32zM717 446q-2 0 -5.5 -3.5t-6.5 -11.5q-1 -3 -2 -9.5t0.5 -15.5t7.5 -20t19 -23l5 -3
q2 20 0.5 39.5t-10.5 36.5q-2 2 -3.5 4t-2.5 4z" />
    <glyph glyph-name="m_s" unicode="ms" horiz-adv-x="1026" 
d="M797 1q-20 0 -38 5.5t-32 15.5q-34 25 -34 66q0 13 8.5 21.5t21.5 8.5t21.5 -8.5t8.5 -21.5q0 -16 16 -21.5t28 -5.5q44 0 77 33q40 40 40 113q0 35 -22 60t-50 49l-28 24q-8 -17 -19 -40t-28 -53q-15 -29 -39.5 -71t-56 -81.5t-68.5 -67.5t-77 -28q-42 0 -64 27
q-11 15 -14.5 34.5t-1.5 43t8 50.5t13 56l10 41q5 22 9.5 40t7.5 33q2 11 2 17v10q-4 -1 -14 -7t-27.5 -23.5t-43 -49t-60.5 -83.5q-21 -32 -40.5 -63t-33.5 -55.5t-22.5 -40l-8.5 -15.5q-5 -11 -16 -15t-22 1t-16 15.5t-1 21.5q2 6 6 22l9.5 38t11.5 48.5t11 55.5
q7 36 10 61.5t4 43t0.5 28t-1.5 15.5q-6 -3 -17 -11t-28.5 -26t-41 -48t-54.5 -76q-21 -32 -40.5 -63t-33.5 -55.5t-22.5 -40l-8.5 -15.5q-4 -8 -11 -12t-15 -4q-6 0 -12 3q-11 5 -16 15t-1 21q0 1 10 30.5t26.5 78t38.5 112.5t47 134q4 11 15.5 16.5t22.5 1.5
q12 -5 17.5 -16t0.5 -23l-37 -105q17 24 33.5 44t30.5 37q31 33 55.5 49t47.5 16q12 0 21.5 -5.5t17.5 -14.5q5 -7 9 -19t5.5 -33t-0.5 -53t-11 -80l10 14q26 40 50 71.5t45 54.5q31 33 55.5 49t47.5 16q18 0 28.5 -6.5t16.5 -13.5q17 -23 11.5 -60t-20.5 -96l-10 -40
q-7 -29 -12 -51.5t-7 -40.5q-1 -6 -1.5 -14t1 -15t6 -11.5t14.5 -4.5q25 0 53.5 26.5t55 62t47.5 72t33 57.5q20 35 31.5 59.5t17.5 40t7.5 23.5t1.5 11q0 11 7.5 19.5t19.5 10.5q11 1 20.5 -6t11.5 -18q3 -13 17.5 -27t31.5 -29q15 -14 31.5 -29t30 -33.5t22.5 -41t9 -50.5
q0 -61 -19 -98.5t-39 -57.5q-24 -23 -55 -36.5t-64 -13.5z" />
    <glyph glyph-name="m_x" unicode="mx" horiz-adv-x="1158" 
d="M1199 224q11 -6 14.5 -18t-2.5 -23q0 -1 -4.5 -8.5t-12.5 -20t-19.5 -28.5t-24.5 -32q-78 -96 -150 -96q-37 0 -60 25q-20 21 -25.5 54t-4.5 73l-145 -143q-10 -8 -21 -8q-13 0 -22 9q-8 9 -8 21.5t9 20.5l192 189q2 21 2.5 41t-1.5 37q-2 25 -7 33t-8 10t-7.5 3.5
t-12.5 -0.5q-6 -2 -15 -6.5t-21 -15t-27.5 -27.5t-34.5 -44q-13 -19 -29 -47t-35 -58t-40.5 -59.5t-45.5 -53.5t-51 -38.5t-56 -14.5q-42 0 -64 27q-11 15 -14.5 34.5t-1.5 43t8 50.5t13 56l10 41q5 22 9.5 40t7.5 33q2 11 2 17v10q-4 -1 -14 -7t-27.5 -23.5t-43 -49
t-60.5 -83.5q-21 -32 -40.5 -63t-33.5 -55.5t-22.5 -40l-8.5 -15.5q-5 -11 -16 -15t-22 1t-16 15.5t-1 21.5q2 6 6 22l9.5 38t11.5 48.5t11 55.5q7 36 10 61.5t4 43t0.5 28t-1.5 15.5q-6 -3 -17 -11t-28.5 -26t-41 -48t-54.5 -76q-21 -32 -40.5 -63t-33.5 -55.5t-22.5 -40
l-8.5 -15.5q-4 -8 -11 -12t-15 -4q-6 0 -12 3q-11 5 -16 15t-1 21q0 1 10 30.5t26.5 78t38.5 112.5t47 134q4 11 15.5 16.5t22.5 1.5q12 -5 17.5 -16t0.5 -23l-37 -105q17 24 33.5 44t30.5 37q31 33 55.5 49t47.5 16q12 0 21.5 -5.5t17.5 -14.5q5 -7 9 -19t5.5 -33t-0.5 -53
t-11 -80l10 14q26 40 50 71.5t45 54.5q31 33 55.5 49t47.5 16q18 0 28.5 -6.5t16.5 -13.5q17 -23 11.5 -60t-20.5 -96l-10 -40q-7 -29 -12 -51.5t-7 -40.5q-1 -6 -1.5 -14t1 -15t6 -11.5t14.5 -4.5q29 0 59 29.5t57.5 70t51 81.5t40.5 64q71 99 131 116q36 10 68 -8
q14 -9 22 -21.5t12.5 -25.5t6 -25t2.5 -18q0 -5 0.5 -11t0.5 -12l118 115q9 9 21.5 9t20.5 -9q9 -9 8.5 -21.5t-8.5 -21.5l-163 -159v-1q-2 -25 -3.5 -50t0.5 -46q2 -25 5.5 -36t7.5 -15q2 -2 5.5 -4t10.5 -2q43 0 103 74q12 15 22 29.5t18 25.5q9 13 15 25q6 11 18 14.5
t23 -2.5z" />
    <glyph glyph-name="m_z" unicode="mz" horiz-adv-x="1138" 
d="M1179 225q11 -6 14.5 -17.5t-2.5 -22.5q-1 -2 -17 -29.5t-44 -61.5q-82 -96 -161 -96q-41 0 -80.5 11t-72.5 22l-9 3q-42 -36 -74 -36h-2q-29 0 -43 14t-16 31q-2 24 19 45q19 16 46 20q11 2 24.5 0.5t29.5 -6.5h1q23 23 47.5 53.5t51.5 63.5q25 31 49.5 61.5t49.5 56.5
q-21 2 -40.5 6t-36.5 8q-27 7 -49.5 10.5t-42.5 -3.5q-56 -18 -78 -67q-15 -32 -33 -81.5t-43.5 -96.5t-59.5 -80.5t-81 -33.5q-42 0 -64 27q-11 15 -14.5 34.5t-1.5 43t8 50.5t13 56l10 41q5 22 9.5 40t7.5 33q2 11 2 17v10q-4 -1 -14 -7t-27.5 -23.5t-43 -49t-60.5 -83.5
q-21 -32 -40.5 -63t-33.5 -55.5t-22.5 -40l-8.5 -15.5q-5 -11 -16 -15t-22 1t-16 15.5t-1 21.5q2 6 6 22l9.5 38t11.5 48.5t11 55.5q7 36 10 61.5t4 43t0.5 28t-1.5 15.5q-6 -3 -17 -11t-28.5 -26t-41 -48t-54.5 -76q-21 -32 -40.5 -63t-33.5 -55.5t-22.5 -40l-8.5 -15.5
q-4 -8 -11 -12t-15 -4q-6 0 -12 3q-11 5 -16 15t-1 21q0 1 10 30.5t26.5 78t38.5 112.5t47 134q4 11 15.5 16.5t22.5 1.5q12 -5 17.5 -16t0.5 -23l-37 -105q17 24 33.5 44t30.5 37q31 33 55.5 49t47.5 16q12 0 21.5 -5.5t17.5 -14.5q5 -7 9 -19t5.5 -33t-0.5 -53t-11 -80
l10 14q26 40 50 71.5t45 54.5q31 33 55.5 49t47.5 16q18 0 28.5 -6.5t16.5 -13.5q17 -23 11.5 -60t-20.5 -96l-10 -40q-7 -29 -12 -51.5t-7 -40.5q-1 -6 -1.5 -14t1 -15t6 -11.5t14.5 -4.5q18 0 35 14.5t32.5 37.5t29.5 51.5t26 57.5t21.5 54t17.5 42q17 36 46 61t68 38
q32 11 63 6.5t62 -12.5q19 -5 38 -8.5t37.5 -4t38 4t40.5 15.5q11 6 23 2.5t18 -14.5t2.5 -23t-14.5 -18q-18 -10 -39 -29.5t-43.5 -44t-45 -52.5t-44.5 -55q-23 -29 -44 -54.5t-39 -45.5q28 -9 56.5 -16.5t57.5 -7.5q16 0 32 7t31 18t28 24t24 26q12 15 22 29t17 25
t11 18.5l4 7.5q6 11 18 14.5t23 -2.5z" />
    <glyph glyph-name="n_r" unicode="nr" horiz-adv-x="885" 
d="M734 -1q-29 0 -46.5 11.5t-26.5 23.5q-33 46 -15 153q7 52 29 125q-12 -6 -28 -13q-65 -27 -120 -20q-10 -33 -36 -81t-61 -92t-75 -75.5t-78 -31.5q-43 0 -64 27q-12 15 -15 34.5t-1 43t7.5 50.5t12.5 56l11 41q5 22 9.5 40t6.5 33q2 11 2.5 17.5t0.5 9.5
q-4 -1 -14.5 -7t-28 -23.5t-43 -49t-59.5 -83.5q-22 -32 -41 -63t-33.5 -55.5t-22.5 -40l-8 -15.5q-10 -16 -27 -16q-6 0 -12 3q-11 5 -15.5 15.5t-0.5 21.5l9.5 29.5t26 78t38.5 112.5t47 134q5 11 16 17t23 1q11 -5 17 -16t1 -22q-10 -28 -19.5 -54t-17.5 -52q17 24 33 44
t31 37q59 65 103 65q18 0 28.5 -6.5t15.5 -13.5q17 -23 11.5 -60t-19.5 -96q-3 -10 -5.5 -19.5t-4.5 -20.5q-15 -57 -19 -92q-1 -7 -1.5 -15t1 -14.5t6 -11t14.5 -4.5q24 0 52.5 26t56 63.5t50.5 78.5t35 71q-17 10 -29 21q-33 30 -43 66q-9 34 1 65q8 23 25 38.5t38 17.5
q42 3 67 -42q25 -46 17 -109l-3 -17q18 -2 37.5 2.5t42.5 13.5q18 8 34 17t27 17q13 9 25 18q8 7 18.5 7.5t18.5 -5.5t11.5 -15.5t-0.5 -19.5q-29 -84 -42 -140t-15.5 -90.5t1.5 -51t8 -22.5q3 -4 8 -7t16 -3q18 0 43 19t53 54q12 14 21.5 28.5t17.5 25.5q9 13 16 25
q6 11 18 14.5t23 -2.5t14.5 -18t-3.5 -23q0 -1 -4.5 -8.5t-12.5 -20t-19 -28t-24 -31.5q-31 -38 -62 -63q-43 -32 -81 -32zM469 446q-2 0 -5.5 -3.5t-6.5 -11.5q-1 -3 -2 -9.5t0.5 -15.5t7.5 -20t19 -23l5 -3q2 20 0.5 39.5t-10.5 36.5q-2 2 -3.5 4t-2.5 4z" />
    <glyph glyph-name="n_s" unicode="ns" horiz-adv-x="778" 
d="M549 1q-20 0 -38 5.5t-32 15.5q-34 25 -34 66q0 13 8.5 21.5t21.5 8.5t21.5 -8.5t8.5 -21.5q0 -16 16 -21.5t28 -5.5q44 0 77 33q40 40 40 113q0 35 -22 60t-50 49l-28 24q-8 -17 -19 -40t-28 -53q-16 -28 -41 -70t-56.5 -81.5t-68.5 -68t-76 -28.5q-43 0 -64 27
q-12 15 -15 34.5t-1 43t7.5 50.5t12.5 56l11 41q5 22 9.5 40t6.5 33q2 11 2.5 17.5t0.5 9.5q-4 -1 -14.5 -7t-28 -23.5t-43 -49t-59.5 -83.5q-22 -32 -41 -63t-33.5 -55.5t-22.5 -40l-8 -15.5q-10 -16 -27 -16q-6 0 -12 3q-11 5 -15.5 15.5t-0.5 21.5l9.5 29.5t26 78
t38.5 112.5t47 134q5 11 16 17t23 1q11 -5 17 -16t1 -22q-10 -28 -19.5 -54t-17.5 -52q17 24 33 44t31 37q59 65 103 65q18 0 28.5 -6.5t15.5 -13.5q17 -23 11.5 -60t-19.5 -96q-3 -10 -5.5 -19.5t-4.5 -20.5q-15 -57 -19 -92q-1 -7 -1.5 -15t1 -14.5t6 -11t14.5 -4.5
q24 0 51.5 25t54 60t48.5 72t36 61q20 35 31.5 59.5t17.5 40t7.5 23.5t1.5 11q0 11 7.5 19.5t19.5 10.5q11 1 20.5 -6t11.5 -18q3 -13 17.5 -27t31.5 -29q15 -14 31.5 -29t30 -33.5t22.5 -41t9 -50.5q0 -61 -19 -98.5t-39 -57.5q-24 -23 -55 -36.5t-64 -13.5z" />
    <glyph glyph-name="n_x" unicode="nx" horiz-adv-x="910" 
d="M951 224q11 -6 14.5 -18t-2.5 -23q0 -1 -4.5 -8.5t-12.5 -20t-19.5 -28.5t-24.5 -32q-78 -96 -150 -96q-37 0 -60 25q-20 21 -25.5 54t-4.5 73l-145 -143q-10 -8 -21 -8q-13 0 -22 9q-8 9 -8 21.5t9 20.5l192 189q2 21 2.5 41t-1.5 37q-2 25 -7 33t-8 10t-7.5 3.5
t-12.5 -0.5q-6 -2 -15 -6.5t-21 -15t-27.5 -27.5t-34.5 -44q-20 -28 -46.5 -73.5t-59 -89.5t-71 -76t-81.5 -32t-64 27q-12 15 -15 34.5t-1 43t7.5 50.5t12.5 56l11 41q5 22 9.5 40t6.5 33q2 11 2.5 17.5t0.5 9.5q-4 -1 -14.5 -7t-28 -23.5t-43 -49t-59.5 -83.5
q-22 -32 -41 -63t-33.5 -55.5t-22.5 -40l-8 -15.5q-10 -16 -27 -16q-6 0 -12 3q-11 5 -15.5 15.5t-0.5 21.5l9.5 29.5t26 78t38.5 112.5t47 134q5 11 16 17t23 1q11 -5 17 -16t1 -22q-10 -28 -19.5 -54t-17.5 -52q17 24 33 44t31 37q59 65 103 65q18 0 28.5 -6.5t15.5 -13.5
q17 -23 11.5 -60t-19.5 -96q-3 -10 -5.5 -19.5t-4.5 -20.5q-15 -57 -19 -92q-1 -7 -1.5 -15t1 -14.5t6 -11t14.5 -4.5q17 0 36.5 14t39 36t38.5 50t36.5 55t32.5 51t26 39q71 99 131 116q36 10 68 -8q14 -9 22 -21.5t12.5 -25.5t6 -25t2.5 -18q0 -5 0.5 -11t0.5 -12l118 115
q9 9 21.5 9t20.5 -9q9 -9 8.5 -21.5t-8.5 -21.5l-163 -159v-1q-2 -25 -3.5 -50t0.5 -46q2 -25 5.5 -36t7.5 -15q2 -2 5.5 -4t10.5 -2q43 0 103 74q12 15 22 29.5t18 25.5q9 13 15 25q6 11 18 14.5t23 -2.5z" />
    <glyph glyph-name="n_z" unicode="nz" horiz-adv-x="890" 
d="M931 225q11 -6 14.5 -17.5t-2.5 -22.5q-1 -2 -17 -29.5t-44 -61.5q-82 -96 -161 -96q-41 0 -80.5 11t-72.5 22l-9 3q-42 -36 -74 -36h-2q-29 0 -43 14t-16 31q-2 24 19 45q19 16 46 20q11 2 24.5 0.5t29.5 -6.5h1q23 23 47.5 53.5t51.5 63.5q25 31 49.5 61.5t49.5 56.5
q-21 2 -40.5 6t-36.5 8q-27 7 -49.5 10.5t-42.5 -3.5q-56 -18 -78 -67q-10 -22 -21.5 -52t-25 -62.5t-30.5 -64t-38 -57t-46.5 -41t-56.5 -15.5q-43 0 -64 27q-12 15 -15 34.5t-1 43t7.5 50.5t12.5 56l11 41q5 22 9.5 40t6.5 33q2 11 2.5 17.5t0.5 9.5q-4 -1 -14.5 -7
t-28 -23.5t-43 -49t-59.5 -83.5q-22 -32 -41 -63t-33.5 -55.5t-22.5 -40l-8 -15.5q-10 -16 -27 -16q-6 0 -12 3q-11 5 -15.5 15.5t-0.5 21.5l9.5 29.5t26 78t38.5 112.5t47 134q5 11 16 17t23 1q11 -5 17 -16t1 -22q-10 -28 -19.5 -54t-17.5 -52q17 24 33 44t31 37
q59 65 103 65q18 0 28.5 -6.5t15.5 -13.5q17 -23 11.5 -60t-19.5 -96q-3 -10 -5.5 -19.5t-4.5 -20.5q-15 -57 -19 -92q-1 -7 -1.5 -15t1 -14.5t6 -11t14.5 -4.5q19 0 36.5 14.5t33 37.5t29.5 52t25.5 57.5t21 54t17.5 41.5q17 36 46 61t68 38q32 11 63 6.5t62 -12.5
q19 -5 38 -8.5t37.5 -4t38 4t40.5 15.5q11 6 23 2.5t18 -14.5t2.5 -23t-14.5 -18q-18 -10 -39 -29.5t-43.5 -44t-45 -52.5t-44.5 -55q-23 -29 -44 -54.5t-39 -45.5q28 -9 56.5 -16.5t57.5 -7.5q16 0 32 7t31 18t28 24t24 26q12 15 22 29t17 25t11 18.5l4 7.5q6 11 18 14.5
t23 -2.5z" />
    <glyph glyph-name="o_x" unicode="ox" horiz-adv-x="849" 
d="M890 224q11 -6 14.5 -18t-2.5 -23q0 -1 -4.5 -8.5t-12.5 -20t-19.5 -28.5t-24.5 -32q-78 -96 -150 -96q-37 0 -60 25q-20 21 -25.5 54t-4.5 73l-145 -143q-10 -8 -21 -8q-13 0 -22 9q-8 9 -8 21.5t9 20.5l192 189q2 21 2.5 41t-1.5 37q-2 25 -7 33t-8 10t-7.5 3.5
t-12.5 -0.5q-34 -11 -57 -34t-42.5 -52t-39 -60.5t-44 -60t-59 -50.5t-83.5 -32q-23 -30 -50 -49q-41 -26 -89 -26q-39 0 -62.5 12.5t-34.5 26.5q-29 34 -29 89q0 33 11 70t31 70q18 32 43 52q20 17 38 21q4 10 7 14q36 59 92 59q50 0 78 -53q20 -42 20 -101q0 -64 -21 -119
q26 10 47.5 32t41.5 50t39.5 59t41.5 59t47.5 49.5t57.5 30.5q36 10 68 -8q14 -9 22 -21.5t12.5 -25.5t6 -25t2.5 -18q0 -5 0.5 -11t0.5 -12l118 115q9 9 21.5 9t20.5 -9q9 -9 8.5 -21.5t-8.5 -21.5l-163 -159v-1q-2 -25 -3.5 -50t0.5 -46q2 -25 5.5 -36t7.5 -15
q2 -2 5.5 -4t10.5 -2q43 0 103 74q12 15 22 29.5t18 25.5q9 13 15 25q6 11 18 14.5t23 -2.5zM152 297q-4 -12 -6.5 -26t-2.5 -30q0 -47 22 -77q17 -24 49 -30q14 27 21 59.5t7 65.5q0 40 -10.5 67t-27.5 27q-14 0 -26.5 -12t-20.5 -32q-1 -4 -5 -12zM75 236q-15 -26 -24 -55
t-9 -54q0 -11 3 -25t11 -25q16 -18 52 -18q37 0 66 24q-33 13 -58 46q-16 22 -24.5 51t-8.5 61v8z" />
    <glyph glyph-name="o_z" unicode="oz" horiz-adv-x="869" 
d="M910 225q11 -6 14.5 -17.5t-2.5 -22.5q-1 -2 -17 -29.5t-44 -61.5q-82 -96 -161 -96q-41 0 -80.5 11t-72.5 22l-9 3q-42 -36 -74 -36h-2q-29 0 -43 14t-16 31q-2 24 19 45q19 16 46 20q11 2 24.5 0.5t29.5 -6.5h1q23 23 47.5 53.5t51.5 63.5q25 31 49.5 61.5t49.5 56.5
q-21 2 -40.5 6t-36.5 8q-27 7 -49.5 10.5t-42.5 -3.5q-34 -11 -56 -33t-40 -49.5t-34 -57.5t-39 -58t-55 -51t-81 -35q-23 -30 -50 -49q-41 -26 -89 -26q-39 0 -62.5 12.5t-34.5 26.5q-29 34 -29 89q0 33 11 70t31 70q18 32 43 52q20 17 38 21q4 10 7 14q36 59 92 59
q50 0 78 -53q20 -42 20 -101q0 -64 -21 -119q21 7 40 27.5t37.5 48t37.5 58.5t40 59.5t44.5 50.5t52.5 31q32 11 63 6.5t62 -12.5q19 -5 38 -8.5t37.5 -4t38 4t40.5 15.5q11 6 23 2.5t18 -14.5t2.5 -23t-14.5 -18q-18 -10 -39 -29.5t-43.5 -44t-45 -52.5t-44.5 -55
q-23 -29 -44 -54.5t-39 -45.5q28 -9 56.5 -16.5t57.5 -7.5q16 0 32 7t31 18t28 24t24 26q12 15 22 29t17 25t11 18.5l4 7.5q6 11 18 14.5t23 -2.5zM152 297q-4 -12 -6.5 -26t-2.5 -30q0 -47 22 -77q17 -24 49 -30q14 27 21 59.5t7 65.5q0 40 -10.5 67t-27.5 27
q-14 0 -26.5 -12t-20.5 -32q-1 -4 -5 -12zM75 236q-15 -26 -24 -55t-9 -54q0 -11 3 -25t11 -25q16 -18 52 -18q37 0 66 24q-33 13 -58 46q-16 22 -24.5 51t-8.5 61v8z" />
    <glyph glyph-name="q_r" unicode="qr" horiz-adv-x="858" 
d="M714 -1q-29 0 -46.5 11.5t-26.5 23.5q-33 46 -15 153q7 52 29 125q-12 -6 -28 -13q-65 -27 -120 -20q-14 -43 -39.5 -79t-59.5 -63t-75 -43.5t-86 -19.5q-23 -30 -50 -49q-41 -26 -89 -26q-39 0 -62.5 12.5t-34.5 26.5q-29 34 -29 89q0 33 11 70t31 70q18 32 43 52
q20 17 38 21q4 10 7 14q36 59 92 59q50 0 78 -53q20 -42 20 -101q0 -64 -21 -119q27 8 51.5 19.5t46 29.5t39.5 44t33 65q-17 10 -29 21q-33 30 -43 66q-9 34 1 65q8 23 25 38.5t38 17.5q42 3 67 -42q25 -46 17 -109l-3 -17q18 -2 37.5 2.5t42.5 13.5q18 8 34 17t27 17
q13 9 25 18q8 7 18.5 7.5t18.5 -5.5t11.5 -15.5t-0.5 -19.5q-29 -84 -42 -140t-15.5 -90.5t1.5 -51t8 -22.5q3 -4 8 -7t16 -3q18 0 43 19t53 54q12 14 21.5 28.5t17.5 25.5q9 13 16 25q6 11 18 14.5t23 -2.5t14.5 -18t-3.5 -23q0 -1 -4.5 -8.5t-12.5 -20t-19 -28t-24 -31.5
q-31 -38 -62 -63q-43 -32 -81 -32zM388 -113q-12 -4 -22.5 2t-14.5 18t-21 18t-34 9q-29 5 -64.5 5h-70.5q-34 -1 -63.5 0t-55.5 4q-7 1 -19 3t-25 7.5t-24.5 15.5t-15.5 26q-4 12 2 22.5t18 14.5q12 3 23 -2.5t14 -16.5q2 -2 10 -5.5t33 -6.5q22 -2 48 -2.5t54 0.5
q38 0 75.5 -0.5t70.5 -5.5q19 -3 34 -8t27 -11q32 -19 41 -50q4 -12 -2 -22.5t-18 -14.5zM152 297q-4 -12 -6.5 -26t-2.5 -30q0 -47 22 -77q17 -24 49 -30q14 27 21 59.5t7 65.5q0 40 -10.5 67t-27.5 27q-14 0 -26.5 -12t-20.5 -32q-1 -4 -5 -12zM83 249l-8 -13
q-15 -26 -24 -55t-9 -54q0 -11 3 -25t11 -25q16 -18 52 -18q37 0 66 24q-33 13 -58 46q-16 22 -24.5 51t-8.5 61v8zM449 446q-2 0 -5.5 -3.5t-6.5 -11.5q-1 -3 -2 -9.5t0.5 -15.5t7.5 -20t19 -23l5 -3q2 20 0.5 39.5t-10.5 36.5q-2 2 -3.5 4t-2.5 4z" />
    <glyph glyph-name="q_s" unicode="qs" horiz-adv-x="757" 
d="M528 1q-20 0 -38 5.5t-32 15.5q-34 25 -34 66q0 13 8.5 21.5t21.5 8.5t21.5 -8.5t8.5 -21.5q0 -16 16 -21.5t28 -5.5q44 0 77 33q40 40 40 113q0 35 -22 60t-50 49l-28 24q-26 -60 -57.5 -109t-68.5 -84t-80 -54t-92 -19q-23 -30 -50 -49q-41 -26 -89 -26
q-39 0 -62.5 12.5t-34.5 26.5q-29 34 -29 89q0 33 11 70t31 70q18 32 43 52q20 17 38 21q4 10 7 14q36 59 92 59q50 0 78 -53q20 -42 20 -101q0 -64 -21 -119q24 0 50 17t50.5 44t47 59t39 62.5t26.5 54.5t10 34q0 11 7.5 19.5t19.5 10.5q11 1 20.5 -6t11.5 -18
q3 -13 17.5 -27t31.5 -29q15 -14 31.5 -29t30 -33.5t22.5 -41t9 -50.5q0 -61 -19 -98.5t-39 -57.5q-24 -23 -55 -36.5t-64 -13.5zM388 -113q-12 -4 -22.5 2t-14.5 18t-21 18t-34 9q-29 5 -64.5 5h-70.5q-34 -1 -63.5 0t-55.5 4q-7 1 -19 3t-25 7.5t-24.5 15.5t-15.5 26
q-4 12 2 22.5t18 14.5q12 3 23 -2.5t14 -16.5q2 -2 10 -5.5t33 -6.5q22 -2 48 -2.5t54 0.5q38 0 75.5 -0.5t70.5 -5.5q19 -3 34 -8t27 -11q32 -19 41 -50q4 -12 -2 -22.5t-18 -14.5zM152 297q-4 -12 -6.5 -26t-2.5 -30q0 -47 22 -77q17 -24 49 -30q14 27 21 59.5t7 65.5
q0 40 -10.5 67t-27.5 27q-14 0 -26.5 -12t-20.5 -32q-1 -4 -5 -12zM83 249l-8 -13q-15 -26 -24 -55t-9 -54q0 -11 3 -25t11 -25q16 -18 52 -18q37 0 66 24q-33 13 -58 46q-16 22 -24.5 51t-8.5 61v8z" />
    <glyph glyph-name="q_x" unicode="qx" horiz-adv-x="889" 
d="M930 224q11 -6 14.5 -18t-2.5 -23q0 -1 -4.5 -8.5t-12.5 -20t-19.5 -28.5t-24.5 -32q-78 -96 -150 -96q-37 0 -60 25q-20 21 -25.5 54t-4.5 73l-145 -143q-10 -8 -21 -8q-13 0 -22 9q-8 9 -8 21.5t9 20.5l192 189q2 21 2.5 41t-1.5 37q-2 25 -7 33t-8 10t-7.5 3.5
t-12.5 -0.5q-6 -2 -15 -6.5t-21 -15t-27.5 -27.5t-34.5 -44q-28 -42 -53 -75t-54.5 -57.5t-67.5 -40.5t-92 -23q-23 -30 -50 -49q-41 -26 -89 -26q-39 0 -62.5 12.5t-34.5 26.5q-29 34 -29 89q0 33 11 70t31 70q18 32 43 52q20 17 38 21q4 10 7 14q36 59 92 59q50 0 78 -53
q20 -42 20 -101q0 -64 -21 -119q34 9 59.5 25t46.5 37t39.5 47t38.5 55q71 99 131 116q36 10 68 -8q14 -9 22 -21.5t12.5 -25.5t6 -25t2.5 -18q0 -5 0.5 -11t0.5 -12l118 115q9 9 21.5 9t20.5 -9q9 -9 8.5 -21.5t-8.5 -21.5l-163 -159v-1q-2 -25 -3.5 -50t0.5 -46
q2 -25 5.5 -36t7.5 -15q2 -2 5.5 -4t10.5 -2q43 0 103 74q12 15 22 29.5t18 25.5q9 13 15 25q6 11 18 14.5t23 -2.5zM388 -113q-12 -4 -22.5 2t-14.5 18t-21 18t-34 9q-29 5 -64.5 5h-70.5q-34 -1 -63.5 0t-55.5 4q-7 1 -19 3t-25 7.5t-24.5 15.5t-15.5 26q-4 12 2 22.5
t18 14.5q12 3 23 -2.5t14 -16.5q2 -2 10 -5.5t33 -6.5q22 -2 48 -2.5t54 0.5q38 0 75.5 -0.5t70.5 -5.5q19 -3 34 -8t27 -11q32 -19 41 -50q4 -12 -2 -22.5t-18 -14.5zM152 297q-4 -12 -6.5 -26t-2.5 -30q0 -47 22 -77q17 -24 49 -30q14 27 21 59.5t7 65.5q0 40 -10.5 67
t-27.5 27q-14 0 -26.5 -12t-20.5 -32q-1 -4 -5 -12zM75 236q-15 -26 -24 -55t-9 -54q0 -11 3 -25t11 -25q16 -18 52 -18q37 0 66 24q-33 13 -58 46q-16 22 -24.5 51t-8.5 61v8z" />
    <glyph glyph-name="q_z" unicode="qz" horiz-adv-x="869" 
d="M910 225q11 -6 14.5 -17.5t-2.5 -22.5q-1 -2 -17 -29.5t-44 -61.5q-82 -96 -161 -96q-41 0 -80.5 11t-72.5 22l-9 3q-42 -36 -74 -36h-2q-29 0 -43 14t-16 31q-2 24 19 45q19 16 46 20q11 2 24.5 0.5t29.5 -6.5h1q23 23 47.5 53.5t51.5 63.5q25 31 49.5 61.5t49.5 56.5
q-21 2 -40.5 6t-36.5 8q-27 7 -49.5 10.5t-42.5 -3.5q-56 -18 -78 -67q-21 -46 -36 -81t-37 -61.5t-57.5 -44.5t-96.5 -30q-23 -30 -50 -49q-41 -26 -89 -26q-39 0 -62.5 12.5t-34.5 26.5q-29 34 -29 89q0 33 11 70t31 70q18 32 43 52q20 17 38 21q4 10 7 14q36 59 92 59
q50 0 78 -53q20 -42 20 -101q0 -64 -21 -119q27 5 47 22t35.5 41t28.5 53.5t27 59.5q17 36 46 61t68 38q32 11 63 6.5t62 -12.5q19 -5 38 -8.5t37.5 -4t38 4t40.5 15.5q11 6 23 2.5t18 -14.5t2.5 -23t-14.5 -18q-18 -10 -39 -29.5t-43.5 -44t-45 -52.5t-44.5 -55
q-23 -29 -44 -54.5t-39 -45.5q28 -9 56.5 -16.5t57.5 -7.5q16 0 32 7t31 18t28 24t24 26q12 15 22 29t17 25t11 18.5l4 7.5q6 11 18 14.5t23 -2.5zM388 -113q-12 -4 -22.5 2t-14.5 18t-21 18t-34 9q-29 5 -64.5 5h-70.5q-34 -1 -63.5 0t-55.5 4q-7 1 -19 3t-25 7.5
t-24.5 15.5t-15.5 26q-4 12 2 22.5t18 14.5q12 3 23 -2.5t14 -16.5q2 -2 10 -5.5t33 -6.5q22 -2 48 -2.5t54 0.5q38 0 75.5 -0.5t70.5 -5.5q19 -3 34 -8t27 -11q32 -19 41 -50q4 -12 -2 -22.5t-18 -14.5zM152 297q-4 -12 -6.5 -26t-2.5 -30q0 -47 22 -77q17 -24 49 -30
q14 27 21 59.5t7 65.5q0 40 -10.5 67t-27.5 27q-14 0 -26.5 -12t-20.5 -32q-1 -4 -5 -12zM75 236q-15 -26 -24 -55t-9 -54q0 -11 3 -25t11 -25q16 -18 52 -18q37 0 66 24q-33 13 -58 46q-16 22 -24.5 51t-8.5 61v8z" />
    <glyph glyph-name="r_s" unicode="rs" horiz-adv-x="805" 
d="M660 362q15 -14 31.5 -29t30 -33.5t22.5 -41t9 -50.5q0 -61 -19 -98.5t-39 -57.5q-24 -23 -55 -36.5t-64 -13.5q-20 0 -38 5.5t-32 15.5q-34 25 -34 66q0 13 8.5 21.5t21.5 8.5t21.5 -8.5t8.5 -21.5q0 -16 16 -21.5t28 -5.5q44 0 77 33q40 40 40 113q0 35 -22 60t-50 49
l-28 24q-8 -17 -19 -40t-28 -53q-22 -38 -44 -76.5t-54 -76.5q-13 -16 -28.5 -32.5t-33.5 -30.5t-38.5 -23t-42.5 -9q-29 0 -46.5 11.5t-26.5 23.5q-33 46 -15 153q7 52 29 125q-12 -6 -28 -13q-65 -27 -120 -20q-2 -7 -4.5 -13.5t-5.5 -13.5q-10 -23 -20.5 -43t-19.5 -35
t-15 -23.5t-7 -9.5q-7 -11 -19 -13t-22 6q-11 8 -13 19.5t6 22.5l5 8t13.5 21.5t18 31.5t18.5 39l9 22q-17 10 -29 21q-33 30 -43 66q-9 34 1 65q8 23 25 38.5t38 17.5q42 3 67 -42q25 -46 17 -109l-3 -17q18 -2 37.5 2.5t42.5 13.5q18 8 34 17t27 17q13 9 25 18
q8 7 18.5 7.5t18.5 -5.5t11.5 -15.5t-0.5 -19.5q-29 -84 -42 -140t-15.5 -90.5t1.5 -51t8 -22.5q3 -4 8 -7t16 -3q18 0 43 19t53 54q27 32 49 69t44 76q20 35 31.5 59.5t17.5 40t7.5 23.5t1.5 11q0 11 7.5 19.5t19.5 10.5q11 1 20.5 -6t11.5 -18q3 -13 17.5 -27t31.5 -29z
M58 361q2 20 0.5 39.5t-10.5 36.5q-2 2 -3.5 4t-2.5 4l-2 2q-2 0 -5.5 -3.5t-6.5 -11.5q-1 -3 -2 -9.5t0.5 -15.5t7.5 -20t19 -23z" />
    <glyph glyph-name="r_x" unicode="rx" horiz-adv-x="937" 
d="M978 224q11 -6 14.5 -18t-2.5 -23q0 -1 -4.5 -8.5t-12.5 -20t-19.5 -28.5t-24.5 -32q-78 -96 -150 -96q-37 0 -60 25q-20 21 -25.5 54t-4.5 73l-145 -143q-10 -8 -21 -8q-13 0 -22 9q-8 9 -8 21.5t9 20.5l192 189q2 21 2.5 41t-1.5 37q-2 25 -7 33t-8 10t-7.5 3.5
t-12.5 -0.5q-6 -2 -15 -6.5t-21 -15t-27.5 -27.5t-34.5 -44q-30 -42 -54.5 -87t-59.5 -89q-31 -38 -62 -63q-43 -32 -81 -32q-29 0 -46.5 11.5t-26.5 23.5q-33 46 -15 153q7 52 29 125q-12 -6 -28 -13q-65 -27 -120 -20q-2 -7 -4.5 -13.5t-5.5 -13.5q-10 -23 -20.5 -43
t-19.5 -35t-15 -23.5t-7 -9.5q-7 -11 -19 -13t-22 6q-11 8 -13 19.5t6 22.5l5 8t13.5 21.5t18 31.5t18.5 39l9 22q-17 10 -29 21q-33 30 -43 66q-9 34 1 65q8 23 25 38.5t38 17.5q42 3 67 -42q25 -46 17 -109l-3 -17q18 -2 37.5 2.5t42.5 13.5q18 8 34 17t27 17q13 9 25 18
q8 7 18.5 7.5t18.5 -5.5t11.5 -15.5t-0.5 -19.5q-29 -84 -42 -140t-15.5 -90.5t1.5 -51t8 -22.5q3 -4 8 -7t16 -3q18 0 43 19t53 54q32 38 56 82.5t56 89.5q71 99 131 116q36 10 68 -8q14 -9 22 -21.5t12.5 -25.5t6 -25t2.5 -18q0 -5 0.5 -11t0.5 -12l118 115q9 9 21.5 9
t20.5 -9q9 -9 8.5 -21.5t-8.5 -21.5l-163 -159v-1q-2 -25 -3.5 -50t0.5 -46q2 -25 5.5 -36t7.5 -15q2 -2 5.5 -4t10.5 -2q43 0 103 74q12 15 22 29.5t18 25.5q9 13 15 25q6 11 18 14.5t23 -2.5zM40 446q-2 0 -5.5 -3.5t-6.5 -11.5q-1 -3 -2 -9.5t0.5 -15.5t7.5 -20t19 -23
l5 -3q2 20 0.5 39.5t-10.5 36.5q-2 2 -3.5 4t-2.5 4z" />
    <glyph glyph-name="s_r" unicode="sr" horiz-adv-x="791" 
d="M640 -1q-29 0 -46.5 11.5t-26.5 23.5q-33 46 -15 153q7 52 29 125q-12 -6 -28 -13q-65 -27 -120 -20l-92 -258q-5 -14 -16.5 -17.5t-21.5 1t-16 14.5t0 24q1 3 7 19.5t14.5 40t18.5 52t19.5 56t17.5 50.5t13 37q-17 10 -29 21q-33 30 -43 66q-9 34 1 65q8 23 25 38.5
t38 17.5q42 3 67 -42q25 -46 17 -109l-3 -17q18 -2 37.5 2.5t42.5 13.5q18 8 34 17t27 17q13 9 25 18q8 7 18.5 7.5t18.5 -5.5t11.5 -15.5t-0.5 -19.5q-29 -84 -42 -140t-15.5 -90.5t1.5 -51t8 -22.5q3 -4 8 -7t16 -3q18 0 43 19t53 54q12 14 21.5 28.5t17.5 25.5
q9 13 16 25q6 11 18 14.5t23 -2.5t14.5 -18t-3.5 -23q0 -1 -4.5 -8.5t-12.5 -20t-19 -28t-24 -31.5q-31 -38 -62 -63q-43 -32 -81 -32zM120 1q-20 0 -38 5.5t-32 15.5q-34 25 -34 66q0 13 8.5 21.5t21.5 8.5t21.5 -8.5t8.5 -21.5q0 -16 16 -21.5t28 -5.5q44 0 77 33
q40 40 40 113q0 35 -22 60t-50 49l-28 24q-8 -17 -19 -40t-28 -53q-23 -42 -42 -71.5t-21 -31.5q-7 -11 -19 -13t-22 5q-11 7 -13.5 19t4.5 22q1 1 19.5 30.5t41.5 69.5q20 35 31.5 59.5t17.5 40t7.5 23.5t1.5 11q0 11 7.5 19.5t19.5 10.5q11 1 20.5 -6t11.5 -18
q3 -13 17.5 -27t31.5 -29q15 -14 31.5 -29t30 -33.5t22.5 -41t9 -50.5q0 -61 -19 -98.5t-39 -57.5q-24 -23 -55 -36.5t-64 -13.5zM375 446q-2 0 -5.5 -3.5t-6.5 -11.5q-1 -3 -2 -9.5t0.5 -15.5t7.5 -20t19 -23l5 -3q2 20 0.5 39.5t-10.5 36.5q-2 2 -3.5 4t-2.5 4z" />
    <glyph glyph-name="s_x" unicode="sx" horiz-adv-x="744" 
d="M120 1q-20 0 -38 5.5t-32 15.5q-34 25 -34 66q0 13 8.5 21.5t21.5 8.5t21.5 -8.5t8.5 -21.5q0 -16 16 -21.5t28 -5.5q44 0 77 33q40 40 40 113q0 35 -22 60t-50 49l-28 24q-8 -17 -19 -40t-28 -53q-23 -42 -42 -71.5t-21 -31.5q-7 -11 -19 -13t-22 5q-11 7 -13.5 19
t4.5 22q1 1 19.5 30.5t41.5 69.5q20 35 31.5 59.5t17.5 40t7.5 23.5t1.5 11q0 11 7.5 19.5t19.5 10.5q11 1 20.5 -6t11.5 -18q3 -13 17.5 -27t31.5 -29q12 -11 25 -22.5t25 -25.5q20 17 48 36.5t58.5 36t61 27.5t55.5 11q22 0 43 -12q14 -9 22 -21.5t12.5 -25.5t6 -25
t2.5 -18q0 -5 0.5 -11t0.5 -12l118 115q9 9 21.5 9t20.5 -9q9 -9 8.5 -21.5t-8.5 -21.5l-163 -159v-1q-2 -25 -3.5 -50t0.5 -46q2 -25 5.5 -36t7.5 -15q2 -2 5.5 -4t10.5 -2q43 0 103 74q12 15 22 29.5t18 25.5q9 13 15 25q6 11 18 14.5t23 -2.5t14.5 -18t-2.5 -23
q0 -1 -4.5 -8.5t-12.5 -20t-19.5 -28.5t-24.5 -32q-78 -96 -150 -96q-37 0 -60 25q-20 21 -25.5 54t-4.5 73l-145 -143q-10 -8 -21 -8q-13 0 -22 9q-8 9 -8 21.5t9 20.5l192 189q2 21 2.5 41t-1.5 37q-1 7 -2 15t-4 15.5t-9 12.5t-17 5q-10 0 -32.5 -9.5t-49.5 -24.5
t-55 -33t-49 -34q5 -13 8.5 -27t3.5 -30q0 -61 -19 -98.5t-39 -57.5q-24 -23 -55 -36.5t-64 -13.5z" />
    <glyph glyph-name="t_r" unicode="tr" horiz-adv-x="691" 
d="M540 -1q-29 0 -46.5 11.5t-26.5 23.5q-33 46 -15 153q7 52 29 125q-12 -6 -28 -13q-65 -27 -120 -20q-7 -22 -20.5 -51.5t-32 -60.5t-41 -61t-47.5 -54t-52.5 -38.5t-55.5 -14.5q-31 0 -48.5 12.5t-26.5 25.5q-24 37 -19 106.5t39 181.5q14 44 29.5 88t32.5 88l-32 -7h-6
q-11 0 -19 6.5t-10 17.5q-2 12 4.5 22.5t18.5 12.5l71 15q13 31 25 59t23 53q5 11 16.5 16t22.5 0q12 -5 16.5 -17t-0.5 -23l-32 -74l127 26q12 2 22.5 -5t13.5 -19q2 -12 -5 -22.5t-19 -12.5l-166 -34q-24 -60 -42.5 -111.5t-32.5 -96.5q-29 -94 -35 -152q-5 -41 -1 -59.5
t9 -25.5q2 -4 7.5 -7.5t16.5 -3.5q28 0 57.5 27.5t56 65.5t47.5 78.5t32 67.5q-17 10 -29 21q-33 30 -43 66q-9 34 1 65q8 23 25 38.5t38 17.5q42 3 67 -42q25 -46 17 -109l-3 -17q18 -2 37.5 2.5t42.5 13.5q18 8 34 17t27 17q13 9 25 18q8 7 18.5 7.5t18.5 -5.5t11.5 -15.5
t-0.5 -19.5q-29 -84 -42 -140t-15.5 -90.5t1.5 -51t8 -22.5q3 -4 8 -7t16 -3q18 0 43 19t53 54q12 14 21.5 28.5t17.5 25.5q9 13 16 25q6 11 18 14.5t23 -2.5t14.5 -18t-3.5 -23q0 -1 -4.5 -8.5t-12.5 -20t-19 -28t-24 -31.5q-31 -38 -62 -63q-43 -32 -81 -32zM275 446
q-2 0 -5.5 -3.5t-6.5 -11.5q-1 -3 -2 -9.5t0.5 -15.5t7.5 -20t19 -23l5 -3q2 20 0.5 39.5t-10.5 36.5q-2 2 -3.5 4t-2.5 4z" />
    <glyph glyph-name="t_s" unicode="ts" horiz-adv-x="584" 
d="M439 361q15 -14 31.5 -29t30 -33.5t22.5 -41t9 -50.5q0 -61 -19 -98.5t-39 -57.5q-24 -23 -55 -36.5t-64 -13.5q-20 0 -38 5.5t-32 15.5q-34 25 -34 66q0 13 8.5 21.5t21.5 8.5t21.5 -8.5t8.5 -21.5q0 -16 16 -21.5t28 -5.5q44 0 77 33q40 40 40 113q0 35 -22 60t-50 49
l-28 24q-8 -17 -19 -40t-28 -53q-16 -28 -40.5 -70.5t-55.5 -82t-68 -67.5t-77 -28q-31 0 -48.5 12.5t-26.5 25.5q-24 37 -19 106.5t39 181.5q14 44 29.5 88t32.5 88l-32 -7h-6q-11 0 -19 6.5t-10 17.5q-2 12 4.5 22.5t18.5 12.5l71 15q13 31 25 59t23 53q5 11 16.5 16
t22.5 0q12 -5 16.5 -17t-0.5 -23l-32 -74l127 26q12 2 22.5 -5t13.5 -19q2 -12 -5 -22.5t-19 -12.5l-166 -34q-24 -60 -42.5 -111.5t-32.5 -96.5q-29 -94 -35 -152q-5 -41 -1 -59.5t9 -25.5q2 -4 7.5 -7.5t16.5 -3.5q27 0 55.5 26t54 62t46.5 72.5t33 57.5q20 35 31.5 59.5
t17.5 40t7.5 23.5t1.5 11q0 11 7.5 19.5t19.5 10.5q11 1 20.5 -6t11.5 -18q3 -13 17.5 -27t31.5 -29z" />
    <glyph glyph-name="t_x" unicode="tx" horiz-adv-x="716" 
d="M757 224q11 -6 14.5 -18t-2.5 -23q0 -1 -4.5 -8.5t-12.5 -20t-19.5 -28.5t-24.5 -32q-78 -96 -150 -96q-37 0 -60 25q-20 21 -25.5 54t-4.5 73l-145 -143q-10 -8 -21 -8q-13 0 -22 9q-8 9 -8 21.5t9 20.5l192 189q2 21 2.5 41t-1.5 37q-2 25 -7 33t-8 10t-7.5 3.5
t-12.5 -0.5q-6 -2 -15 -6.5t-21 -15t-27.5 -27.5t-34.5 -44q-13 -19 -29 -47t-35 -58t-40.5 -59.5t-45.5 -53.5t-51 -38.5t-56 -14.5q-31 0 -48.5 12.5t-26.5 25.5q-24 37 -19 106.5t39 181.5q14 44 29.5 88t32.5 88l-32 -7h-6q-11 0 -19 6.5t-10 17.5q-2 12 4.5 22.5
t18.5 12.5l71 15q13 31 25 59t23 53q5 11 16.5 16t22.5 0q12 -5 16.5 -17t-0.5 -23l-32 -74l127 26q12 2 22.5 -5t13.5 -19q2 -12 -5 -22.5t-19 -12.5l-166 -34q-24 -60 -42.5 -111.5t-32.5 -96.5q-29 -94 -35 -152q-5 -41 -1 -59.5t9 -25.5q2 -4 7.5 -7.5t16.5 -3.5
q28 0 58 29.5t57.5 70t51.5 81.5t41 64q71 99 131 116q36 10 68 -8q14 -9 22 -21.5t12.5 -25.5t6 -25t2.5 -18q0 -5 0.5 -11t0.5 -12l118 115q9 9 21.5 9t20.5 -9q9 -9 8.5 -21.5t-8.5 -21.5l-163 -159v-1q-2 -25 -3.5 -50t0.5 -46q2 -25 5.5 -36t7.5 -15q2 -2 5.5 -4
t10.5 -2q43 0 103 74q12 15 22 29.5t18 25.5q9 13 15 25q6 11 18 14.5t23 -2.5z" />
    <glyph glyph-name="t_z" unicode="tz" horiz-adv-x="696" 
d="M737 225q11 -6 14.5 -17.5t-2.5 -22.5q-1 -2 -17 -29.5t-44 -61.5q-82 -96 -161 -96q-41 0 -80.5 11t-72.5 22l-9 3q-42 -36 -74 -36h-2q-29 0 -43 14t-16 31q-2 24 19 45q19 16 46 20q11 2 24.5 0.5t29.5 -6.5h1q23 23 47.5 53.5t51.5 63.5q25 31 49.5 61.5t49.5 56.5
q-21 2 -40.5 6t-36.5 8q-27 7 -49.5 10.5t-42.5 -3.5q-56 -18 -78 -67q-9 -20 -20 -49.5t-25 -62t-31 -65t-38 -58t-46.5 -41.5t-56.5 -16t-48.5 12.5t-26.5 25.5q-24 37 -19 106.5t39 181.5q14 44 29.5 88t32.5 88l-32 -7h-6q-11 0 -19 6.5t-10 17.5q-2 12 4.5 22.5
t18.5 12.5l71 15q13 31 25 59t23 53q5 11 16.5 16t22.5 0q12 -5 16.5 -17t-0.5 -23l-32 -74l127 26q12 2 22.5 -5t13.5 -19q2 -12 -5 -22.5t-19 -12.5l-166 -34q-24 -60 -42.5 -111.5t-32.5 -96.5q-29 -94 -35 -152q-5 -41 -1 -59.5t9 -25.5q2 -4 7.5 -7.5t16.5 -3.5
q17 0 34 14.5t32.5 37.5t29.5 51.5t26 57.5t22 54t18 42q17 36 46 61t68 38q32 11 63 6.5t62 -12.5q19 -5 38 -8.5t37.5 -4t38 4t40.5 15.5q11 6 23 2.5t18 -14.5t2.5 -23t-14.5 -18q-18 -10 -39 -29.5t-43.5 -44t-45 -52.5t-44.5 -55q-23 -29 -44 -54.5t-39 -45.5
q28 -9 56.5 -16.5t57.5 -7.5q16 0 32 7t31 18t28 24t24 26q12 15 22 29t17 25t11 18.5l4 7.5q6 11 18 14.5t23 -2.5z" />
    <glyph glyph-name="u_r" unicode="ur" horiz-adv-x="910" 
d="M759 -1q-29 0 -46.5 11.5t-26.5 23.5q-33 46 -15 153q7 52 29 125q-12 -6 -28 -13q-65 -27 -120 -20q-7 -21 -20 -50t-31.5 -60t-41.5 -61.5t-48.5 -54.5t-53 -39t-54.5 -15q-29 0 -46.5 11.5t-25.5 23.5q-15 20 -19 51q-65 -86 -128 -86q-29 0 -46.5 11.5t-25.5 23.5
q-34 47 -16 153q7 42 20.5 93t35.5 113q4 12 15 17.5t23 1.5q12 -5 17.5 -16t0.5 -23q-29 -84 -42 -140t-15.5 -90t1.5 -51t9 -23q2 -4 7 -7t16 -3q17 0 40 18.5t46 52.5q11 14 19 28.5t14 25.5q7 13 13 25q2 4 4 6q15 77 51 178q4 12 15 17.5t23 1.5q12 -5 17.5 -16
t0.5 -23q-29 -84 -42 -140t-15.5 -90t1.5 -51t9 -23q2 -4 7 -7t16 -3q18 0 43 19t54 54q26 30 48 68t48 98q-17 10 -29 21q-33 30 -43 66q-9 34 1 65q8 23 25 38.5t38 17.5q42 3 67 -42q25 -46 17 -109l-3 -17q18 -2 37.5 2.5t42.5 13.5q18 8 34 17t27 17q13 9 25 18
q8 7 18.5 7.5t18.5 -5.5t11.5 -15.5t-0.5 -19.5q-29 -84 -42 -140t-15.5 -90.5t1.5 -51t8 -22.5q3 -4 8 -7t16 -3q18 0 43 19t53 54q12 14 21.5 28.5t17.5 25.5q9 13 16 25q6 11 18 14.5t23 -2.5t14.5 -18t-3.5 -23q0 -1 -4.5 -8.5t-12.5 -20t-19 -28t-24 -31.5
q-31 -38 -62 -63q-43 -32 -81 -32zM494 446q-2 0 -5.5 -3.5t-6.5 -11.5q-1 -3 -2 -9.5t0.5 -15.5t7.5 -20t19 -23l5 -3q2 20 0.5 39.5t-10.5 36.5q-2 2 -3.5 4t-2.5 4z" />
    <glyph glyph-name="u_s" unicode="us" horiz-adv-x="803" 
d="M574 1q-20 0 -38 5.5t-32 15.5q-34 25 -34 66q0 13 8.5 21.5t21.5 8.5t21.5 -8.5t8.5 -21.5q0 -16 16 -21.5t28 -5.5q44 0 77 33q40 40 40 113q0 35 -22 60t-50 49l-28 24q-8 -17 -19 -40t-28 -53q-21 -38 -43.5 -76.5t-54.5 -76.5q-32 -39 -62 -62q-42 -33 -81 -33
q-29 0 -46.5 11.5t-25.5 23.5q-15 20 -19 51q-65 -86 -128 -86q-29 0 -46.5 11.5t-25.5 23.5q-34 47 -16 153q7 42 20.5 93t35.5 113q4 12 15 17.5t23 1.5q12 -5 17.5 -16t0.5 -23q-29 -84 -42 -140t-15.5 -90t1.5 -51t9 -23q2 -4 7 -7t16 -3q17 0 40 18.5t46 52.5
q11 14 19 28.5t14 25.5q7 13 13 25q2 4 4 6q15 77 51 178q4 12 15 17.5t23 1.5q12 -5 17.5 -16t0.5 -23q-29 -84 -42 -140t-15.5 -90t1.5 -51t9 -23q2 -4 7 -7t16 -3q18 0 43 19t54 54q21 26 46 66.5t46 78.5q20 35 31.5 59.5t17.5 40t7.5 23.5t1.5 11q0 11 7.5 19.5
t19.5 10.5q11 1 20.5 -6t11.5 -18q3 -13 17.5 -27t31.5 -29q15 -14 31.5 -29t30 -33.5t22.5 -41t9 -50.5q0 -61 -19 -98.5t-39 -57.5q-24 -23 -55 -36.5t-64 -13.5z" />
    <glyph glyph-name="u_x" unicode="ux" horiz-adv-x="935" 
d="M976 224q11 -6 14.5 -18t-2.5 -23q0 -1 -4.5 -8.5t-12.5 -20t-19.5 -28.5t-24.5 -32q-78 -96 -150 -96q-37 0 -60 25q-20 21 -25.5 54t-4.5 73l-145 -143q-10 -8 -21 -8q-13 0 -22 9q-8 9 -8 21.5t9 20.5l192 189q2 21 2.5 41t-1.5 37q-2 25 -7 33t-8 10t-7.5 3.5
t-12.5 -0.5q-6 -2 -15 -6.5t-21 -15t-27.5 -27.5t-34.5 -44q-29 -42 -53.5 -86.5t-60.5 -89.5q-32 -39 -62 -62q-42 -33 -81 -33q-29 0 -46.5 11.5t-25.5 23.5q-15 20 -19 51q-65 -86 -128 -86q-29 0 -46.5 11.5t-25.5 23.5q-34 47 -16 153q7 42 20.5 93t35.5 113
q4 12 15 17.5t23 1.5q12 -5 17.5 -16t0.5 -23q-29 -84 -42 -140t-15.5 -90t1.5 -51t9 -23q2 -4 7 -7t16 -3q17 0 40 18.5t46 52.5q11 14 19 28.5t14 25.5q7 13 13 25q2 4 4 6q15 77 51 178q4 12 15 17.5t23 1.5q12 -5 17.5 -16t0.5 -23q-29 -84 -42 -140t-15.5 -90t1.5 -51
t9 -23q2 -4 7 -7t16 -3q19 0 39 14.5t40 37.5t39 51t36 55t30.5 50.5t23.5 36.5q71 99 131 116q36 10 68 -8q14 -9 22 -21.5t12.5 -25.5t6 -25t2.5 -18q0 -5 0.5 -11t0.5 -12l118 115q9 9 21.5 9t20.5 -9q9 -9 8.5 -21.5t-8.5 -21.5l-163 -159v-1q-2 -25 -3.5 -50t0.5 -46
q2 -25 5.5 -36t7.5 -15q2 -2 5.5 -4t10.5 -2q43 0 103 74q12 15 22 29.5t18 25.5q9 13 15 25q6 11 18 14.5t23 -2.5z" />
    <glyph glyph-name="u_z" unicode="uz" horiz-adv-x="915" 
d="M956 225q11 -6 14.5 -17.5t-2.5 -22.5q-1 -2 -17 -29.5t-44 -61.5q-82 -96 -161 -96q-41 0 -80.5 11t-72.5 22l-9 3q-42 -36 -74 -36h-2q-29 0 -43 14t-16 31q-2 24 19 45q19 16 46 20q11 2 24.5 0.5t29.5 -6.5h1q23 23 47.5 53.5t51.5 63.5q25 31 49.5 61.5t49.5 56.5
q-21 2 -40.5 6t-36.5 8q-27 7 -49.5 10.5t-42.5 -3.5q-56 -18 -78 -67q-9 -20 -20.5 -49.5t-25.5 -62t-31.5 -64.5t-38.5 -58t-46.5 -42t-54.5 -16t-46.5 11.5t-25.5 23.5q-15 20 -19 51q-65 -86 -128 -86q-29 0 -46.5 11.5t-25.5 23.5q-34 47 -16 153q7 42 20.5 93
t35.5 113q4 12 15 17.5t23 1.5q12 -5 17.5 -16t0.5 -23q-29 -84 -42 -140t-15.5 -90t1.5 -51t9 -23q2 -4 7 -7t16 -3q17 0 40 18.5t46 52.5q11 14 19 28.5t14 25.5q7 13 13 25q2 4 4 6q15 77 51 178q4 12 15 17.5t23 1.5q12 -5 17.5 -16t0.5 -23q-29 -84 -42 -140t-15.5 -90
t1.5 -51t9 -23q2 -4 7 -7t16 -3q19 0 36.5 14.5t33 37.5t29 51.5t25 57t21 54t17.5 42.5q17 36 46 61t68 38q32 11 63 6.5t62 -12.5q19 -5 38 -8.5t37.5 -4t38 4t40.5 15.5q11 6 23 2.5t18 -14.5t2.5 -23t-14.5 -18q-18 -10 -39 -29.5t-43.5 -44t-45 -52.5t-44.5 -55
q-23 -29 -44 -54.5t-39 -45.5q28 -9 56.5 -16.5t57.5 -7.5q16 0 32 7t31 18t28 24t24 26q12 15 22 29t17 25t11 18.5l4 7.5q6 11 18 14.5t23 -2.5z" />
    <glyph glyph-name="v_r" unicode="vr" horiz-adv-x="823" 
d="M673 -1q-29 0 -46.5 11.5t-26.5 23.5q-33 46 -15 153q7 52 29 125q-12 -6 -28 -13q-65 -27 -120 -20l-92 -258q-5 -14 -16.5 -17.5t-21.5 1t-16 14.5t0 24q1 3 7 19.5t14.5 40t18.5 52t19.5 56t17.5 50.5t13 37q-17 10 -29 21q-33 30 -43 66q-9 34 1 65q8 23 25 38.5
t38 17.5q42 3 67 -42q25 -46 17 -109l-3 -17q18 -2 37.5 2.5t42.5 13.5q18 8 34 17t27 17q13 9 25 18q8 7 18.5 7.5t18.5 -5.5t11.5 -15.5t-0.5 -19.5q-29 -84 -42 -140t-15.5 -90.5t1.5 -51t8 -22.5q3 -4 8 -7t16 -3q18 0 43 19t53 54q12 14 21.5 28.5t17.5 25.5
q9 13 16 25q6 11 18 14.5t23 -2.5t14.5 -18t-3.5 -23q0 -1 -4.5 -8.5t-12.5 -20t-19 -28t-24 -31.5q-31 -38 -62 -63q-43 -32 -81 -32zM84 -1q-29 0 -46.5 11.5t-25.5 23.5q-34 47 -16 153q12 81 56 206q4 12 15 17.5t23 1.5q11 -5 17 -16t1 -23q-29 -84 -42 -140t-15.5 -90
t1.5 -51t8 -23q3 -4 8 -7t16 -3q16 0 45.5 23t59.5 68q16 23 30 51t23 58t10.5 59t-8.5 54q-5 12 0.5 23t16.5 16q12 5 23 0t16 -17q23 -60 2 -143q-19 -70 -63 -134q-35 -50 -73 -82q-44 -36 -82 -36zM408 446q-2 0 -5.5 -3.5t-6.5 -11.5q-1 -3 -2 -9.5t0.5 -15.5t7.5 -20
t19 -23l5 -3q2 20 0.5 39.5t-10.5 36.5q-2 2 -3.5 4t-2.5 4z" />
    <glyph glyph-name="w_r" unicode="wr" horiz-adv-x="1044" 
d="M893 -1q-29 0 -46.5 11.5t-26.5 23.5q-33 46 -15 153q7 52 29 125q-12 -6 -28 -13q-65 -27 -120 -20l-92 -258q-5 -14 -16.5 -17.5t-21.5 1t-16 14.5t0 24q1 3 7 19.5t14.5 40t18.5 52t19.5 56t17.5 50.5t13 37q-17 10 -29 21q-33 30 -43 66q-9 34 1 65q8 23 25 38.5
t38 17.5q42 3 67 -42q25 -46 17 -109l-3 -17q18 -2 37.5 2.5t42.5 13.5q18 8 34 17t27 17q13 9 25 18q8 7 18.5 7.5t18.5 -5.5t11.5 -15.5t-0.5 -19.5q-29 -84 -42 -140t-15.5 -90.5t1.5 -51t8 -22.5q3 -4 8 -7t16 -3q18 0 43 19t53 54q12 14 21.5 28.5t17.5 25.5
q9 13 16 25q6 11 18 14.5t23 -2.5t14.5 -18t-3.5 -23q0 -1 -4.5 -8.5t-12.5 -20t-19 -28t-24 -31.5q-31 -38 -62 -63q-43 -32 -81 -32zM520 394q23 -60 2 -143q-19 -70 -63 -134q-35 -50 -73 -82q-44 -36 -82 -36q-29 0 -46.5 11.5t-25.5 23.5q-14 19 -20 52
q-63 -87 -128 -87q-29 0 -46.5 11.5t-25.5 23.5q-34 49 -16 153q13 81 56 206q4 12 15 17.5t23 1.5q12 -5 17.5 -16t1.5 -23q-30 -84 -42.5 -140t-15.5 -90t1 -51t9 -23q2 -4 7 -7t16 -3q17 0 40 18.5t47 52.5q10 14 18.5 28.5t14.5 25.5q7 13 12 25l5 7q15 75 51 177
q4 12 15 17.5t23 1.5q11 -5 17 -16t1 -23q-29 -84 -42 -140t-15.5 -90t1.5 -51t8 -23q3 -4 8 -7t16 -3q16 0 45.5 23t59.5 68q16 23 30 51t23 58t10.5 59t-8.5 54q-5 12 0.5 23t16.5 16q12 5 23 0t16 -17zM628 446q-2 0 -5.5 -3.5t-6.5 -11.5q-1 -3 -2 -9.5t0.5 -15.5
t7.5 -20t19 -23l5 -3q2 20 0.5 39.5t-10.5 36.5q-2 2 -3.5 4t-2.5 4z" />
    <glyph glyph-name="x_r" unicode="xr" horiz-adv-x="1007" 
d="M856 -1q-29 0 -46.5 11.5t-26.5 23.5q-33 46 -15 153q7 52 29 125q-12 -6 -28 -13q-65 -27 -120 -20q-18 -42 -54.5 -91.5t-82.5 -91.5t-96 -70t-93 -28q-37 0 -60 25q-20 21 -25.5 54t-4.5 73l-145 -143q-10 -8 -21 -8q-13 0 -22 9q-8 9 -8 21.5t9 20.5l192 189
q2 21 2.5 41t-1.5 37q-2 25 -7 33t-8 10t-7.5 3.5t-12.5 -0.5q-6 -2 -15 -6.5t-21 -15t-27.5 -27.5t-34.5 -44q-23 -32 -37 -58t-15 -26q-5 -11 -17 -15t-23 2q-11 5 -15 17t2 23q1 2 16 29t40 62q71 99 131 116q36 10 68 -8q14 -9 22 -21.5t12.5 -25.5t6 -25t2.5 -18
q0 -5 0.5 -11t0.5 -12l118 115q9 9 21.5 9t20.5 -9q9 -9 8.5 -21.5t-8.5 -21.5l-163 -159v-1q-2 -25 -3.5 -50t0.5 -46q0 -6 1 -16t4 -19t8.5 -15.5t15.5 -6.5q27 0 66.5 23.5t79.5 59.5t74.5 78t49.5 79q-17 10 -29 21q-33 30 -43 66q-9 34 1 65q8 23 25 38.5t38 17.5
q42 3 67 -42q25 -46 17 -109l-3 -17q18 -2 37.5 2.5t42.5 13.5q18 8 34 17t27 17q13 9 25 18q8 7 18.5 7.5t18.5 -5.5t11.5 -15.5t-0.5 -19.5q-29 -84 -42 -140t-15.5 -90.5t1.5 -51t8 -22.5q3 -4 8 -7t16 -3q18 0 43 19t53 54q12 14 21.5 28.5t17.5 25.5q9 13 16 25
q6 11 18 14.5t23 -2.5t14.5 -18t-3.5 -23q0 -1 -4.5 -8.5t-12.5 -20t-19 -28t-24 -31.5q-31 -38 -62 -63q-43 -32 -81 -32zM591 446q-2 0 -5.5 -3.5t-6.5 -11.5q-1 -3 -2 -9.5t0.5 -15.5t7.5 -20t19 -23l5 -3q2 20 0.5 39.5t-10.5 36.5q-2 2 -3.5 4t-2.5 4z" />
    <glyph glyph-name="x_s" unicode="xs" horiz-adv-x="830" 
d="M601 1q-20 0 -38 5.5t-32 15.5q-34 25 -34 66q0 13 8.5 21.5t21.5 8.5t21.5 -8.5t8.5 -21.5q0 -16 16 -21.5t28 -5.5q44 0 77 33q40 40 40 113q0 35 -22 60t-50 49l-28 24q-8 -17 -19 -40t-28 -53q-22 -39 -44.5 -77t-53.5 -76q-78 -96 -150 -96q-37 0 -60 25
q-20 21 -25.5 54t-4.5 73l-145 -143q-10 -8 -21 -8q-13 0 -22 9q-8 9 -8 21.5t9 20.5l192 189q2 21 2.5 41t-1.5 37q-2 25 -7 33t-8 10t-7.5 3.5t-12.5 -0.5q-6 -2 -15 -6.5t-21 -15t-27.5 -27.5t-34.5 -44q-23 -32 -37 -58t-15 -26q-5 -11 -17 -15t-23 2q-11 5 -15 17t2 23
q1 2 16 29t40 62q71 99 131 116q36 10 68 -8q14 -9 22 -21.5t12.5 -25.5t6 -25t2.5 -18q0 -5 0.5 -11t0.5 -12l118 115q9 9 21.5 9t20.5 -9q9 -9 8.5 -21.5t-8.5 -21.5l-163 -159v-1q-2 -25 -3.5 -50t0.5 -46q2 -25 5.5 -36t7.5 -15q2 -2 5.5 -4t10.5 -2q43 0 103 74
q26 33 48 69t45 76q20 35 31.5 59.5t17.5 40t7.5 23.5t1.5 11q0 11 7.5 19.5t19.5 10.5q11 1 20.5 -6t11.5 -18q3 -13 17.5 -27t31.5 -29q15 -14 31.5 -29t30 -33.5t22.5 -41t9 -50.5q0 -61 -19 -98.5t-39 -57.5q-24 -23 -55 -36.5t-64 -13.5z" />
    <glyph glyph-name="x_x" unicode="xx" horiz-adv-x="962" 
d="M1003 224q11 -6 14.5 -18t-2.5 -23q0 -1 -4.5 -8.5t-12.5 -20t-19.5 -28.5t-24.5 -32q-78 -96 -150 -96q-37 0 -60 25q-20 21 -25.5 54t-4.5 73l-145 -143q-10 -8 -21 -8q-13 0 -22 9q-8 9 -8 21.5t9 20.5l192 189q2 21 2.5 41t-1.5 37q-2 25 -7 33t-8 10t-7.5 3.5
t-12.5 -0.5q-32 -10 -60 -42.5t-54 -73t-50 -82.5t-48 -71q-78 -96 -150 -96q-37 0 -60 25q-20 21 -25.5 54t-4.5 73l-145 -143q-10 -8 -21 -8q-13 0 -22 9q-8 9 -8 21.5t9 20.5l192 189q2 21 2.5 41t-1.5 37q-2 25 -7 33t-8 10t-7.5 3.5t-12.5 -0.5q-6 -2 -15 -6.5t-21 -15
t-27.5 -27.5t-34.5 -44q-23 -32 -37 -58t-15 -26q-5 -11 -17 -15t-23 2q-11 5 -15 17t2 23q1 2 16 29t40 62q71 99 131 116q36 10 68 -8q14 -9 22 -21.5t12.5 -25.5t6 -25t2.5 -18q0 -5 0.5 -11t0.5 -12l118 115q9 9 21.5 9t20.5 -9q9 -9 8.5 -21.5t-8.5 -21.5l-163 -159v-1
q-2 -25 -3.5 -50t0.5 -46q2 -25 5.5 -36t7.5 -15q2 -2 5.5 -4t10.5 -2q43 0 103 74q32 39 56.5 83.5t55.5 88.5q71 99 131 116q36 10 68 -8q14 -9 22 -21.5t12.5 -25.5t6 -25t2.5 -18q0 -5 0.5 -11t0.5 -12l118 115q9 9 21.5 9t20.5 -9q9 -9 8.5 -21.5t-8.5 -21.5l-163 -159
v-1q-2 -25 -3.5 -50t0.5 -46q2 -25 5.5 -36t7.5 -15q2 -2 5.5 -4t10.5 -2q43 0 103 74q12 15 22 29.5t18 25.5q9 13 15 25q6 11 18 14.5t23 -2.5z" />
    <glyph glyph-name="x_z" unicode="xz" horiz-adv-x="972" 
d="M1013 225q11 -6 14.5 -17.5t-2.5 -22.5q-1 -2 -17 -29.5t-44 -61.5q-82 -96 -161 -96q-41 0 -80.5 11t-72.5 22l-9 3q-42 -36 -74 -36h-2q-29 0 -43 14t-16 31q-2 24 19 45q19 16 46 20q11 2 24.5 0.5t29.5 -6.5h1q23 23 47.5 53.5t51.5 63.5q25 31 49.5 61.5t49.5 56.5
q-21 2 -40.5 6t-36.5 8q-27 7 -49.5 10.5t-42.5 -3.5q-56 -18 -78 -67q-11 -23 -24.5 -53.5t-31 -63t-38.5 -64.5t-45.5 -56.5t-53 -40t-61.5 -15.5q-37 0 -60 25q-20 21 -25.5 54t-4.5 73l-145 -143q-10 -8 -21 -8q-13 0 -22 9q-8 9 -8 21.5t9 20.5l192 189q2 21 2.5 41
t-1.5 37q-2 25 -7 33t-8 10t-7.5 3.5t-12.5 -0.5q-6 -2 -15 -6.5t-21 -15t-27.5 -27.5t-34.5 -44q-23 -32 -37 -58t-15 -26q-5 -11 -17 -15t-23 2q-11 5 -15 17t2 23q1 2 16 29t40 62q71 99 131 116q36 10 68 -8q14 -9 22 -21.5t12.5 -25.5t6 -25t2.5 -18q0 -5 0.5 -11
t0.5 -12l118 115q9 9 21.5 9t20.5 -9q9 -9 8.5 -21.5t-8.5 -21.5l-163 -159v-1q-2 -25 -3.5 -50t0.5 -46q2 -25 5.5 -36t7.5 -15q2 -2 5.5 -4t10.5 -2q20 0 40 14.5t39.5 37t37.5 51t33.5 57.5t28 54.5t20.5 43.5q17 36 46 61t68 38q32 11 63 6.5t62 -12.5q19 -5 38 -8.5
t37.5 -4t38 4t40.5 15.5q11 6 23 2.5t18 -14.5t2.5 -23t-14.5 -18q-18 -10 -39 -29.5t-43.5 -44t-45 -52.5t-44.5 -55q-23 -29 -44 -54.5t-39 -45.5q28 -9 56.5 -16.5t57.5 -7.5q16 0 32 7t31 18t28 24t24 26q12 15 22 29t17 25t11 18.5l4 7.5q6 11 18 14.5t23 -2.5z" />
    <glyph glyph-name="z_r" unicode="zr" horiz-adv-x="987" 
d="M836 -1q-29 0 -46.5 11.5t-26.5 23.5q-33 46 -15 153q7 52 29 125q-12 -6 -28 -13q-65 -27 -120 -20q-17 -45 -51.5 -94.5t-80.5 -91t-99 -68.5t-106 -27q-41 0 -80.5 11t-72.5 22l-9 3q-42 -36 -74 -36h-2q-29 0 -43 14t-16 31q-2 24 19 45q19 16 46 20q11 2 24.5 0.5
t29.5 -6.5h1q23 23 47.5 53.5t51.5 63.5q25 31 49.5 61.5t49.5 56.5q-21 2 -40.5 6t-36.5 8q-27 7 -49.5 10.5t-42.5 -3.5q-56 -18 -78 -67q-7 -15 -9.5 -28.5t-3.5 -24t0 -18t2 -10.5q5 -11 0.5 -22.5t-16.5 -16.5q-11 -5 -22.5 0t-16.5 16q-8 20 -7 56.5t18 72.5t46 61
t68 38q32 11 63 6.5t62 -12.5q19 -5 38 -8.5t37.5 -4t38 4t40.5 15.5q11 6 23 2.5t18 -14.5t2.5 -23t-14.5 -18q-18 -10 -39 -29.5t-43.5 -44t-45 -52.5t-44.5 -55q-23 -29 -44 -54.5t-39 -45.5q28 -9 56.5 -16.5t57.5 -7.5q35 0 78.5 24t84 60t73 78t45.5 78q-17 10 -29 21
q-33 30 -43 66q-9 34 1 65q8 23 25 38.5t38 17.5q42 3 67 -42q25 -46 17 -109l-3 -17q18 -2 37.5 2.5t42.5 13.5q18 8 34 17t27 17q13 9 25 18q8 7 18.5 7.5t18.5 -5.5t11.5 -15.5t-0.5 -19.5q-29 -84 -42 -140t-15.5 -90.5t1.5 -51t8 -22.5q3 -4 8 -7t16 -3q18 0 43 19
t53 54q12 14 21.5 28.5t17.5 25.5q9 13 16 25q6 11 18 14.5t23 -2.5t14.5 -18t-3.5 -23q0 -1 -4.5 -8.5t-12.5 -20t-19 -28t-24 -31.5q-31 -38 -62 -63q-43 -32 -81 -32zM571 446q-2 0 -5.5 -3.5t-6.5 -11.5q-1 -3 -2 -9.5t0.5 -15.5t7.5 -20t19 -23l5 -3q2 20 0.5 39.5
t-10.5 36.5q-2 2 -3.5 4t-2.5 4z" />
    <glyph glyph-name="z_s" unicode="zs" horiz-adv-x="810" 
d="M581 1q-20 0 -38 5.5t-32 15.5q-34 25 -34 66q0 13 8.5 21.5t21.5 8.5t21.5 -8.5t8.5 -21.5q0 -16 16 -21.5t28 -5.5q44 0 77 33q40 40 40 113q0 35 -22 60t-50 49l-28 24q-8 -20 -26.5 -54.5t-40.5 -72t-43.5 -70.5t-34.5 -49q-82 -96 -161 -96q-41 0 -80.5 11t-72.5 22
l-9 3q-42 -36 -74 -36h-2q-29 0 -43 14t-16 31q-2 24 19 45q19 16 46 20q11 2 24.5 0.5t29.5 -6.5h1q23 23 47.5 53.5t51.5 63.5q25 31 49.5 61.5t49.5 56.5q-21 2 -40.5 6t-36.5 8q-27 7 -49.5 10.5t-42.5 -3.5q-56 -18 -78 -67q-7 -15 -9.5 -28.5t-3.5 -24t0 -18t2 -10.5
q5 -11 0.5 -22.5t-16.5 -16.5q-11 -5 -22.5 0t-16.5 16q-8 20 -7 56.5t18 72.5t46 61t68 38q32 11 63 6.5t62 -12.5q19 -5 38 -8.5t37.5 -4t38 4t40.5 15.5q11 6 23 2.5t18 -14.5t2.5 -23t-14.5 -18q-18 -10 -39 -29.5t-43.5 -44t-45 -52.5t-44.5 -55q-23 -29 -44 -54.5
t-39 -45.5q28 -9 56.5 -16.5t57.5 -7.5q16 0 32 7t31 18t28 24t24 26q7 9 14.5 19.5t18 26.5t24.5 39.5t35 58.5q20 35 31.5 59.5t17.5 40t7.5 23.5t1.5 11q0 11 7.5 19.5t19.5 10.5q11 1 20.5 -6t11.5 -18q3 -13 17.5 -27t31.5 -29q15 -14 31.5 -29t30 -33.5t22.5 -41
t9 -50.5q0 -61 -19 -98.5t-39 -57.5q-24 -23 -55 -36.5t-64 -13.5z" />
    <glyph glyph-name="z_x" unicode="zx" horiz-adv-x="942" 
d="M983 224q11 -6 14.5 -18t-2.5 -23q0 -1 -4.5 -8.5t-12.5 -20t-19.5 -28.5t-24.5 -32q-78 -96 -150 -96q-37 0 -60 25q-20 21 -25.5 54t-4.5 73l-145 -143q-10 -8 -21 -8q-13 0 -22 9q-8 9 -8 21.5t9 20.5l192 189q2 21 2.5 41t-1.5 37q-2 25 -7 33t-8 10t-7.5 3.5
t-12.5 -0.5q-6 -2 -15 -6.5t-21 -15t-27.5 -27.5t-34.5 -44q-29 -42 -54 -88t-60 -88q-82 -96 -161 -96q-41 0 -80.5 11t-72.5 22l-9 3q-42 -36 -74 -36h-2q-29 0 -43 14t-16 31q-2 24 19 45q19 16 46 20q11 2 24.5 0.5t29.5 -6.5h1q23 23 47.5 53.5t51.5 63.5
q25 31 49.5 61.5t49.5 56.5q-21 2 -40.5 6t-36.5 8q-27 7 -49.5 10.5t-42.5 -3.5q-56 -18 -78 -67q-7 -15 -9.5 -28.5t-3.5 -24t0 -18t2 -10.5q5 -11 0.5 -22.5t-16.5 -16.5q-11 -5 -22.5 0t-16.5 16q-8 20 -7 56.5t18 72.5t46 61t68 38q32 11 63 6.5t62 -12.5
q19 -5 38 -8.5t37.5 -4t38 4t40.5 15.5q11 6 23 2.5t18 -14.5t2.5 -23t-14.5 -18q-18 -10 -39 -29.5t-43.5 -44t-45 -52.5t-44.5 -55q-23 -29 -44 -54.5t-39 -45.5q28 -9 56.5 -16.5t57.5 -7.5q16 0 32 7t31 18t28 24t24 26q32 38 56 83t55 88q71 99 131 116q36 10 68 -8
q14 -9 22 -21.5t12.5 -25.5t6 -25t2.5 -18q0 -5 0.5 -11t0.5 -12l118 115q9 9 21.5 9t20.5 -9q9 -9 8.5 -21.5t-8.5 -21.5l-163 -159v-1q-2 -25 -3.5 -50t0.5 -46q2 -25 5.5 -36t7.5 -15q2 -2 5.5 -4t10.5 -2q43 0 103 74q12 15 22 29.5t18 25.5q9 13 15 25q6 11 18 14.5
t23 -2.5z" />
    <glyph glyph-name="z_z" unicode="zz" horiz-adv-x="922" 
d="M963 225q11 -6 14.5 -17.5t-2.5 -22.5q-1 -2 -17 -29.5t-44 -61.5q-82 -96 -161 -96q-41 0 -80.5 11t-72.5 22l-9 3q-42 -36 -74 -36h-2q-29 0 -43 14t-16 31q-2 24 19 45q19 16 46 20q11 2 24.5 0.5t29.5 -6.5h1q23 23 47.5 53.5t51.5 63.5q25 31 49.5 61.5t49.5 56.5
q-21 2 -40.5 6t-36.5 8q-27 7 -49.5 10.5t-42.5 -3.5q-56 -18 -78 -67q-12 -27 -22 -59t-22 -65t-27 -63t-37 -54t-53 -38t-74 -14q-41 0 -80.5 11t-72.5 22l-9 3q-42 -36 -74 -36h-2q-29 0 -43 14t-16 31q-2 24 19 45q19 16 46 20q11 2 24.5 0.5t29.5 -6.5h1
q23 23 47.5 53.5t51.5 63.5q25 31 49.5 61.5t49.5 56.5q-21 2 -40.5 6t-36.5 8q-27 7 -49.5 10.5t-42.5 -3.5q-56 -18 -78 -67q-7 -15 -9.5 -28.5t-3.5 -24t0 -18t2 -10.5q5 -11 0.5 -22.5t-16.5 -16.5q-11 -5 -22.5 0t-16.5 16q-8 20 -7 56.5t18 72.5t46 61t68 38
q32 11 63 6.5t62 -12.5q19 -5 38 -8.5t37.5 -4t38 4t40.5 15.5q11 6 23 2.5t18 -14.5t2.5 -23t-14.5 -18q-18 -10 -39 -29.5t-43.5 -44t-45 -52.5t-44.5 -55q-23 -29 -44 -54.5t-39 -45.5q28 -9 56.5 -16.5t57.5 -7.5q35 0 60 13.5t42 36t28 50.5t19 56.5t15 55t16 46.5
q17 36 46 61t68 38q32 11 63 6.5t62 -12.5q19 -5 38 -8.5t37.5 -4t38 4t40.5 15.5q11 6 23 2.5t18 -14.5t2.5 -23t-14.5 -18q-18 -10 -39 -29.5t-43.5 -44t-45 -52.5t-44.5 -55q-23 -29 -44 -54.5t-39 -45.5q28 -9 56.5 -16.5t57.5 -7.5q16 0 32 7t31 18t28 24t24 26
q12 15 22 29t17 25t11 18.5l4 7.5q6 11 18 14.5t23 -2.5z" />
    <glyph glyph-name="ff" unicode="ff" horiz-adv-x="689" 
d="M397 225q2 0 4 -0.5t4 -0.5v1q19 80 39 156t43 139q14 41 28.5 70.5t29.5 51.5q41 56 88 56q32 0 51 -25q35 -44 22 -165q-4 -43 -10 -74.5t-6 -33.5q-3 -12 -13.5 -18.5t-22.5 -4.5q-12 3 -19 13.5t-4 22.5q0 1 6 31t10 70q3 34 2.5 56.5t-2.5 36.5t-5 20.5t-5 8.5
q-1 2 -4 2q-17 0 -39 -31q-24 -34 -50 -107q-21 -58 -40 -129t-37 -146h233q12 0 21 -8.5t9 -21.5q0 -12 -9 -21t-21 -9h-248q-19 -78 -36.5 -148.5t-36.5 -127.5q-21 -60 -42 -94q-29 -47 -67 -47q-12 0 -21 9t-9 21q0 13 8.5 21.5t21.5 8.5q1 0 5 3.5t11 15t17 33.5t22 59
q17 51 32.5 114t32.5 132h-241q-19 -78 -36.5 -148.5t-36.5 -127.5q-21 -60 -42 -94q-29 -47 -67 -47q-12 0 -21 9t-9 21q0 13 8.5 21.5t21.5 8.5q1 0 5 3.5t11 15t17 33.5t22 59q17 51 32.5 114t32.5 132h-63q-12 0 -21 9t-9 21q0 13 9 21.5t21 8.5h78q19 80 39 156t43 139
q14 41 28.5 70.5t29.5 51.5q41 56 88 56q32 0 51 -25q35 -44 22 -165q-4 -43 -10 -74.5t-6 -33.5q-3 -12 -13.5 -18.5t-22.5 -4.5q-12 3 -19 13.5t-4 22.5q0 1 6 31t10 70q3 34 2.5 56.5t-2.5 36.5t-5 20.5t-5 8.5q-1 2 -4 2q-17 0 -39 -31q-24 -34 -50 -107
q-21 -58 -40 -129t-37 -146h233v0z" />
    <glyph glyph-name=".notdef" horiz-adv-x="250" 
 />
    <glyph glyph-name=".null" horiz-adv-x="0" 
 />
    <glyph glyph-name="nonmarkingreturn" unicode="&#xd;" horiz-adv-x="250" 
 />
    <glyph glyph-name="NULL" horiz-adv-x="0" 
 />
    <glyph glyph-name="NULL" horiz-adv-x="0" 
 />
    <glyph glyph-name="space" unicode=" " horiz-adv-x="250" 
 />
    <glyph glyph-name="exclam" unicode="!" horiz-adv-x="334" 
d="M147 32q-4 -13 -15.5 -22t-24.5 -10q-12 -1 -18.5 7.5t-2.5 21.5q4 12 15.5 21.5t24.5 9.5q13 1 19 -7t2 -21zM325 677q3 -7 1 -14q0 -2 -9 -38.5t-23 -90.5t-31 -117.5t-33 -120.5t-29 -99t-20 -53q-8 -11 -19.5 -14t-22.5 5q-11 7 -14 18.5t5 22.5q5 7 16.5 45t27 91.5
t31.5 114.5t29.5 114t22.5 89.5t10 41.5q2 13 12 20t22 6q19 -3 24 -21z" />
    <glyph glyph-name="quotedbl" unicode="&#x22;" horiz-adv-x="277" 
d="M104 629q2 -3 3.5 -5.5t1.5 -7.5q1 -3 3 -26.5t3 -54.5t0 -62t-6 -49q-4 -13 -14.5 -19t-22.5 -2t-18.5 14.5t-2.5 22.5t4.5 37t0 51t-2.5 48.5t-3 30.5q-2 13 5.5 22.5t19.5 12.5q19 2 29 -13zM214 629q2 -3 3.5 -5.5t1.5 -7.5q1 -3 3 -26.5t3 -54.5t0 -62t-6 -49
q-4 -13 -14.5 -19t-22.5 -2t-18.5 14.5t-2.5 22.5t4.5 37t0 51t-2.5 48.5t-3 30.5q-2 13 5.5 22.5t19.5 12.5q19 2 29 -13z" />
    <glyph glyph-name="numbersign" unicode="#" horiz-adv-x="435" 
d="M398 307q-3 -2 -5.5 -3.5t-7.5 -1.5q-2 -1 -27 -2t-61 -3q-14 -54 -26.5 -94t-19.5 -51q-8 -11 -19.5 -14t-22.5 5q-11 7 -14 18.5t5 22.5q5 7 14.5 37.5t20.5 74.5q-23 -1 -45 -1h-43q-14 -53 -26.5 -92.5t-19.5 -50.5q-8 -11 -19.5 -14t-22.5 5q-11 7 -14 18.5t5 22.5
q5 7 14.5 38t21.5 76q-11 1 -18.5 1.5t-12.5 2.5q-13 4 -19 14.5t-2 22.5t14.5 18.5t22.5 2.5q4 -2 11.5 -2.5t18.5 -1.5l10 40l10 40q-23 1 -40.5 2t-25.5 4q-13 4 -19 14.5t-2 22.5t14.5 18.5t22.5 2.5q6 -2 23.5 -3.5t41.5 -1.5q11 46 18.5 79t8.5 38q2 13 12 20t22 6
q19 -3 24 -21q3 -7 1 -14l-25 -108h45.5t44.5 1q11 46 18 78.5t8 37.5q2 13 12 20t22 6q19 -3 24 -21q3 -7 1 -14q-1 -2 -7 -31t-17 -74q22 2 28 3q13 2 22.5 -5.5t12.5 -19.5q2 -19 -13 -29q-3 -2 -5.5 -3.5t-7.5 -1.5q-2 -1 -16 -1.5t-36 -1.5q-5 -20 -10 -41t-10 -41
q25 1 41.5 2t21.5 2q13 2 22.5 -5.5t12.5 -19.5q2 -19 -13 -29zM162 355h89l21 82q-22 -1 -44.5 -1.5t-45.5 -0.5z" />
    <glyph glyph-name="dollar" unicode="$" horiz-adv-x="555" 
d="M399 700q61 -8 92 -45q9 -10 16.5 -25t11 -35.5t0.5 -47t-15 -59.5q-5 -11 -16 -16.5t-23 -0.5q-11 4 -16.5 15.5t-1.5 22.5q5 13 9 27.5t4.5 28.5t-2.5 27.5t-12 23.5q-20 23 -63 25l-72 -269q24 -20 46.5 -41t39.5 -46q24 -34 30 -71q8 -43 -7 -86q-16 -49 -57.5 -83.5
t-101.5 -46.5q-26 -6 -52 -6l-9 -35q-7 -23 -29 -23q-2 0 -4 0.5t-4 0.5q-12 4 -18 14.5t-3 22.5l7 26q-57 14 -91 51q-28 33 -34 74q-8 43 9 96q4 11 15 17t23 2t18 -15t1 -23q-23 -71 13 -110q21 -25 61 -34l79 294q-23 19 -44.5 38t-38.5 41q-11 14 -17 28t-10 28
q-8 32 3 66q17 56 72 96q23 17 51.5 29.5t58.5 19.5l19 3l9 35q3 12 14 18t23 3t18 -14t3 -23zM348 251q-11 15 -24.5 29t-29.5 28l-68 -255q5 0 11 1l12 2q43 9 73 33t41 57q10 29 6 54t-21 51zM208 465q10 -13 23.5 -25.5t28.5 -25.5l59 221q-20 -6 -40 -15t-37 -22
t-30 -29t-19 -35q-5 -18 -2 -34.5t17 -34.5z" />
    <glyph glyph-name="percent" unicode="%" horiz-adv-x="290" 
d="M252 617q3 -7 1 -14q0 -2 -6 -26.5t-16 -63.5t-23.5 -89t-27.5 -103t-28 -104.5t-26.5 -94t-22.5 -72t-15 -37.5q-8 -11 -19.5 -14t-22.5 5q-11 7 -14 18.5t5 22.5q5 7 18 50.5t30.5 104.5t36.5 131.5t34.5 131t26 102.5t11.5 47q2 13 12 20t22 6q19 -3 24 -21zM257 32
q-4 -13 -15.5 -22t-24.5 -10q-12 -1 -18.5 7.5t-2.5 21.5q4 12 15.5 21.5t24.5 9.5q13 1 19 -7t2 -21zM96 611q-4 -13 -15.5 -22t-24.5 -10q-12 -1 -18.5 7.5t-2.5 21.5q4 12 15.5 21.5t24.5 9.5q13 1 19 -7t2 -21z" />
    <glyph glyph-name="ampersand" unicode="&#x26;" horiz-adv-x="840" 
d="M267 90q-2 0 -3.5 0.5t-3.5 0.5q-14 7 -9 22v1q0 1 1 2q-3 -3 -9 -7q-24 -18 -47 -18q-24 0 -37 18q-13 14 -14 41q-7 -10 -15 -18t-16 -15q-20 -16 -40 -22q-21 -7 -38 -1q-25 9 -33 38q-7 25 2 61q8 29 24 54.5t38 45.5q21 19 41.5 27.5t37.5 4.5q3 -1 9 -4t11 -9.5
t7.5 -18t-1.5 -29.5q-4 -16 -21 -13q-7 2 -11 7.5t-2 12.5q2 9 1.5 13t-0.5 6l-2 2q-5 2 -17.5 -3.5t-29.5 -21.5q-37 -34 -51 -83q-6 -23 -4 -38.5t12 -19.5q7 -2 18 1t27 17q12 10 30 32.5t37 64.5q5 14 21 9q6 -3 9 -9t1 -12q-11 -44 -10.5 -67.5t6.5 -31.5q3 -5 10 -5
q23 0 57 42q11 14 19 26t11 17l38 106q2 7 8.5 10t13.5 1q7 -3 10 -9.5t0 -12.5l-21 -61q10 14 19.5 25.5t17.5 20.5q34 38 59 38q11 0 17 -4t9 -8q10 -13 6.5 -34t-11.5 -55q-2 -6 -3 -11.5t-3 -11.5q-5 -17 -7 -29.5t-4 -23.5q-2 -13 -0.5 -17.5t2.5 -6.5q4 -2 10 -2
q21 0 55 42q14 17 22.5 31t8.5 15l3 4q8 22 22 41t31 35q21 19 41.5 27.5t37.5 4.5q5 -2 15.5 -8.5t12.5 -24.5q17 51 37.5 101.5t37.5 88.5q7 16 22 9q16 -7 9 -23q-26 -62 -45.5 -111.5t-31.5 -89.5q-17 -55 -20 -87q-3 -23 -0.5 -34t4.5 -15q2 -2 4.5 -4t9.5 -2
q22 0 56 42q7 8 12 16t10 15q4 7 9 14q4 7 10.5 9t12.5 -2q7 -4 9 -10.5t-2 -12.5q-1 -2 -10.5 -17t-23.5 -34q-20 -23 -36 -36q-26 -18 -47 -18q-17 0 -27.5 7t-15.5 14q-5 8 -8 17.5t-3 22.5q-16 -22 -33 -35q-18 -15 -40 -22q-9 -4 -20 -4q-9 0 -18 3q-26 10 -33 38l-2 6
q-16 -19 -30 -29q-24 -18 -46 -18q-26 0 -37 15q-14 17 -10 44.5t12 61.5l6 23q3 13 5.5 23.5t3.5 18.5q2 6 2 10v6q-2 -1 -8 -4.5t-16 -13.5t-24.5 -28t-34.5 -48q-13 -18 -24 -36t-19 -32t-12.5 -23l-4.5 -9q-6 -9 -16 -9zM611 144q12 10 30 32.5t37 64.5l1 1l2 10
q-4 -3 -10 -1q-7 2 -11 7.5t-2 12.5q2 9 1.5 13t-1.5 6q0 2 -1 2q-5 2 -18 -3.5t-29 -21.5q-18 -17 -31.5 -38.5t-20.5 -44.5q-6 -23 -4 -38.5t12 -19.5q7 -2 18 1t27 17z" />
    <glyph glyph-name="quotesingle" unicode="'" horiz-adv-x="143" 
d="M94 629q2 -3 3.5 -5.5t1.5 -7.5q1 -3 3 -26.5t3 -54.5t0 -62t-6 -49q-4 -13 -14.5 -19t-22.5 -2t-18.5 14.5t-2.5 22.5t4.5 37t0 51t-2.5 48.5t-3 30.5q-2 13 5.5 22.5t19.5 12.5q19 2 29 -13z" />
    <glyph glyph-name="parenleft" unicode="(" horiz-adv-x="399" 
d="M363 672q13 0 21.5 -9t8.5 -21q0 -13 -8.5 -21.5t-21.5 -8.5q-43 0 -92 -47q-48 -46 -91 -131q-32 -63 -54.5 -134.5t-31.5 -140.5q-10 -69 -3.5 -122t26.5 -81q24 -32 71 -25q13 2 23 -5t12 -20q2 -12 -5.5 -22t-19.5 -12q-15 -3 -28 -3q-39 0 -63.5 16.5t-38.5 35.5
q-29 40 -37 108q-4 31 -3 65.5t6 72.5q11 74 34.5 150.5t58.5 143.5q51 103 112 157t124 54z" />
    <glyph glyph-name="parenright" unicode=")" horiz-adv-x="399" 
d="M36 -131q-13 0 -21.5 9t-8.5 21q0 13 8.5 21.5t21.5 8.5q43 0 92 47q48 46 91 131q32 63 54.5 134.5t31.5 140.5q10 69 3.5 122t-26.5 81q-24 32 -71 25q-13 -2 -23 5t-12 20q-2 12 5.5 22t19.5 12q15 3 28 3q39 0 63.5 -16.5t38.5 -35.5q29 -40 37 -108q4 -31 3 -65.5
t-6 -72.5q-11 -74 -34.5 -150.5t-58.5 -143.5q-51 -103 -112 -157t-124 -54z" />
    <glyph glyph-name="asterisk" unicode="*" horiz-adv-x="402" 
d="M201 91q-23 0 -36 7t-19 15q-11 11 -14 29q-9 -11 -17 -18.5t-16 -14.5q-26 -18 -46 -18q-17 0 -27 6.5t-15 14.5q-14 22 -11 61t22 102q8 25 17 49.5t18 49.5l-18 -4h-3q-14 0 -16 13q-2 7 1.5 13t11.5 8l40 8q7 17 14 33t13 30q2 7 8.5 9.5t13.5 -0.5t9.5 -9.5
t-0.5 -12.5l-19 -42l72 14q14 3 21 -13q2 -16 -14 -20l-94 -18q-14 -35 -24 -64t-17 -55q-9 -26 -14 -47t-7 -38q-2 -23 0 -33t4 -15q2 -2 5 -4.5t9 -2.5q11 0 25 11.5t29 30.5q7 8 12 16.5t10 14.5q4 7 9 13q0 1 0.5 1t0.5 1q6 15 15 30q5 9 11 16.5t13 12.5q10 10 21 12
q2 2 2 4t2 4q20 34 52 34q14 0 25 -8t19 -22q11 -22 11 -57q0 -17 -2.5 -34.5t-9.5 -32.5q20 5 43 19q15 10 21 16q4 4 7 8q5 5 12 5.5t12 -4.5t6 -12t-4 -12q-1 -1 -10 -9.5t-24 -19t-36 -19.5t-46 -10q-12 -17 -28 -27q-23 -15 -50 -15zM226 259q-2 -7 -4 -15t-2 -17
q0 -27 13 -42q11 -15 28 -18q15 31 15 71q0 23 -6 38t-15 15q-8 0 -15 -7t-12 -18q0 -4 -2 -7zM183 225q-9 -14 -14.5 -31t-5.5 -31q0 -6 2 -14t6 -14q11 -11 30 -11q21 0 37 14q-17 8 -32 26q-19 25 -19 63v5z" />
    <glyph glyph-name="plus" unicode="+" horiz-adv-x="269" 
d="M154 425q2 -3 3.5 -5.5t1.5 -7.5q1 -3 2.5 -21.5t2.5 -44.5q20 1 36 2t22 3q13 2 22.5 -5.5t12.5 -19.5q2 -19 -13 -29q-3 -2 -5.5 -3.5t-7.5 -1.5q-3 -1 -21.5 -2.5t-44.5 -3.5q0 -20 -1.5 -37.5t-4.5 -28.5q-4 -13 -14.5 -19t-22.5 -2t-18.5 14.5t-2.5 22.5q2 8 3 20.5
t2 28.5q-20 1 -37.5 2t-29.5 5q-13 4 -19 14.5t-2 22.5t14.5 18.5t22.5 2.5q17 -5 50 -5l-5 58q-2 13 5.5 22.5t19.5 12.5q19 2 29 -13z" />
    <glyph glyph-name="comma" unicode="," horiz-adv-x="214" 
d="M56 -167q-16 0 -24 13q-8 10 -6.5 22t12.5 20q40 29 61.5 64t19.5 56q-1 6 -2.5 7.5t-3.5 2.5q-11 6 -14.5 18t2.5 23t17.5 14.5t22.5 -2.5q35 -18 37 -59q3 -42 -27 -90q-30 -47 -78 -83q-8 -6 -17 -6z" />
    <glyph glyph-name="hyphen" unicode="-" horiz-adv-x="310" 
d="M263 217q-3 -2 -5.5 -3.5t-7.5 -1.5q-3 -1 -26.5 -3t-54.5 -3t-62 0t-49 6q-13 4 -19 14.5t-2 22.5t14.5 18.5t22.5 2.5t37 -5t51 0t48.5 2.5t30.5 3.5q13 2 22.5 -5.5t12.5 -19.5q2 -19 -13 -29z" />
    <glyph glyph-name="period" unicode="." horiz-adv-x="127" 
d="M95 32q-4 -13 -15.5 -22t-24.5 -10q-12 -1 -18.5 7.5t-2.5 21.5q4 12 15.5 21.5t24.5 9.5q13 1 19 -7t2 -21z" />
    <glyph glyph-name="slash" unicode="/" horiz-adv-x="310" 
d="M298 617q3 -7 1 -14q0 -2 -6 -26.5t-16 -63.5t-23.5 -89t-27.5 -103t-28 -104.5t-26.5 -94t-22.5 -72t-15 -37.5q-8 -11 -19.5 -14t-22.5 5q-11 7 -14 18.5t5 22.5q5 7 18 50.5t30.5 104.5t36.5 131.5t34.5 131t26 102.5t11.5 47q2 13 12 20t22 6q19 -3 24 -21z" />
    <glyph glyph-name="zero" unicode="0" horiz-adv-x="581" 
d="M546 490q0 -38 -6 -78t-18 -81q-12 -42 -29.5 -81.5t-38.5 -74.5q-51 -84 -115 -129.5t-136 -49.5h-10q-26 0 -46.5 6t-35.5 16t-25.5 22t-17.5 24q-14 24 -20.5 51.5t-8 56t1 56t7.5 51.5q11 61 35 123t57 118q26 42 54 75.5t57 57.5q71 56 142 53q72 -4 112.5 -61
t40.5 -155zM403 206q38 64 60.5 139.5t22.5 144.5q0 72 -25 114q-23 39 -71 42h-5q-47 0 -96 -40q-52 -42 -97 -117q-32 -53 -53.5 -111t-31.5 -111.5t-7.5 -98.5t19.5 -73q25 -42 81 -39q37 2 69 18t57.5 38.5t45 48t31.5 45.5z" />
    <glyph glyph-name="one" unicode="1" horiz-adv-x="496" 
d="M435 58q13 0 21.5 -9t8.5 -21q0 -13 -8.5 -21.5t-21.5 -8.5l-400 -2q-13 0 -21.5 8.5t-8.5 21.5q0 12 8.5 21t21.5 9l164 1q4 12 12.5 39t19.5 63t24 79.5t27 89.5q22 75 36.5 129t23.5 91t13.5 59.5t6.5 34.5q-10 -4 -25.5 -12.5t-36.5 -25.5q-10 -8 -22 -6t-20 12
t-6.5 22t11.5 20q20 14 37.5 25t33.5 18q40 18 64 6q23 -11 25 -39q0 -5 -1 -19t-8.5 -50.5t-25 -103.5t-49.5 -178q-12 -39 -23 -77t-21.5 -71.5t-18.5 -60.5t-14 -45l173 1v0z" />
    <glyph glyph-name="two" unicode="2" horiz-adv-x="602" 
d="M426 336q-57 -65 -131 -136t-162 -143l315 1q13 0 21.5 -8.5t8.5 -21.5t-8.5 -21.5t-21.5 -8.5l-400 -2q-21 0 -29 20q-3 9 -0.5 18.5t10.5 15.5q106 83 196 166.5t156 158.5q46 53 73 93.5t40.5 70.5t17.5 49.5t3 30.5q-1 16 -16 22q-15 7 -39.5 5t-54.5 -12
q-38 -13 -82 -37.5t-91 -59.5q-11 -8 -22.5 -6t-19.5 12t-6.5 22t12.5 20q104 78 190 106t137 5q47 -21 52 -72q4 -56 -38 -135q-19 -34 -46.5 -72.5t-64.5 -80.5z" />
    <glyph glyph-name="three" unicode="3" horiz-adv-x="525" 
d="M444 676q26 -18 38 -46q26 -67 -34 -150q-21 -30 -52 -59t-71 -57q40 -18 58.5 -43t25.5 -43q16 -45 2 -95t-53 -93q-54 -58 -134 -81q-42 -13 -91 -13q-50 0 -99 13q-12 4 -18.5 14.5t-3.5 22.5t14 18.5t23 2.5q79 -20 149 -3.5t116 66.5q28 31 38.5 64.5t-0.5 62.5
q-18 55 -104 67q-10 2 -16.5 8.5t-8.5 15.5q-2 10 2 18.5t13 13.5q69 40 106.5 75t54.5 60q20 27 27 51t0 41t-23 24.5t-31 10.5q-57 12 -149 -11q-12 -3 -22.5 3.5t-13.5 18.5q-4 12 2.5 22.5t18.5 13.5q105 27 176 12q37 -8 60 -25z" />
    <glyph glyph-name="four" unicode="4" horiz-adv-x="542" 
d="M452 292q2 -13 -6 -22t-20 -11q-5 -1 -9.5 -1.5t-9.5 -0.5q-15 -51 -27.5 -95t-22 -76t-15 -50t-5.5 -19q-3 -10 -11 -15.5t-18 -5.5q-2 0 -4.5 0.5t-4.5 0.5q-12 4 -17.5 15t-2.5 23q0 1 5.5 17.5t14 45t20 68t24.5 86.5q-16 -1 -31.5 -1.5t-31.5 -0.5q-44 0 -85.5 4.5
t-75.5 15.5t-58.5 29.5t-34.5 46.5q-24 66 50 158q36 43 94.5 92.5t139.5 104.5q11 7 22.5 5t19.5 -13q7 -11 4.5 -22.5t-12.5 -19.5q-78 -53 -133.5 -99t-87.5 -86q-54 -64 -41 -99q14 -35 94 -49q36 -7 82.5 -8t101.5 3q23 86 47.5 181t44.5 186q3 12 13.5 18.5t22.5 4.5
q12 -3 18.5 -13.5t4.5 -22.5q-19 -86 -41.5 -176t-45.5 -172q11 -1 18.5 -8.5t9.5 -18.5z" />
    <glyph glyph-name="five" unicode="5" horiz-adv-x="571" 
d="M550 670q-1 -12 -10.5 -20.5t-21.5 -7.5l-9 0.5t-24 1.5t-34.5 1.5t-40.5 0.5q-34 0 -56.5 -1.5t-36 -3.5t-20 -4t-8.5 -3q-5 -8 -19 -40.5t-31 -78.5q-14 -39 -22 -64.5t-11 -40.5q76 12 137 -5q70 -20 104 -71q31 -47 28 -105q-3 -57 -38 -107q-25 -37 -63 -64t-86 -43
q-56 -19 -125 -19q-55 0 -122 14q-13 3 -19.5 13.5t-3.5 22.5q2 12 12.5 18.5t22.5 4.5q124 -27 217 3q48 16 75.5 40t41.5 44q25 36 27.5 75t-17.5 69q-26 38 -80 50t-128 -5q-26 -5 -39 17q-7 11 -7 28.5t8 47.5q6 23 14 48t15 44q4 12 12 33t17.5 43.5t18.5 41t15 25.5
q17 21 71 28q18 2 40.5 3.5t49.5 1.5q22 0 43 -0.5t37.5 -1.5t26.5 -1.5t11 -0.5q13 -1 21 -10t7 -22z" />
    <glyph glyph-name="six" unicode="6" horiz-adv-x="585" 
d="M544 690q12 -5 17 -16.5t0 -22.5q-5 -12 -16 -17t-23 0q-84 34 -171 -12q-60 -31 -109.5 -93.5t-87.5 -153.5l5 3q62 44 135 44q76 0 121 -48q20 -21 30 -49.5t11 -61.5q1 -43 -16 -89q-8 -23 -20.5 -44t-28.5 -40q-36 -41 -82 -63q-51 -26 -110 -29h-12q-45 0 -76 15
q-40 17 -58 50q-27 42 -21 104q3 21 9 46q0 3 1 4q20 90 49.5 164.5t67.5 134.5q35 56 76.5 95.5t87.5 64.5q27 14 55 22t57 10q57 3 109 -18zM292 362q-30 0 -56 -10t-47.5 -26.5t-39 -37t-29.5 -41.5q-23 -44 -28 -86q-5 -41 12 -67q24 -39 92 -36q28 1 51.5 8.5t42 17.5
t32 22t23.5 24q25 29 38.5 63.5t12.5 68.5q0 11 -3.5 28t-14 33t-31 27.5t-54.5 11.5h-1z" />
    <glyph glyph-name="seven" unicode="7" horiz-adv-x="487" 
d="M472 655q4 -16 -2 -35.5t-23.5 -46.5t-46 -63.5t-67.5 -84.5q-40 -49 -82.5 -102.5t-78.5 -107.5q-40 -60 -61.5 -107t-24.5 -83q-2 -11 -10.5 -19t-19.5 -8h-3q-13 2 -21 11.5t-6 21.5q9 87 96 217q37 56 80.5 110.5t84.5 104.5q26 33 50 63t42 55q17 23 24 35.5t9 18.5
q-5 2 -17 4.5t-34 4.5t-49 3t-60 1q-28 0 -54.5 -1t-47 -1.5t-33 -1.5l-12.5 -1q-12 -2 -21.5 6.5t-10.5 20.5q-1 13 7.5 22t20.5 10q1 0 15.5 1t38 2t53 2t60.5 1q38 0 67.5 -1.5t52.5 -5.5q28 -4 52.5 -13t31.5 -33z" />
    <glyph glyph-name="eight" unicode="8" horiz-adv-x="611" 
d="M417 708q75 -1 120 -45q41 -41 41 -103q0 -40 -17.5 -78.5t-49.5 -70.5q-31 -29 -68 -47q9 -5 19 -15q23 -21 35 -50t12 -61q0 -44 -20 -85.5t-57 -75.5q-39 -36 -89 -55q-56 -23 -120 -24h-10q-55 0 -95 17q-45 20 -65 56q-22 37 -18.5 85t32.5 96q39 65 103 104
q8 5 16.5 9t17.5 9q-16 13 -26 30q-22 38 -16 86q5 45 30 88q34 57 90 92q62 40 135 38zM392 121q27 25 42 56t15 61q0 45 -32.5 71.5t-90.5 28.5h-13q-35 -1 -65.5 -12t-55 -27.5t-43 -36.5t-30.5 -40q-20 -34 -24 -66t9 -55q28 -45 117 -43q33 1 59.5 7t47.5 15t37 20
t27 21zM469 454q23 23 36 50.5t13 55.5q0 41 -26.5 64t-75.5 24h-4q-30 0 -56 -9t-47 -23t-37.5 -32.5t-27.5 -36.5q-19 -32 -22.5 -62t8.5 -51t36 -28t47 -8h13q54 2 89 19.5t54 36.5z" />
    <glyph glyph-name="nine" unicode="9" horiz-adv-x="584" 
d="M41 18q-12 5 -17 16.5t0 22.5q5 12 16 17t23 0q84 -34 171 12q60 31 109.5 93.5t87.5 153.5l-5 -3q-62 -44 -135 -44q-76 0 -121 48q-20 21 -30 49.5t-11 61.5q-1 43 16 89q8 23 20.5 44t28.5 40q36 41 82 63q51 26 110 29h12q44 0 76 -15q40 -17 58 -50q27 -42 21 -104
q-3 -21 -9 -46q0 -3 -1 -4q-20 -90 -49.5 -164.5t-67.5 -134.5q-35 -56 -76.5 -95.5t-87.5 -64.5q-27 -14 -55 -22t-57 -10q-57 -3 -109 18zM293 346q30 0 56 10t47.5 26.5t39 37t29.5 41.5q23 44 28 86q5 41 -12 67q-24 39 -92 36q-57 -3 -93.5 -26t-55.5 -46
q-25 -29 -38.5 -63.5t-12.5 -68.5q0 -11 3.5 -28t14 -33t31 -27.5t54.5 -11.5h1z" />
    <glyph glyph-name="colon" unicode=":" horiz-adv-x="208" 
d="M133 32q-4 -13 -15.5 -22t-24.5 -10q-12 -1 -18.5 7.5t-2.5 21.5q4 12 15.5 21.5t24.5 9.5q13 1 19 -7t2 -21zM133 432q-4 -13 -15.5 -22t-24.5 -10q-12 -1 -18.5 7.5t-2.5 21.5q4 12 15.5 21.5t24.5 9.5q13 1 19 -7t2 -21z" />
    <glyph glyph-name="semicolon" unicode=";" horiz-adv-x="171" 
d="M41 -167q-16 0 -24 13q-8 10 -6.5 22t12.5 20q40 29 61.5 64t19.5 56q-1 6 -2.5 7.5t-3.5 2.5q-11 6 -14.5 18t2.5 23t17.5 14.5t22.5 -2.5q35 -18 37 -59q3 -42 -27 -90q-30 -47 -78 -83q-8 -6 -17 -6zM118 432q-4 -13 -15.5 -22t-24.5 -10q-12 -1 -18.5 7.5t-2.5 21.5
q4 12 15.5 21.5t24.5 9.5q13 1 19 -7t2 -21z" />
    <glyph glyph-name="less" unicode="&#x3c;" horiz-adv-x="355" 
d="M97 282q-18 19 -32 35.5t-24 30.5q-30 44 -23 72q2 6 7 14.5t20 22.5t42 34.5t72 50.5q23 15 45 29t39.5 25t28 17.5l10.5 6.5q7 4 15 4q17 0 26 -15q7 -11 4 -22.5t-14 -18.5l-10 -6t-25.5 -15.5t-36 -22.5t-42.5 -27q-33 -22 -55.5 -38t-36.5 -27t-20.5 -17.5
l-9.5 -9.5q3 -6 16.5 -26t52.5 -62l26 -26t23 -22q11 -11 23 -21q10 -8 10.5 -20.5t-7.5 -22.5q-8 -9 -20.5 -9.5t-22.5 7.5l-7.5 6.5t-19 17.5t-25.5 25t-29 30z" />
    <glyph glyph-name="equal" unicode="=" horiz-adv-x="319" 
d="M267 357q-3 -2 -5.5 -3.5t-7.5 -1.5q-3 -1 -26.5 -3t-54.5 -3t-62 0t-49 6q-13 4 -19 14.5t-2 22.5t14.5 18.5t22.5 2.5t37 -5t51 0t48.5 2.5t30.5 3.5q13 2 22.5 -5.5t12.5 -19.5q2 -19 -13 -29zM267 217q-3 -2 -5.5 -3.5t-7.5 -1.5q-3 -1 -26.5 -3t-54.5 -3t-62 0
t-49 6q-13 4 -19 14.5t-2 22.5t14.5 18.5t22.5 2.5t37 -5t51 0t48.5 2.5t30.5 3.5q13 2 22.5 -5.5t12.5 -19.5q2 -19 -13 -29z" />
    <glyph glyph-name="greater" unicode="&#x3e;" horiz-adv-x="356" 
d="M259 534q18 -19 32 -35.5t24 -30.5q30 -44 23 -72q-2 -6 -7 -14.5t-20 -22.5t-42 -34.5t-72 -50.5q-23 -15 -45 -29t-39.5 -25t-28 -17.5l-10.5 -6.5q-7 -4 -15 -4q-17 0 -26 15q-7 11 -4 22.5t14 18.5l10 5.5t25.5 15.5t36 23t42.5 27q33 22 55.5 38t36.5 27t20.5 17.5
l9.5 9.5q-3 6 -16.5 26t-52.5 62q-14 14 -27 26t-23 22q-12 11 -22 21q-10 8 -10.5 20.5t7.5 22.5q8 9 20.5 9.5t22.5 -7.5l7.5 -6.5t19 -17.5t25.5 -25t29 -30z" />
    <glyph glyph-name="question" unicode="?" horiz-adv-x="469" 
d="M210 32q-4 -13 -15.5 -22t-24.5 -10q-12 -1 -18.5 7.5t-2.5 21.5q4 12 15.5 21.5t24.5 9.5q13 1 19 -7t2 -21zM432 683q11 -9 20.5 -27t10.5 -50q0 -48 -24 -111q-27 -72 -83.5 -158.5t-139.5 -184.5q-9 -10 -23 -10q-11 0 -19 7q-10 8 -10.5 20t7.5 22q49 59 85 108.5
t61.5 90t41 72t24.5 54.5q11 29 15.5 50.5t4.5 36t-3 23t-7 11.5q-12 11 -44 -2q-22 -9 -46 -28.5t-47 -45.5q-8 -10 -20.5 -10.5t-21.5 7.5q-10 8 -10.5 20.5t7.5 21.5q59 66 115 90q21 9 38.5 11t30.5 -0.5t22 -7.5t15 -10z" />
    <glyph glyph-name="at" unicode="@" horiz-adv-x="486" 
d="M195 92q-23 0 -37 17q-12 17 -13 42q-14 -18 -32 -33q-19 -16 -39 -22q-19 -7 -38 -1q-24 9 -32 37q-7 25 2 61q17 58 61 99q21 19 41.5 27.5t36.5 4.5q3 -1 9 -4t11.5 -9.5t7.5 -18t-2 -29.5q-1 -7 -7 -11t-13 -2t-11 8t-2 12q2 10 1.5 13.5t-0.5 5.5l-2 2
q-5 1 -17.5 -4t-29.5 -20q-17 -17 -30.5 -38.5t-19.5 -44.5q-7 -22 -5 -37.5t13 -18.5q14 -7 43 16q14 11 31 33t36 63q5 14 21 9q6 -2 9.5 -8t1.5 -12q-12 -43 -11.5 -67t6.5 -32q4 -4 10 -4q11 0 25 10.5t31 30.5q13 16 21 29t10 16q3 14 7.5 30t9.5 35q8 25 17 50t19 51
l-19 -5h-3q-13 0 -16 14q-2 7 2 12.5t11 7.5l40 9q8 17 15 33t12 30q7 16 23 9q7 -2 9.5 -9t-0.5 -13l-18 -42l72 14q7 2 13 -2.5t8 -10.5q1 -7 -3 -13t-11 -7l-95 -20q-28 -69 -42 -118q-17 -55 -20 -87q-3 -23 -0.5 -33.5t4.5 -14.5q2 -2 4.5 -4t9.5 -2q21 0 54 41
q13 15 23 31q5 7 9 14q3 7 10 8.5t13 -1.5q6 -4 8 -10.5t-2 -12.5q0 -1 -9.5 -16.5t-24.5 -34.5q-9 -11 -17.5 -19.5t-17.5 -15.5q-24 -18 -46 -18q-18 0 -28 6.5t-15 14.5q-8 12 -11 32q-18 -21 -35 -35q-26 -18 -47 -18z" />
    <glyph glyph-name="A" unicode="A" horiz-adv-x="708" 
d="M1113 -76q10 -8 11 -20.5t-7 -21.5q-2 -2 -27.5 -27t-76.5 -53q-30 -16 -61.5 -27.5t-64.5 -18.5q-25 -5 -51 -7.5t-52 -2.5q-17 0 -35 1t-36 3q-113 15 -180 111q-62 89 -83 248q-2 18 -3.5 36t-3.5 38l-172 -21l-40 -50q-49 -55 -94 -85q-53 -34 -105 -34
q-13 0 -21.5 8.5t-8.5 21.5q0 12 8.5 21t21.5 9q35 0 72 25q38 23 81 74l-17 -2h-3q-11 0 -19.5 7.5t-10.5 18.5q-2 13 6 22.5t20 11.5l76 9q25 35 50 77t51 91q34 64 62.5 126t48.5 111t31.5 79t11.5 31q5 11 15.5 16.5t21.5 1.5q11 -3 17 -13.5t4 -21.5q0 -1 -5.5 -27.5
t-13 -71t-15 -104t-11.5 -125.5q-2 -37 -3.5 -71.5t-0.5 -66.5l111 13q12 2 21.5 -6t11.5 -20q2 -13 -5.5 -22.5t-20.5 -11.5l-116 -14q6 -98 25.5 -172t53.5 -123q54 -75 139 -85q57 -7 105 -2t87 17t68.5 28.5t49.5 31t30 25l10 10.5q8 10 20 11t22 -7zM441 243
q-1 36 0.5 73.5t3.5 77.5q2 23 4 45.5t4 43.5q-14 -30 -29.5 -61t-32.5 -63q-19 -36 -37.5 -69t-37.5 -62z" />
    <glyph glyph-name="B" unicode="B" horiz-adv-x="1268" 
d="M1150 344q26 -25 36.5 -58.5t2.5 -70.5q-6 -29 -20 -55t-34 -49q-36 -39 -93 -68q-42 -20 -89 -31t-93 -11q-9 0 -18 0.5t-17 1.5q-61 6 -97 32q-45 30 -45 83q0 13 8.5 21.5t21.5 8.5q12 0 21 -8.5t9 -21.5q0 -16 11 -26.5t25.5 -16.5t29 -9t22.5 -4q45 -5 93.5 4.5
t90.5 30.5q17 8 35 20t34 28t28.5 36.5t17.5 46.5q9 43 -21 73q-31 29 -90 33.5t-139 -15.5l-18 -4q-12 -3 -22.5 3.5t-13.5 17.5q-4 12 2.5 23t18.5 14l18 5q67 18 115 43t78 53.5t42.5 57.5t6.5 55q-4 23 -28 42q-24 20 -71 34q-41 13 -96.5 19t-120.5 6t-137 -6.5
t-146 -19.5t-139.5 -30t-120 -37t-95.5 -42.5t-65 -45.5q-24 -24 -25.5 -39t0.5 -20q4 -12 -2.5 -23t-18.5 -14q-11 -4 -22 2.5t-15 18.5q-3 10 -3.5 23.5t3.5 28.5t13.5 31.5t27.5 33.5q29 29 75.5 54.5t109.5 49.5q58 21 125.5 38.5t141.5 29.5q74 14 146 20.5t140 7.5
q73 0 133.5 -7t108.5 -21q57 -19 91 -45q40 -34 49 -77q9 -41 -8 -85q-17 -42 -56 -80q-11 -12 -25 -22.5t-29 -20.5q62 -10 102 -47zM735 608q11 -5 16.5 -16.5t0.5 -22.5q-1 -1 -11.5 -30t-26.5 -75t-34.5 -104t-34.5 -117.5t-26.5 -115.5t-10.5 -98q0 -12 -8.5 -21
t-21.5 -9q-12 0 -21 9t-9 21q0 45 10.5 103t26.5 119t35 120t35 106.5t27.5 78t13.5 34.5q5 12 16 17.5t23 0.5z" />
    <glyph glyph-name="C" unicode="C" horiz-adv-x="609" 
d="M420 -254q-102 2 -194 36.5t-155 113.5q-48 62 -64 144q-15 81 8 174q31 121 92 226.5t146 184.5q37 35 75.5 60.5t76.5 42.5q79 35 140 21q65 -15 89 -77q24 -60 5 -154q-3 -12 -13 -19t-23 -4q-12 2 -18.5 12.5t-4.5 22.5q4 20 6.5 45.5t-1.5 49t-16 41.5t-37 24
q-42 9 -103 -17q-68 -29 -135 -92q-78 -73 -135 -171.5t-86 -210.5q-20 -77 -8.5 -144.5t53.5 -121.5q48 -61 126.5 -94t175.5 -33q189 0 332.5 20t234.5 41q49 11 87 22t64 20q31 10 53 19q12 5 23.5 0.5t16.5 -16.5q5 -11 0 -22.5t-16 -16.5q-2 -1 -56 -21t-156 -43
q-150 -34 -294.5 -48.5t-288.5 -14.5z" />
    <glyph glyph-name="D" unicode="D" horiz-adv-x="1236" 
d="M1142 566q44 -75 36 -178q-5 -48 -16 -91.5t-30 -82.5q-33 -71 -89 -122q-48 -45 -104 -69t-110 -24h-9q-62 3 -98.5 37t-36.5 89q0 13 8.5 21.5t21.5 8.5q12 0 21 -8.5t9 -21.5q0 -20 8 -33t19.5 -20t25 -10t24.5 -3q44 -2 92 18.5t88 58.5q18 16 36.5 39.5t35 55
t28.5 72t16 90.5q13 160 -127 232q-41 21 -93.5 34t-114.5 17.5t-131.5 1t-144.5 -15.5q-65 -10 -127.5 -26t-116.5 -35.5t-97.5 -42t-70.5 -45.5q-5 -5 -11.5 -11t-12 -13t-8 -14.5t-0.5 -14.5q4 -12 -2 -23t-18 -15q-11 -4 -22 2t-15 17q-3 10 -4 23t4 28t17 32t33 35
q31 26 77.5 50.5t104 45.5t124 38.5t136.5 28.5q73 11 143.5 15.5t134.5 -0.5q146 -9 243 -59q82 -43 123 -112zM735 608q11 -5 16.5 -16.5t0.5 -22.5q-1 -1 -11.5 -30t-26.5 -75t-34.5 -104t-34.5 -117.5t-26.5 -115.5t-10.5 -98q0 -12 -8.5 -21t-21.5 -9q-12 0 -21 9
t-9 21q0 45 10.5 103t26.5 119t35 120t35 106.5t27.5 78t13.5 34.5q5 12 16 17.5t23 0.5z" />
    <glyph glyph-name="E" unicode="E" horiz-adv-x="609" 
d="M420 -254q-102 2 -194 36.5t-155 113.5q-48 62 -64 144q-10 51 -4 108q-15 -8 -15 -12q0 -13 -8.5 -21.5t-21.5 -8.5q-12 0 -21 8.5t-9 21.5q0 12 7 28t29 31q10 6 22.5 11.5t29.5 10.5q31 120 92 225t145 183q37 35 75.5 60.5t76.5 42.5q79 35 140 21q65 -15 89 -77
q24 -60 5 -154q-3 -12 -13 -19t-23 -4q-12 2 -18.5 12.5t-4.5 22.5q4 20 6.5 45.5t-1.5 49t-16 41.5t-37 24q-42 9 -103 -17q-68 -29 -135 -92q-72 -68 -126 -157t-86 -192q27 5 55.5 8t57.5 6q26 3 49 6t43 6q19 3 28.5 5.5t13.5 4.5q7 20 28 20q12 0 21 -9t9 -21
q0 -8 -5 -20t-25 -22q-13 -8 -42 -14q-23 -5 -52.5 -8.5t-61.5 -6.5q-35 -4 -70 -8.5t-65 -10.5q-11 -68 1.5 -127t50.5 -108q48 -61 126.5 -94t175.5 -33q189 0 332.5 20t234.5 41q49 11 87 22t64 20q31 10 53 19q12 5 23.5 0.5t16.5 -16.5q5 -11 0 -22.5t-16 -16.5
q-2 -1 -56 -21t-156 -43q-150 -34 -294.5 -48.5t-288.5 -14.5z" />
    <glyph glyph-name="F" unicode="F" 
d="M1137 802q25 -11 30.5 -26t5.5 -23q0 -13 -9 -21.5t-21 -8.5q-11 0 -19 6.5t-10 17.5q-3 1 -11.5 3.5t-25 4t-43.5 1t-66 -4.5q-62 -6 -140 -19t-163 -33l-52 -12t-52 -13q-5 -14 -15 -39t-22.5 -58.5t-27 -74t-29.5 -83.5l-20 -59l58 6q26 3 49 6t43 6t29 6t13 5
q7 19 28 19q12 0 21 -8.5t9 -21.5q0 -8 -5 -20t-24 -22q-8 -4 -18.5 -7.5t-24.5 -6.5q-23 -5 -52.5 -8.5t-61.5 -6.5q-21 -2 -42.5 -4.5t-42.5 -5.5q-29 -94 -43.5 -161.5t-14.5 -106.5q0 -13 -9 -21.5t-21 -8.5q-13 0 -21.5 8.5t-8.5 21.5q0 41 13 104.5t39 150.5
q-2 0 -3 -0.5t-3 -0.5q-34 -9 -44.5 -17t-10.5 -10q0 -13 -9 -21.5t-21 -8.5q-13 0 -21.5 8.5t-8.5 21.5q0 12 6.5 28t28.5 31q12 8 28 14.5t37 11.5q10 2 20 4.5t21 4.5l14.5 43.5t15.5 45.5q23 65 43.5 121t35.5 94q-130 -37 -231 -77t-153 -76q-28 -20 -35 -31t-6 -14
q5 -12 -1 -23t-17 -15q-4 -2 -10 -2q-21 0 -29 20q-5 16 -1 39t35 52q63 57 225 118q72 26 155.5 51.5t176.5 48.5q88 21 172 37t154 25q158 19 213 -5z" />
    <glyph glyph-name="G" unicode="G" horiz-adv-x="657" 
d="M1616 -85q5 -11 1 -23t-15 -17q-2 -2 -48 -21.5t-122 -42.5q-35 -11 -78 -22.5t-92 -20.5t-102 -15t-108 -6q-149 0 -330 37q-78 16 -148.5 34.5t-128.5 35.5l-28 7q-44 -67 -100 -93q-48 -22 -87 -20q-39 1 -65 26q-20 20 -25 48t6 57q14 34 45 53q34 22 80 22
q40 -1 118 -23q12 23 23.5 49.5t22.5 58.5q18 50 33.5 105t29.5 112l-33 -49q-69 -96 -145 -147q-86 -57 -179 -57q-68 0 -108 52q-32 42 -36 109.5t19 152.5q27 97 84 186q50 80 117 140q31 29 63 50.5t63 35.5q33 14 62.5 19t54.5 -1q11 -3 27 -11.5t29 -28t18 -52
t-6 -83.5q-2 -12 -12.5 -19t-22.5 -4q-13 2 -19.5 12.5t-3.5 23.5q3 16 5 32.5t0 31t-9 25.5t-21 14q-29 8 -78 -14q-53 -24 -110 -75q-19 -17 -44 -44.5t-50.5 -65t-49 -84.5t-39.5 -104q-20 -70 -18 -125t25 -85q21 -28 60 -28q149 0 275 179q87 122 148 306q10 38 19 71
t19 60q5 11 15.5 16.5t21.5 1.5q12 -4 18 -14.5t3 -21.5q-8 -33 -17.5 -65t-20.5 -64q-8 -32 -15.5 -67t-15.5 -71q-21 -92 -44.5 -190.5t-54.5 -184.5q-11 -30 -22 -55.5t-22 -48.5q3 -1 6.5 -1.5t6.5 -2.5q59 -17 128.5 -35t145 -33.5t156 -25.5t161.5 -10q52 0 102.5 5.5
t97 14.5t88 19.5t75.5 21.5q36 11 65.5 22t50.5 20q25 10 45 19q11 5 23 1t17 -15zM293 -177q33 16 62 55q-28 7 -49 11t-35 5h-1q-25 0 -43 -10t-26 -28q-4 -11 -2.5 -21.5t8.5 -16.5q11 -11 34 -10t52 15z" />
    <glyph glyph-name="H" unicode="H" horiz-adv-x="928" 
d="M1290 -77q9 -8 9.5 -20.5t-7.5 -21.5q0 -1 -7.5 -8.5t-21.5 -19t-34 -25.5t-45 -27q-59 -31 -127 -45q-43 -8 -84 -8q-21 0 -42 2t-42 6q-31 5 -57 16.5t-49 28.5q-42 32 -68 83q-12 23 -19.5 50t-12.5 57q-4 28 -4 58.5t2 62.5q3 33 9.5 66.5t15.5 68.5l-254 -28
q-9 -35 -17.5 -66.5t-16 -56t-13.5 -42t-8 -24.5q-2 -11 -10 -18.5t-20 -7.5t-21 9t-9 21v2q0 4 2 10l4.5 13t11 35.5t15.5 52.5t18 65l-90 -9q-1 -1 -3 -1q-11 0 -19.5 8t-10.5 19q-2 13 6 22t21 11l111 12l2 10q12 55 18 102.5t7 87.5q2 46 -4.5 80.5t-19.5 54.5
q-17 26 -51 29q-32 2 -60.5 -7t-52.5 -24.5t-43.5 -35t-34.5 -38.5q-31 -41 -54 -91t-36 -104q-13 -53 -13.5 -99.5t11.5 -79.5q4 -12 -1.5 -23t-17.5 -15q-11 -5 -22 0.5t-16 17.5q-14 42 -14 96.5t14 116.5q14 60 40.5 116t61.5 101q47 62 106 96q66 38 137 33
q62 -5 96 -57q37 -56 34 -169q-2 -82 -24 -191l260 28q20 60 48 116.5t63 107.5q34 49 70 87.5t75 66.5q85 63 174 63q13 0 21.5 -8.5t8.5 -21.5q0 -12 -8.5 -21t-21.5 -9q-66 0 -136 -49.5t-133 -141.5q-29 -42 -52.5 -88t-42.5 -94h1q12 1 21.5 -6.5t11.5 -20.5
q1 -12 -6.5 -21.5t-20.5 -11.5l-28 -3q-22 -74 -30 -148q-3 -36 -1 -82t18 -88.5t49 -76t92 -44.5q134 -24 255 38q22 12 39.5 24t29.5 21.5t18.5 16l6.5 6.5q8 9 20.5 9.5t21.5 -7.5z" />
    <glyph glyph-name="I" unicode="I" 
d="M1137 802q25 -11 30.5 -26t5.5 -23q0 -13 -9 -21.5t-21 -8.5q-11 0 -19 6.5t-10 17.5q-3 1 -11.5 3.5t-25 4t-43.5 1t-66 -4.5q-62 -6 -140 -19t-163 -33l-52 -12t-52 -13q-5 -14 -15 -39t-22.5 -58.5t-27 -74t-29.5 -83.5q-85 -242 -97 -357l15 2q26 3 49 6t43 6t29 6
t13 5q7 19 28 19q12 0 21 -8.5t9 -21.5q0 -8 -5 -20t-24 -22q-8 -4 -18.5 -7.5t-24.5 -6.5q-23 -5 -52.5 -8.5t-61.5 -6.5l-45 -5q-2 -1 -8 -1q-28 -3 -54.5 -7.5t-49.5 -10.5q-34 -9 -44.5 -17t-10.5 -10q0 -13 -9 -21.5t-21 -8.5q-13 0 -21.5 8.5t-8.5 21.5q0 12 6.5 28
t28.5 31q12 8 28 14.5t37 11.5q43 11 90 17q9 119 101 383q23 65 43.5 121t35.5 94q-130 -37 -231 -77t-153 -76q-28 -20 -35 -31t-6 -14q5 -12 -1 -23t-17 -15q-4 -2 -10 -2q-21 0 -29 20q-5 16 -1 39t35 52q63 57 225 118q72 26 155.5 51.5t176.5 48.5q88 21 172 37
t154 25q158 19 213 -5z" />
    <glyph glyph-name="J" unicode="J" horiz-adv-x="672" 
d="M1139 799q24 -11 29.5 -26.5t5.5 -23.5q0 -12 -8.5 -20.5t-21.5 -8.5q-11 0 -19 6.5t-10 17.5q-3 1 -11.5 3.5t-25 4t-43 1t-66.5 -4.5q-62 -6 -139.5 -19t-163.5 -33l-29 -7q-2 -18 -6 -59t-12 -97.5t-20 -124.5t-30 -140q-48 -195 -117 -316q-91 -159 -213 -186
q-29 -6 -54 -6q-29 0 -56 8q-47 15 -77 54q-22 27 -34 64.5t-14 80.5q-2 39 6 78t24 71q19 40 48 64q33 27 73 27q12 0 21 -9t9 -21q0 -13 -9 -21.5t-21 -8.5q-13 0 -24 -6t-19 -14.5t-14 -18.5t-10 -18q-12 -24 -18.5 -55t-5.5 -62.5t9 -61.5t26 -52q43 -54 127 -34
q56 12 101 58.5t80 111.5t60.5 140.5t43.5 147.5q15 61 26 120.5t18.5 111.5t12.5 93t7 66q-79 -20 -151 -42.5t-132.5 -45t-108 -45t-77.5 -43.5q-28 -20 -35 -31.5t-6 -13.5q5 -12 -0.5 -23t-17.5 -16q-3 -1 -10 -1q-9 0 -17 5t-11 15q-5 15 -1 38.5t35 52.5
q30 28 86 57.5t138 59.5q72 27 156 52.5t176 48.5q88 21 172 37t154 24q161 19 214 -4z" />
    <glyph glyph-name="K" unicode="K" horiz-adv-x="832" 
d="M1375 -75q9 -8 9.5 -20.5t-8.5 -21.5q-1 -2 -24.5 -22.5t-66.5 -46.5q-57 -32 -118 -49.5t-124 -17.5q-112 0 -216 103q-45 43 -83 95t-74 106q-31 45 -60 85t-58 68q-34 33 -56.5 39t-36.5 3q-9 -41 -19 -77.5t-18.5 -66t-15 -49.5t-9.5 -28q-2 -11 -10.5 -18.5
t-19.5 -7.5q-12 0 -21 8.5t-9 21.5v2q0 4 2 10l6.5 19.5t16.5 52t21.5 75.5t21.5 91q11 55 17.5 102.5t7.5 87.5q2 46 -4.5 80t-19.5 54q-17 27 -51 30q-32 2 -60.5 -7t-52.5 -24.5t-43.5 -35.5t-34.5 -39q-31 -40 -54 -90.5t-37 -104.5q-12 -52 -12.5 -98.5t11.5 -79.5
q4 -12 -1.5 -23t-17.5 -16q-11 -4 -22 1.5t-16 17.5q-14 42 -14 96.5t14 115.5q14 60 40.5 116.5t61.5 101.5q48 63 106 96q67 38 137 32q63 -5 96 -56q37 -56 34 -169q-1 -34 -5 -72.5t-12 -81.5q66 22 132.5 65t120.5 100q60 63 87.5 125.5t16.5 110.5q-3 12 3.5 22.5
t18.5 13.5t22.5 -3.5t13.5 -18.5q15 -64 -15.5 -140t-102.5 -151q-47 -50 -102.5 -89.5t-113.5 -67.5q10 -6 20 -14.5t20 -18.5q32 -31 62.5 -73t62.5 -89q35 -52 71.5 -102t78.5 -90q86 -86 174 -86q109 0 210 58q19 11 33.5 21.5t25.5 18.5q12 10 21 19q8 9 20.5 9.5
t21.5 -8.5z" />
    <glyph glyph-name="L" unicode="L" horiz-adv-x="1029" 
d="M1185 -253q-77 1 -159.5 10t-165 24t-162.5 35.5t-150 44.5l-15 -22q-39 -51 -83 -71q-46 -22 -87 -20t-65 26q-20 20 -25.5 48t6.5 56q14 35 45 54q33 21 80 21q20 0 48 -6t65 -15q29 61 50.5 140.5t41.5 163.5l21 86q-59 -3 -118 -3q-78 -2 -150 -5.5t-132 -23.5
q-65 -21 -105 -61t-61 -104q-4 -12 -15 -17.5t-23 -1.5q-11 4 -17 15t-2 23q49 154 204 203q67 22 143 26t158 6q33 0 67 1t67 3q5 19 10.5 37.5t11.5 35.5q20 60 40.5 103t45.5 74q55 67 131 99q35 14 69.5 19t64.5 -1q34 -7 57.5 -25.5t31.5 -47.5q5 -16 4.5 -37.5
t-11 -50t-34 -63t-64.5 -75.5q-85 -86 -230 -113q-20 -5 -40 -7.5t-40 -4.5q-7 -26 -13 -52l-12 -52q-17 -72 -36 -143t-43 -132q-7 -18 -13 -31q76 -22 151.5 -41.5t151.5 -34.5t152.5 -24t153.5 -9q51 0 101.5 5.5t97 14.5t88 19.5t74.5 20.5q36 11 66 22t51.5 19.5
t33.5 14l12 5.5q11 5 23 1t17 -15t1 -23t-15 -17q-2 -1 -48 -20.5t-122 -43.5q-35 -11 -78.5 -22t-92 -20t-102 -15t-107.5 -6zM984 693q-42 0 -92 -23.5t-91 -74.5q-29 -35 -51 -89t-40 -118q73 9 137 32t114 73q37 37 56.5 66t27.5 49.5t7.5 33.5t-1.5 18q-5 15 -18 22
t-26 9q-5 2 -11 2h-12zM403 -107q-53 0 -69 -37q-10 -24 5 -39q11 -11 34 -9.5t52 14.5q18 8 33 22t29 33q-28 8 -49 12t-34 4h-1z" />
    <glyph glyph-name="M" unicode="M" horiz-adv-x="1488" 
d="M1663 -258q-73 0 -146 21q-104 31 -157 106q-48 66 -58 166q-5 45 -3 92.5t8 95.5t15 96t18 94q11 58 20 110t10 92q0 25 -3 39t-7.5 21.5t-10 10t-8.5 3.5q-32 8 -79.5 -14t-104.5 -73q-38 -35 -78.5 -80t-79.5 -97q-1 -33 -4.5 -67t-8.5 -68q-8 -43 -18 -82t-22 -73
q-29 -74 -62 -107q-25 -23 -46.5 -24t-33.5 3q-11 4 -24.5 16.5t-16.5 42.5q-3 31 12 78q24 81 90 189q17 29 36 57t39 56q0 92 -18 155q-24 79 -74 87q-67 12 -150 -80q-74 -81 -151 -230q-33 -65 -60.5 -127.5t-47.5 -112.5t-31 -81t-11 -32q-3 -11 -12.5 -16.5
t-20.5 -3.5t-18 10t-7 19v2q0 7 1 10l7 19.5t16.5 52.5t21 76t21.5 90q25 112 26 190q1 46 -5 80.5t-20 54.5q-17 26 -50 29q-32 2 -60.5 -7t-52.5 -24.5t-43.5 -35t-34.5 -38.5q-31 -41 -54.5 -91t-36.5 -104q-13 -52 -13 -99t11 -80q5 -12 -1 -23t-17 -15q-12 -5 -23 1
t-15 17q-15 42 -15 96.5t15 116.5q14 60 40 116t61 101q49 64 107 97q63 37 136 32q31 -2 55.5 -16.5t41.5 -39.5q37 -58 34 -170q-1 -20 -2.5 -40.5t-4.5 -43.5l9 17q81 157 160 244q105 116 204 99q15 -3 31.5 -10t33 -22t31 -38.5t25.5 -59.5q14 -44 18 -98l15 18
q45 52 88 93t83 68q101 67 173 48q41 -11 60 -51q14 -29 14 -82q-1 -44 -10 -98.5t-21 -114.5q-9 -44 -17.5 -90t-14.5 -92.5t-8 -91.5t3 -86q10 -91 51.5 -144t120.5 -76q160 -47 314 21q28 13 50.5 27t38 26t24 19.5l8.5 7.5q8 9 20.5 9t21.5 -8q9 -9 9 -21.5t-8 -21.5
q-1 -1 -10.5 -9.5t-27 -22t-42.5 -29t-57 -30.5q-76 -35 -156 -44q-27 -3 -56 -3zM825 64q5 -2 10 2t7 6q12 12 24.5 34t23.5 52t20 66t16 76q2 6 2.5 12.5t1.5 12.5q-29 -46 -51.5 -89t-36.5 -79q-8 -20 -12.5 -37t-6.5 -31t-0.5 -19t2.5 -6z" />
    <glyph glyph-name="N" unicode="N" horiz-adv-x="1044" 
d="M1220 -262q-74 0 -147 21q-102 30 -157 106q-47 66 -57 166q-5 45 -3 92.5t8 96t14.5 96.5t17.5 93q11 58 20.5 110.5t9.5 91.5q0 25 -3 39.5t-7.5 22t-10 9.5t-8.5 3q-60 15 -138 -54q-36 -32 -74 -80.5t-79 -112.5q-39 -62 -73.5 -127.5t-62 -123t-46.5 -102t-28 -65.5
q-5 -11 -16 -16t-22 0q-11 4 -16.5 15t-1.5 23l6.5 19.5t16.5 52.5t21.5 76t21.5 90q12 55 18 102.5t8 87.5q2 95 -25 135q-18 28 -50 29q-33 3 -61.5 -6t-52.5 -24.5t-43 -35.5t-34 -39q-32 -41 -55 -91t-36 -104q-13 -52 -13 -98.5t11 -80.5q5 -11 -1 -22t-17 -16
q-12 -4 -23 1.5t-15 17.5q-15 42 -15 96.5t15 115.5q14 60 40 116t61 102q47 62 106 96q67 38 137 32q63 -5 96 -56q38 -58 35 -170q-1 -29 -4.5 -62t-9.5 -70q18 33 37.5 67t39.5 66q43 69 84 120.5t80 86.5q103 91 193 67q43 -11 61 -51q13 -30 13 -81q-1 -44 -10 -98.5
t-21 -114.5q-9 -44 -17.5 -90t-14.5 -92.5t-8 -91.5t3 -86q10 -91 52 -144.5t120 -76.5q165 -47 316 23q28 13 50.5 26.5t37.5 25t23 19l8 7.5q8 9 20.5 9.5t21.5 -8.5t9 -21.5t-8 -20.5q-1 -1 -10.5 -10t-26.5 -22t-42.5 -29t-57.5 -31q-76 -35 -156 -44q-27 -3 -55 -3z
" />
    <glyph glyph-name="O" unicode="O" horiz-adv-x="1036" 
d="M642 -6q-46 0 -89 15q-53 20 -89 51t-55 73q-35 77 -15 176q13 63 46 122t81 106q54 51 113.5 76t119.5 20q12 -1 20.5 -10t6.5 -22q-1 -12 -10 -20.5t-22 -7.5q-47 4 -94.5 -16.5t-91.5 -62.5q-42 -41 -70.5 -92t-39.5 -105q-5 -25 -6.5 -57.5t9.5 -65t38.5 -61.5
t78.5 -47q88 -31 173 17q31 18 59 47t50.5 65t39 78t24.5 88q17 91 -10 159t-96 111q-63 39 -154 52t-195 -2q-110 -16 -216.5 -59.5t-197.5 -111.5q-10 -8 -22 -6t-20 12q-7 11 -5.5 22.5t12.5 19.5q97 72 210 119t230 64q57 8 109.5 8.5t102.5 -6.5q101 -15 177 -61
q82 -51 117 -133q38 -88 17 -199q-9 -51 -27 -98t-44 -89q-27 -43 -60 -76.5t-71 -55.5q-64 -37 -134 -37z" />
    <glyph glyph-name="P" unicode="P" horiz-adv-x="1108" 
d="M725 247q-11 0 -19 6t-10 16q-3 12 3.5 23t18.5 14q81 20 156.5 50t131 68t84.5 82.5t17 93.5q-12 51 -100 75q-42 12 -97.5 17t-121 3t-139 -11t-151.5 -25q-73 -15 -139 -33.5t-120.5 -39.5t-95 -43.5t-61.5 -44.5q-24 -22 -19 -38q4 -12 -2 -23t-18 -14q-12 -4 -23 2
t-14 18q-5 17 -0.5 42.5t33.5 55.5q53 53 180 101q58 23 125.5 42t141.5 34q75 15 148.5 24.5t141.5 11.5q152 6 248 -21q56 -17 91 -43q41 -33 51 -76q5 -22 4.5 -49.5t-13 -58t-40 -63.5t-75.5 -66q-57 -40 -137 -73.5t-173 -56.5h-7zM579 -1q-12 0 -21 9t-9 21
q0 45 10.5 103t26.5 119t35 120t35 106.5t27.5 78t13.5 34.5q5 12 16 17.5t23 0.5q11 -5 16.5 -16.5t0.5 -22.5q-1 -1 -11.5 -30t-26.5 -75t-34.5 -104t-34.5 -117.5t-26.5 -115.5t-10.5 -98q0 -12 -8.5 -21t-21.5 -9z" />
    <glyph glyph-name="Q" unicode="Q" horiz-adv-x="655" 
d="M1170 -71q8 -10 7 -22.5t-10 -20.5q-39 -33 -82.5 -59t-88.5 -44q-39 -15 -78 -23.5t-73 -8.5q-118 0 -232 102q-49 43 -91.5 94.5t-83.5 105.5q-10 11 -19 25q-86 -77 -181 -77q-40 0 -75 13q-106 37 -143 140q-32 89 -8 206q15 74 50 144.5t84 126.5q54 63 115 94
t121 26q75 -5 127 -44q49 -37 71 -97q20 -54 20 -122.5t-22 -143.5q-18 -63 -48.5 -120t-68.5 -103l24 -32q40 -51 81 -101t87 -90q97 -87 192 -87q24 0 56.5 6.5t70 20.5t77.5 37.5t79 56.5q10 8 22 7t20 -10zM183 70q30 -11 58 -9.5t53 10t47 23t40 31.5q-42 52 -82 87.5
t-78 35.5q-13 0 -21.5 8.5t-8.5 21.5q0 12 8.5 21t21.5 9q66 0 140 -71q16 -15 31 -32t31 -36q32 40 57 89t40 103q19 65 20 124t-16 104q-36 94 -146 103h-10q-44 0 -89 -25.5t-88 -74.5q-44 -51 -75 -114.5t-45 -129.5q-5 -25 -8.5 -64.5t5.5 -80.5t35 -77.5t80 -55.5z
" />
    <glyph glyph-name="R" unicode="R" horiz-adv-x="774" 
d="M341 602q11 -5 16.5 -16t0.5 -23q0 -1 -11 -29.5t-26.5 -74.5t-34 -104t-34.5 -117.5t-26.5 -115.5t-10.5 -98q0 -13 -9 -21.5t-21 -8.5q-13 0 -21.5 8.5t-8.5 21.5q0 44 10.5 102t26.5 119t34.5 120.5t35 107t27.5 78t13 34.5q5 11 16 16.5t23 0.5zM1258 -78
q9 -8 9 -20.5t-8 -21.5q-2 -2 -25 -22.5t-66 -45.5q-57 -33 -118 -50.5t-124 -17.5q-111 0 -217 103q-44 43 -82 95t-75 106q-30 45 -59 85t-58 68q-17 17 -31 26t-25.5 13t-20.5 4t-16 -1q-2 0 -2.5 -0.5t-2.5 -0.5q-12 -3 -22.5 3.5t-13.5 18.5t3 22.5t18 13.5q2 1 6 1
q80 20 154.5 50.5t129.5 68.5t83.5 82.5t16.5 92.5q-13 61 -92 84q-53 14 -126 9.5t-154 -28.5q-78 -23 -142 -56t-102 -71q-15 -15 -27.5 -36t-6.5 -43q4 -11 -2 -22t-18 -15q-12 -3 -23 3t-14 18t-4 26.5t3.5 32t16.5 37.5t33 41q42 43 117 83q35 17 73.5 32.5t79.5 27.5
q42 12 83.5 19.5t79.5 10.5q85 6 150 -12q54 -15 88.5 -47t45.5 -80q5 -23 4.5 -50t-13 -58t-39.5 -63.5t-75 -65.5q-41 -29 -93 -54t-112 -45q18 -13 34 -29q32 -31 62.5 -73t62.5 -89q35 -51 71.5 -101.5t77.5 -90.5q87 -86 175 -86q108 0 210 58q19 11 33 22t25 19
q11 10 21 18q9 9 21.5 9.5t21.5 -8.5z" />
    <glyph glyph-name="S" unicode="S" horiz-adv-x="1404" 
d="M1478 679q14 -28 8 -59t-29 -61q-32 -42 -102 -60q-29 -7 -66 -10.5t-83 -2.5q-47 0 -97.5 3.5t-106.5 9.5q-6 -26 1.5 -50.5t26 -49.5t46.5 -51.5t64 -57.5q38 -32 73.5 -64.5t59.5 -70.5q28 -43 34 -85q7 -48 -14 -98q-32 -73 -98 -124q-59 -48 -142 -72
q-75 -23 -151 -23q-42 0 -82 6.5t-75 20.5q-102 40 -145 122q-23 45 -24 99q-3 54 19 118q4 12 15 17.5t23 1.5q11 -4 17 -15t2 -23q-21 -63 -15.5 -108.5t26 -77t49.5 -50t54 -28.5q59 -23 130 -23.5t140 20.5q73 23 125 64.5t76 98.5q14 32 11 62.5t-25 63.5
q-21 32 -54 62.5t-68 60.5q-36 31 -70.5 63t-57.5 67q-14 20 -22 40t-10 41q-3 26 1 50q-30 3 -61 6.5t-63 8.5q-83 10 -168.5 20t-165.5 14.5t-152 2.5t-129 -15t-95.5 -39t-51.5 -69q-4 -12 -15 -18t-22 -2q-12 4 -18 14.5t-2 22.5q24 83 116 125q74 34 198 40
q56 3 118 0.5t127.5 -8t132.5 -13.5l134 -16l139 -17q47 88 143 140q44 23 93 35.5t98 13.5q66 2 113.5 -18t66.5 -55zM1409 595q9 12 15.5 27.5t-0.5 28.5q-9 20 -44 31t-81 10q-35 -1 -73 -9.5t-74 -25t-67.5 -42t-54.5 -59.5q48 -5 92 -7.5t84 -2.5q165 -1 203 49z" />
    <glyph glyph-name="T" unicode="T" horiz-adv-x="596" 
d="M1137 802q25 -11 30.5 -26t5.5 -23q0 -13 -9 -21.5t-21 -8.5q-11 0 -19 6.5t-10 17.5q-3 1 -11.5 3.5t-25 4t-43.5 1t-66 -4.5q-62 -6 -140 -19t-163 -33l-52 -12t-52 -13q-5 -14 -15 -39t-22.5 -58.5t-27 -74t-29.5 -83.5q-49 -141 -74 -240t-25 -150q0 -13 -9 -21.5
t-21 -8.5q-13 0 -21.5 8.5t-8.5 21.5q0 116 102 410q23 65 43.5 121t35.5 94q-130 -37 -231 -77t-153 -76q-28 -20 -35 -31t-6 -14q5 -12 -1 -23t-17 -15q-4 -2 -10 -2q-21 0 -29 20q-5 16 -1 39t35 52q63 57 225 118q72 26 155.5 51.5t176.5 48.5q88 21 172 37t154 25
q158 19 213 -5z" />
    <glyph glyph-name="U" unicode="U" horiz-adv-x="1440" 
d="M1308 -30q-8 0 -15 4q-54 33 -69 129l-4 35q-26 -30 -52 -54.5t-52 -41.5q-65 -44 -125 -44q-72 0 -122 39t-75 112q-11 34 -16 72t-3 82q3 83 27 167q13 42 30 81.5t38 74.5q11 17 21.5 31.5t21.5 28.5q-46 -4 -107 -11.5t-129.5 -19t-141 -27.5t-142.5 -38
q-160 -51 -244 -116q-90 -71 -86 -155q0 -12 -8 -21t-21 -10t-22 7.5t-9 21.5q-6 115 109 204q47 36 112.5 67.5t150.5 58.5q70 22 151 40.5t172 32.5q93 14 168.5 21.5t125.5 10.5q10 1 18.5 -4.5t11.5 -15.5q4 -9 1 -18.5t-11 -15.5q-49 -37 -89 -100.5t-63 -144.5
q-23 -78 -25 -153t16 -132q38 -110 140 -110q49 0 108 45.5t121 130.5q1 14 2 27t3 27q8 66 24 133t37 124q23 60 46 96q28 45 61 56q23 7 36 -0.5t18 -12.5q25 -28 8 -105q-15 -61 -52 -146q-26 -58 -57.5 -114t-66.5 -105q-3 -56 5 -102q11 -69 40 -86q11 -7 14 -19
t-4 -23q-9 -14 -26 -14zM1402 634q-10 -9 -25.5 -34.5t-34.5 -75.5q-14 -38 -26 -82t-20 -89q22 40 41 80t33 78q11 26 18 49.5t10 43.5q4 17 4 30z" />
    <glyph glyph-name="V" unicode="V" horiz-adv-x="1436" 
d="M991 -2q-72 0 -122 39t-75 112q-11 34 -16 72t-3 82q3 83 27 167q13 42 30 81.5t38 74.5q11 17 21.5 31.5t21.5 28.5q-46 -4 -107 -11.5t-129.5 -19t-141 -27.5t-142.5 -38q-160 -51 -244 -116q-90 -71 -86 -155q0 -12 -8 -21t-21 -10t-22 7.5t-9 21.5q-6 115 109 204
q47 36 112.5 67.5t150.5 58.5q70 22 151 40.5t172 32.5q93 14 168.5 21.5t125.5 10.5q10 1 18.5 -4.5t11.5 -15.5q4 -9 1 -18.5t-11 -15.5q-49 -37 -89 -100.5t-63 -144.5q-23 -78 -25 -153t16 -132q38 -110 140 -110q54 0 116 48q29 23 58 54.5t57 71.5q25 37 47.5 77.5
t40.5 82t31 81.5t19 75q5 28 5 45.5t-2 26.5l-4 12t-7 8q-12 4 -17.5 15.5t-0.5 22.5q4 12 15 17.5t23 0.5q14 -5 28.5 -18.5t21.5 -45.5q8 -38 -3 -94q-6 -38 -20 -81.5t-33.5 -87.5t-43.5 -88t-51 -83q-62 -89 -128 -140q-77 -60 -152 -60z" />
    <glyph glyph-name="W" unicode="W" horiz-adv-x="1836" 
d="M982 -6q-10 0 -19 1.5t-19 3.5q-59 15 -98 71q-34 48 -49 124q-14 68 -9 145.5t27 152.5q22 77 62 142q18 29 37 52q-46 -4 -107 -11.5t-129 -19t-141 -27.5t-143 -38q-160 -51 -244 -116q-90 -71 -86 -155q0 -12 -8 -21t-21 -10t-22 7.5t-9 21.5q-6 115 109 204
q47 36 112.5 67.5t150.5 58.5q70 22 151 40.5t172 32.5q93 14 168.5 21.5t125.5 10.5q10 1 18.5 -4.5t11.5 -15.5q4 -9 1 -18.5t-11 -15.5q-51 -38 -86.5 -97.5t-55 -127.5t-23.5 -138t8 -129q3 -18 10 -41t19 -45t30 -39.5t44 -23.5q27 -7 54.5 1.5t52.5 25.5t46 38t36 38
q16 19 33 42q-11 46 -13 97.5t3 103.5q3 29 8.5 56.5t13.5 50.5q18 52 45 77q35 35 79 19q7 -2 15.5 -7t16 -14.5t13 -24.5t7.5 -36q3 -50 -19 -119q-16 -54 -43.5 -109.5t-61.5 -106.5l3 -10q6 -19 14.5 -38.5t21.5 -37t30 -29.5t39 -16q59 -11 123 27t124 118
q40 54 70 116.5t46 125.5q17 64 15.5 118t-19.5 92q-5 11 -1 23t15 17t23 1t17 -15q25 -52 25 -118q1 -61 -17 -133q-17 -69 -49.5 -136.5t-76.5 -125.5q-32 -43 -67 -76.5t-71 -55.5q-86 -51 -167 -38q-58 11 -98 58q-27 32 -43 75l-8 -9q-57 -68 -116 -101
q-50 -27 -96 -27zM1292 551q-5 0 -13 -7q-14 -13 -28 -48.5t-20 -98.5q-3 -30 -3.5 -59.5t2.5 -58.5q20 35 36 72t27 72q18 57 16 97q-1 8 -3 18t-9 12q-1 0 -2 0.5t-3 0.5z" />
    <glyph glyph-name="X" unicode="X" horiz-adv-x="724" 
d="M1405 -108q5 -11 -0.5 -22.5t-17.5 -15.5q-2 -1 -25.5 -9t-62.5 -20t-90 -25.5t-109 -25.5q-69 -14 -129.5 -21t-112.5 -7q-136 0 -209 48q-50 32 -83 95q-27 53 -45 131q-17 72 -24.5 152t-12.5 160l-2 20l-381 -342q-8 -7 -20 -7q-6 0 -12 2.5t-10 7.5q-8 9 -7.5 21.5
t9.5 20.5l416 372q-4 38 -8 72t-10 64q-18 96 -53 117q-27 16 -58 7q-41 -11 -90.5 -57.5t-104.5 -124.5q-21 -30 -39 -59t-31 -51t-20.5 -36l-7.5 -14q-6 -11 -18 -14.5t-23 2.5q-11 5 -14.5 17t2.5 23q0 1 7.5 15t21 37t32 52.5t41.5 61.5q124 176 228 205q57 16 106 -13
q56 -35 80 -157q5 -23 8.5 -47t5.5 -50l239 213q9 8 21.5 7.5t20.5 -9.5q8 -10 7.5 -22.5t-9.5 -20.5l-272 -243l5 -66q5 -74 12 -150.5t21.5 -144t39 -119.5t64.5 -78q55 -35 158 -37.5t249 26.5q56 12 106.5 25.5t88.5 25t60.5 19t23.5 7.5q11 5 22.5 -0.5t15.5 -17.5z
" />
    <glyph glyph-name="Y" unicode="Y" horiz-adv-x="669" 
d="M1628 -85q5 -11 0.5 -23t-15.5 -17q-1 -1 -13.5 -6.5t-34.5 -14.5t-53 -20t-68 -23q-35 -11 -78.5 -22.5t-92.5 -20.5t-102 -15t-107 -6q-150 0 -331 37q-78 16 -148.5 34.5t-128.5 35.5l-28 7q-44 -67 -99 -93q-49 -21 -88 -20t-65 26q-20 20 -25 48t6 57q13 32 45 53
q34 22 80 22q21 -1 50.5 -6.5t67.5 -16.5q12 23 23.5 49.5t22.5 58.5q17 47 31.5 97.5t27.5 104.5l-16 -30t-16 -29q-52 -85 -108 -129q-68 -55 -149 -55q-71 0 -121 39t-75 112q-11 34 -16 72t-3 82q3 83 27 167q13 42 30 81.5t38 74.5q23 38 49.5 68t56.5 52q10 8 22 6
t20 -12t6 -22t-12 -20q-50 -37 -89.5 -100.5t-62.5 -144.5q-23 -78 -25.5 -153t16.5 -132q36 -110 139 -110q43 0 80.5 21.5t70 57.5t60 84t51 101t43.5 108t38 105q15 42 28.5 79t26.5 66q5 11 16.5 16t22.5 0t16.5 -16t0.5 -22q-17 -48 -34 -117t-34 -147
q-20 -92 -44 -190.5t-55 -184.5q-11 -30 -22 -55.5t-22 -48.5q8 -2 13 -4q59 -17 128.5 -35t145 -33.5t156 -25.5t162.5 -10q51 0 101.5 5.5t97.5 14.5t88.5 19.5t74.5 21.5q73 23 117 42t45 19q11 5 22.5 1t17.5 -15zM304 -177q34 16 63 55q-28 7 -49.5 11t-35.5 5h-1
q-25 0 -43 -10t-25 -28q-5 -11 -3.5 -21.5t8.5 -16.5q11 -11 34 -10t52 15z" />
    <glyph glyph-name="Z" unicode="Z" horiz-adv-x="992" 
d="M116 -250q-48 0 -79 25q-15 12 -22.5 28.5t-7.5 34.5q0 19 8.5 37.5t25 33.5t41.5 24t57 9q23 0 62.5 -5t91.5 -14l9.5 9.5l9.5 9.5q61 63 126.5 143t135.5 169q82 103 164 202.5t161 174.5q-42 -6 -82 -5t-78.5 6t-75 13.5t-71.5 16.5q-37 9 -71 16.5t-66.5 11t-63.5 2
t-61 -11.5q-163 -53 -231 -201q-18 -39 -26.5 -78t-10.5 -72t1.5 -58t8.5 -38q5 -11 0 -22.5t-16 -16.5q-12 -5 -23.5 0t-16.5 16q-8 22 -12 54.5t-2 69.5q2 31 11 75.5t32 95.5q18 38 42 72t54 62q69 64 170 98q36 12 72 14t73 -1.5t74.5 -12t75.5 -17.5
q51 -12 102.5 -22.5t105.5 -11.5t110 10.5t116 44.5q11 6 22.5 2.5t17.5 -14.5t3 -23t-14 -18q-50 -27 -104 -77t-111 -113t-116 -135.5t-117 -145.5q-68 -86 -131.5 -164.5t-124.5 -141.5q15 -3 30.5 -6t31.5 -5q78 -14 167 -29.5t180.5 -28.5t180.5 -21.5t165 -8.5
q118 0 214 18.5t159 38.5q35 11 61.5 21t46.5 18q22 10 40 18q11 6 23 2.5t18 -14.5q5 -11 1.5 -23t-14.5 -18q-2 -1 -43 -19.5t-114 -41.5q-33 -10 -75.5 -20.5t-92 -19.5t-106.5 -14.5t-118 -5.5q-78 0 -168.5 8.5t-183.5 21.5t-183 29t-168 30l-104 18
q-22 -20 -41.5 -36.5t-38.5 -28.5q-67 -44 -117 -44zM139 -118q-38 0 -55 -15t-17 -29q0 -10 8 -17q14 -11 41 -11q45 0 120 61q-32 5 -57 8t-40 3z" />
    <glyph glyph-name="bracketleft" unicode="[" horiz-adv-x="574" 
d="M539 642q13 0 21.5 -9t8.5 -21q0 -13 -9 -21.5t-21 -8.5q-1 0 -34 -0.5t-76 -4.5q-37 -3 -62 -8t-40.5 -10t-23 -9t-10.5 -7q-6 -5 -21.5 -28.5t-42.5 -85.5q-18 -43 -37 -95.5t-36 -109.5t-30 -109.5t-21 -95.5q-5 -30 -7 -49.5t-2.5 -32t0.5 -18.5t1 -7q1 -1 7.5 -4
t21.5 -5t40.5 -3t64.5 2q23 2 45.5 4.5t39.5 4.5q20 3 37 6q13 2 23 -5t12 -20q2 -12 -5 -22t-19 -12q-1 0 -12.5 -2t-29.5 -4.5t-41.5 -5t-48.5 -4.5q-15 -1 -29 -1.5t-27 -0.5t-24 0.5t-22 1.5q-60 6 -81 34q-5 6 -8.5 15t-4.5 25t0.5 40.5t7.5 61.5q8 45 21.5 99.5
t30.5 114.5q18 60 37.5 115t38.5 101q23 55 43 89t37 51q42 37 172 49q22 2 42.5 3t36.5 1.5t25.5 0.5h10.5z" />
    <glyph glyph-name="bracketright" unicode="]" horiz-adv-x="575" 
d="M36 -159q-13 0 -21.5 9t-8.5 21q0 13 9 21.5t21 8.5h9.5t24.5 0.5t35 1.5t41 3q37 3 62 8t40.5 10t23 9t10.5 7q6 5 21.5 28.5t42.5 85.5q18 43 37 95.5t36 109.5t30 109.5t21 95.5q10 59 9.5 81.5t-1.5 25.5q-2 1 -8.5 3.5t-21.5 5t-40 3.5t-64 -2q-24 -2 -46 -4.5
t-39 -4.5q-20 -3 -37 -6q-13 -2 -23 5t-12 20q-2 12 5 22t19 12q1 0 12.5 2t29.5 4.5t41.5 5t48.5 4.5q15 1 29 1.5t27 0.5t24 -0.5t22 -1.5q60 -6 81 -34q4 -6 8 -15t5 -25t-0.5 -40.5t-7.5 -61.5q-8 -45 -21.5 -99.5t-30.5 -114.5q-18 -60 -37.5 -115t-38.5 -101
q-23 -55 -43 -89t-37 -51q-42 -37 -172 -49q-23 -2 -43.5 -3t-36 -1.5t-25 -0.5h-10.5z" />
    <glyph glyph-name="underscore" unicode="_" horiz-adv-x="363" 
d="M315 -162q-3 -2 -5.5 -3.5t-7.5 -1.5q-2 0 -17.5 -1.5t-38.5 -2.5t-50 -2t-53.5 -1t-48.5 1.5t-34 5.5q-13 4 -19 14.5t-2 22.5t14.5 18.5t22.5 2.5t44.5 -5t68.5 0t66 2.5t38 3.5q13 2 22.5 -5.5t12.5 -19.5q2 -19 -13 -29z" />
    <glyph glyph-name="grave" unicode="`" horiz-adv-x="218" 
d="M164 528q-7 0 -14 4q-3 1 -17 9t-31.5 19.5t-35.5 26.5t-30 30q-8 11 -6.5 22.5t12.5 19.5q10 8 22 6.5t20 -11.5q7 -10 20 -21t27.5 -20.5t27 -17t19.5 -10.5q11 -6 14.5 -18t-1.5 -23q-10 -16 -27 -16z" />
    <glyph glyph-name="a" unicode="a" horiz-adv-x="475" 
d="M321 -1q-42 0 -65 31q-21 27 -24 73q-13 -17 -27 -31.5t-28 -26.5q-35 -29 -69 -39q-36 -12 -67 -1q-21 8 -35.5 25t-21.5 41q-12 44 5 107q14 50 41.5 94t65.5 79q36 33 72 48t65 8q6 -2 16 -7t19 -16.5t13 -31.5t-3 -51q-2 -12 -12.5 -19t-22.5 -4q-12 2 -19 12.5
t-4 22.5q3 16 2.5 23.5t-1.5 9.5q-2 3 -3 3q-8 2 -30.5 -6.5t-51.5 -35.5q-31 -29 -54.5 -66.5t-34.5 -78.5q-11 -39 -7 -66.5t21 -33.5q11 -4 31 1.5t47 27.5q22 19 53 58t63 111q5 11 15.5 15.5t21.5 0.5q11 -5 16.5 -15t2.5 -21q-20 -75 -19.5 -117t11.5 -56q2 -3 6 -5.5
t12 -2.5q18 0 43.5 19t54.5 54q25 30 40.5 54.5t15.5 25.5q6 11 18 14t23 -3q11 -7 14 -18.5t-3 -22.5q0 -1 -5 -8.5t-13 -20t-19.5 -28t-24.5 -31.5q-16 -20 -32 -35.5t-31 -27.5q-43 -32 -81 -32z" />
    <glyph glyph-name="b" unicode="b" horiz-adv-x="388" 
d="M331 338q14 -46 -4 -107q-14 -49 -41 -93.5t-65 -79.5q-31 -28 -62 -43t-57 -15q-8 0 -18 2q-6 1 -16.5 6.5t-19.5 17t-13 31.5t3 51q2 13 12.5 19.5t22.5 3.5q13 -2 19.5 -12.5t3.5 -22.5q-3 -16 -2.5 -23.5t1.5 -9.5t1.5 -2t1.5 -1q8 -2 30.5 7t51.5 36q32 28 55 65.5
t34 78.5q8 29 7.5 46.5t-2.5 28.5q-6 19 -21 25q-16 5 -38 -2t-45 -27q-23 -18 -54.5 -57t-63.5 -111q-2 -3 -3 -5t-3 -4l-34 -121q-7 -22 -29 -22q-5 0 -8 1q-12 4 -18 14.5t-3 22.5l181 640q3 12 14 18t23 3q12 -4 18 -14.5t3 -22.5l-92 -323q16 16 31 28q36 28 72 39
q37 11 69 0q44 -17 58 -66z" />
    <glyph glyph-name="c" unicode="c" horiz-adv-x="367" 
d="M148 2q-91 0 -134 52q-13 16 -23 45.5t-1 76.5t31.5 90t55.5 78q31 32 65.5 50.5t64.5 18.5q26 0 44.5 -16.5t25.5 -45.5q4 -15 3 -32t-6 -33q-12 -39 -42 -53q-11 -5 -23 -1t-17 15t-1 23t15 17q6 3 11 18.5t1 32.5q-2 11 -5.5 13t-5.5 2q-14 0 -37 -11t-50 -39
q-27 -29 -45 -64.5t-26 -73.5q-9 -48 12 -73q25 -30 87 -30q85 0 160 73q14 14 24.5 27.5t18.5 24.5q9 12 15 24q6 11 18 15t23 -2t14.5 -17.5t-2.5 -22.5q0 -1 -4.5 -9t-13 -20.5t-21.5 -28.5t-29 -32q-45 -45 -96.5 -68.5t-106.5 -23.5z" />
    <glyph glyph-name="d" unicode="d" horiz-adv-x="481" 
d="M522 223q11 -6 14 -18t-3 -23q0 -1 -4.5 -8.5t-12.5 -20t-19 -28t-24 -31.5q-31 -38 -62 -63q-43 -32 -81 -32q-31 0 -48.5 12.5t-26.5 25.5q-8 14 -13 30.5t-6 38.5q-14 -18 -28.5 -33t-29.5 -28q-35 -29 -69 -39q-18 -6 -35 -6q-9 0 -16.5 1.5t-15.5 3.5
q-21 8 -35.5 25t-21.5 41q-12 44 5 107q14 50 41.5 94t65.5 79q36 33 72 48t65 8q4 -1 11.5 -4t15 -10t14 -17.5t8.5 -26.5q14 44 30.5 89t34 88t34 82t30.5 72q5 11 16.5 16t22.5 0q12 -5 16.5 -17t-0.5 -23q-47 -108 -80 -194t-54 -155q-29 -94 -35 -152q-5 -41 -1 -59.5
t9 -25.5q2 -4 7.5 -7.5t16.5 -3.5q18 0 43 19t53 54q12 14 21.5 28.5t17.5 25.5q9 13 16 25q6 11 18 14.5t23 -2.5zM140 91q22 19 53 58t63 111q0 1 2 3q2 10 4 17q-10 -5 -18 -2q-12 2 -19 12.5t-4 22.5q3 16 2.5 23.5t-1.5 9.5q-2 3 -3 3q-8 2 -30.5 -6.5t-51.5 -35.5
q-31 -29 -54.5 -66.5t-34.5 -78.5q-11 -39 -7 -66.5t21 -33.5q11 -4 31 1.5t47 27.5z" />
    <glyph glyph-name="e" unicode="e" horiz-adv-x="368" 
d="M149 2q-91 0 -134 52q-13 16 -23 45.5t-1 76.5q9 46 31 88.5t56 77.5q29 30 63 49t63 22q27 3 47 -7.5t30 -33.5q11 -28 2.5 -66.5t-34.5 -77.5q-17 -25 -39.5 -46t-48.5 -36q-49 -30 -110 -35q13 -29 41 -39t57 -10q86 0 159 73q14 14 25 27.5t19 24.5q9 12 15 24
q6 11 18 15t23 -2t14.5 -17.5t-2.5 -22.5q0 -1 -4.5 -9t-13 -20.5t-21.5 -28.5t-29 -32q-45 -45 -96.5 -68.5t-106.5 -23.5zM215 354q-3 0 -5 -1q-14 -2 -38.5 -14t-50.5 -39t-44 -60t-26 -69q45 5 83.5 28.5t64.5 62.5q19 28 25 52t1 35q0 5 -10 5z" />
    <glyph glyph-name="f" unicode="f" horiz-adv-x="386" 
d="M397 225q12 0 21 -8.5t9 -21.5q0 -12 -9 -21t-21 -9h-248q-19 -78 -36.5 -148.5t-36.5 -127.5q-21 -60 -42 -94q-29 -47 -67 -47q-12 0 -21 9t-9 21q0 13 8.5 21.5t21.5 8.5q1 0 5 3.5t11 15t17 33.5t22 59q17 51 32.5 114t32.5 132h-63q-12 0 -21 9t-9 21q0 13 9 21.5
t21 8.5h78q19 80 39 156t43 139q14 41 28.5 70.5t29.5 51.5q41 56 88 56q32 0 51 -25q35 -44 22 -165q-4 -43 -10 -74.5t-6 -33.5q-3 -12 -13.5 -18.5t-22.5 -4.5q-12 3 -19 13.5t-4 22.5q0 1 6 31t10 70q3 34 2.5 56.5t-2.5 36.5t-5 20.5t-5 8.5q-1 2 -4 2q-17 0 -39 -31
q-24 -34 -50 -107q-21 -58 -40 -129t-37 -146h233v0z" />
    <glyph glyph-name="g" unicode="g" horiz-adv-x="364" 
d="M290 276q11 -4 16.5 -14.5t3.5 -21.5q-8 -32 -17.5 -69.5t-21 -77.5t-25 -80.5t-28.5 -77.5q-31 -80 -65 -126q-46 -61 -94 -61q-13 0 -21.5 9t-8.5 21q0 13 8.5 21.5t21.5 8.5q18 0 45 36q29 40 59 113q11 26 20.5 54.5t18.5 57.5l-13 -13t-13 -11q-36 -30 -69 -40
q-37 -11 -67 0q-43 15 -57 66q-13 47 5 107q14 50 41 94t65 79q37 33 73 48t64 8q6 -2 16.5 -7t19.5 -16.5t13 -31.5t-3 -51q-2 -12 -12.5 -19t-22.5 -4q-13 2 -19.5 12.5t-3.5 22.5q3 16 2.5 23.5t-1.5 9.5q-2 3 -3 3q-8 2 -30.5 -6.5t-51.5 -35.5q-32 -29 -55 -66.5
t-34 -78.5q-11 -39 -7 -66.5t21 -33.5q11 -5 31 0.5t47 28.5q22 18 52.5 57t62.5 111q5 11 15.5 15.5t21.5 1.5z" />
    <glyph glyph-name="h" unicode="h" horiz-adv-x="430" 
d="M-29 -2q-7 0 -11 3q-11 5 -16 15t-1 21q0 1 10 32t27 82.5t39.5 118t48 137.5t52.5 141.5t54 131.5q5 11 16.5 16t22.5 0q12 -5 16.5 -17t-0.5 -23q-19 -44 -38.5 -93t-39 -100.5t-38 -103t-34.5 -99.5q37 52 69 87q59 65 103 65q18 0 28.5 -6.5t15.5 -13.5
q17 -23 11.5 -60t-19.5 -96q-3 -10 -5.5 -19.5t-4.5 -20.5q-15 -57 -19 -92q-2 -22 -0.5 -30.5t3.5 -10.5t7.5 -3t9.5 -1q17 0 42 18.5t54 53.5q24 30 39.5 55t15.5 26q6 11 18 14t23 -3t14 -18t-3 -23q0 -1 -4.5 -8.5t-12.5 -20t-19 -28t-24 -31.5q-32 -39 -62 -62
q-42 -33 -81 -33q-43 0 -64 27q-12 15 -15 34.5t-1 43t7.5 50.5t12.5 56l11 41q5 22 9.5 40t6.5 33q2 11 2.5 17.5t0.5 9.5q-4 -1 -14.5 -7t-28 -23.5t-43 -49t-59.5 -83.5q-22 -32 -41 -63t-33.5 -55.5t-22.5 -40l-8 -15.5q-10 -16 -27 -16z" />
    <glyph glyph-name="i" unicode="i" horiz-adv-x="237" 
d="M85 -1q-29 0 -46.5 11.5t-25.5 23.5q-34 47 -16 153q12 81 56 206q4 12 15 17.5t23 1.5q12 -5 17.5 -16t0.5 -23q-29 -84 -42 -140t-15.5 -90.5t1.5 -51t8 -22.5q3 -4 8 -7t16 -3q18 0 43 18.5t53 53.5q12 15 21.5 29.5t17.5 25.5q9 13 16 25q6 11 18 14.5t23 -2.5
t14.5 -18t-2.5 -23q0 -1 -5 -8.5t-13 -20t-19 -28t-24 -31.5q-31 -38 -62 -63q-43 -32 -81 -32zM140 506q-4 -13 -15.5 -22t-24.5 -10q-12 -1 -18.5 7.5t-2.5 21.5q4 12 15.5 21.5t24.5 9.5q13 1 19 -7t2 -21z" />
    <glyph glyph-name="j" unicode="j" horiz-adv-x="150" 
d="M-182 -252q-13 0 -21.5 9t-8.5 21q0 13 8.5 21.5t21.5 8.5q8 0 15.5 5.5t13.5 11.5q22 22 42 61q38 72 77 201q16 55 29.5 108t23 95t14.5 68t5 27q2 12 12.5 19t22.5 5t19 -12.5t5 -22.5q0 -1 -5 -27.5t-15 -69t-23.5 -97t-29.5 -110.5q-20 -67 -41 -120t-41 -92
q-58 -110 -124 -110zM120 506q-4 -13 -15.5 -22t-24.5 -10q-12 -1 -18.5 7.5t-2.5 21.5q4 12 15.5 21.5t24.5 9.5q13 1 19 -7t2 -21z" />
    <glyph glyph-name="k" unicode="k" horiz-adv-x="404" 
d="M445 224q11 -6 14.5 -18t-3.5 -23q0 -1 -4.5 -8.5t-12.5 -20t-19.5 -28.5t-24.5 -32q-78 -95 -149 -95q-30 0 -45 18q-14 14 -14.5 33t1.5 39q2 17 1.5 33t-8.5 25q-5 5 -13.5 9.5t-25.5 6.5q-25 -2 -43 1q-12 2 -20 11t-7 22q1 12 10 20.5t21 8.5q11 0 21 -0.5t19 -1.5
q29 3 60 14q29 10 51.5 23.5t35.5 27.5t13.5 23.5t-1.5 13.5q-2 8 -7 14.5t-21 9.5q-22 4 -50.5 -2.5t-56.5 -19t-50.5 -28t-32.5 -28.5l-6 -7l-70 -245q-2 -10 -10 -16t-19 -6q-2 0 -4 0.5t-4 0.5q-12 4 -18 14.5t-2 22.5l180 640q4 12 14.5 18.5t22.5 2.5q12 -3 18.5 -14
t2.5 -23l-83 -295q18 10 38 19q12 5 28 11t35 10.5t39 6t40 -2.5q60 -12 75 -68q4 -17 0.5 -41t-26.5 -51q-19 -21 -47 -38t-59 -28q19 -23 19.5 -50.5t-1.5 -49.5q0 -5 -0.5 -12t-0.5 -12q20 0 47 19t56 54q12 15 21.5 29.5t17.5 25.5q9 13 16 25q6 11 18 14.5t23 -2.5z
" />
    <glyph glyph-name="l" unicode="l" horiz-adv-x="236" 
d="M85 -1q-31 0 -48.5 12.5t-25.5 25.5q-24 37 -19.5 106.5t38.5 181.5q15 47 32.5 95.5t35.5 94.5t36 88l33 77q5 11 16.5 16t23.5 0q11 -5 15.5 -17t-0.5 -23q-93 -214 -134 -348q-29 -93 -35 -153q-5 -41 -1 -59.5t9 -25.5q2 -4 7.5 -7.5t16.5 -3.5q18 0 43 19t53 54
q12 15 22 29t17.5 25t11.5 18.5l4 7.5q6 11 18 14t23 -3t14.5 -18t-3.5 -23q0 -1 -4.5 -8.5t-12.5 -20t-19 -28t-24 -31.5q-32 -39 -62 -62q-42 -33 -81 -33z" />
    <glyph glyph-name="m" unicode="m" horiz-adv-x="677" 
d="M-30 -2q-6 0 -12 3q-11 5 -16 15t-1 21q0 1 10 30.5t26.5 78t38.5 112.5t47 134q4 11 15.5 16.5t22.5 1.5q12 -5 17.5 -16t0.5 -23l-37 -105q17 24 33.5 44t30.5 37q31 33 55.5 49t47.5 16q12 0 21.5 -5.5t17.5 -14.5q5 -7 9 -19t5.5 -33t-0.5 -53t-11 -80l10 14
q26 40 50 71.5t45 54.5q31 33 55.5 49t47.5 16q18 0 28.5 -6.5t16.5 -13.5q17 -23 11.5 -60t-20.5 -96l-10 -40q-7 -29 -12 -51.5t-7 -40.5q-2 -22 0 -30.5t4 -10.5t7 -3t9 -1q18 0 43 18.5t53 53.5q12 15 21.5 29.5t17.5 25.5q9 13 16 25q6 11 18 14.5t23 -2.5t14.5 -18
t-2.5 -23q-1 -1 -5.5 -8.5t-12.5 -20t-19 -28t-24 -31.5q-31 -38 -62 -63q-43 -32 -81 -32q-42 0 -64 27q-11 15 -14.5 34.5t-1.5 43t8 50.5t13 56l10 41q5 22 9.5 40t7.5 33q2 11 2 17v10q-4 -1 -14 -7t-27.5 -23.5t-43 -49t-60.5 -83.5q-21 -32 -40.5 -63t-33.5 -55.5
t-22.5 -40l-8.5 -15.5q-5 -11 -16 -15t-22 1t-16 15.5t-1 21.5q2 6 6 22l9.5 38t11.5 48.5t11 55.5q7 36 10 61.5t4 43t0.5 28t-1.5 15.5q-6 -3 -17 -11t-28.5 -26t-41 -48t-54.5 -76q-21 -32 -40.5 -63t-33.5 -55.5t-22.5 -40l-8.5 -15.5q-4 -8 -11 -12t-15 -4z" />
    <glyph glyph-name="n" unicode="n" horiz-adv-x="429" 
d="M-30 -2q-6 0 -12 3q-11 5 -15.5 15.5t-0.5 21.5l9.5 29.5t26 78t38.5 112.5t47 134q5 11 16 17t23 1q11 -5 17 -16t1 -22q-10 -28 -19.5 -54t-17.5 -52q17 24 33 44t31 37q59 65 103 65q18 0 28.5 -6.5t15.5 -13.5q17 -23 11.5 -60t-19.5 -96q-3 -10 -5.5 -19.5
t-4.5 -20.5q-15 -57 -19 -92q-2 -22 -0.5 -30.5t3.5 -10.5t7.5 -3t9.5 -1q17 0 42.5 19t53.5 54q12 15 22 29t17.5 25t11.5 18.5l4 7.5q6 11 18 14t23 -3t14 -18t-3 -23q0 -1 -4.5 -8.5t-12.5 -20t-19 -28t-24 -31.5q-32 -39 -62 -62q-42 -33 -81 -33q-43 0 -64 27
q-12 15 -15 34.5t-1 43t7.5 50.5t12.5 56l11 41q5 22 9.5 40t6.5 33q2 11 2.5 17.5t0.5 9.5q-4 -1 -14.5 -7t-28 -23.5t-43 -49t-59.5 -83.5q-22 -32 -41 -63t-33.5 -55.5t-22.5 -40l-8 -15.5q-10 -16 -27 -16z" />
    <glyph glyph-name="o" unicode="o" horiz-adv-x="408" 
d="M108 -1q-39 0 -62.5 12.5t-34.5 26.5q-29 34 -29 89q0 33 11 70t31 70q18 32 43 52q20 17 38 21q4 10 7 14q36 59 92 59q50 0 78 -53q20 -42 20 -101q0 -64 -21 -119q39 11 75 34q24 16 37.5 29t13.5 14q8 9 20.5 9.5t21.5 -7.5q10 -8 10.5 -20.5t-7.5 -21.5l-17 -17
t-42 -33t-64 -34t-82 -19q-23 -30 -50 -49q-41 -26 -89 -26zM152 297q-4 -12 -6.5 -26t-2.5 -30q0 -47 22 -77q17 -24 49 -30q14 27 21 59.5t7 65.5q0 40 -10.5 67t-27.5 27q-14 0 -26.5 -12t-20.5 -32q-1 -4 -5 -12zM75 236q-15 -26 -24 -55t-9 -54q0 -11 3 -25t11 -25
q16 -18 52 -18q37 0 66 24q-33 13 -58 46q-16 22 -24.5 51t-8.5 61v8z" />
    <glyph glyph-name="p" unicode="p" horiz-adv-x="372" 
d="M325 338q14 -46 -4 -107q-14 -49 -41 -93.5t-65 -79.5q-31 -28 -62 -43t-57 -15q-8 0 -18 2q-6 1 -16 6t-19 16t-13.5 30t0.5 48l-93 -332q-7 -22 -29 -22q-5 0 -8 1q-12 4 -18 14.5t-3 22.5l170 601q3 12 14 18t23 3q12 -4 18 -14.5t3 -22.5l-9 -32l13.5 13.5t14.5 12.5
q36 28 72 39q37 11 69 0q44 -17 58 -66zM263 247q8 29 7.5 46.5t-2.5 28.5q-6 19 -21 25q-16 5 -38 -2t-45 -27q-23 -18 -54.5 -57t-63.5 -111q-2 -4 -4 -6l-7 -28q10 20 32 15q13 -2 19.5 -12.5t3.5 -22.5q-3 -16 -2.5 -23.5t1.5 -9.5t1.5 -2t1.5 -1q8 -2 30.5 7t51.5 36
q32 28 55 65.5t34 78.5z" />
    <glyph glyph-name="q" unicode="q" horiz-adv-x="408" 
d="M108 -1q-39 0 -62.5 12.5t-34.5 26.5q-29 34 -29 89q0 33 11 70t31 70q18 32 43 52q20 17 38 21q4 10 7 14q36 59 92 59q50 0 78 -53q20 -42 20 -101q0 -64 -21 -119q39 11 75 34q24 16 37.5 29t13.5 14q8 9 20.5 9.5t21.5 -7.5q10 -8 10.5 -20.5t-7.5 -21.5l-17 -17
t-42 -33t-64 -34t-82 -19q-23 -30 -50 -49q-41 -26 -89 -26zM388 -113q-12 -4 -22.5 2t-14.5 18t-21 18t-34 9q-29 5 -64.5 5h-70.5q-34 -1 -63.5 0t-55.5 4q-7 1 -19 3t-25 7.5t-24.5 15.5t-15.5 26q-4 12 2 22.5t18 14.5q12 3 23 -2.5t14 -16.5q2 -2 10 -5.5t33 -6.5
q22 -2 48 -2.5t54 0.5q38 0 75.5 -0.5t70.5 -5.5q19 -3 34 -8t27 -11q32 -19 41 -50q4 -12 -2 -22.5t-18 -14.5zM152 297q-4 -12 -6.5 -26t-2.5 -30q0 -47 22 -77q17 -24 49 -30q14 27 21 59.5t7 65.5q0 40 -10.5 67t-27.5 27q-14 0 -26.5 -12t-20.5 -32q-1 -4 -5 -12z
M75 236q-15 -26 -24 -55t-9 -54q0 -11 3 -25t11 -25q16 -18 52 -18q37 0 66 24q-33 13 -58 46q-16 22 -24.5 51t-8.5 61v8z" />
    <glyph glyph-name="r" unicode="r" horiz-adv-x="456" 
d="M305 -1q-29 0 -46.5 11.5t-26.5 23.5q-33 46 -15 153q7 52 29 125q-12 -6 -28 -13q-65 -27 -120 -20q-2 -7 -4.5 -13.5t-5.5 -13.5q-10 -23 -20.5 -43t-19.5 -35t-15 -23.5t-7 -9.5q-7 -11 -19 -13t-22 6q-11 8 -13 19.5t6 22.5l5 8t13.5 21.5t18 31.5t18.5 39l9 22
q-17 10 -29 21q-33 30 -43 66q-9 34 1 65q8 23 25 38.5t38 17.5q42 3 67 -42q25 -46 17 -109l-3 -17q18 -2 37.5 2.5t42.5 13.5q18 8 34 17t27 17q13 9 25 18q8 7 18.5 7.5t18.5 -5.5t11.5 -15.5t-0.5 -19.5q-29 -84 -42 -140t-15.5 -90.5t1.5 -51t8 -22.5q3 -4 8 -7t16 -3
q18 0 43 19t53 54q12 14 21.5 28.5t17.5 25.5q9 13 16 25q6 11 18 14.5t23 -2.5t14.5 -18t-3.5 -23q0 -1 -4.5 -8.5t-12.5 -20t-19 -28t-24 -31.5q-31 -38 -62 -63q-43 -32 -81 -32zM40 446q-2 0 -5.5 -3.5t-6.5 -11.5q-1 -3 -2 -9.5t0.5 -15.5t7.5 -20t19 -23l5 -3
q2 20 0.5 39.5t-10.5 36.5q-2 2 -3.5 4t-2.5 4z" />
    <glyph glyph-name="s" unicode="s" horiz-adv-x="349" 
d="M120 1q-20 0 -38 5.5t-32 15.5q-34 25 -34 66q0 13 8.5 21.5t21.5 8.5t21.5 -8.5t8.5 -21.5q0 -16 16 -21.5t28 -5.5q44 0 77 33q40 40 40 113q0 35 -22 60t-50 49l-28 24q-8 -17 -19 -40t-28 -53q-23 -42 -42 -71.5t-21 -31.5q-7 -11 -19 -13t-22 5q-11 7 -13.5 19
t4.5 22q1 1 19.5 30.5t41.5 69.5q20 35 31.5 59.5t17.5 40t7.5 23.5t1.5 11q0 11 7.5 19.5t19.5 10.5q11 1 20.5 -6t11.5 -18q3 -13 17.5 -27t31.5 -29q15 -14 31.5 -29t30 -33.5t22.5 -41t9 -50.5q0 -61 -19 -98.5t-39 -57.5q-24 -23 -55 -36.5t-64 -13.5z" />
    <glyph glyph-name="t" unicode="t" horiz-adv-x="235" 
d="M352 584q2 -12 -5 -22.5t-19 -12.5l-166 -34q-24 -60 -42.5 -111.5t-32.5 -96.5q-29 -94 -35 -152q-5 -41 -1 -59.5t9 -25.5q2 -4 7.5 -7.5t16.5 -3.5q18 0 43 19t53 54q12 14 21.5 28.5t17.5 25.5q9 13 16 25q6 11 18 14.5t23 -2.5t14 -18t-3 -23q0 -1 -4.5 -8.5
t-12.5 -20t-19 -28t-24 -31.5q-31 -38 -62 -63q-43 -32 -81 -32q-31 0 -48.5 12.5t-26.5 25.5q-24 37 -19 106.5t39 181.5q14 44 29.5 88t32.5 88l-32 -7h-6q-11 0 -19 6.5t-10 17.5q-2 12 4.5 22.5t18.5 12.5l71 15q13 31 25 59t23 53q5 11 16.5 16t22.5 0q12 -5 16.5 -17
t-0.5 -23l-32 -74l127 26q12 2 22.5 -5t13.5 -19z" />
    <glyph glyph-name="u" unicode="u" horiz-adv-x="454" 
d="M495 223q11 -6 14.5 -18t-2.5 -23q0 -1 -5 -8.5t-13 -20t-19 -28t-24 -31.5q-32 -39 -62 -62q-42 -33 -81 -33q-29 0 -46.5 11.5t-25.5 23.5q-15 20 -19 51q-65 -86 -128 -86q-29 0 -46.5 11.5t-25.5 23.5q-34 47 -16 153q7 42 20.5 93t35.5 113q4 12 15 17.5t23 1.5
q12 -5 17.5 -16t0.5 -23q-29 -84 -42 -140t-15.5 -90t1.5 -51t9 -23q2 -4 7 -7t16 -3q17 0 40 18.5t46 52.5q11 14 19 28.5t14 25.5q7 13 13 25q2 4 4 6q15 77 51 178q4 12 15 17.5t23 1.5q12 -5 17.5 -16t0.5 -23q-29 -84 -42 -140t-15.5 -90t1.5 -51t9 -23q2 -4 7 -7
t16 -3q18 0 43 19t54 54q12 15 22 29t17 25t11 18.5l4 7.5q7 11 18.5 14t22.5 -3z" />
    <glyph glyph-name="v" unicode="v" horiz-adv-x="344" 
d="M84 -1q-29 0 -46.5 11.5t-25.5 23.5q-34 47 -16 153q12 81 56 206q4 12 15 17.5t23 1.5q11 -5 17 -16t1 -23q-29 -84 -42 -140t-15.5 -90t1.5 -51t8 -23q3 -4 8 -7t16 -3q16 0 45.5 23t59.5 68q16 23 30 51t23 58t10.5 59t-8.5 54q-5 12 0.5 23t16.5 16q12 5 23 0t16 -17
q23 -60 2 -143q-19 -70 -63 -134q-35 -50 -73 -82q-44 -36 -82 -36z" />
    <glyph glyph-name="w" unicode="w" horiz-adv-x="564" 
d="M520 394q23 -60 2 -143q-19 -70 -63 -134q-35 -50 -73 -82q-44 -36 -82 -36q-29 0 -46.5 11.5t-25.5 23.5q-14 19 -20 52q-63 -87 -128 -87q-29 0 -46.5 11.5t-25.5 23.5q-34 49 -16 153q13 81 56 206q4 12 15 17.5t23 1.5q12 -5 17.5 -16t1.5 -23q-30 -84 -42.5 -140
t-15.5 -90t1 -51t9 -23q2 -4 7 -7t16 -3q17 0 40 18.5t47 52.5q10 14 18.5 28.5t14.5 25.5q7 13 12 25l5 7q15 75 51 177q4 12 15 17.5t23 1.5q11 -5 17 -16t1 -23q-29 -84 -42 -140t-15.5 -90t1.5 -51t8 -23q3 -4 8 -7t16 -3q16 0 45.5 23t59.5 68q16 23 30 51t23 58
t10.5 59t-8.5 54q-5 12 0.5 23t16.5 16q12 5 23 0t16 -17z" />
    <glyph glyph-name="x" unicode="x" horiz-adv-x="481" 
d="M522 224q11 -6 14.5 -18t-2.5 -23q0 -1 -4.5 -8.5t-12.5 -20t-19.5 -28.5t-24.5 -32q-78 -96 -150 -96q-37 0 -60 25q-20 21 -25.5 54t-4.5 73l-145 -143q-10 -8 -21 -8q-13 0 -22 9q-8 9 -8 21.5t9 20.5l192 189q2 21 2.5 41t-1.5 37q-2 25 -7 33t-8 10t-7.5 3.5
t-12.5 -0.5q-6 -2 -15 -6.5t-21 -15t-27.5 -27.5t-34.5 -44q-23 -32 -37 -58t-15 -26q-5 -11 -17 -15t-23 2q-11 5 -15 17t2 23q1 2 16 29t40 62q71 99 131 116q36 10 68 -8q14 -9 22 -21.5t12.5 -25.5t6 -25t2.5 -18q0 -5 0.5 -11t0.5 -12l118 115q9 9 21.5 9t20.5 -9
q9 -9 8.5 -21.5t-8.5 -21.5l-163 -159v-1q-2 -25 -3.5 -50t0.5 -46q2 -25 5.5 -36t7.5 -15q2 -2 5.5 -4t10.5 -2q43 0 103 74q12 15 22 29.5t18 25.5q9 13 15 25q6 11 18 14.5t23 -2.5z" />
    <glyph glyph-name="y" unicode="y" horiz-adv-x="367" 
d="M291 409q13 -2 19.5 -12.5t4.5 -22.5q0 -1 -5 -27.5t-14.5 -69t-23 -97t-30.5 -110.5q-20 -67 -40.5 -120t-41.5 -92q-58 -110 -124 -110q-12 0 -21 9t-9 21q0 13 9 21.5t21 8.5q8 0 16 5.5t14 11.5q21 23 41 61q32 58 62 152q-44 -39 -85 -39q-29 0 -46.5 11.5
t-26.5 23.5q-33 46 -16 153q13 81 56 206q5 12 16 17.5t23 1.5q11 -5 16.5 -16t1.5 -23q-29 -84 -42 -140t-16 -90.5t1 -51t9 -22.5q3 -4 8 -7t16 -3q17 0 39.5 18.5t46.5 52.5q10 14 18.5 28.5t14.5 25.5q7 13 13 25l3 6q9 36 16 66.5t11.5 53t7 36l2.5 13.5q2 13 12.5 20
t22.5 5z" />
    <glyph glyph-name="z" unicode="z" horiz-adv-x="461" 
d="M502 225q11 -6 14.5 -17.5t-2.5 -22.5q-1 -2 -17 -29.5t-44 -61.5q-82 -96 -161 -96q-41 0 -80.5 11t-72.5 22l-9 3q-42 -36 -74 -36h-2q-29 0 -43 14t-16 31q-2 24 19 45q19 16 46 20q11 2 24.5 0.5t29.5 -6.5h1q23 23 47.5 53.5t51.5 63.5q25 31 49.5 61.5t49.5 56.5
q-21 2 -40.5 6t-36.5 8q-27 7 -49.5 10.5t-42.5 -3.5q-56 -18 -78 -67q-7 -15 -9.5 -28.5t-3.5 -24t0 -18t2 -10.5q5 -11 0.5 -22.5t-16.5 -16.5q-11 -5 -22.5 0t-16.5 16q-8 20 -7 56.5t18 72.5t46 61t68 38q32 11 63 6.5t62 -12.5q19 -5 38 -8.5t37.5 -4t38 4t40.5 15.5
q11 6 23 2.5t18 -14.5t2.5 -23t-14.5 -18q-18 -10 -39 -29.5t-43.5 -44t-45 -52.5t-44.5 -55q-23 -29 -44 -54.5t-39 -45.5q28 -9 56.5 -16.5t57.5 -7.5q16 0 32 7t31 18t28 24t24 26q12 15 22 29t17 25t11 18.5l4 7.5q6 11 18 14.5t23 -2.5z" />
    <glyph glyph-name="braceleft" unicode="{" horiz-adv-x="423" 
d="M416 640q0 -12 -8.5 -20.5t-21.5 -8.5h-1q-26 0 -62.5 -20t-62.5 -58q-8 -11 -14.5 -25t-10 -31t-2.5 -36t9 -40q22 -54 -9 -98q-11 -17 -27 -30.5t-31 -24.5q-5 -4 -13 -10t-13 -11q11 -9 19 -14q10 -7 17.5 -13.5t11.5 -14.5q9 -19 6.5 -39t-13 -40.5t-26.5 -41
t-33 -41.5q-12 -15 -22.5 -29t-18.5 -27q-10 -15 -12.5 -22t-2.5 -9q2 -2 16 -5.5t51 -0.5q12 1 23.5 2.5t20.5 3.5q11 2 20 4q12 3 22.5 -3.5t13.5 -18.5t-3.5 -22.5t-18.5 -13.5q-1 0 -21 -4.5t-47 -6.5q-10 -2 -19 -2h-18q-51 0 -76 19q-22 18 -24 45q-1 29 20.5 61
t49.5 66q14 17 27 34.5t22 32.5q7 13 8.5 20t1.5 9l-10 8q-8 5 -15.5 11t-14.5 13q-16 16 -17.5 29.5t1.5 22.5q5 18 20 31t32 25q31 24 43.5 40.5t2.5 42.5q-18 48 -12 96t37 92q16 23 36.5 42t43.5 33t47 21.5t47 7.5h2q12 -1 21 -9.5t8 -21.5z" />
    <glyph glyph-name="bar" unicode="|" horiz-adv-x="149" 
d="M97 626q2 -3 3.5 -5.5t1.5 -7.5q0 -2 1 -34t2 -83.5t1.5 -117.5t1.5 -136t1 -137.5t-0.5 -123t-2 -93.5t-4.5 -47q-4 -13 -14.5 -19t-22.5 -2t-18.5 14.5t-2.5 22.5q2 6 3 40.5t1.5 87t0.5 117.5t-0.5 133t-1 132.5t-1.5 116t-1.5 84t-1.5 36.5q-2 13 5.5 22.5t19.5 12.5
q19 2 29 -13z" />
    <glyph glyph-name="braceright" unicode="}" horiz-adv-x="423" 
d="M8 -100q0 12 8.5 20.5t21.5 8.5h1q26 0 62.5 20t62.5 58q7 11 14 25t10.5 31t2.5 36t-9 40q-22 54 9 98q11 17 27 30.5t31 24.5q5 4 13 10t13 11q-11 9 -19 14q-10 7 -17.5 13.5t-11.5 14.5q-9 19 -6.5 39t13 40.5t26.5 41t33 41.5q12 15 22.5 29t18.5 27q10 15 12.5 22
t2.5 9q-2 2 -16 5.5t-51 0.5q-27 -3 -44 -6q-11 -2 -20 -4q-12 -3 -22.5 3.5t-13.5 18.5t3.5 22.5t18.5 13.5q1 0 21 4.5t47 6.5q10 2 19 2h18q51 0 76 -19q22 -18 24 -45q1 -29 -20.5 -61t-49.5 -66q-14 -17 -27 -34.5t-22 -32.5q-7 -13 -8.5 -20t-1.5 -9l10 -8
q8 -5 15.5 -11t14.5 -13q16 -16 17.5 -29.5t-1.5 -22.5q-5 -18 -20 -31t-32 -25q-32 -24 -44.5 -41t-1.5 -42q18 -48 12 -96t-37 -92q-16 -23 -36.5 -42t-43.5 -33t-47 -21.5t-47 -7.5h-2q-12 1 -21 9.5t-8 21.5z" />
    <glyph glyph-name="asciitilde" unicode="~" horiz-adv-x="669" 
d="M596 392q12 0 21 -9t9 -21q0 -39 -9.5 -65.5t-23 -44t-29 -27t-27.5 -13.5q-21 -7 -48 -7q-37 0 -76 15q-30 12 -56.5 31.5t-44.5 42.5q-26 33 -63 48t-70 6q-63 -17 -74 -108q-2 -12 -12 -20t-22 -6t-20 11.5t-6 22.5q5 32 14.5 58.5t25.5 46.5q31 40 78 52
q51 15 107 -7q55 -22 89 -68q14 -18 34 -32t42 -22.5t44 -10.5t39 4q48 16 48 93q0 12 8.5 21t21.5 9z" />
    <glyph glyph-name="exclamdown" unicode="&#xa1;" horiz-adv-x="316" 
d="M192 419q4 13 15.5 22t24.5 10q12 1 18.5 -7.5t2.5 -21.5q-4 -12 -15.5 -21.5t-24.5 -9.5q-13 -1 -19 7t-2 21zM14 -226q-3 7 -1 14q0 2 9 38.5t23 90.5t31 117.5t33 120.5t29 99t20 53q8 11 19.5 14t22.5 -5q11 -7 14 -18.5t-5 -22.5q-5 -7 -16.5 -45t-27 -91.5
t-31.5 -114.5t-29.5 -114t-23 -89.5t-9.5 -41.5q-2 -13 -12 -20t-22 -6q-19 3 -24 21z" />
    <glyph glyph-name="sterling" unicode="&#xa3;" horiz-adv-x="559" 
d="M478 661q23 -17 37.5 -31.5t14.5 -15.5q8 -9 7.5 -21.5t-10.5 -20.5t-22 -7t-20 11q-7 7 -20.5 19.5t-30.5 23.5t-37 18t-40 4q-55 -8 -94 -93q-15 -32 -39 -93.5t-47 -133.5q33 3 70 5.5t74.5 5.5t72 5t63.5 3q12 1 21.5 -7.5t9.5 -20.5q1 -13 -7.5 -22t-21.5 -10
q-31 -1 -69 -3.5t-78.5 -5t-80 -5.5t-73.5 -6q-17 -55 -25 -91.5t-11 -59t-2.5 -33.5t1.5 -14q2 -2 9.5 -4t23.5 -4t42.5 -2.5t65.5 1.5q24 1 47 3.5t40.5 4t28.5 3l11 1.5q12 2 21.5 -5.5t11.5 -19.5q2 -13 -5.5 -22.5t-19.5 -11.5q-1 0 -12.5 -1.5t-30 -3.5t-42.5 -4.5
t-50 -3.5q-16 -1 -29.5 -1h-25.5q-34 0 -56.5 2.5t-37.5 6.5t-23.5 9.5t-13.5 10.5q-14 14 -16.5 39.5t5.5 70.5q7 49 29 123q-35 -3 -38 -3h-3q-11 0 -19.5 7.5t-10.5 19.5q-1 12 7 21.5t21 11.5q7 0 17 1q8 1 19 1.5t25 2.5q13 40 26 78t26 72t24 61.5t20 45.5
q54 116 141 128q63 8 129 -40z" />
    <glyph glyph-name="dieresis" unicode="&#xa8;" horiz-adv-x="319" 
d="M131 596q-4 -13 -15.5 -22t-24.5 -10q-12 -1 -18.5 7.5t-2.5 21.5q4 12 15.5 21.5t24.5 9.5q13 1 19 -7t2 -21zM251 596q-4 -13 -15.5 -22t-24.5 -10q-12 -1 -18.5 7.5t-2.5 21.5q4 12 15.5 21.5t24.5 9.5q13 1 19 -7t2 -21z" />
    <glyph glyph-name="macron" unicode="&#xaf;" horiz-adv-x="343" 
d="M280 697q-3 -2 -5.5 -3.5t-7.5 -1.5q-3 -1 -26.5 -3t-54.5 -3t-62 0t-49 6q-13 4 -19 14.5t-2 22.5t14.5 18.5t22.5 2.5t37 -5t51 0t48.5 2.5t30.5 3.5q13 2 22.5 -5.5t12.5 -19.5q2 -19 -13 -29z" />
    <glyph glyph-name="acute" unicode="&#xb4;" horiz-adv-x="218" 
d="M55 528q-17 0 -27 16q-5 11 -1.5 23t14.5 18q7 3 19.5 10.5t27 17t27.5 20.5t20 21q8 10 20 11.5t22 -6.5q11 -8 12.5 -19.5t-6.5 -22.5q-12 -15 -30 -30t-35.5 -26.5t-31.5 -19.5t-17 -9q-7 -4 -14 -4z" />
    <glyph glyph-name="periodcentered" unicode="&#xb7;" horiz-adv-x="155" 
d="M110 320q-4 -13 -15.5 -22t-24.5 -10q-12 -1 -18.5 7.5t-2.5 21.5q4 12 15.5 21.5t24.5 9.5q13 1 19 -7t2 -21z" />
    <glyph glyph-name="cedilla" unicode="&#xb8;" horiz-adv-x="253" 
d="M94 -246h-11.5t-11.5 2q-12 2 -19.5 11.5t-5.5 22.5q2 12 12 19.5t22 5.5q16 -2 28.5 0.5t21 7.5t13.5 11t7 10q8 13 9 25.5t-5 20.5q-13 17 -53 8q-15 -4 -29 8q-12 13 -7 29l28 98q4 12 15 18t23 3q11 -4 17.5 -14.5t2.5 -22.5l-16 -56q5 -1 10 -1.5t10 -2.5
q30 -7 48 -32q18 -24 16 -56q-1 -28 -17 -56q-20 -31 -51 -46q-26 -13 -57 -13z" />
    <glyph glyph-name="questiondown" unicode="&#xbf;" horiz-adv-x="416" 
d="M255 466q4 13 15.5 22t24.5 10q12 1 18.5 -7.5t2.5 -21.5q-4 -12 -15.5 -21.5t-24.5 -9.5q-13 -1 -19 7t-2 21zM33 -185q-11 9 -20.5 27t-10.5 50q0 48 24 111q27 72 83.5 158.5t139.5 184.5q9 10 23 10q11 0 19 -7q10 -8 10.5 -20t-7.5 -22q-50 -59 -85.5 -108.5
t-61 -90t-41 -72t-24.5 -54.5q-11 -29 -15.5 -50.5t-4.5 -36t3 -23t7 -11.5q12 -11 44 2q22 9 46 28.5t47 45.5q8 10 20.5 10.5t21.5 -7.5q10 -8 10.5 -20.5t-7.5 -21.5q-59 -66 -115 -90q-21 -9 -38.5 -11t-30.5 0.5t-22 7.5t-15 10z" />
    <glyph glyph-name="Agrave" unicode="&#xc0;" horiz-adv-x="708" 
d="M1113 -76q10 -8 11 -20.5t-7 -21.5q-2 -2 -27.5 -27t-76.5 -53q-30 -16 -61.5 -27.5t-64.5 -18.5q-25 -5 -51 -7.5t-52 -2.5q-17 0 -35 1t-36 3q-113 15 -180 111q-62 89 -83 248q-2 18 -3.5 36t-3.5 38l-172 -21l-40 -50q-49 -55 -94 -85q-53 -34 -105 -34
q-13 0 -21.5 8.5t-8.5 21.5q0 12 8.5 21t21.5 9q35 0 72 25q38 23 81 74l-17 -2h-3q-11 0 -19.5 7.5t-10.5 18.5q-2 13 6 22.5t20 11.5l76 9q25 35 50 77t51 91q34 64 62.5 126t48.5 111t31.5 79t11.5 31q5 11 15.5 16.5t21.5 1.5q11 -3 17 -13.5t4 -21.5q0 -1 -5.5 -27.5
t-13 -71t-15 -104t-11.5 -125.5q-2 -37 -3.5 -71.5t-0.5 -66.5l111 13q12 2 21.5 -6t11.5 -20q2 -13 -5.5 -22.5t-20.5 -11.5l-116 -14q6 -98 25.5 -172t53.5 -123q54 -75 139 -85q57 -7 105 -2t87 17t68.5 28.5t49.5 31t30 25l10 10.5q8 10 20 11t22 -7zM441 243
q-1 36 0.5 73.5t3.5 77.5q2 23 4 45.5t4 43.5q-14 -30 -29.5 -61t-32.5 -63q-19 -36 -37.5 -69t-37.5 -62zM530 807q-7 0 -14 4q-3 1 -17 9t-31.5 19.5t-35.5 26.5t-30 30q-8 11 -6.5 22.5t12.5 19.5q10 8 22 6.5t20 -11.5q7 -10 20 -21t27.5 -20.5t27 -17t19.5 -10.5
q11 -6 14.5 -18t-1.5 -23q-10 -16 -27 -16z" />
    <glyph glyph-name="Aacute" unicode="&#xc1;" horiz-adv-x="708" 
d="M1113 -76q10 -8 11 -20.5t-7 -21.5q-2 -2 -27.5 -27t-76.5 -53q-30 -16 -61.5 -27.5t-64.5 -18.5q-25 -5 -51 -7.5t-52 -2.5q-17 0 -35 1t-36 3q-113 15 -180 111q-62 89 -83 248q-2 18 -3.5 36t-3.5 38l-172 -21l-40 -50q-49 -55 -94 -85q-53 -34 -105 -34
q-13 0 -21.5 8.5t-8.5 21.5q0 12 8.5 21t21.5 9q35 0 72 25q38 23 81 74l-17 -2h-3q-11 0 -19.5 7.5t-10.5 18.5q-2 13 6 22.5t20 11.5l76 9q25 35 50 77t51 91q34 64 62.5 126t48.5 111t31.5 79t11.5 31q5 11 15.5 16.5t21.5 1.5q11 -3 17 -13.5t4 -21.5q0 -1 -5.5 -27.5
t-13 -71t-15 -104t-11.5 -125.5q-2 -37 -3.5 -71.5t-0.5 -66.5l111 13q12 2 21.5 -6t11.5 -20q2 -13 -5.5 -22.5t-20.5 -11.5l-116 -14q6 -98 25.5 -172t53.5 -123q54 -75 139 -85q57 -7 105 -2t87 17t68.5 28.5t49.5 31t30 25l10 10.5q8 10 20 11t22 -7zM441 243
q-1 36 0.5 73.5t3.5 77.5q2 23 4 45.5t4 43.5q-14 -30 -29.5 -61t-32.5 -63q-19 -36 -37.5 -69t-37.5 -62zM531 805q-17 0 -27 16q-5 11 -1.5 23t14.5 18q7 3 19.5 10.5t27 17t27.5 20.5t20 21q8 10 20 11.5t22 -6.5q11 -8 12.5 -19.5t-6.5 -22.5q-12 -15 -30 -30
t-35.5 -26.5t-31.5 -19.5t-17 -9q-7 -4 -14 -4z" />
    <glyph glyph-name="Acircumflex" unicode="&#xc2;" horiz-adv-x="708" 
d="M1113 -76q10 -8 11 -20.5t-7 -21.5q-2 -2 -27.5 -27t-76.5 -53q-30 -16 -61.5 -27.5t-64.5 -18.5q-25 -5 -51 -7.5t-52 -2.5q-17 0 -35 1t-36 3q-113 15 -180 111q-62 89 -83 248q-2 18 -3.5 36t-3.5 38l-172 -21l-40 -50q-49 -55 -94 -85q-53 -34 -105 -34
q-13 0 -21.5 8.5t-8.5 21.5q0 12 8.5 21t21.5 9q35 0 72 25q38 23 81 74l-17 -2h-3q-11 0 -19.5 7.5t-10.5 18.5q-2 13 6 22.5t20 11.5l76 9q25 35 50 77t51 91q34 64 62.5 126t48.5 111t31.5 79t11.5 31q5 11 15.5 16.5t21.5 1.5q11 -3 17 -13.5t4 -21.5q0 -1 -5.5 -27.5
t-13 -71t-15 -104t-11.5 -125.5q-2 -37 -3.5 -71.5t-0.5 -66.5l111 13q12 2 21.5 -6t11.5 -20q2 -13 -5.5 -22.5t-20.5 -11.5l-116 -14q6 -98 25.5 -172t53.5 -123q54 -75 139 -85q57 -7 105 -2t87 17t68.5 28.5t49.5 31t30 25l10 10.5q8 10 20 11t22 -7zM616 800
q-17 0 -26 15q-3 5 -7 11q-3 5 -7.5 11t-9.5 14q-12 16 -19.5 24t-11.5 11q-5 -3 -13.5 -10.5t-22.5 -23.5q-13 -14 -21 -24t-9 -11q-8 -10 -19.5 -11.5t-22.5 6.5q-10 8 -11.5 20t6.5 22q1 1 11.5 14t25.5 30q26 27 44.5 38.5t34.5 10.5q17 -1 33.5 -14t38.5 -42
q13 -17 22 -30.5t9 -14.5q7 -11 4 -23t-14 -18q-8 -5 -15 -5zM441 243q-1 36 0.5 73.5t3.5 77.5q2 23 4 45.5t4 43.5q-14 -30 -29.5 -61t-32.5 -63q-19 -36 -37.5 -69t-37.5 -62z" />
    <glyph glyph-name="Atilde" unicode="&#xc3;" horiz-adv-x="708" 
d="M1113 -76q10 -8 11 -20.5t-7 -21.5q-2 -2 -27.5 -27t-76.5 -53q-30 -16 -61.5 -27.5t-64.5 -18.5q-25 -5 -51 -7.5t-52 -2.5q-17 0 -35 1t-36 3q-113 15 -180 111q-62 89 -83 248q-2 18 -3.5 36t-3.5 38l-172 -21l-40 -50q-49 -55 -94 -85q-53 -34 -105 -34
q-13 0 -21.5 8.5t-8.5 21.5q0 12 8.5 21t21.5 9q35 0 72 25q38 23 81 74l-17 -2h-3q-11 0 -19.5 7.5t-10.5 18.5q-2 13 6 22.5t20 11.5l76 9q25 35 50 77t51 91q34 64 62.5 126t48.5 111t31.5 79t11.5 31q5 11 15.5 16.5t21.5 1.5q11 -3 17 -13.5t4 -21.5q0 -1 -5.5 -27.5
t-13 -71t-15 -104t-11.5 -125.5q-2 -37 -3.5 -71.5t-0.5 -66.5l111 13q12 2 21.5 -6t11.5 -20q2 -13 -5.5 -22.5t-20.5 -11.5l-116 -14q6 -98 25.5 -172t53.5 -123q54 -75 139 -85q57 -7 105 -2t87 17t68.5 28.5t49.5 31t30 25l10 10.5q8 10 20 11t22 -7zM628 809
q-10 0 -20.5 1.5t-21.5 6.5q-37 14 -56 41q-9 12 -22.5 17.5t-25.5 2.5q-13 -3 -17.5 -15t-6.5 -24t-12 -20t-22 -6t-20 11.5t-6 22.5q5 35 22.5 58t45.5 31q30 8 60.5 -3.5t51.5 -38.5q10 -14 28.5 -21.5t30.5 -2.5q13 5 13 30q0 13 8.5 21.5t21.5 8.5q12 0 21 -8.5
t9 -21.5q0 -32 -14 -55t-40 -32q-11 -4 -28 -4zM441 243q-1 36 0.5 73.5t3.5 77.5q2 23 4 45.5t4 43.5q-14 -30 -29.5 -61t-32.5 -63q-19 -36 -37.5 -69t-37.5 -62z" />
    <glyph glyph-name="Adieresis" unicode="&#xc4;" horiz-adv-x="708" 
d="M1113 -76q10 -8 11 -20.5t-7 -21.5q-2 -2 -27.5 -27t-76.5 -53q-30 -16 -61.5 -27.5t-64.5 -18.5q-25 -5 -51 -7.5t-52 -2.5q-17 0 -35 1t-36 3q-113 15 -180 111q-62 89 -83 248q-2 18 -3.5 36t-3.5 38l-172 -21l-40 -50q-49 -55 -94 -85q-53 -34 -105 -34
q-13 0 -21.5 8.5t-8.5 21.5q0 12 8.5 21t21.5 9q35 0 72 25q38 23 81 74l-17 -2h-3q-11 0 -19.5 7.5t-10.5 18.5q-2 13 6 22.5t20 11.5l76 9q25 35 50 77t51 91q34 64 62.5 126t48.5 111t31.5 79t11.5 31q5 11 15.5 16.5t21.5 1.5q11 -3 17 -13.5t4 -21.5q0 -1 -5.5 -27.5
t-13 -71t-15 -104t-11.5 -125.5q-2 -37 -3.5 -71.5t-0.5 -66.5l111 13q12 2 21.5 -6t11.5 -20q2 -13 -5.5 -22.5t-20.5 -11.5l-116 -14q6 -98 25.5 -172t53.5 -123q54 -75 139 -85q57 -7 105 -2t87 17t68.5 28.5t49.5 31t30 25l10 10.5q8 10 20 11t22 -7zM441 243
q-1 36 0.5 73.5t3.5 77.5q2 23 4 45.5t4 43.5q-14 -30 -29.5 -61t-32.5 -63q-19 -36 -37.5 -69t-37.5 -62zM514 841q-4 -13 -15.5 -22t-24.5 -10q-12 -1 -18.5 7.5t-2.5 21.5q4 12 15.5 21.5t24.5 9.5q13 1 19 -7t2 -21zM634 841q-4 -13 -15.5 -22t-24.5 -10
q-12 -1 -18.5 7.5t-2.5 21.5q4 12 15.5 21.5t24.5 9.5q13 1 19 -7t2 -21z" />
    <glyph glyph-name="Aring" unicode="&#xc5;" horiz-adv-x="708" 
d="M1113 -76q10 -8 11 -20.5t-7 -21.5q-2 -2 -27.5 -27t-76.5 -53q-30 -16 -61.5 -27.5t-64.5 -18.5q-25 -5 -51 -7.5t-52 -2.5q-17 0 -35 1t-36 3q-113 15 -180 111q-62 89 -83 248q-2 18 -3.5 36t-3.5 38l-172 -21l-40 -50q-49 -55 -94 -85q-53 -34 -105 -34
q-13 0 -21.5 8.5t-8.5 21.5q0 12 8.5 21t21.5 9q35 0 72 25q38 23 81 74l-17 -2h-3q-11 0 -19.5 7.5t-10.5 18.5q-2 13 6 22.5t20 11.5l76 9q25 35 50 77t51 91q34 64 62.5 126t48.5 111t31.5 79t11.5 31q5 11 15.5 16.5t21.5 1.5q11 -3 17 -13.5t4 -21.5q0 -1 -5.5 -27.5
t-13 -71t-15 -104t-11.5 -125.5q-2 -37 -3.5 -71.5t-0.5 -66.5l111 13q12 2 21.5 -6t11.5 -20q2 -13 -5.5 -22.5t-20.5 -11.5l-116 -14q6 -98 25.5 -172t53.5 -123q54 -75 139 -85q57 -7 105 -2t87 17t68.5 28.5t49.5 31t30 25l10 10.5q8 10 20 11t22 -7zM530 797
q-35 0 -60 20.5t-34 58.5q-5 23 -2.5 47.5t12.5 47.5q24 52 79 66q54 14 90 -25q23 -24 30 -60t-4 -71q-10 -32 -32.5 -53t-54.5 -29q-6 -1 -12.5 -1.5t-11.5 -0.5zM441 243q-1 36 0.5 73.5t3.5 77.5q2 23 4 45.5t4 43.5q-14 -30 -29.5 -61t-32.5 -63q-19 -36 -37.5 -69
t-37.5 -62zM550 980q-7 0 -11 -1q-15 -4 -25 -14.5t-15 -23t-6 -26.5t2 -26q9 -38 46 -31q20 5 29.5 17.5t13.5 23.5q6 19 2.5 39.5t-14.5 32.5q-9 9 -22 9z" />
    <glyph glyph-name="AE" unicode="&#xc6;" horiz-adv-x="1063" 
d="M874 -254q-102 2 -194 36.5t-155 113.5q-23 30 -37.5 64t-23.5 71t-13.5 75.5t-7.5 76.5l-172 -21l-40 -50q-49 -55 -94 -85q-53 -34 -105 -34q-13 0 -21.5 8.5t-8.5 21.5q0 12 8.5 21t21.5 9q35 0 72 25q38 23 81 74l-17 -2h-3q-11 0 -19.5 7.5t-10.5 18.5q-2 13 6 22.5
t20 11.5l76 9q25 35 50 77t51 91q34 64 62.5 126t48.5 111t31.5 79t11.5 31q5 11 15.5 16.5t21.5 1.5q11 -3 17 -13.5t4 -21.5q0 -1 -5.5 -27.5t-13 -71t-15 -104t-11.5 -125.5q-2 -20 -3 -38t-1 -36q35 91 87.5 169t118.5 141q37 35 75.5 60.5t76.5 42.5q79 35 140 21
q65 -15 89 -77q24 -60 5 -154q-3 -12 -13 -19t-23 -4q-12 2 -18.5 12.5t-4.5 22.5q4 20 6.5 45.5t-1.5 49t-16 41.5t-37 24q-42 9 -103 -17q-68 -29 -135 -92q-69 -64 -120.5 -147t-83.5 -179l268 29q12 2 21.5 -6t11.5 -20q2 -13 -5.5 -22.5t-20.5 -11.5l-294 -32
q-18 -75 -6 -140.5t53 -118.5q48 -61 126.5 -94t175.5 -33q189 0 332.5 20t234.5 41q49 11 87 22t64 20q31 10 53 19q12 5 23.5 0.5t16.5 -16.5q5 -11 0 -22.5t-16 -16.5q-2 -1 -56 -21t-156 -43q-150 -34 -294.5 -48.5t-288.5 -14.5zM441 243q-1 36 0.5 73.5t3.5 77.5
q2 23 4 45.5t4 43.5q-14 -30 -29.5 -61t-32.5 -63q-19 -36 -37.5 -69t-37.5 -62z" />
    <glyph glyph-name="Ccedilla" unicode="&#xc7;" horiz-adv-x="609" 
d="M326 -496h-11.5t-11.5 2q-12 2 -19.5 11.5t-5.5 22.5q2 12 12 19.5t22 5.5q16 -2 28.5 0.5t21 7.5t13.5 11t7 10q8 13 9 25.5t-5 20.5q-13 17 -53 8q-15 -4 -29 8q-12 13 -7 29l20 71q-72 14 -136 47.5t-110 92.5q-48 62 -64 144q-15 81 8 174q31 121 92 226.5t146 184.5
q37 35 75.5 60.5t76.5 42.5q79 35 140 21q65 -15 89 -77q24 -60 5 -154q-3 -12 -13 -19t-23 -4q-12 2 -18.5 12.5t-4.5 22.5q4 20 6.5 45.5t-1.5 49t-16 41.5t-37 24q-42 9 -103 -17q-68 -29 -135 -92q-78 -73 -135 -171.5t-86 -210.5q-20 -77 -8.5 -144.5t53.5 -121.5
q48 -61 126.5 -94t175.5 -33q189 0 332.5 20t234.5 41q49 11 87 22t64 20q31 10 53 19q12 5 23.5 0.5t16.5 -16.5q5 -11 0 -22.5t-16 -16.5q-2 -1 -56 -21t-156 -43q-150 -34 -294.5 -48.5t-288.5 -14.5q-11 0 -21.5 0.5t-21.5 1.5l-10 -37q5 -1 10 -1.5t10 -2.5
q30 -7 48 -32q18 -24 16 -56q-1 -28 -17 -56q-20 -31 -51 -46q-26 -13 -57 -13z" />
    <glyph glyph-name="Egrave" unicode="&#xc8;" horiz-adv-x="609" 
d="M420 -254q-102 2 -194 36.5t-155 113.5q-48 62 -64 144q-10 51 -4 108q-15 -8 -15 -12q0 -13 -8.5 -21.5t-21.5 -8.5q-12 0 -21 8.5t-9 21.5q0 12 7 28t29 31q10 6 22.5 11.5t29.5 10.5q31 120 92 225t145 183q37 35 75.5 60.5t76.5 42.5q79 35 140 21q65 -15 89 -77
q24 -60 5 -154q-3 -12 -13 -19t-23 -4q-12 2 -18.5 12.5t-4.5 22.5q4 20 6.5 45.5t-1.5 49t-16 41.5t-37 24q-42 9 -103 -17q-68 -29 -135 -92q-72 -68 -126 -157t-86 -192q27 5 55.5 8t57.5 6q26 3 49 6t43 6q19 3 28.5 5.5t13.5 4.5q7 20 28 20q12 0 21 -9t9 -21
q0 -8 -5 -20t-25 -22q-13 -8 -42 -14q-23 -5 -52.5 -8.5t-61.5 -6.5q-35 -4 -70 -8.5t-65 -10.5q-11 -68 1.5 -127t50.5 -108q48 -61 126.5 -94t175.5 -33q189 0 332.5 20t234.5 41q49 11 87 22t64 20q31 10 53 19q12 5 23.5 0.5t16.5 -16.5q5 -11 0 -22.5t-16 -16.5
q-2 -1 -56 -21t-156 -43q-150 -34 -294.5 -48.5t-288.5 -14.5zM508 807q-7 0 -14 4q-3 1 -17 9t-31.5 19.5t-35.5 26.5t-30 30q-8 11 -6.5 22.5t12.5 19.5q10 8 22 6.5t20 -11.5q7 -10 20 -21t27.5 -20.5t27 -17t19.5 -10.5q11 -6 14.5 -18t-1.5 -23q-10 -16 -27 -16z" />
    <glyph glyph-name="Eacute" unicode="&#xc9;" horiz-adv-x="609" 
d="M420 -254q-102 2 -194 36.5t-155 113.5q-48 62 -64 144q-10 51 -4 108q-15 -8 -15 -12q0 -13 -8.5 -21.5t-21.5 -8.5q-12 0 -21 8.5t-9 21.5q0 12 7 28t29 31q10 6 22.5 11.5t29.5 10.5q31 120 92 225t145 183q37 35 75.5 60.5t76.5 42.5q79 35 140 21q65 -15 89 -77
q24 -60 5 -154q-3 -12 -13 -19t-23 -4q-12 2 -18.5 12.5t-4.5 22.5q4 20 6.5 45.5t-1.5 49t-16 41.5t-37 24q-42 9 -103 -17q-68 -29 -135 -92q-72 -68 -126 -157t-86 -192q27 5 55.5 8t57.5 6q26 3 49 6t43 6q19 3 28.5 5.5t13.5 4.5q7 20 28 20q12 0 21 -9t9 -21
q0 -8 -5 -20t-25 -22q-13 -8 -42 -14q-23 -5 -52.5 -8.5t-61.5 -6.5q-35 -4 -70 -8.5t-65 -10.5q-11 -68 1.5 -127t50.5 -108q48 -61 126.5 -94t175.5 -33q189 0 332.5 20t234.5 41q49 11 87 22t64 20q31 10 53 19q12 5 23.5 0.5t16.5 -16.5q5 -11 0 -22.5t-16 -16.5
q-2 -1 -56 -21t-156 -43q-150 -34 -294.5 -48.5t-288.5 -14.5zM509 805q-17 0 -27 16q-5 11 -1.5 23t14.5 18q7 3 19.5 10.5t27 17t27.5 20.5t20 21q8 10 20 11.5t22 -6.5q11 -8 12.5 -19.5t-6.5 -22.5q-12 -15 -30 -30t-35.5 -26.5t-31.5 -19.5t-17 -9q-7 -4 -14 -4z" />
    <glyph glyph-name="Ecircumflex" unicode="&#xca;" horiz-adv-x="609" 
d="M420 -254q-102 2 -194 36.5t-155 113.5q-48 62 -64 144q-10 51 -4 108q-15 -8 -15 -12q0 -13 -8.5 -21.5t-21.5 -8.5q-12 0 -21 8.5t-9 21.5q0 12 7 28t29 31q10 6 22.5 11.5t29.5 10.5q31 120 92 225t145 183q37 35 75.5 60.5t76.5 42.5q79 35 140 21q65 -15 89 -77
q24 -60 5 -154q-3 -12 -13 -19t-23 -4q-12 2 -18.5 12.5t-4.5 22.5q4 20 6.5 45.5t-1.5 49t-16 41.5t-37 24q-42 9 -103 -17q-68 -29 -135 -92q-72 -68 -126 -157t-86 -192q27 5 55.5 8t57.5 6q26 3 49 6t43 6q19 3 28.5 5.5t13.5 4.5q7 20 28 20q12 0 21 -9t9 -21
q0 -8 -5 -20t-25 -22q-13 -8 -42 -14q-23 -5 -52.5 -8.5t-61.5 -6.5q-35 -4 -70 -8.5t-65 -10.5q-11 -68 1.5 -127t50.5 -108q48 -61 126.5 -94t175.5 -33q189 0 332.5 20t234.5 41q49 11 87 22t64 20q31 10 53 19q12 5 23.5 0.5t16.5 -16.5q5 -11 0 -22.5t-16 -16.5
q-2 -1 -56 -21t-156 -43q-150 -34 -294.5 -48.5t-288.5 -14.5zM594 800q-17 0 -26 15q-3 5 -7 11q-3 5 -7.5 11t-9.5 14q-12 16 -19.5 24t-11.5 11q-5 -3 -13.5 -10.5t-22.5 -23.5q-13 -14 -21 -24t-9 -11q-8 -10 -19.5 -11.5t-22.5 6.5q-10 8 -11.5 20t6.5 22q1 1 11.5 14
t25.5 30q26 27 44.5 38.5t34.5 10.5q17 -1 33.5 -14t38.5 -42q13 -17 22 -30.5t9 -14.5q7 -11 4 -23t-14 -18q-8 -5 -15 -5z" />
    <glyph glyph-name="Edieresis" unicode="&#xcb;" horiz-adv-x="609" 
d="M420 -254q-102 2 -194 36.5t-155 113.5q-48 62 -64 144q-10 51 -4 108q-15 -8 -15 -12q0 -13 -8.5 -21.5t-21.5 -8.5q-12 0 -21 8.5t-9 21.5q0 12 7 28t29 31q10 6 22.5 11.5t29.5 10.5q31 120 92 225t145 183q37 35 75.5 60.5t76.5 42.5q79 35 140 21q65 -15 89 -77
q24 -60 5 -154q-3 -12 -13 -19t-23 -4q-12 2 -18.5 12.5t-4.5 22.5q4 20 6.5 45.5t-1.5 49t-16 41.5t-37 24q-42 9 -103 -17q-68 -29 -135 -92q-72 -68 -126 -157t-86 -192q27 5 55.5 8t57.5 6q26 3 49 6t43 6q19 3 28.5 5.5t13.5 4.5q7 20 28 20q12 0 21 -9t9 -21
q0 -8 -5 -20t-25 -22q-13 -8 -42 -14q-23 -5 -52.5 -8.5t-61.5 -6.5q-35 -4 -70 -8.5t-65 -10.5q-11 -68 1.5 -127t50.5 -108q48 -61 126.5 -94t175.5 -33q189 0 332.5 20t234.5 41q49 11 87 22t64 20q31 10 53 19q12 5 23.5 0.5t16.5 -16.5q5 -11 0 -22.5t-16 -16.5
q-2 -1 -56 -21t-156 -43q-150 -34 -294.5 -48.5t-288.5 -14.5zM492 841q-4 -13 -15.5 -22t-24.5 -10q-12 -1 -18.5 7.5t-2.5 21.5q4 12 15.5 21.5t24.5 9.5q13 1 19 -7t2 -21zM612 841q-4 -13 -15.5 -22t-24.5 -10q-12 -1 -18.5 7.5t-2.5 21.5q4 12 15.5 21.5t24.5 9.5
q13 1 19 -7t2 -21z" />
    <glyph glyph-name="Igrave" unicode="&#xcc;" 
d="M1137 802q25 -11 30.5 -26t5.5 -23q0 -13 -9 -21.5t-21 -8.5q-11 0 -19 6.5t-10 17.5q-3 1 -11.5 3.5t-25 4t-43.5 1t-66 -4.5q-62 -6 -140 -19t-163 -33l-52 -12t-52 -13q-5 -14 -15 -39t-22.5 -58.5t-27 -74t-29.5 -83.5q-85 -242 -97 -357l15 2q26 3 49 6t43 6t29 6
t13 5q7 19 28 19q12 0 21 -8.5t9 -21.5q0 -8 -5 -20t-24 -22q-8 -4 -18.5 -7.5t-24.5 -6.5q-23 -5 -52.5 -8.5t-61.5 -6.5l-45 -5q-2 -1 -8 -1q-28 -3 -54.5 -7.5t-49.5 -10.5q-34 -9 -44.5 -17t-10.5 -10q0 -13 -9 -21.5t-21 -8.5q-13 0 -21.5 8.5t-8.5 21.5q0 12 6.5 28
t28.5 31q12 8 28 14.5t37 11.5q43 11 90 17q9 119 101 383q23 65 43.5 121t35.5 94q-130 -37 -231 -77t-153 -76q-28 -20 -35 -31t-6 -14q5 -12 -1 -23t-17 -15q-4 -2 -10 -2q-21 0 -29 20q-5 16 -1 39t35 52q63 57 225 118q72 26 155.5 51.5t176.5 48.5q88 21 172 37
t154 25q158 19 213 -5zM522 807q-7 0 -14 4q-3 1 -17 9t-31.5 19.5t-35.5 26.5t-30 30q-8 11 -6.5 22.5t12.5 19.5q10 8 22 6.5t20 -11.5q7 -10 20 -21t27.5 -20.5t27 -17t19.5 -10.5q11 -6 14.5 -18t-1.5 -23q-10 -16 -27 -16z" />
    <glyph glyph-name="Iacute" unicode="&#xcd;" 
d="M1137 802q25 -11 30.5 -26t5.5 -23q0 -13 -9 -21.5t-21 -8.5q-11 0 -19 6.5t-10 17.5q-3 1 -11.5 3.5t-25 4t-43.5 1t-66 -4.5q-62 -6 -140 -19t-163 -33l-52 -12t-52 -13q-5 -14 -15 -39t-22.5 -58.5t-27 -74t-29.5 -83.5q-85 -242 -97 -357l15 2q26 3 49 6t43 6t29 6
t13 5q7 19 28 19q12 0 21 -8.5t9 -21.5q0 -8 -5 -20t-24 -22q-8 -4 -18.5 -7.5t-24.5 -6.5q-23 -5 -52.5 -8.5t-61.5 -6.5l-45 -5q-2 -1 -8 -1q-28 -3 -54.5 -7.5t-49.5 -10.5q-34 -9 -44.5 -17t-10.5 -10q0 -13 -9 -21.5t-21 -8.5q-13 0 -21.5 8.5t-8.5 21.5q0 12 6.5 28
t28.5 31q12 8 28 14.5t37 11.5q43 11 90 17q9 119 101 383q23 65 43.5 121t35.5 94q-130 -37 -231 -77t-153 -76q-28 -20 -35 -31t-6 -14q5 -12 -1 -23t-17 -15q-4 -2 -10 -2q-21 0 -29 20q-5 16 -1 39t35 52q63 57 225 118q72 26 155.5 51.5t176.5 48.5q88 21 172 37
t154 25q158 19 213 -5zM523 805q-17 0 -27 16q-5 11 -1.5 23t14.5 18q7 3 19.5 10.5t27 17t27.5 20.5t20 21q8 10 20 11.5t22 -6.5q11 -8 12.5 -19.5t-6.5 -22.5q-12 -15 -30 -30t-35.5 -26.5t-31.5 -19.5t-17 -9q-7 -4 -14 -4z" />
    <glyph glyph-name="Icircumflex" unicode="&#xce;" 
d="M1137 802q25 -11 30.5 -26t5.5 -23q0 -13 -9 -21.5t-21 -8.5q-11 0 -19 6.5t-10 17.5q-3 1 -11.5 3.5t-25 4t-43.5 1t-66 -4.5q-62 -6 -140 -19t-163 -33l-52 -12t-52 -13q-5 -14 -15 -39t-22.5 -58.5t-27 -74t-29.5 -83.5q-85 -242 -97 -357l15 2q26 3 49 6t43 6t29 6
t13 5q7 19 28 19q12 0 21 -8.5t9 -21.5q0 -8 -5 -20t-24 -22q-8 -4 -18.5 -7.5t-24.5 -6.5q-23 -5 -52.5 -8.5t-61.5 -6.5l-45 -5q-2 -1 -8 -1q-28 -3 -54.5 -7.5t-49.5 -10.5q-34 -9 -44.5 -17t-10.5 -10q0 -13 -9 -21.5t-21 -8.5q-13 0 -21.5 8.5t-8.5 21.5q0 12 6.5 28
t28.5 31q12 8 28 14.5t37 11.5q43 11 90 17q9 119 101 383q23 65 43.5 121t35.5 94q-130 -37 -231 -77t-153 -76q-28 -20 -35 -31t-6 -14q5 -12 -1 -23t-17 -15q-4 -2 -10 -2q-21 0 -29 20q-5 16 -1 39t35 52q63 57 225 118q72 26 155.5 51.5t176.5 48.5q88 21 172 37
t154 25q158 19 213 -5zM608 800q-17 0 -26 15q-3 5 -7 11q-3 5 -7.5 11t-9.5 14q-12 16 -19.5 24t-11.5 11q-5 -3 -13.5 -10.5t-22.5 -23.5q-13 -14 -21 -24t-9 -11q-8 -10 -19.5 -11.5t-22.5 6.5q-10 8 -11.5 20t6.5 22q1 1 11.5 14t25.5 30q26 27 44.5 38.5t34.5 10.5
q17 -1 33.5 -14t38.5 -42q13 -17 22 -30.5t9 -14.5q7 -11 4 -23t-14 -18q-8 -5 -15 -5z" />
    <glyph glyph-name="Idieresis" unicode="&#xcf;" 
d="M1137 802q25 -11 30.5 -26t5.5 -23q0 -13 -9 -21.5t-21 -8.5q-11 0 -19 6.5t-10 17.5q-3 1 -11.5 3.5t-25 4t-43.5 1t-66 -4.5q-62 -6 -140 -19t-163 -33l-52 -12t-52 -13q-5 -14 -15 -39t-22.5 -58.5t-27 -74t-29.5 -83.5q-85 -242 -97 -357l15 2q26 3 49 6t43 6t29 6
t13 5q7 19 28 19q12 0 21 -8.5t9 -21.5q0 -8 -5 -20t-24 -22q-8 -4 -18.5 -7.5t-24.5 -6.5q-23 -5 -52.5 -8.5t-61.5 -6.5l-45 -5q-2 -1 -8 -1q-28 -3 -54.5 -7.5t-49.5 -10.5q-34 -9 -44.5 -17t-10.5 -10q0 -13 -9 -21.5t-21 -8.5q-13 0 -21.5 8.5t-8.5 21.5q0 12 6.5 28
t28.5 31q12 8 28 14.5t37 11.5q43 11 90 17q9 119 101 383q23 65 43.5 121t35.5 94q-130 -37 -231 -77t-153 -76q-28 -20 -35 -31t-6 -14q5 -12 -1 -23t-17 -15q-4 -2 -10 -2q-21 0 -29 20q-5 16 -1 39t35 52q63 57 225 118q72 26 155.5 51.5t176.5 48.5q88 21 172 37
t154 25q158 19 213 -5zM506 841q-4 -13 -15.5 -22t-24.5 -10q-12 -1 -18.5 7.5t-2.5 21.5q4 12 15.5 21.5t24.5 9.5q13 1 19 -7t2 -21zM626 841q-4 -13 -15.5 -22t-24.5 -10q-12 -1 -18.5 7.5t-2.5 21.5q4 12 15.5 21.5t24.5 9.5q13 1 19 -7t2 -21z" />
    <glyph glyph-name="Eth" unicode="&#xd0;" horiz-adv-x="1236" 
d="M1142 566q44 -75 36 -178q-5 -48 -16 -91.5t-30 -82.5q-33 -71 -89 -122q-48 -45 -104 -69t-110 -24h-9q-62 3 -98.5 37t-36.5 89q0 13 8.5 21.5t21.5 8.5q12 0 21 -8.5t9 -21.5q0 -20 8 -33t19.5 -20t25 -10t24.5 -3q44 -2 92 18.5t88 58.5q18 16 36.5 39.5t35 55
t28.5 72t16 90.5q13 160 -127 232q-41 21 -93.5 34t-114.5 17.5t-131.5 1t-144.5 -15.5q-65 -10 -127.5 -26t-116.5 -35.5t-97.5 -42t-70.5 -45.5q-5 -5 -11.5 -11t-12 -13t-8 -14.5t-0.5 -14.5q4 -12 -2 -23t-18 -15q-11 -4 -22 2t-15 17q-3 10 -4 23t4 28t17 32t33 35
q31 26 77.5 50.5t104 45.5t124 38.5t136.5 28.5q73 11 143.5 15.5t134.5 -0.5q146 -9 243 -59q82 -43 123 -112zM726 217q-3 -2 -5.5 -3.5t-7.5 -1.5q-4 -1 -26.5 -3t-51.5 -3q-12 -51 -19.5 -96.5t-7.5 -80.5q0 -12 -8.5 -21t-21.5 -9q-12 0 -21 9t-9 21q0 36 7 81.5
t19 94.5q-16 1 -29.5 2.5t-23.5 4.5q-13 4 -19 14.5t-2 22.5t14.5 18.5t22.5 2.5q8 -3 21.5 -4t30.5 -1q16 59 34 116t33.5 102t26.5 74t13 33q5 12 16 17.5t23 0.5q11 -5 16.5 -16.5t0.5 -22.5q-1 -1 -11 -27.5t-24.5 -68.5t-32 -96t-33.5 -111q19 2 33 2.5t20 2.5
q13 2 22.5 -5.5t12.5 -19.5q2 -19 -13 -29z" />
    <glyph glyph-name="Ntilde" unicode="&#xd1;" horiz-adv-x="1044" 
d="M1220 -262q-74 0 -147 21q-102 30 -157 106q-47 66 -57 166q-5 45 -3 92.5t8 96t14.5 96.5t17.5 93q11 58 20.5 110.5t9.5 91.5q0 25 -3 39.5t-7.5 22t-10 9.5t-8.5 3q-60 15 -138 -54q-36 -32 -74 -80.5t-79 -112.5q-39 -62 -73.5 -127.5t-62 -123t-46.5 -102t-28 -65.5
q-5 -11 -16 -16t-22 0q-11 4 -16.5 15t-1.5 23l6.5 19.5t16.5 52.5t21.5 76t21.5 90q12 55 18 102.5t8 87.5q2 95 -25 135q-18 28 -50 29q-33 3 -61.5 -6t-52.5 -24.5t-43 -35.5t-34 -39q-32 -41 -55 -91t-36 -104q-13 -52 -13 -98.5t11 -80.5q5 -11 -1 -22t-17 -16
q-12 -4 -23 1.5t-15 17.5q-15 42 -15 96.5t15 115.5q14 60 40 116t61 102q47 62 106 96q67 38 137 32q63 -5 96 -56q38 -58 35 -170q-1 -29 -4.5 -62t-9.5 -70q18 33 37.5 67t39.5 66q43 69 84 120.5t80 86.5q103 91 193 67q43 -11 61 -51q13 -30 13 -81q-1 -44 -10 -98.5
t-21 -114.5q-9 -44 -17.5 -90t-14.5 -92.5t-8 -91.5t3 -86q10 -91 52 -144.5t120 -76.5q165 -47 316 23q28 13 50.5 26.5t37.5 25t23 19l8 7.5q8 9 20.5 9.5t21.5 -8.5t9 -21.5t-8 -20.5q-1 -1 -10.5 -10t-26.5 -22t-42.5 -29t-57.5 -31q-76 -35 -156 -44q-27 -3 -55 -3z
M974 809q-10 0 -20.5 1.5t-21.5 6.5q-37 14 -56 41q-9 12 -22.5 17.5t-25.5 2.5q-13 -3 -17.5 -15t-6.5 -24t-12 -20t-22 -6t-20 11.5t-6 22.5q5 35 22.5 58t45.5 31q30 8 60.5 -3.5t51.5 -38.5q10 -14 28.5 -21.5t30.5 -2.5q13 5 13 30q0 13 8.5 21.5t21.5 8.5
q12 0 21 -8.5t9 -21.5q0 -32 -14 -55t-40 -32q-11 -4 -28 -4z" />
    <glyph glyph-name="Ograve" unicode="&#xd2;" horiz-adv-x="1036" 
d="M642 -6q-46 0 -89 15q-53 20 -89 51t-55 73q-35 77 -15 176q13 63 46 122t81 106q54 51 113.5 76t119.5 20q12 -1 20.5 -10t6.5 -22q-1 -12 -10 -20.5t-22 -7.5q-47 4 -94.5 -16.5t-91.5 -62.5q-42 -41 -70.5 -92t-39.5 -105q-5 -25 -6.5 -57.5t9.5 -65t38.5 -61.5
t78.5 -47q88 -31 173 17q31 18 59 47t50.5 65t39 78t24.5 88q17 91 -10 159t-96 111q-63 39 -154 52t-195 -2q-110 -16 -216.5 -59.5t-197.5 -111.5q-10 -8 -22 -6t-20 12q-7 11 -5.5 22.5t12.5 19.5q97 72 210 119t230 64q57 8 109.5 8.5t102.5 -6.5q101 -15 177 -61
q82 -51 117 -133q38 -88 17 -199q-9 -51 -27 -98t-44 -89q-27 -43 -60 -76.5t-71 -55.5q-64 -37 -134 -37zM712 807q-7 0 -14 4q-3 1 -17 9t-31.5 19.5t-35.5 26.5t-30 30q-8 11 -6.5 22.5t12.5 19.5q10 8 22 6.5t20 -11.5q7 -10 20 -21t27.5 -20.5t27 -17t19.5 -10.5
q11 -6 14.5 -18t-1.5 -23q-10 -16 -27 -16z" />
    <glyph glyph-name="Oacute" unicode="&#xd3;" horiz-adv-x="1036" 
d="M642 -6q-46 0 -89 15q-53 20 -89 51t-55 73q-35 77 -15 176q13 63 46 122t81 106q54 51 113.5 76t119.5 20q12 -1 20.5 -10t6.5 -22q-1 -12 -10 -20.5t-22 -7.5q-47 4 -94.5 -16.5t-91.5 -62.5q-42 -41 -70.5 -92t-39.5 -105q-5 -25 -6.5 -57.5t9.5 -65t38.5 -61.5
t78.5 -47q88 -31 173 17q31 18 59 47t50.5 65t39 78t24.5 88q17 91 -10 159t-96 111q-63 39 -154 52t-195 -2q-110 -16 -216.5 -59.5t-197.5 -111.5q-10 -8 -22 -6t-20 12q-7 11 -5.5 22.5t12.5 19.5q97 72 210 119t230 64q57 8 109.5 8.5t102.5 -6.5q101 -15 177 -61
q82 -51 117 -133q38 -88 17 -199q-9 -51 -27 -98t-44 -89q-27 -43 -60 -76.5t-71 -55.5q-64 -37 -134 -37zM713 805q-17 0 -27 16q-5 11 -1.5 23t14.5 18q7 3 19.5 10.5t27 17t27.5 20.5t20 21q8 10 20 11.5t22 -6.5q11 -8 12.5 -19.5t-6.5 -22.5q-12 -15 -30 -30
t-35.5 -26.5t-31.5 -19.5t-17 -9q-7 -4 -14 -4z" />
    <glyph glyph-name="Ocircumflex" unicode="&#xd4;" horiz-adv-x="1036" 
d="M642 -6q-46 0 -89 15q-53 20 -89 51t-55 73q-35 77 -15 176q13 63 46 122t81 106q54 51 113.5 76t119.5 20q12 -1 20.5 -10t6.5 -22q-1 -12 -10 -20.5t-22 -7.5q-47 4 -94.5 -16.5t-91.5 -62.5q-42 -41 -70.5 -92t-39.5 -105q-5 -25 -6.5 -57.5t9.5 -65t38.5 -61.5
t78.5 -47q88 -31 173 17q31 18 59 47t50.5 65t39 78t24.5 88q17 91 -10 159t-96 111q-63 39 -154 52t-195 -2q-110 -16 -216.5 -59.5t-197.5 -111.5q-10 -8 -22 -6t-20 12q-7 11 -5.5 22.5t12.5 19.5q97 72 210 119t230 64q57 8 109.5 8.5t102.5 -6.5q101 -15 177 -61
q82 -51 117 -133q38 -88 17 -199q-9 -51 -27 -98t-44 -89q-27 -43 -60 -76.5t-71 -55.5q-64 -37 -134 -37zM798 800q-17 0 -26 15q-3 5 -7 11q-3 5 -7.5 11t-9.5 14q-12 16 -19.5 24t-11.5 11q-5 -3 -13.5 -10.5t-22.5 -23.5q-13 -14 -21 -24t-9 -11q-8 -10 -19.5 -11.5
t-22.5 6.5q-10 8 -11.5 20t6.5 22q1 1 11.5 14t25.5 30q26 27 44.5 38.5t34.5 10.5q17 -1 33.5 -14t38.5 -42q13 -17 22 -30.5t9 -14.5q7 -11 4 -23t-14 -18q-8 -5 -15 -5z" />
    <glyph glyph-name="Otilde" unicode="&#xd5;" horiz-adv-x="1036" 
d="M642 -6q-46 0 -89 15q-53 20 -89 51t-55 73q-35 77 -15 176q13 63 46 122t81 106q54 51 113.5 76t119.5 20q12 -1 20.5 -10t6.5 -22q-1 -12 -10 -20.5t-22 -7.5q-47 4 -94.5 -16.5t-91.5 -62.5q-42 -41 -70.5 -92t-39.5 -105q-5 -25 -6.5 -57.5t9.5 -65t38.5 -61.5
t78.5 -47q88 -31 173 17q31 18 59 47t50.5 65t39 78t24.5 88q17 91 -10 159t-96 111q-63 39 -154 52t-195 -2q-110 -16 -216.5 -59.5t-197.5 -111.5q-10 -8 -22 -6t-20 12q-7 11 -5.5 22.5t12.5 19.5q97 72 210 119t230 64q57 8 109.5 8.5t102.5 -6.5q101 -15 177 -61
q82 -51 117 -133q38 -88 17 -199q-9 -51 -27 -98t-44 -89q-27 -43 -60 -76.5t-71 -55.5q-64 -37 -134 -37zM810 809q-10 0 -20.5 1.5t-21.5 6.5q-37 14 -56 41q-9 12 -22.5 17.5t-25.5 2.5q-13 -3 -17.5 -15t-6.5 -24t-12 -20t-22 -6t-20 11.5t-6 22.5q5 35 22.5 58t45.5 31
q30 8 60.5 -3.5t51.5 -38.5q10 -14 28.5 -21.5t30.5 -2.5q13 5 13 30q0 13 8.5 21.5t21.5 8.5q12 0 21 -8.5t9 -21.5q0 -32 -14 -55t-40 -32q-11 -4 -28 -4z" />
    <glyph glyph-name="Odieresis" unicode="&#xd6;" horiz-adv-x="1036" 
d="M642 -6q-46 0 -89 15q-53 20 -89 51t-55 73q-35 77 -15 176q13 63 46 122t81 106q54 51 113.5 76t119.5 20q12 -1 20.5 -10t6.5 -22q-1 -12 -10 -20.5t-22 -7.5q-47 4 -94.5 -16.5t-91.5 -62.5q-42 -41 -70.5 -92t-39.5 -105q-5 -25 -6.5 -57.5t9.5 -65t38.5 -61.5
t78.5 -47q88 -31 173 17q31 18 59 47t50.5 65t39 78t24.5 88q17 91 -10 159t-96 111q-63 39 -154 52t-195 -2q-110 -16 -216.5 -59.5t-197.5 -111.5q-10 -8 -22 -6t-20 12q-7 11 -5.5 22.5t12.5 19.5q97 72 210 119t230 64q57 8 109.5 8.5t102.5 -6.5q101 -15 177 -61
q82 -51 117 -133q38 -88 17 -199q-9 -51 -27 -98t-44 -89q-27 -43 -60 -76.5t-71 -55.5q-64 -37 -134 -37zM696 841q-4 -13 -15.5 -22t-24.5 -10q-12 -1 -18.5 7.5t-2.5 21.5q4 12 15.5 21.5t24.5 9.5q13 1 19 -7t2 -21zM816 841q-4 -13 -15.5 -22t-24.5 -10
q-12 -1 -18.5 7.5t-2.5 21.5q4 12 15.5 21.5t24.5 9.5q13 1 19 -7t2 -21z" />
    <glyph glyph-name="Oslash" unicode="&#xd8;" horiz-adv-x="1036" 
d="M642 -6q-46 0 -89 15q-45 16 -81 44q-19 -20 -31.5 -33t-17.5 -16q-12 -7 -24 -4t-18 14q-7 11 -4 23t14 18q3 2 13.5 12.5t26.5 27.5q-13 18 -22 38q-35 77 -15 176q13 63 46 122t81 106q54 51 113.5 76t119.5 20q12 -1 20.5 -10t6.5 -22q-1 -12 -10 -20.5t-22 -7.5
q-47 4 -94.5 -16.5t-91.5 -62.5q-42 -41 -70.5 -92t-39.5 -105q-3 -16 -5.5 -35t-1 -39.5t7.5 -41.5t18 -40q39 45 90.5 104t105 121.5t104 122t88.5 104.5q-10 11 -21.5 20t-25.5 18q-63 39 -154 52t-195 -2q-110 -16 -216.5 -59.5t-197.5 -111.5q-10 -8 -22 -6t-20 12
q-7 11 -5.5 22.5t12.5 19.5q97 72 210 119t230 64q57 8 109.5 8.5t102.5 -6.5q101 -15 177 -61q15 -10 29 -20.5t26 -22.5l34 42q8 11 19.5 12.5t22.5 -4.5q16 -11 13 -29q0 -8 -6 -13q-1 -2 -13 -16.5t-32 -37.5q13 -20 24 -44q38 -88 17 -199q-9 -51 -27 -98t-44 -89
q-27 -43 -60 -76.5t-71 -55.5q-64 -37 -134 -37zM897 544q-39 -46 -89 -105t-102.5 -120t-103 -119t-90.5 -103q12 -9 27 -17t34 -14q88 -31 173 17q31 18 59 47t50.5 65t39 78t24.5 88q19 106 -22 183z" />
    <glyph glyph-name="Ugrave" unicode="&#xd9;" horiz-adv-x="1440" 
d="M1308 -30q-8 0 -15 4q-54 33 -69 129l-4 35q-26 -30 -52 -54.5t-52 -41.5q-65 -44 -125 -44q-72 0 -122 39t-75 112q-11 34 -16 72t-3 82q3 83 27 167q13 42 30 81.5t38 74.5q11 17 21.5 31.5t21.5 28.5q-46 -4 -107 -11.5t-129.5 -19t-141 -27.5t-142.5 -38
q-160 -51 -244 -116q-90 -71 -86 -155q0 -12 -8 -21t-21 -10t-22 7.5t-9 21.5q-6 115 109 204q47 36 112.5 67.5t150.5 58.5q70 22 151 40.5t172 32.5q93 14 168.5 21.5t125.5 10.5q10 1 18.5 -4.5t11.5 -15.5q4 -9 1 -18.5t-11 -15.5q-49 -37 -89 -100.5t-63 -144.5
q-23 -78 -25 -153t16 -132q38 -110 140 -110q49 0 108 45.5t121 130.5q1 14 2 27t3 27q8 66 24 133t37 124q23 60 46 96q28 45 61 56q23 7 36 -0.5t18 -12.5q25 -28 8 -105q-15 -61 -52 -146q-26 -58 -57.5 -114t-66.5 -105q-3 -56 5 -102q11 -69 40 -86q11 -7 14 -19
t-4 -23q-9 -14 -26 -14zM1200 807q-7 0 -14 4q-3 1 -17 9t-31.5 19.5t-35.5 26.5t-30 30q-8 11 -6.5 22.5t12.5 19.5q10 8 22 6.5t20 -11.5q7 -10 20 -21t27.5 -20.5t27 -17t19.5 -10.5q11 -6 14.5 -18t-1.5 -23q-10 -16 -27 -16zM1402 634q-10 -9 -25.5 -34.5t-34.5 -75.5
q-14 -38 -26 -82t-20 -89q22 40 41 80t33 78q11 26 18 49.5t10 43.5q4 17 4 30z" />
    <glyph glyph-name="Uacute" unicode="&#xda;" horiz-adv-x="1440" 
d="M1308 -30q-8 0 -15 4q-54 33 -69 129l-4 35q-26 -30 -52 -54.5t-52 -41.5q-65 -44 -125 -44q-72 0 -122 39t-75 112q-11 34 -16 72t-3 82q3 83 27 167q13 42 30 81.5t38 74.5q11 17 21.5 31.5t21.5 28.5q-46 -4 -107 -11.5t-129.5 -19t-141 -27.5t-142.5 -38
q-160 -51 -244 -116q-90 -71 -86 -155q0 -12 -8 -21t-21 -10t-22 7.5t-9 21.5q-6 115 109 204q47 36 112.5 67.5t150.5 58.5q70 22 151 40.5t172 32.5q93 14 168.5 21.5t125.5 10.5q10 1 18.5 -4.5t11.5 -15.5q4 -9 1 -18.5t-11 -15.5q-49 -37 -89 -100.5t-63 -144.5
q-23 -78 -25 -153t16 -132q38 -110 140 -110q49 0 108 45.5t121 130.5q1 14 2 27t3 27q8 66 24 133t37 124q23 60 46 96q28 45 61 56q23 7 36 -0.5t18 -12.5q25 -28 8 -105q-15 -61 -52 -146q-26 -58 -57.5 -114t-66.5 -105q-3 -56 5 -102q11 -69 40 -86q11 -7 14 -19
t-4 -23q-9 -14 -26 -14zM1201 805q-17 0 -27 16q-5 11 -1.5 23t14.5 18q7 3 19.5 10.5t27 17t27.5 20.5t20 21q8 10 20 11.5t22 -6.5q11 -8 12.5 -19.5t-6.5 -22.5q-12 -15 -30 -30t-35.5 -26.5t-31.5 -19.5t-17 -9q-7 -4 -14 -4zM1402 634q-10 -9 -25.5 -34.5t-34.5 -75.5
q-14 -38 -26 -82t-20 -89q22 40 41 80t33 78q11 26 18 49.5t10 43.5q4 17 4 30z" />
    <glyph glyph-name="Ucircumflex" unicode="&#xdb;" horiz-adv-x="1440" 
d="M1308 -30q-8 0 -15 4q-54 33 -69 129l-4 35q-26 -30 -52 -54.5t-52 -41.5q-65 -44 -125 -44q-72 0 -122 39t-75 112q-11 34 -16 72t-3 82q3 83 27 167q13 42 30 81.5t38 74.5q11 17 21.5 31.5t21.5 28.5q-46 -4 -107 -11.5t-129.5 -19t-141 -27.5t-142.5 -38
q-160 -51 -244 -116q-90 -71 -86 -155q0 -12 -8 -21t-21 -10t-22 7.5t-9 21.5q-6 115 109 204q47 36 112.5 67.5t150.5 58.5q70 22 151 40.5t172 32.5q93 14 168.5 21.5t125.5 10.5q10 1 18.5 -4.5t11.5 -15.5q4 -9 1 -18.5t-11 -15.5q-49 -37 -89 -100.5t-63 -144.5
q-23 -78 -25 -153t16 -132q38 -110 140 -110q49 0 108 45.5t121 130.5q1 14 2 27t3 27q8 66 24 133t37 124q23 60 46 96q28 45 61 56q23 7 36 -0.5t18 -12.5q25 -28 8 -105q-15 -61 -52 -146q-26 -58 -57.5 -114t-66.5 -105q-3 -56 5 -102q11 -69 40 -86q11 -7 14 -19
t-4 -23q-9 -14 -26 -14zM1286 800q-17 0 -26 15q-3 5 -7 11q-3 5 -7.5 11t-9.5 14q-12 16 -19.5 24t-11.5 11q-5 -3 -13.5 -10.5t-22.5 -23.5q-13 -14 -21 -24t-9 -11q-8 -10 -19.5 -11.5t-22.5 6.5q-10 8 -11.5 20t6.5 22q1 1 11.5 14t25.5 30q26 27 44.5 38.5t34.5 10.5
q17 -1 33.5 -14t38.5 -42q13 -17 22 -30.5t9 -14.5q7 -11 4 -23t-14 -18q-8 -5 -15 -5zM1402 634q-10 -9 -25.5 -34.5t-34.5 -75.5q-14 -38 -26 -82t-20 -89q22 40 41 80t33 78q11 26 18 49.5t10 43.5q4 17 4 30z" />
    <glyph glyph-name="Udieresis" unicode="&#xdc;" horiz-adv-x="1440" 
d="M1308 -30q-8 0 -15 4q-54 33 -69 129l-4 35q-26 -30 -52 -54.5t-52 -41.5q-65 -44 -125 -44q-72 0 -122 39t-75 112q-11 34 -16 72t-3 82q3 83 27 167q13 42 30 81.5t38 74.5q11 17 21.5 31.5t21.5 28.5q-46 -4 -107 -11.5t-129.5 -19t-141 -27.5t-142.5 -38
q-160 -51 -244 -116q-90 -71 -86 -155q0 -12 -8 -21t-21 -10t-22 7.5t-9 21.5q-6 115 109 204q47 36 112.5 67.5t150.5 58.5q70 22 151 40.5t172 32.5q93 14 168.5 21.5t125.5 10.5q10 1 18.5 -4.5t11.5 -15.5q4 -9 1 -18.5t-11 -15.5q-49 -37 -89 -100.5t-63 -144.5
q-23 -78 -25 -153t16 -132q38 -110 140 -110q49 0 108 45.5t121 130.5q1 14 2 27t3 27q8 66 24 133t37 124q23 60 46 96q28 45 61 56q23 7 36 -0.5t18 -12.5q25 -28 8 -105q-15 -61 -52 -146q-26 -58 -57.5 -114t-66.5 -105q-3 -56 5 -102q11 -69 40 -86q11 -7 14 -19
t-4 -23q-9 -14 -26 -14zM1402 634q-10 -9 -25.5 -34.5t-34.5 -75.5q-14 -38 -26 -82t-20 -89q22 40 41 80t33 78q11 26 18 49.5t10 43.5q4 17 4 30zM1184 841q-4 -13 -15.5 -22t-24.5 -10q-12 -1 -18.5 7.5t-2.5 21.5q4 12 15.5 21.5t24.5 9.5q13 1 19 -7t2 -21zM1304 841
q-4 -13 -15.5 -22t-24.5 -10q-12 -1 -18.5 7.5t-2.5 21.5q4 12 15.5 21.5t24.5 9.5q13 1 19 -7t2 -21z" />
    <glyph glyph-name="Yacute" unicode="&#xdd;" horiz-adv-x="669" 
d="M1628 -85q5 -11 0.5 -23t-15.5 -17q-1 -1 -13.5 -6.5t-34.5 -14.5t-53 -20t-68 -23q-35 -11 -78.5 -22.5t-92.5 -20.5t-102 -15t-107 -6q-150 0 -331 37q-78 16 -148.5 34.5t-128.5 35.5l-28 7q-44 -67 -99 -93q-49 -21 -88 -20t-65 26q-20 20 -25 48t6 57q13 32 45 53
q34 22 80 22q21 -1 50.5 -6.5t67.5 -16.5q12 23 23.5 49.5t22.5 58.5q17 47 31.5 97.5t27.5 104.5l-16 -30t-16 -29q-52 -85 -108 -129q-68 -55 -149 -55q-71 0 -121 39t-75 112q-11 34 -16 72t-3 82q3 83 27 167q13 42 30 81.5t38 74.5q23 38 49.5 68t56.5 52q10 8 22 6
t20 -12t6 -22t-12 -20q-50 -37 -89.5 -100.5t-62.5 -144.5q-23 -78 -25.5 -153t16.5 -132q36 -110 139 -110q43 0 80.5 21.5t70 57.5t60 84t51 101t43.5 108t38 105q15 42 28.5 79t26.5 66q5 11 16.5 16t22.5 0t16.5 -16t0.5 -22q-17 -48 -34 -117t-34 -147
q-20 -92 -44 -190.5t-55 -184.5q-11 -30 -22 -55.5t-22 -48.5q8 -2 13 -4q59 -17 128.5 -35t145 -33.5t156 -25.5t162.5 -10q51 0 101.5 5.5t97.5 14.5t88.5 19.5t74.5 21.5q73 23 117 42t45 19q11 5 22.5 1t17.5 -15zM425 805q-17 0 -27 16q-5 11 -1.5 23t14.5 18
q7 3 19.5 10.5t27 17t27.5 20.5t20 21q8 10 20 11.5t22 -6.5q11 -8 12.5 -19.5t-6.5 -22.5q-12 -15 -30 -30t-35.5 -26.5t-31.5 -19.5t-17 -9q-7 -4 -14 -4zM304 -177q34 16 63 55q-28 7 -49.5 11t-35.5 5h-1q-25 0 -43 -10t-25 -28q-5 -11 -3.5 -21.5t8.5 -16.5
q11 -11 34 -10t52 15z" />
    <glyph glyph-name="Thorn" unicode="&#xde;" horiz-adv-x="1176" 
d="M725 77q-11 0 -19 6t-10 16q-3 12 3.5 23t18.5 14q81 20 156.5 50t131 68t84.5 82.5t17 93.5q-12 51 -100 75q-52 14 -123.5 18.5t-157.5 -2.5q-18 -56 -38.5 -124.5t-38 -136.5t-29 -129t-11.5 -102q0 -12 -8.5 -21t-21.5 -9q-12 0 -21 9t-9 21q0 42 10.5 101.5
t27 125.5t36.5 133.5t38 125.5q-40 -5 -80.5 -11.5t-82.5 -14.5q-73 -15 -139 -33.5t-120.5 -39.5t-95 -43.5t-61.5 -44.5q-24 -22 -19 -38q4 -12 -2 -23t-18 -14q-12 -4 -23 2t-14 18q-5 17 -0.5 42.5t33.5 55.5q53 53 180 101q58 23 125.5 42t141.5 34q50 10 98.5 17.5
t96.5 12.5q14 44 24 71.5t12 30.5q5 12 16 17.5t23 0.5q11 -5 16.5 -16.5t0.5 -22.5q-1 -1 -8 -21t-19 -55h15t15 1q152 6 248 -21q56 -17 91 -43q41 -33 51 -76q5 -22 4.5 -49.5t-13 -58t-40 -63.5t-75.5 -66q-57 -40 -137 -73.5t-173 -56.5h-7v0z" />
    <glyph glyph-name="germandbls" unicode="&#xdf;" horiz-adv-x="516" 
d="M234 -1q-37 0 -71 13q-37 16 -52 44t-4 60q5 12 16 17.5t22 0.5q12 -4 17.5 -15.5t1.5 -22.5q-2 -5 -1.5 -8t1.5 -5q7 -9 22 -15q20 -8 45.5 -9t49.5 7q20 6 44.5 22.5t40.5 49.5q37 81 2 141q-19 32 -54.5 51.5t-82.5 23.5q-23 2 -28 25q-2 10 3 19t15 13q45 20 80 41
t59 42q16 14 31 34t15 41q0 19 -10 31.5t-23.5 20t-27.5 10.5t-21 4q-27 4 -54.5 0t-51.5 -15.5t-42 -30.5t-25 -44q-9 -34 -23 -87t-32.5 -120.5t-40.5 -147t-46 -166.5q-4 -12 -14.5 -18t-22.5 -3q-12 4 -18.5 14.5t-2.5 22.5q24 87 46 166.5t40.5 147t32.5 120.5t23 86
q9 36 34 65t63 47q32 16 69 22t73 1q27 -4 50.5 -13t40.5 -24q43 -34 43 -89q0 -62 -66 -119q-32 -29 -80 -56l24 -12q50 -27 76 -73q25 -43 25 -93t-25 -104q-17 -38 -48 -64.5t-73 -38.5q-30 -10 -65 -10z" />
    <glyph glyph-name="agrave" unicode="&#xe0;" horiz-adv-x="475" 
d="M321 -1q-42 0 -65 31q-21 27 -24 73q-13 -17 -27 -31.5t-28 -26.5q-35 -29 -69 -39q-36 -12 -67 -1q-21 8 -35.5 25t-21.5 41q-12 44 5 107q14 50 41.5 94t65.5 79q36 33 72 48t65 8q6 -2 16 -7t19 -16.5t13 -31.5t-3 -51q-2 -12 -12.5 -19t-22.5 -4q-12 2 -19 12.5
t-4 22.5q3 16 2.5 23.5t-1.5 9.5q-2 3 -3 3q-8 2 -30.5 -6.5t-51.5 -35.5q-31 -29 -54.5 -66.5t-34.5 -78.5q-11 -39 -7 -66.5t21 -33.5q11 -4 31 1.5t47 27.5q22 19 53 58t63 111q5 11 15.5 15.5t21.5 0.5q11 -5 16.5 -15t2.5 -21q-20 -75 -19.5 -117t11.5 -56q2 -3 6 -5.5
t12 -2.5q18 0 43.5 19t54.5 54q25 30 40.5 54.5t15.5 25.5q6 11 18 14t23 -3q11 -7 14 -18.5t-3 -22.5q0 -1 -5 -8.5t-13 -20t-19.5 -28t-24.5 -31.5q-16 -20 -32 -35.5t-31 -27.5q-43 -32 -81 -32zM219 467q-7 0 -14 4q-3 1 -17 9t-31.5 19.5t-35.5 26.5t-30 30
q-8 11 -6.5 22.5t12.5 19.5q10 8 22 6.5t20 -11.5q7 -10 20 -21t27.5 -20.5t27 -17t19.5 -10.5q11 -6 14.5 -18t-1.5 -23q-10 -16 -27 -16z" />
    <glyph glyph-name="aacute" unicode="&#xe1;" horiz-adv-x="475" 
d="M321 -1q-42 0 -65 31q-21 27 -24 73q-13 -17 -27 -31.5t-28 -26.5q-35 -29 -69 -39q-36 -12 -67 -1q-21 8 -35.5 25t-21.5 41q-12 44 5 107q14 50 41.5 94t65.5 79q36 33 72 48t65 8q6 -2 16 -7t19 -16.5t13 -31.5t-3 -51q-2 -12 -12.5 -19t-22.5 -4q-12 2 -19 12.5
t-4 22.5q3 16 2.5 23.5t-1.5 9.5q-2 3 -3 3q-8 2 -30.5 -6.5t-51.5 -35.5q-31 -29 -54.5 -66.5t-34.5 -78.5q-11 -39 -7 -66.5t21 -33.5q11 -4 31 1.5t47 27.5q22 19 53 58t63 111q5 11 15.5 15.5t21.5 0.5q11 -5 16.5 -15t2.5 -21q-20 -75 -19.5 -117t11.5 -56q2 -3 6 -5.5
t12 -2.5q18 0 43.5 19t54.5 54q25 30 40.5 54.5t15.5 25.5q6 11 18 14t23 -3q11 -7 14 -18.5t-3 -22.5q0 -1 -5 -8.5t-13 -20t-19.5 -28t-24.5 -31.5q-16 -20 -32 -35.5t-31 -27.5q-43 -32 -81 -32zM220 465q-17 0 -27 16q-5 11 -1.5 23t14.5 18q7 3 19.5 10.5t27 17
t27.5 20.5t20 21q8 10 20 11.5t22 -6.5q11 -8 12.5 -19.5t-6.5 -22.5q-12 -15 -30 -30t-35.5 -26.5t-31.5 -19.5t-17 -9q-7 -4 -14 -4z" />
    <glyph glyph-name="acircumflex" unicode="&#xe2;" horiz-adv-x="475" 
d="M321 -1q-42 0 -65 31q-21 27 -24 73q-13 -17 -27 -31.5t-28 -26.5q-35 -29 -69 -39q-36 -12 -67 -1q-21 8 -35.5 25t-21.5 41q-12 44 5 107q14 50 41.5 94t65.5 79q36 33 72 48t65 8q6 -2 16 -7t19 -16.5t13 -31.5t-3 -51q-2 -12 -12.5 -19t-22.5 -4q-12 2 -19 12.5
t-4 22.5q3 16 2.5 23.5t-1.5 9.5q-2 3 -3 3q-8 2 -30.5 -6.5t-51.5 -35.5q-31 -29 -54.5 -66.5t-34.5 -78.5q-11 -39 -7 -66.5t21 -33.5q11 -4 31 1.5t47 27.5q22 19 53 58t63 111q5 11 15.5 15.5t21.5 0.5q11 -5 16.5 -15t2.5 -21q-20 -75 -19.5 -117t11.5 -56q2 -3 6 -5.5
t12 -2.5q18 0 43.5 19t54.5 54q25 30 40.5 54.5t15.5 25.5q6 11 18 14t23 -3q11 -7 14 -18.5t-3 -22.5q0 -1 -5 -8.5t-13 -20t-19.5 -28t-24.5 -31.5q-16 -20 -32 -35.5t-31 -27.5q-43 -32 -81 -32zM305 460q-17 0 -26 15q-3 5 -7 11q-3 5 -7.5 11t-9.5 14q-12 16 -19.5 24
t-11.5 11q-5 -3 -13.5 -10.5t-22.5 -23.5q-13 -14 -21 -24t-9 -11q-8 -10 -19.5 -11.5t-22.5 6.5q-10 8 -11.5 20t6.5 22q1 1 11.5 14t25.5 30q26 27 44.5 38.5t34.5 10.5q17 -1 33.5 -14t38.5 -42q13 -17 22 -30.5t9 -14.5q7 -11 4 -23t-14 -18q-8 -5 -15 -5z" />
    </font>
</defs>
</svg>
