<?xml version="1.0" standalone="no"?>
<!DOCTYPE svg PUBLIC "-//W3C//DTD SVG 1.1//EN" "http://www.w3.org/Graphics/SVG/1.1/DTD/svg11.dtd" >
<svg xmlns="http://www.w3.org/2000/svg" xmlns:xlink="http://www.w3.org/1999/xlink" version="1.1">
<metadata>
Created by FontForge 20170910 at Fri Jul 20 03:06:22 2012
 By Jimmy Wärting
(c) 1999-2012 Typodermic Fonts Inc. See attached license agreement. If agreement is missing visit typodermicfonts.com for more info.
</metadata>
<defs>
<font id="Euphorigenic-Regular" horiz-adv-x="385" >
  <font-face 
    font-family="Euphorigenic"
    font-weight="400"
    font-stretch="normal"
    units-per-em="1000"
    panose-1="1 0 4 0 0 0 0 0 0 0"
    ascent="768"
    descent="-232"
    x-height="480"
    cap-height="737"
    bbox="-186 -232 895 968"
    underline-thickness="20"
    underline-position="-143"
    unicode-range="U+0017-FB02"
  />
<missing-glyph horiz-adv-x="680" 
d="M561 471q12 45 12 81q0 40 -18 72.5t-47 55t-66.5 34.5t-76.5 12q-29 0 -57 -10t-50.5 -29.5t-36 -47t-13.5 -61.5q0 -31 19.5 -54t52.5 -23q16 0 30.5 7t26 19t18 28.5t6.5 35.5q0 40 -34 65q5 11 16.5 16t25.5 5q46 0 73 -26.5t27 -78.5q0 -33 -8 -64t-20.5 -57
t-28 -47t-31.5 -34q-29 -23 -63 -39.5t-62.5 -35t-47.5 -44t-19 -67.5q0 -35 22.5 -63t57.5 -38l8 25q-20 8 -33.5 23.5t-13.5 39.5q0 29 16.5 48t42.5 33.5t59.5 27t66.5 29.5q23 12 45.5 26.5t42 33.5t34.5 44t24 58zM123 -57q0 -31 21 -54.5t55 -23.5q31 0 55 28t24 73
q0 31 -19.5 53.5t-55.5 22.5q-31 0 -55.5 -26.5t-24.5 -72.5zM135 -232q-49 0 -75 21.5t-26 65.5v884q0 45 26 67t75 22h409q50 0 76 -22t26 -67v-884q0 -44 -26 -65.5t-76 -21.5h-409z" />
    <glyph glyph-name="copyright" unicode="&#x28;C&#x29;" horiz-adv-x="750" 
d="M30 368q0 78 27 147.5t73.5 121t109.5 81.5t134 30q72 0 135 -30t110 -81.5t74 -121t27 -147.5t-27 -147t-74 -120.5t-110 -81t-135 -29.5q-71 0 -134 29.5t-109.5 81t-73.5 120.5t-27 147zM93 368q0 -66 22 -123.5t60 -100t89 -67.5t110 -25q58 0 110 25t90 67.5
t60.5 100t22.5 123.5t-22.5 123.5t-60.5 100.5t-90 68t-110 25q-59 0 -110 -25t-89 -68t-60 -100.5t-22 -123.5zM468 552q0 -15 -9.5 -27t-23.5 -12q-29 0 -29 34q0 15 3.5 23t16.5 13q-13 16 -43 16q-33 0 -50 -23q-5 -6 -9 -15.5t-6.5 -29.5t-3.5 -54t-1 -89
q0 -64 1 -101.5t3 -57.5t4.5 -28.5t6.5 -13.5q11 -16 23 -22t32 -6q49 0 61 43l17 -8q-10 -32 -30 -45.5t-52 -13.5q-59 0 -91 41q-8 10 -14 23t-9.5 34t-5 54.5t-1.5 84.5q0 49 1 81.5t4 54.5t8 36t13 27q14 23 38.5 37t59.5 14q40 0 63 -20.5t23 -49.5z" />
    <glyph glyph-name="registered" unicode="&#x28;R&#x29;" horiz-adv-x="750" 
d="M30 368q0 78 27 147.5t73.5 121t109.5 81.5t134 30q72 0 135 -30t110 -81.5t74 -121t27 -147.5t-27 -147t-74 -120.5t-110 -81t-135 -29.5q-71 0 -134 29.5t-109.5 81t-73.5 120.5t-27 147zM93 368q0 -66 22 -123.5t60 -100t89 -67.5t110 -25q58 0 110 25t90 67.5
t60.5 100t22.5 123.5t-22.5 123.5t-60.5 100.5t-90 68t-110 25q-59 0 -110 -25t-89 -68t-60 -100.5t-22 -123.5zM374 617q19 0 35 -5t28 -17.5t19 -34t7 -54.5q0 -51 -19.5 -74t-59.5 -25q12 -2 30 -17t35 -56q8 -20 16.5 -49t18.5 -56t22.5 -46t29.5 -19h18v-23h-33
q-16 0 -27 3t-20 10t-16.5 19.5t-15.5 32.5q-13 29 -22.5 61.5t-21.5 60.5q-17 38 -32.5 54.5t-37.5 18.5q0 -65 0.5 -105.5t1 -64t1 -34.5t1.5 -17q2 -11 5.5 -13.5t11.5 -2.5h6v-23h-100v23h5q9 0 13 3t6 13q1 9 1.5 18.5t1 33t0.5 66.5v120q0 56 -0.5 88t-1.5 48.5
t-2.5 22.5t-3.5 11q-4 5 -12 5h-7v24h119zM348 593q-9 0 -13 -12q-2 -6 -3.5 -13.5t-2.5 -23.5t-1 -43v-73h32q23 0 36.5 15t13.5 66q0 30 -3.5 46.5t-10 25t-16 10.5t-20.5 2h-12z" />
    <glyph glyph-name="uni2117" unicode="&#x28;P&#x29;" horiz-adv-x="750" 
d="M30 368q0 78 27 147.5t73.5 121t109.5 81.5t134 30q72 0 135 -30t110 -81.5t74 -121t27 -147.5t-27 -147t-74 -120.5t-110 -81t-135 -29.5q-71 0 -134 29.5t-109.5 81t-73.5 120.5t-27 147zM93 368q0 -66 22 -123.5t60 -100t89 -67.5t110 -25q58 0 110 25t90 67.5
t60.5 100t22.5 123.5t-22.5 123.5t-60.5 100.5t-90 68t-110 25q-59 0 -110 -25t-89 -68t-60 -100.5t-22 -123.5zM393 617q41 0 65 -23.5t24 -87.5q0 -60 -24.5 -84t-68.5 -24h-43q0 -77 0.5 -119.5t2 -64.5t3 -28.5t4.5 -10.5q5 -11 17 -11h12v-23h-111v23h5q11 0 15 9
q2 3 3.5 7.5t2 16t1 32.5t0.5 56q0 114 0.5 176t-2 91.5t-8 35t-17.5 5.5v24h119zM368 593q-11 0 -15 -12q-2 -4 -3.5 -10.5t-2 -22.5t-1 -45.5t-0.5 -80.5h33q22 0 35.5 15t13.5 62q0 34 -3.5 53t-10.5 28t-16 11t-19 2h-11z" />
    <glyph glyph-name=".notdef" horiz-adv-x="680" 
d="M561 471q12 45 12 81q0 40 -18 72.5t-47 55t-66.5 34.5t-76.5 12q-29 0 -57 -10t-50.5 -29.5t-36 -47t-13.5 -61.5q0 -31 19.5 -54t52.5 -23q16 0 30.5 7t26 19t18 28.5t6.5 35.5q0 40 -34 65q5 11 16.5 16t25.5 5q46 0 73 -26.5t27 -78.5q0 -33 -8 -64t-20.5 -57
t-28 -47t-31.5 -34q-29 -23 -63 -39.5t-62.5 -35t-47.5 -44t-19 -67.5q0 -35 22.5 -63t57.5 -38l8 25q-20 8 -33.5 23.5t-13.5 39.5q0 29 16.5 48t42.5 33.5t59.5 27t66.5 29.5q23 12 45.5 26.5t42 33.5t34.5 44t24 58zM123 -57q0 -31 21 -54.5t55 -23.5q31 0 55 28t24 73
q0 31 -19.5 53.5t-55.5 22.5q-31 0 -55.5 -26.5t-24.5 -72.5zM135 -232q-49 0 -75 21.5t-26 65.5v884q0 45 26 67t75 22h409q50 0 76 -22t26 -67v-884q0 -44 -26 -65.5t-76 -21.5h-409z" />
    <glyph glyph-name="uni0017" horiz-adv-x="243" 
 />
    <glyph glyph-name="space" unicode=" " horiz-adv-x="243" 
 />
    <glyph glyph-name="exclam" unicode="!" horiz-adv-x="220" 
d="M111 740q32 0 50.5 -19.5t18.5 -49.5q0 -5 -0.5 -10t-1.5 -10q-8 -46 -16 -93.5t-15 -92t-12 -84.5t-6 -70q-1 -22 -1.5 -45t-0.5 -52h-30q0 49 -1.5 86t-5.5 71t-9.5 69t-13.5 81q-9 51 -14.5 79.5t-8.5 43t-3.5 19t-0.5 7.5q0 31 20.5 50.5t50.5 19.5zM114 -8
q-29 0 -47 21t-18 55q0 33 18 54.5t47 21.5q30 0 48 -21.5t18 -54.5q0 -34 -18 -55t-48 -21z" />
    <glyph glyph-name="quotedbl" unicode="&#x22;" horiz-adv-x="390" 
d="M42 555zM83 555q0 29 -6.5 50.5t-14 39t-14 32.5t-6.5 32q0 35 20 53t46 18q27 0 47 -18t20 -53q0 -17 -6.5 -32t-14 -32.5t-14.5 -39t-7 -50.5h-50v0zM255 555q0 29 -6.5 50.5t-14 39t-14 32.5t-6.5 32q0 35 20 53t46 18q27 0 47 -18t20 -53q0 -17 -6.5 -32t-14 -32.5
t-14.5 -39t-7 -50.5h-50v0z" />
    <glyph glyph-name="numbersign" unicode="#" horiz-adv-x="511" 
d="M130 269l32 203h-101v53h110l33 212h52l-34 -212h119l34 212h51l-34 -212h95v-53h-104l-33 -203h98v-53h-107l-34 -216h-51l34 216h-117l-35 -216h-51l35 216h-99v53h107zM181 269h119l32 203h-119z" />
    <glyph glyph-name="dollar" unicode="$" horiz-adv-x="381" 
d="M168 0v108q-60 0 -98.5 35t-55.5 94l37 11q12 -41 42 -66.5t80 -25.5v166q-34 14 -60.5 27.5t-45 30.5t-28 39.5t-9.5 54.5q0 54 37.5 91t104.5 44q0 32 -6 128h51q-3 -21 -4.5 -52.5t-1.5 -77.5q33 -6 70 -35v47h45v-145h-45q0 73 -71 88v-148q23 -10 43 -16t37 -14
q34 -16 53 -43.5t19 -75.5q0 -64 -40 -104.5t-111 -49.5q2 -49 3 -77t1 -34h-47zM246 237q0 41 -36 65v-67.5t1 -66.5q18 11 26.5 25.5t8.5 43.5zM131 497q0 -22 10.5 -37t30.5 -27v124q-18 -6 -29.5 -21t-11.5 -39z" />
    <glyph glyph-name="percent" unicode="%" horiz-adv-x="675" 
d="M26 0zM95 547q0 -41 1 -67t2 -42t2.5 -24t3.5 -13q6 -15 18.5 -21t26.5 -6t25.5 6.5t17.5 18.5q3 5 5 13.5t3.5 24t2.5 41t1 65.5q0 41 -0.5 67t-2 41.5t-3.5 24t-5 14.5q-14 31 -43 31q-35 0 -46 -31q-2 -6 -3.5 -13.5t-3 -23t-2 -41t-0.5 -65.5zM26 537q0 34 1.5 72.5
t13 71t37 54t72.5 21.5q45 0 69.5 -20.5t36 -52.5t13.5 -70.5t2 -75.5q0 -59 -7.5 -97.5t-22.5 -61t-38 -32t-55 -9.5q-31 0 -54 10.5t-38 34t-22.5 61.5t-7.5 94zM619 737q-30 -39 -71.5 -99.5t-87.5 -131t-93 -146t-88.5 -144t-74.5 -125.5t-50 -91h-92q28 39 68.5 99.5
t87 131t94.5 145.5t90 143.5t75 125.5t50 92h92zM474 193q0 -41 1 -67t2 -42t2.5 -24t3.5 -13q6 -15 18.5 -21t26.5 -6t25.5 6.5t17.5 18.5q3 5 5 13.5t3.5 24t2.5 41t1 65.5q0 41 -0.5 67t-2 41.5t-3.5 24t-5 14.5q-14 31 -43 31q-35 0 -46 -31q-2 -6 -3.5 -13.5t-3 -23
t-2 -41t-0.5 -65.5zM405 183q0 34 1.5 72.5t13 71t37 54t72.5 21.5q45 0 69.5 -20.5t36 -52.5t13.5 -70.5t2 -75.5q0 -59 -7.5 -97.5t-22.5 -61t-38 -32t-55 -9.5q-31 0 -54 10.5t-38 34t-22.5 61.5t-7.5 94z" />
    <glyph glyph-name="ampersand" unicode="&#x26;" horiz-adv-x="451" 
d="M194 748q29 0 50 -12.5t35 -32t21 -42.5t7 -45q0 -29 -4 -51t-15.5 -45t-31.5 -51t-51 -68q27 -62 59.5 -121t65.5 -108.5t63 -85t52 -48.5l-8 -35q-20 9 -47 30t-60 54q-11 -21 -22 -39t-25.5 -30.5t-35.5 -20t-53 -7.5q-36 0 -68 15.5t-56.5 44t-39 68.5t-14.5 88
q0 75 26 131t71 93q-40 102 -40 164q0 68 31 111t90 43zM182 708q-20 0 -32.5 -18t-12.5 -51q0 -17 2 -34t6.5 -36.5t11.5 -42t18 -50.5q65 53 65 140q0 17 -4 33.5t-11.5 29.5t-18.5 21t-24 8zM311 107q-43 45 -82 102t-74 127q-15 -26 -25.5 -60t-10.5 -79
q0 -33 6.5 -62.5t18.5 -51.5t30.5 -35t42.5 -13q29 0 54.5 20.5t39.5 51.5z" />
    <glyph glyph-name="quotesingle" unicode="'" horiz-adv-x="218" 
d="M83 555q0 29 -6.5 50.5t-14 39t-14 32.5t-6.5 32q0 35 20 53t46 18q27 0 47 -18t20 -53q0 -17 -6.5 -32t-14 -32.5t-14.5 -39t-7 -50.5h-50v0z" />
    <glyph glyph-name="parenleft" unicode="(" horiz-adv-x="330" 
d="M309 -232q-45 0 -82.5 15t-64 51t-41 96t-14.5 150v429q0 90 14.5 150t41 96t64 51t82.5 15v-51q-29 -6 -51 -20t-37.5 -40.5t-23.5 -67.5t-8 -101v-493q0 -60 8 -101t23.5 -67.5t37.5 -40.5t51 -20v-51z" />
    <glyph glyph-name="parenright" unicode=")" horiz-adv-x="330" 
d="M21 -181q28 6 50.5 20t37.5 40.5t23 67.5t8 101v493q0 60 -8 101t-23 67.5t-37.5 40.5t-50.5 20v51q45 0 82 -15t64 -51t41.5 -96t14.5 -150v-429q0 -90 -14.5 -150t-41.5 -96t-64 -51t-82 -15v51z" />
    <glyph glyph-name="asterisk" unicode="*" horiz-adv-x="399" 
d="M378 634q0 -17 -14.5 -30t-38 -23.5t-51.5 -19.5t-55 -16q21 -9 48.5 -17.5t51.5 -19t40.5 -23.5t16.5 -31q0 -48 -48 -48q-14 0 -25.5 8t-24 22.5t-28 35t-36.5 44.5q1 -2 7 -18t12.5 -36t11.5 -39.5t5 -29.5q0 -49 -51 -49q-49 0 -49 49q0 10 5.5 29.5t12 40t12.5 36.5
t8 21q-39 -50 -65 -82t-51 -32q-50 0 -50 48q0 18 15.5 31.5t39.5 24t52 19t52 16.5q-29 7 -57.5 16t-51 19.5t-36.5 23.5t-14 30q0 48 49 48q24 0 51.5 -34t66.5 -83q-2 7 -7.5 24t-12 37.5t-11.5 40.5t-5 33q0 48 49 48q52 0 52 -48q0 -12 -6 -31t-13 -39t-13.5 -37
t-7.5 -24q17 22 32 42.5t29 36t27.5 25t27.5 9.5q48 0 48 -48z" />
    <glyph glyph-name="plus" unicode="+" horiz-adv-x="426" 
d="M183 163v169h-167v58h167v167h58v-167h169v-58h-169v-169h-58z" />
    <glyph glyph-name="comma" unicode="," horiz-adv-x="216" 
d="M173 64q0 -57 -28 -96.5t-69 -48.5l-7 21q27 12 39 27.5t16 32.5q-8 -5 -20 -5q-28 0 -45 20t-17 58q0 29 18 50t47 21t47.5 -21.5t18.5 -58.5z" />
    <glyph glyph-name="hyphen" unicode="-" horiz-adv-x="258" 
d="M239 263q-51 6 -103 6q-60 0 -118 -6v82q34 -4 64 -6.5t59 -2.5q48 0 98 9v-82z" />
    <glyph glyph-name="period" unicode="." horiz-adv-x="216" 
d="M107 -8q-29 0 -47 21t-18 55q0 33 18 54.5t47 21.5q30 0 48 -21.5t18 -54.5q0 -34 -18 -55t-48 -21z" />
    <glyph glyph-name="slash" unicode="/" horiz-adv-x="281" 
d="M274 788q-66 -285 -113.5 -527t-77.5 -445h-76q15 62 33 143.5t37 172.5t38 185.5t35 182t28.5 162.5t19.5 126h76z" />
    <glyph glyph-name="zero" unicode="0" horiz-adv-x="485" 
d="M129 368q0 -77 1.5 -126t4 -78.5t6.5 -45t9 -26.5q14 -32 37 -45t54 -13q32 0 55 12t37 39q6 11 10 27t7 46t4.5 78.5t1.5 125.5q0 79 -1.5 128.5t-3.5 79.5t-6 45.5t-8 26.5q-14 32 -37.5 46.5t-56.5 14.5q-34 0 -58 -14.5t-38 -46.5q-5 -11 -8.5 -26.5t-5.5 -45t-3 -78
t-1 -124.5zM25 350q0 72 3 124t9.5 89.5t16 63t22.5 45.5q52 76 168 76q57 0 98 -20.5t67 -59.5q13 -20 22.5 -46t16 -63t9.5 -88t3 -121q0 -63 -4 -111t-12 -84.5t-20.5 -63t-30.5 -45.5q-50 -56 -153 -56q-67 0 -110.5 27t-69.5 81q-9 19 -15.5 42.5t-11 53.5t-6.5 68
t-2 88z" />
    <glyph glyph-name="one" unicode="1" horiz-adv-x="231" 
d="M212 0h-193v46h16q26 0 29 30q1 6 2.5 19.5t2.5 45t1.5 86t0.5 144.5q0 82 -2 145.5t-5 92.5h-45v45q17 1 33.5 8t29.5 18t21.5 25.5t9.5 31.5h47q-1 -46 -1.5 -139t-0.5 -227q0 -85 0.5 -138t2 -85t3.5 -48t4 -27q4 -15 11 -21t22 -6h11v-46z" />
    <glyph glyph-name="two" unicode="2" horiz-adv-x="375" 
d="M176 749q81 0 127 -47t46 -141q0 -38 -7 -69t-22.5 -58t-40 -51t-60.5 -47q-26 -17 -50.5 -37.5t-37.5 -48.5q-6 -15 -10 -26t-6 -26.5t-2.5 -39.5t-0.5 -63v-40h167q29 0 29 55h35v-109h-315v81q0 66 10 109.5t29 75t46.5 55t62.5 49.5q46 35 66 83t20 115
q0 64 -24 99.5t-67 35.5q-29 0 -42.5 -8.5t-16.5 -20.5q45 -17 45 -69q0 -28 -18 -49t-46 -21t-46.5 20t-18.5 47q0 67 41 106.5t107 39.5z" />
    <glyph glyph-name="three" unicode="3" horiz-adv-x="380" 
d="M355 204q0 -45 -11.5 -84t-34.5 -68t-57 -45.5t-79 -16.5q-67 0 -107.5 40t-40.5 106q0 28 18.5 48t45.5 20q29 0 47 -21t18 -50q0 -54 -45 -69q3 -12 16.5 -21t38.5 -9t41 8t28 22q4 6 8 14t7 24t5 42t2 67q0 38 -1.5 62t-3.5 38.5t-5.5 22.5t-7.5 13q-10 15 -25.5 23
t-31.5 8h-45v35h45q18 0 31.5 8t22.5 31q4 11 7.5 33.5t3.5 78.5q0 53 -6 77.5t-14 37.5q-10 15 -24 20t-34 5q-23 0 -36 -8t-18 -21q45 -16 45 -69q0 -28 -18 -49t-46 -21q-29 0 -46 20.5t-17 51.5q0 60 39 100t113 40q73 0 114.5 -47.5t41.5 -133.5q0 -75 -19 -116.5
t-63 -57.5q22 -10 40 -25t31 -37.5t20 -53.5t7 -73z" />
    <glyph glyph-name="four" unicode="4" 
d="M359 328h-63q-1 -56 -2 -96t-1 -72q0 -35 2 -57t6.5 -35t13 -18t22.5 -5q8 0 11 1v-46h-203v46h30q23 0 30 34q3 13 5 27t2.5 39.5t1 68t0.5 113.5h-210q28 91 45.5 171.5t27.5 153.5h77q-8 -28 -15 -53.5t-14 -56.5t-15 -71.5t-18 -98.5h122q0 85 -0.5 144t-1 100.5
t-2 69t-4.5 50.5h142v-44h-13q-25 0 -31 -32q-2 -8 -3 -22.5t-2.5 -45.5t-2 -83.5t-0.5 -136.5h63v-45z" />
    <glyph glyph-name="five" unicode="5" horiz-adv-x="387" 
d="M362 218q0 -112 -48.5 -170t-133.5 -58q-50 0 -93 24t-64 84l40 28q17 -51 45 -71.5t65 -20.5q26 0 39 7.5t21 16.5q6 6 10.5 15t7.5 27.5t5 49t2 80.5q0 41 -1.5 68t-4.5 45t-8 28.5t-11 17.5q-23 24 -60 24q-35 0 -69.5 -10t-63.5 -30q2 19 3.5 42t3 54t2.5 71.5
t1 95.5q0 47 -3 101h286v-119h-49q-1 41 -8 57.5t-27 16.5h-104q-5 -29 -6.5 -70.5t-1.5 -83.5v-50.5t2 -45.5q14 4 30 5.5t31 1.5q39 0 69 -10.5t50.5 -36.5t31.5 -70.5t11 -113.5z" />
    <glyph glyph-name="six" unicode="6" horiz-adv-x="405" 
d="M229 424q32 0 59 -14.5t47 -41.5t31.5 -67t11.5 -91q0 -50 -13 -90.5t-35.5 -69t-53.5 -44.5t-67 -16q-44 0 -78 20.5t-57 57t-35 86t-12 106.5q0 91 21 173t58 147t87.5 109t108.5 59l14 -36q-41 -17 -75 -44.5t-59 -69t-40 -98.5t-17 -131q20 31 46 43t58 12zM203 380
q-24 0 -43.5 -15.5t-36.5 -41.5v-32q0 -57 5.5 -104.5t16.5 -81.5t27 -52.5t37 -18.5q16 0 27.5 9.5t19.5 23.5q3 5 7 13t7 23.5t5.5 42t2.5 69.5q0 36 -2 59.5t-5.5 38.5t-7.5 24t-7 15q-19 28 -53 28z" />
    <glyph glyph-name="seven" unicode="7" horiz-adv-x="332" 
d="M334 737q-31 -62 -81 -184q-46 -111 -68.5 -233t-22.5 -251q0 -42 -13 -60.5t-39 -18.5q-25 0 -41 16t-16 52q0 42 10.5 97t31.5 119q21 63 61.5 159.5t97.5 225.5h-174q-28 0 -28 -59h-44v137h326z" />
    <glyph glyph-name="eight" unicode="8" horiz-adv-x="393" 
d="M197 748q72 0 112 -42.5t40 -130.5q0 -62 -12.5 -102t-51.5 -65q42 -28 64.5 -72t22.5 -114q0 -53 -10 -96t-31 -73t-54 -46.5t-80 -16.5q-96 0 -136 56t-40 176q0 71 22 115t64 71q-38 25 -51 65t-13 102q0 88 41 130.5t113 42.5zM197 706q-26 0 -40 -20
q-8 -11 -13 -33.5t-5 -75.5q0 -36 1 -58.5t3 -36.5t5 -21.5t6 -13.5q15 -23 44 -23q25 0 40 21q4 5 6.5 12.5t4.5 22t3 37.5t1 60q0 28 -1.5 47.5t-4 32.5t-6.5 21t-8 13q-14 15 -36 15zM196 391q-34 0 -51 -25q-5 -5 -8.5 -13t-6.5 -25t-4.5 -45.5t-1.5 -75.5
q0 -42 1.5 -68.5t4.5 -42t7 -23.5t8 -13q19 -27 52 -27q14 0 26 6t20 16q5 6 9.5 14t7.5 24.5t5 43.5t2 70q0 46 -1.5 74.5t-4 45t-6 24t-7.5 13.5q-19 27 -52 27z" />
    <glyph glyph-name="nine" unicode="9" horiz-adv-x="395" 
d="M173 308q-65 0 -107 55.5t-42 158.5q0 49 12.5 90.5t35 71.5t53.5 47t67 17q44 0 78 -20.5t57 -56.5t35 -85t12 -106q0 -91 -16 -170.5t-47 -143t-76 -108t-103 -65.5l-14 35q38 24 67 51t48.5 64.5t30.5 90t13 126.5q-16 -26 -44.5 -39t-59.5 -13zM199 353q47 0 80 52
v36q0 57 -5.5 105.5t-16.5 83t-27.5 54t-37.5 19.5q-30 0 -46 -29q-3 -6 -7 -15t-7.5 -26.5t-5.5 -45t-2 -70.5q0 -36 2 -59.5t5 -38.5t7 -23.5t8 -14.5q16 -28 53 -28z" />
    <glyph glyph-name="colon" unicode=":" horiz-adv-x="242" 
d="M121 -8q-30 0 -48 21t-18 55q0 33 18 54.5t48 21.5q29 0 47 -21.5t18 -54.5q0 -34 -18 -55t-47 -21zM121 272q-30 0 -48 21.5t-18 54.5q0 34 18 55t48 21q29 0 47 -21t18 -55q0 -33 -18 -54.5t-47 -21.5z" />
    <glyph glyph-name="semicolon" unicode=";" horiz-adv-x="242" 
d="M121 272q-30 0 -48 21.5t-18 54.5q0 34 18 55t48 21q29 0 47 -21t18 -55q0 -33 -18 -54.5t-47 -21.5zM186 64q0 -57 -27.5 -96.5t-69.5 -48.5l-7 21q28 12 39.5 27.5t15.5 32.5q-8 -5 -19 -5q-29 0 -46 20t-17 58q0 29 18.5 50t47.5 21t47 -21.5t18 -58.5z" />
    <glyph glyph-name="less" unicode="&#x3c;" horiz-adv-x="420" 
d="M410 190l-394 142v58l394 141v-61l-317 -109l317 -109v-62z" />
    <glyph glyph-name="equal" unicode="=" horiz-adv-x="426" 
d="M410 467h-394v58h394v-58zM410 197h-394v58h394v-58z" />
    <glyph glyph-name="greater" unicode="&#x3e;" horiz-adv-x="420" 
d="M16 252l317 109l-317 109v61l394 -141v-58l-394 -142v62z" />
    <glyph glyph-name="question" unicode="?" horiz-adv-x="350" 
d="M335 574q0 -44 -15.5 -77t-39 -59t-50.5 -46.5t-50.5 -39.5t-39 -38.5t-15.5 -42.5q0 -28 16.5 -42.5t37.5 -16.5v-23q-19 0 -35.5 7t-29 19t-19.5 28.5t-7 35.5q0 23 7 41.5t18 33.5q20 25 46.5 46t48.5 51q16 22 25.5 51t9.5 70q0 74 -23.5 103.5t-64.5 29.5
q-17 0 -35 -6.5t-20 -23.5q46 -17 46 -69q0 -28 -18.5 -49t-47.5 -21q-27 0 -45.5 20.5t-18.5 52.5q0 63 40.5 101.5t106.5 38.5q81 0 126.5 -40t45.5 -135zM151 -8q-30 0 -48 21t-18 55q0 33 18 54.5t48 21.5q29 0 47 -21.5t18 -54.5q0 -34 -18 -55t-47 -21z" />
    <glyph glyph-name="at" unicode="@" horiz-adv-x="673" 
d="M461 378v-204q0 -29 13 -43.5t34 -14.5q15 0 27.5 9.5t21.5 31t14.5 57t5.5 87.5q0 62 -11 113.5t-37.5 88t-71 56.5t-111.5 20q-53 0 -98 -22.5t-78 -66.5t-51.5 -109t-18.5 -150q0 -139 54 -228t176 -121l-4 -46q-153 31 -226.5 134.5t-73.5 258.5q0 99 26 174.5
t70 125.5t101.5 75.5t120.5 25.5q305 0 305 -326q0 -34 -7 -73t-24 -72t-44.5 -54.5t-69.5 -21.5q-30 0 -49.5 16.5t-30.5 36.5q-11 -23 -34 -38t-58 -15q-24 0 -44.5 8t-36 25.5t-24.5 46.5t-9 71q0 63 26.5 104.5t83.5 41.5q21 0 40 -5.5t33 -16.5l7 20h53zM355 329
q-26 0 -39 -20t-13 -78q0 -54 14 -76.5t40 -22.5q16 0 25.5 8.5t17.5 21.5v135q-15 32 -45 32z" />
    <glyph glyph-name="A" unicode="A" horiz-adv-x="508" 
d="M496 -184h-211v46h12q36 0 36 18q0 14 -3.5 45.5t-10.5 72.5h-194l-16 -100q-1 -6 -1 -10v-9q0 -11 8.5 -14t25.5 -3h13v-46h-140v46h12q25 0 32 29q5 16 15.5 69.5t24.5 129t30 165.5t31 178.5t28 168.5t21 135h98q9 -79 23 -173.5t30.5 -192.5t34.5 -193.5t35 -176.5
q9 -44 14.5 -69t9 -38t5.5 -17.5t4 -6.5q4 -5 8.5 -6.5t14.5 -1.5h10v-46zM313 43l-81 537q-2 -10 -9.5 -49.5t-18 -95t-22.5 -119t-22.5 -120t-18 -98.5t-9.5 -55h181z" />
    <glyph glyph-name="B" unicode="B" horiz-adv-x="519" 
d="M508 86q0 -61 -14.5 -111t-41.5 -85t-65.5 -54.5t-86.5 -19.5h-281v46h10q9 0 16 3.5t11.5 16.5t7.5 40t4.5 74t2 118t0.5 172q0 115 -1 189t-3 117.5t-4 62t-3 23.5q-4 14 -31 14h-10v45h231q84 0 127.5 -53.5t43.5 -159.5q0 -54 -18.5 -95t-47.5 -66q64 -12 103 -59
q14 -17 23.5 -35t15.5 -42t8.5 -58t2.5 -83zM159 329q2 -60 2 -117.5v-115.5v-155q0 -43 6 -61t32 -18h70q35 0 62.5 13t44.5 40q7 10 12 23t8.5 34t5.5 51.5t2 75.5t-2.5 75.5t-7 51t-11.5 34.5t-17 26q-35 43 -97 43h-110zM200 692q-9 0 -15.5 -4.5t-11 -16t-7 -32
t-3.5 -52.5q-2 -35 -2.5 -60t-1 -48.5t-0.5 -48v-57.5h69q21 0 37.5 9t27.5 25q13 16 19 42t6 72q0 29 -1.5 50t-4.5 36t-7 25.5t-10 19.5q-12 19 -31 29.5t-44 10.5h-20z" />
    <glyph glyph-name="C" unicode="C" horiz-adv-x="447" 
d="M432 613q0 -29 -18.5 -53t-47.5 -24q-56 0 -56 67q0 29 7 44.5t32 26.5q-25 29 -83 29q-62 0 -98 -45q-10 -12 -17 -30.5t-11.5 -57.5t-7 -105t-2.5 -172q0 -122 2 -194.5t5.5 -112t9 -56t12.5 -26.5q21 -29 44.5 -41.5t62.5 -12.5q48 0 77 21t41 62l32 -13
q-18 -63 -57 -89.5t-101 -26.5q-57 0 -101.5 21t-74.5 59q-16 20 -27 44.5t-17.5 66t-9.5 105.5t-3 163q0 96 2 159.5t7 105.5t15 69t25 52q29 46 75.5 72.5t113.5 26.5q39 0 70 -10.5t53 -29t34 -43t12 -52.5z" />
    <glyph glyph-name="D" unicode="D" horiz-adv-x="532" 
d="M321 737q39 0 73 -18.5t58 -54.5q14 -22 24.5 -51t17.5 -73t10.5 -107t3.5 -151q0 -90 -4 -153.5t-11.5 -108.5t-18.5 -75t-25 -51q-27 -41 -64.5 -59.5t-84.5 -18.5h-281v46h10q9 0 16 3.5t11.5 17t7.5 41.5t4.5 76.5t2 121.5t0.5 178q0 104 -1 172t-2.5 110.5
t-3.5 63.5t-4 32q-2 9 -9.5 11.5t-20.5 2.5h-11v45h302zM201 692q-14 0 -23 -7t-11 -24q-2 -13 -3 -31.5t-2.5 -54t-2 -93.5t-0.5 -149v-178t0.5 -112t1 -67.5t2.5 -45.5q3 -39 11 -53.5t33 -14.5h62q30 0 55 12t43 41q9 13 15.5 33.5t11.5 58t7.5 99t2.5 157.5
q0 94 -2 155.5t-6 101t-10 62t-13 38.5q-17 38 -42.5 55t-60.5 17h-69z" />
    <glyph glyph-name="E" unicode="E" horiz-adv-x="489" 
d="M482 -184h-463v46h13q17 0 25.5 6.5t10.5 30.5q2 46 2.5 106.5t0.5 135.5v173v123t-0.5 84t-1 56t-1.5 40.5t-2 36.5q-2 20 -8.5 29t-22.5 9h-16v45h330v-104h-42q0 59 -28 59h-71q-23 0 -30.5 -4.5t-10.5 -26.5q-2 -25 -4 -95.5t-3 -192.5h70q34 0 34 59h43v-164h-43
q0 61 -34 61h-71v-93q0 -136 1.5 -221t6.5 -119q2 -12 11.5 -16.5t29.5 -4.5h204q14 0 21 13t7 42h42v-114z" />
    <glyph glyph-name="F" unicode="F" horiz-adv-x="356" 
d="M349 633h-42q0 59 -28 59h-71q-23 0 -30.5 -4.5t-10.5 -26.5q-2 -25 -4 -106t-3 -203h70q34 0 34 58h43v-162h-43q0 59 -34 59h-71v-92q0 -71 0.5 -123.5t1.5 -90.5t2.5 -64.5t3.5 -44.5q3 -17 11.5 -23.5t31.5 -6.5h19v-46h-210v46h15q26 0 30 40q1 10 2.5 28.5
t2.5 60.5t1.5 116.5t0.5 197.5q0 83 -0.5 141.5t-1 97.5t-1 62t-1.5 35.5t-2.5 18t-3.5 10.5q-5 12 -10.5 17t-21.5 5h-10v45h330v-104z" />
    <glyph glyph-name="G" unicode="G" horiz-adv-x="503" 
d="M490 -184q-5 -2 -13 -3t-18 -1q-24 0 -40.5 4.5t-28.5 14.5t-20.5 24.5t-16.5 34.5q-9 -37 -43.5 -61.5t-87.5 -24.5q-51 0 -88.5 23.5t-62.5 65.5q-11 19 -19.5 43.5t-14.5 64.5t-9 100.5t-3 150.5q0 105 4 175.5t11.5 117.5t19 75.5t26.5 49.5q28 37 68.5 57.5
t94.5 20.5q44 0 77.5 -10.5t56 -29t33.5 -43t11 -52.5q0 -36 -15.5 -56.5t-45.5 -20.5q-32 0 -46 21t-14 48q0 29 9.5 45t29.5 24q-25 29 -83 29q-36 0 -62 -14.5t-43 -40.5q-8 -12 -14 -30.5t-9.5 -60t-5.5 -113.5t-2 -192q0 -102 1 -163t3.5 -96t6.5 -50.5t9 -26.5
q14 -30 37.5 -48t55.5 -18q25 0 45 18.5t34 50t21.5 73t7.5 88.5q0 52 -1.5 85.5t-7 52.5t-15.5 26t-27 7v44h194v-44h-29q-1 0 -5 -6t-8.5 -31.5t-8 -78t-3.5 -145.5q0 -26 1.5 -49.5t6 -41.5t12.5 -28.5t21 -10.5h6.5t6.5 1v-45z" />
    <glyph glyph-name="H" unicode="H" horiz-adv-x="519" 
d="M19 -138h16q14 0 19 3.5t8 14.5q1 4 2 29t2 63t1.5 85t1 96t0.5 94.5v81.5q0 48 -0.5 105t-1 108t-2 88t-3.5 43q-3 11 -8 15t-19 4h-16v45h195v-45h-21q-13 0 -18 -4t-9 -15q-2 -6 -3 -36t-2 -73t-1 -93.5v-97.5h199q0 47 -0.5 97.5t-1 93.5t-2 73t-2.5 36q-4 11 -9 15
t-18 4h-21v45h195v-45h-16q-14 0 -19 -4t-8 -15q-2 -6 -3.5 -43t-2.5 -88t-1 -108v-105v-81t0.5 -95t1 -96t1.5 -85t2 -63t2 -29q3 -11 8 -14.5t19 -3.5h16v-46h-195v46h21q13 0 18 3.5t9 14.5q1 4 2 29t1.5 63t1 85t1 96t0.5 94.5v81.5h-199v-81t0.5 -95t1 -96t1 -85
t1.5 -63t2 -29q4 -11 9 -14.5t18 -3.5h21v-46h-195v46z" />
    <glyph glyph-name="I" unicode="I" horiz-adv-x="229" 
d="M19 -138h16q14 0 19 3.5t8 14.5q1 4 2 29t2 63t1.5 85t1 96t0.5 94.5v81.5q0 48 -0.5 105t-1 108t-2 88t-3.5 43q-3 11 -8 15t-19 4h-16v45h191v-45h-17q-13 0 -18 -4t-9 -15q-2 -6 -3 -43t-2 -88t-1 -108v-105v-81t0.5 -95t1 -96t1 -85t1.5 -63t2 -29q4 -11 9 -14.5
t18 -3.5h17v-46h-191v46z" />
    <glyph glyph-name="J" unicode="J" horiz-adv-x="349" 
d="M331 737q-4 -23 -7.5 -67.5t-5.5 -126.5t-3.5 -209.5t-1.5 -314.5q0 -100 -43 -157.5t-118 -57.5q-67 0 -107 40t-40 105q0 28 18 49t46 21t46.5 -22t18.5 -51q0 -26 -10 -44t-36 -24q2 -6 5.5 -10.5t8.5 -7.5q14 -11 42 -11q46 0 68 45q3 6 5.5 14t4.5 24t3 42.5t2 70
t1.5 106t0.5 150.5v41t-1 65.5t-1.5 77.5t-1.5 76.5t-2.5 62.5t-2.5 36q-2 21 -9.5 26.5t-24.5 5.5h-13v45h158z" />
    <glyph glyph-name="K" unicode="K" horiz-adv-x="601" 
d="M598 -184h-66q-29 0 -51 5.5t-39.5 19.5t-32 38t-29.5 62q-24 59 -42.5 121t-42.5 116q-16 37 -30.5 62.5t-30.5 42.5t-34 25.5t-40 11.5v-81.5t0.5 -93t1 -93.5t1 -83t1.5 -61t2 -28q4 -11 9 -14.5t18 -3.5h17v-46h-191v46h16q14 0 19 3.5t8 14.5q1 4 2 29t2 63t1.5 85
t1 96t0.5 94.5v81.5q0 48 -0.5 105t-1 108t-2 88t-3.5 43q-3 11 -8 15t-19 4h-16v45h191v-45h-17q-13 0 -18 -4t-9 -15q-2 -6 -3 -39.5t-2 -81t-1 -101.5v-102q31 1 48.5 27t28.5 66q9 29 15 61t12.5 63t15 60t22.5 52q15 27 36.5 43t58.5 16h65v-45h-43q-41 0 -59 -72
q-14 -51 -22 -94t-25 -88q-12 -32 -31.5 -58.5t-46.5 -37.5q26 -6 48.5 -16t42 -27.5t36.5 -44t32 -65.5q13 -33 24.5 -69t23.5 -72.5t25 -72.5t30 -68q14 -25 28 -35t37 -10h36v-46z" />
    <glyph glyph-name="L" unicode="L" horiz-adv-x="494" 
d="M482 -184h-463v46h15q11 0 17 3.5t9 13t4 27t3 44.5q1 17 1.5 44t1 73.5t0.5 117v172.5q0 79 -0.5 130t-1 83.5t-2 52.5t-3.5 38t-8.5 24.5t-21.5 6.5h-14v45h207v-45h-27q-26 0 -32 -31q-1 -8 -2.5 -24t-2.5 -51t-2 -95.5t-1 -157.5q0 -108 1 -202.5t3 -180.5
q1 -39 9 -57t28 -18h211q14 0 21 13t7 42h43v-114z" />
    <glyph glyph-name="M" unicode="M" horiz-adv-x="591" 
d="M571 -184h-190v46h9q20 0 27.5 5.5t8.5 23.5q2 43 3.5 84t2.5 92.5t1.5 119.5t0.5 166v52.5t-1 55.5q-75 -377 -120 -645h-80q-4 24 -12.5 73t-19.5 110.5t-24 130t-25 132t-22.5 116l-16.5 82.5q-1 -31 -1.5 -64.5t-0.5 -63.5q0 -17 0.5 -53t1 -80.5t1.5 -93.5t2 -92.5
t2 -76.5t2 -46q1 -19 9 -23.5t26 -4.5h12v-46h-148v47h9q28 0 33 9q2 5 3.5 13t3.5 33q1 23 1.5 48.5t1.5 71t1.5 119.5t0.5 195q0 93 -1 151.5t-2.5 93t-4 51t-5.5 24.5q-5 10 -10.5 15t-22.5 5h-8v45h157q3 -31 10 -81t16 -112.5t20 -133.5t23.5 -144.5t25 -146.5
t24.5 -138q15 62 31 131.5t33 158t37 202t44 264.5h131v-45h-9q-12 0 -20 -5t-14 -22q-4 -15 -6.5 -32.5t-4 -52t-2 -93t-0.5 -154.5v-145t1 -107t1.5 -75.5t1.5 -52t2 -36t3 -26.5q2 -21 11 -25t25 -4h11v-46z" />
    <glyph glyph-name="N" unicode="N" horiz-adv-x="490" 
d="M485 692h-9q-23 0 -31 -11q-3 -4 -5 -9.5t-3.5 -18t-2.5 -34.5t-1.5 -58.5t-0.5 -91.5v-132q0 -135 0.5 -224.5t1.5 -147t2.5 -91.5t3.5 -58h-104q-9 36 -24.5 95t-34.5 130t-41 148t-43.5 149t-41.5 133.5t-35 100.5q0 -10 -0.5 -35.5t-1 -75.5t-0.5 -128v-192
q0 -86 0.5 -135t2 -75t3.5 -35.5t6 -17.5q5 -10 11.5 -13t19.5 -3h10v-46h-148v46h10q8 0 13.5 2t11.5 12q3 5 6 11.5t4.5 22t2.5 42.5t2 73.5t1 115.5v168q0 117 -0.5 186.5t-2 108t-3 53t-4.5 21.5q-3 8 -7 11t-15 3h-19v45h152q49 -184 103 -361.5t110 -340.5
q2 88 3 166.5t1 151.5q0 108 -1 171t-2.5 96t-4 44.5t-5.5 16.5q-4 8 -8 9.5t-10 1.5h-21v45h149v-45z" />
    <glyph glyph-name="O" unicode="O" horiz-adv-x="529" 
d="M274 -196q-62 0 -106 16t-73 45q-18 18 -31.5 43.5t-22 69t-12.5 111t-4 170.5q0 106 4 178t13 121t23.5 79t35.5 51q27 29 66.5 44.5t93.5 15.5q58 0 100 -17t71 -47q20 -21 33.5 -50.5t22 -78t12.5 -120.5t4 -177q0 -102 -4 -169.5t-12.5 -111t-21 -68.5t-29.5 -43
q-60 -62 -163 -62zM265 -150q36 0 64.5 16.5t45.5 46.5q6 10 10.5 25t7.5 50t4.5 99t1.5 171q0 118 -2 189.5t-6 112.5t-10.5 60t-14.5 31q-17 25 -42 38.5t-59 13.5q-67 0 -103 -53q-8 -12 -14.5 -30.5t-10.5 -59.5t-6 -112.5t-2 -188.5q0 -110 2 -176t6 -103.5t10 -53.5
t14 -26q18 -23 44 -36.5t60 -13.5z" />
    <glyph glyph-name="P" unicode="P" horiz-adv-x="432" 
d="M250 737q42 0 73.5 -11.5t54.5 -38.5t33 -63.5t10 -99.5q0 -29 -2 -51.5t-7 -40.5t-12.5 -32.5t-18.5 -28.5q-23 -29 -58.5 -42.5t-80.5 -13.5h-83q0 -99 0.5 -168t1.5 -115.5t2.5 -73.5t3.5 -42.5t4.5 -22.5t5.5 -12q6 -11 15 -15t20 -4h21v-46h-214v46h10q11 0 18 3
t12 12q4 6 6 15.5t3 32t1.5 62.5t0.5 109q0 119 0.5 206t0.5 150q0 87 -2 135.5t-7.5 71.5t-15.5 28t-27 5v45h231zM202 692q-20 0 -30 -23q-4 -8 -6.5 -20t-4 -43.5t-2 -89t-0.5 -155.5h61q55 0 78 39q10 16 14.5 40t4.5 71q0 33 -1.5 57.5t-4.5 42t-7.5 29.5t-10.5 20
q-12 17 -31 24.5t-42 7.5h-18z" />
    <glyph glyph-name="Q" unicode="Q" horiz-adv-x="535" 
d="M265 748q66 0 110 -22.5t72 -61.5q15 -21 26 -48t17.5 -62.5t9.5 -81.5t3 -107q0 -79 -4.5 -133t-13.5 -91t-22 -59.5t-30 -38.5q-28 -27 -68 -39q13 -81 35 -111.5t57 -30.5h41v-46h-74q-27 0 -47.5 8.5t-36.5 24.5q-20 19 -32 50t-26 91h-17q-112 0 -171 59
q-18 18 -31 42t-22 61t-13 89.5t-4 127.5q0 60 3 105.5t9.5 81t17 62.5t26.5 48q29 38 74 60t111 22zM265 703q-34 0 -59 -13t-42 -36q-9 -12 -15.5 -29t-11 -48.5t-6.5 -81.5t-2 -128v-76.5t2 -59.5h71q26 0 47.5 -6t41.5 -23q12 -10 20.5 -20t15.5 -25t13.5 -37t14.5 -56
q21 18 30 51q3 13 5.5 33t4.5 49t3 69t1 94q0 82 -2.5 134.5t-8 85.5t-13 50.5t-17.5 29.5q-17 20 -40 31.5t-53 11.5zM161 83q18 -23 44 -36.5t60 -13.5h5q-7 34 -11.5 56t-8.5 36.5t-8 24t-10 17.5q-11 16 -22 20.5t-34 4.5h-44q4 -52 11.5 -74t17.5 -35z" />
    <glyph glyph-name="R" unicode="R" horiz-adv-x="601" 
d="M250 737q41 0 72 -12t53 -38q12 -14 20.5 -27.5t14 -32t8.5 -43.5t3 -60q0 -63 -14 -99t-41 -60q-19 -17 -41.5 -25t-56.5 -10q15 -3 26 -9.5t25 -17.5q17 -13 37.5 -43t37.5 -71q13 -33 24.5 -69t23.5 -72.5t25 -72.5t30 -68q14 -25 28 -35t37 -10h36v-46h-66
q-29 0 -51 5.5t-39.5 19.5t-32 38t-29.5 62q-24 59 -42.5 121t-42.5 116q-23 49 -42 80t-43 45q-26 14 -51 17q0 -126 0.5 -204.5t1.5 -124.5t2.5 -67t3.5 -33q4 -20 11 -24.5t23 -4.5h10v-46h-192v46h9q19 0 26 5.5t9 23.5q2 11 3 22.5t1.5 30t1 47.5t1 76.5t0.5 117v168.5
q0 73 -0.5 123.5t-1 85t-1.5 55.5t-2.5 33t-4 18.5t-5.5 12.5q-5 11 -24 11h-12v45h231zM200 692q-18 0 -27 -23q-5 -13 -7.5 -27.5t-4 -45t-2 -83t-0.5 -140.5h61q26 0 46 10.5t32 28.5q11 16 15.5 40.5t4.5 74.5q0 31 -1 51.5t-3.5 34.5t-6.5 23.5t-10 18.5
q-12 18 -30 27.5t-47 9.5h-20z" />
    <glyph glyph-name="S" unicode="S" horiz-adv-x="372" 
d="M354 4q0 -99 -51 -149.5t-137 -50.5q-56 0 -95.5 28t-55.5 88l32 13q10 -37 38 -60.5t65 -23.5q55 0 81 37.5t26 92.5q0 39 -8.5 72.5t-24 66t-37.5 67t-48 77.5q-28 47 -46 83.5t-31 72.5q-11 32 -19 68t-8 71q0 39 10 73.5t29.5 61t49.5 41.5t70 15q38 0 59 -10t32 -26
v46h47v-138h-47q0 36 -21 60.5t-62 24.5q-18 0 -35 -9t-26 -28q-11 -23 -11 -79q0 -32 4.5 -60t16.5 -59.5t32 -70.5t51 -94q18 -32 31 -54.5t23 -40t18 -33t16 -33.5q16 -36 24 -66t8 -74z" />
    <glyph glyph-name="T" unicode="T" horiz-adv-x="430" 
d="M419 619h-44q0 34 -8 49t-37 15h-41q-14 0 -19 -3.5t-8 -14.5q-2 -6 -3 -41.5t-2 -85t-1 -105.5v-104v-81t0.5 -95t1 -96t1 -85t1.5 -63t2 -29q3 -11 8 -14.5t19 -3.5h27v-46h-212v46h27q14 0 19 3.5t8 14.5q1 4 2 29t1.5 63t1 85t1 96t0.5 94.5v81.5v104t-1 105.5t-2 85
t-3 41.5q-3 11 -8 14.5t-19 3.5h-52q-14 0 -21 -17.5t-7 -46.5h-42v118h410v-118z" />
    <glyph glyph-name="U" unicode="U" horiz-adv-x="527" 
d="M513 692h-13q-14 0 -23 -13q-4 -7 -6.5 -15t-4 -21.5t-2 -35t-0.5 -55.5q0 -30 0.5 -83t1.5 -117t1.5 -131.5t0.5 -125.5q0 -81 -10.5 -140t-36.5 -94q-21 -29 -55 -43t-91 -14q-55 0 -99 16.5t-72 54.5q-12 16 -20.5 34t-14 40.5t-8 52t-2.5 70.5q0 96 2 196.5t2 220.5
v80t-0.5 50t-1.5 30t-3 20q-3 13 -8.5 18t-22.5 5h-12v45h200v-45h-13q-21 0 -29 -21q-4 -10 -6.5 -22t-3.5 -34.5t-1.5 -60t-0.5 -100.5q0 -32 -1 -118t-1 -207q0 -58 1.5 -94t4 -59t7 -37t10.5 -27q15 -34 40 -48t63 -14q32 0 54 8t35 28q13 19 22 41t14.5 54t7.5 79
t2 118q0 100 -0.5 168t-1.5 116.5t-2 84t-2 70.5q-1 29 -2.5 41t-7.5 21q-11 13 -29 13h-11v45h149v-45z" />
    <glyph glyph-name="V" unicode="V" horiz-adv-x="501" 
d="M379 511q8 49 12.5 78t7 45.5t3 24.5t0.5 15q0 11 -8 14.5t-26 3.5h-12v45h140v-45h-12q-14 0 -21 -7.5t-12 -22.5q-4 -16 -14.5 -69.5t-24.5 -129t-30 -165.5t-31 -178.5t-28 -168.5t-21 -135h-98q-9 79 -23 173.5t-30.5 192.5t-34.5 193.5t-35 176.5q-9 44 -15 69.5
t-9 38t-5 17t-4 6.5q-6 9 -23 9h-10v45h211v-45h-13q-35 0 -35 -19q0 -6 1.5 -22t3.5 -38t5.5 -48.5t8.5 -53.5q20 -137 40 -270.5t42 -267.5q2 10 9.5 49.5t18 95t22 119t22 120t18.5 99t10 55.5z" />
    <glyph glyph-name="W" unicode="W" horiz-adv-x="755" 
d="M626 511q7 49 11.5 78t7 45.5t3 24.5t0.5 15q0 11 -9 14.5t-26 3.5h-13v45h140v-45h-12q-14 0 -20.5 -7.5t-10.5 -22.5q-4 -16 -13.5 -69t-21.5 -128t-26 -164t-27.5 -177.5t-25 -169.5t-19.5 -138h-92q-8 53 -18 116.5t-22 132t-24.5 138t-25.5 134.5q-14 -68 -28 -142
t-27 -143.5t-24 -131t-18 -104.5h-98q-7 64 -18.5 151t-25.5 181t-29 186.5t-28.5 167.5t-23.5 124.5t-15 56.5q-6 9 -23 9h-9v45h210v-45h-13q-35 0 -36 -19q0 -6 1 -22t3 -38t5.5 -48.5t6.5 -53.5q18 -137 35 -270.5t37 -267.5q3 11 14 63t26.5 128t33 166.5t34.5 178.5
h72q23 -137 45.5 -270t47.5 -266q2 10 8.5 49.5t16 95t20 119t20 120t16 99t8.5 55.5z" />
    <glyph glyph-name="X" unicode="X" horiz-adv-x="532" 
d="M446 661q-38 -83 -71 -169.5t-70 -182.5q37 -100 78 -206t91 -212q10 -20 15.5 -24.5t18.5 -4.5h15v-46h-212v46h19q15 0 21 4t6 14q0 36 -117 344q-59 -155 -87.5 -240.5t-28.5 -103.5q0 -10 4 -14t17 -4h19v-46h-149v46h8q14 0 20.5 5t15.5 24q1 2 9.5 22t22 51.5
t30 71.5t34 83t34 85.5t29.5 78.5q-49 123 -85.5 216.5t-68.5 161.5q-8 17 -15.5 24t-20.5 7h-11v45h211v-45h-18q-17 0 -23 -4.5t-6 -14.5q0 -15 24 -92t78 -220q54 143 76.5 219.5t22.5 92.5q0 19 -25 19h-21v45h164v-45h-15q-16 0 -22.5 -5.5t-16.5 -25.5z" />
    <glyph glyph-name="Y" unicode="Y" horiz-adv-x="517" 
d="M510 692h-8q-12 0 -19.5 -6t-18.5 -30q-17 -35 -37 -81.5t-41 -98.5t-42.5 -105t-40.5 -100v-124t-0.5 -95.5t-0.5 -72.5v-55q0 -40 9 -51t33 -11h18v-46h-215v46h27q7 0 12.5 2.5t9.5 9.5t6.5 20t4.5 35q1 21 2 50.5t2 70.5t1.5 94.5t1.5 121.5q-14 40 -30 82.5
t-36 90.5t-43.5 102.5t-52.5 119.5q-8 18 -15 24.5t-20 6.5h-10v45h208v-45h-18q-29 0 -29 -19q0 -14 30 -92t88 -233q58 154 85.5 232.5t27.5 92.5q0 8 -5 13.5t-16 5.5h-23v45h155v-45z" />
    <glyph glyph-name="Z" unicode="Z" 
d="M380 -184h-366v45q5 17 16.5 57.5t26.5 96.5t33 122.5t35.5 135.5t34.5 135.5t31 122.5t23.5 97.5t12.5 58.5h-117q-17 0 -22.5 -15t-5.5 -38h-41v103h306v-45q-7 -20 -19 -63t-27.5 -99.5t-33 -123t-35.5 -134.5t-34.5 -133t-30.5 -118.5t-23.5 -92t-12.5 -53.5h179
q14 0 21 13t7 42h42v-114z" />
    <glyph glyph-name="bracketleft" unicode="[" horiz-adv-x="330" 
d="M106 821h203v-73h-120v-907h120v-73h-203v1053z" />
    <glyph glyph-name="backslash" unicode="\" horiz-adv-x="281" 
d="M83 788q7 -51 19.5 -126t28.5 -162.5t35 -182t38 -185.5t37 -173t33 -143h-76q-30 203 -77.5 445t-113.5 527h76z" />
    <glyph glyph-name="bracketright" unicode="]" horiz-adv-x="330" 
d="M224 -232h-203v73h119v907h-119v73h203v-1053z" />
    <glyph glyph-name="asciicircum" unicode="^" 
d="M22 343l141 394h59l141 -394h-61l-110 317l-109 -317h-61z" />
    <glyph glyph-name="underscore" unicode="_" horiz-adv-x="345" 
d="M357 -90q-89 6 -170 6q-97 0 -193 -6v71q57 -4 105.5 -6t96.5 -2q41 0 80 2t81 6v-71z" />
    <glyph glyph-name="grave" unicode="`" horiz-adv-x="232" 
d="M219 556h-90l-117 157h115z" />
    <glyph glyph-name="a" unicode="a" horiz-adv-x="428" 
d="M426 69q0 -32 -19.5 -54.5t-57.5 -22.5q-27 0 -46.5 18t-31.5 42q-20 -28 -48.5 -45t-69.5 -17q-72 0 -107.5 31t-35.5 86q0 38 14 61.5t49 44.5q26 17 59.5 31.5t65.5 34.5q14 9 29 18t26 21q0 43 -3 67.5t-13 38.5q-9 14 -21 19t-35 5q-25 0 -41 -9t-19 -23
q44 -16 44 -68q0 -28 -18 -48.5t-45 -20.5q-29 0 -47 18.5t-18 55.5q0 32 12.5 57.5t34 43.5t50 27.5t59.5 9.5q36 0 65.5 -9t48.5 -31q12 -14 19.5 -32t11.5 -44.5t5.5 -64.5t1.5 -92v-69t1 -41.5t1.5 -24t2.5 -15.5q3 -14 8 -18t11 -4q17 0 17 27v33h40v-37zM257 106v41
t-0.5 46.5t-1 46.5t-0.5 41q-17 -25 -43 -41.5t-49 -33.5q-25 -19 -40 -38t-15 -56q0 -30 20.5 -48.5t51.5 -18.5q18 0 31 6t22 15t15 19.5t9 20.5z" />
    <glyph glyph-name="b" unicode="b" horiz-adv-x="396" 
d="M222 491q32 0 57 -9.5t45 -32.5q12 -14 21.5 -28.5t16 -36.5t10 -55t3.5 -84q0 -53 -3.5 -89t-11 -61t-18.5 -42t-26 -30q-20 -19 -47.5 -26t-56.5 -7q-36 0 -68 19t-50 51q-8 -23 -14.5 -39t-11.5 -24l-43 14q3 25 5.5 45.5t4 41t2.5 44t2 55t1 74.5v103q0 25 -0.5 58.5
t-1.5 70t-1.5 74t-0.5 71.5q0 35 -7.5 55.5t-40.5 20.5v46h149q0 -8 -2 -93t-6 -231q31 45 93 45zM205 446q-17 0 -29.5 -7t-21 -19t-13 -27t-4.5 -31v-240q0 -34 18.5 -61t49.5 -27q14 0 28 7t23 18q4 6 7 15.5t5 29.5t2.5 53.5t0.5 87.5q0 52 -1 84.5t-3.5 52t-6 28.5
t-8.5 15q-18 21 -47 21z" />
    <glyph glyph-name="c" unicode="c" horiz-adv-x="360" 
d="M343 114q-38 -124 -151 -124q-34 0 -63.5 14.5t-52.5 40.5q-26 30 -40.5 74.5t-14.5 116.5q0 81 15.5 130t44.5 78q22 23 50.5 35t60.5 12q39 0 67 -10t46 -28t26.5 -42.5t8.5 -52.5q0 -32 -18.5 -56t-45.5 -24q-29 0 -47.5 20.5t-18.5 49.5q0 26 12.5 46t35.5 25
q-5 14 -19.5 24t-46.5 10q-14 0 -26 -7.5t-20 -18.5q-6 -7 -10 -17t-7 -30t-4 -55t-1 -91q0 -48 1 -78t3 -48.5t5.5 -28t8.5 -15.5q24 -26 65 -26q42 0 71.5 25t37.5 58z" />
    <glyph glyph-name="d" unicode="d" horiz-adv-x="407" 
d="M257 696q-5 19 -12 24.5t-21 5.5h-16v44h150q-1 -18 -1 -34.5t-0.5 -37t-0.5 -49v-70v-99v-136.5v-111t0.5 -71t1.5 -47t3 -39q2 -19 8 -24.5t25 -5.5h12v-46h-19q-38 0 -59 9.5t-34 38.5q-19 -24 -47 -41t-57 -17q-35 0 -66 15.5t-54 46t-36 76t-13 105.5q0 72 13.5 121
t35.5 79.5t49.5 44t56.5 13.5q63 0 89 -45q0 75 -0.5 120t-1.5 71t-2.5 38t-3.5 21zM258 362q0 32 -17.5 58t-50.5 26q-26 0 -44 -23q-5 -6 -9 -15t-7 -29t-4.5 -54.5t-1.5 -91.5q0 -51 1 -82t3 -49.5t5 -28t8 -15.5q9 -11 22 -17.5t27 -6.5q33 0 50.5 27t17.5 61v240z" />
    <glyph glyph-name="e" unicode="e" horiz-adv-x="359" 
d="M343 114q-38 -124 -151 -124q-43 0 -77 22.5t-57 60.5q-18 29 -27.5 69t-9.5 95q0 75 14.5 121t40.5 76q23 26 52.5 41.5t63.5 15.5q69 0 108.5 -35t39.5 -106q0 -15 -3 -26.5t-12 -21.5t-24.5 -19t-40.5 -20l-136 -60q0 -40 1.5 -65.5t4.5 -41t7.5 -24.5t9.5 -15
q20 -23 45 -23q51 0 82.5 26.5t41.5 59.5zM267 356q0 45 -15.5 67.5t-59.5 22.5q-15 0 -27.5 -7.5t-22.5 -19.5q-5 -6 -8 -14t-5.5 -25.5t-3.5 -46.5t-1 -76l117 48q14 5 20 16.5t6 34.5z" />
    <glyph glyph-name="f" unicode="f" horiz-adv-x="318" 
d="M207 781q21 0 43 -7.5t39.5 -25t28.5 -45t11 -67.5q0 -28 -16.5 -48t-44.5 -20t-45.5 21t-17.5 50q0 53 47 70q-2 14 -13 21.5t-26 7.5q-16 0 -27.5 -8t-18.5 -27.5t-10 -52.5t-3 -84v-86h77v-45h-78v-86q0 -82 0.5 -131.5t2 -77.5t3 -41t3.5 -23q4 -19 11.5 -24.5
t32.5 -5.5h14v-46h-206v46h15q11 0 16 5t10 19q4 13 7 27t4.5 43t2 78.5t0.5 133.5v83h-60v45h60v88q0 64 10.5 105.5t28.5 65.5t43.5 33t55.5 9z" />
    <glyph glyph-name="g" unicode="g" horiz-adv-x="411" 
d="M428 523q0 -26 -12.5 -41.5t-40.5 -15.5q-22 0 -33.5 -7.5t-22.5 -33.5q22 -21 33.5 -53.5t11.5 -61.5q0 -39 -7 -72t-22.5 -58.5t-40 -42t-60.5 -21.5q12 -14 21.5 -29t16.5 -33t13.5 -40t12.5 -49q-47 40 -119 40q-80 0 -80 -88q0 -53 34.5 -79t86.5 -26q57 0 91.5 27
t44.5 78l27 -9q-11 -62 -56 -101t-111 -39q-49 0 -89.5 11.5t-69 33t-44.5 51.5t-16 66q0 64 33.5 101t87.5 37q17 0 36.5 -3.5t37 -9.5t31.5 -14t20 -17q-2 16 -12.5 33.5t-27.5 31.5q-12 11 -23 14.5t-26 7.5q-46 12 -73 39q-29 29 -41.5 69.5t-12.5 94.5q0 81 44.5 129
t124.5 48q28 0 53.5 -8.5t45.5 -31.5q9 58 25 92.5t54 34.5q29 0 41.5 -14.5t12.5 -40.5zM263 303q0 32 -1.5 53.5t-4 35t-6 21.5t-8.5 14q-18 24 -47 24t-47 -24q-5 -6 -9 -14t-6.5 -21.5t-4 -35t-1.5 -53.5q0 -33 1.5 -56t4.5 -38t7 -23.5t9 -14.5q17 -22 46 -22
q28 0 47 25q5 6 8.5 13.5t6 21.5t4 36.5t1.5 57.5z" />
    <glyph glyph-name="h" unicode="h" horiz-adv-x="458" 
d="M451 0h-193v46h14q12 0 19 2.5t10.5 14t4 34t0.5 61.5v198q0 15 -4.5 29.5t-14.5 26.5q-9 11 -22.5 18.5t-29.5 7.5q-34 0 -53.5 -25.5t-19.5 -58.5v-205q0 -29 1.5 -49t6.5 -32t14.5 -17t26.5 -5v-46h-192v46h15q28 0 29 31q5 92 6 179t1 178q0 56 -1 117.5t-6 142.5
q-2 22 -12.5 26t-31.5 4v46h148q0 -51 -1 -127t-3 -191q14 20 34.5 29.5t52.5 9.5t58.5 -10t46.5 -27q23 -20 36 -48t13 -62v-135q0 -60 2 -93t7.5 -48.5t14.5 -18.5t23 -3v-46z" />
    <glyph glyph-name="i" unicode="i" horiz-adv-x="230" 
d="M211 0h-192v46h15q9 0 14.5 4t10.5 17q4 9 6 19.5t3.5 35t2 71.5t0.5 130q0 42 -3 65t-16 34q-5 5 -12 9t-15 4h-6v45h149q-1 -8 -2 -22t-2 -42t-1.5 -73t-0.5 -113q0 -53 0.5 -83t2 -47.5t5 -25.5t9.5 -16q10 -12 24 -12h8v-46zM111 598q-29 0 -46.5 19.5t-17.5 51.5
t17.5 52.5t46.5 20.5t47 -20.5t18 -52.5t-18 -51.5t-47 -19.5z" />
    <glyph glyph-name="j" unicode="j" horiz-adv-x="213" 
d="M184 480q-3 -34 -4.5 -65.5t-3 -71.5t-2 -94.5t-0.5 -133.5v-127q0 -103 -43 -161.5t-119 -58.5q-65 0 -105.5 34.5t-40.5 97.5q0 34 18 52.5t45 18.5q29 0 47 -18.5t18 -47.5q0 -27 -11 -41t-34 -21q3 -12 15.5 -20.5t36.5 -8.5q20 0 34.5 8t24.5 27q7 13 12 27t8 33.5
t5 48t3 71t1 102.5v143q0 50 -2 81.5t-7 49t-13.5 24t-21.5 6.5h-10v45h149zM127 598q-29 0 -47 19.5t-18 51.5t18 52.5t47 20.5t46.5 -20.5t17.5 -52.5t-17.5 -51.5t-46.5 -19.5z" />
    <glyph glyph-name="k" unicode="k" horiz-adv-x="416" 
d="M414 0h-46q-24 0 -43 5t-36.5 19t-34.5 40.5t-36 68.5q-16 37 -29.5 56.5t-27.5 30.5q0 -37 0.5 -59.5t1 -37t2 -25t3.5 -22.5q4 -20 11.5 -25t32.5 -5v-46h-193v46h23q8 0 12.5 5t8.5 23q2 9 3.5 17.5t2.5 25.5t2 45t1.5 76t0.5 118.5v172.5q0 49 -0.5 79.5t-2 49.5
t-5 30t-9.5 20q-11 18 -30 18h-7v44h149q-2 -25 -3.5 -66t-2.5 -93.5t-2 -114t-1 -127.5v-61.5t1 -62.5q15 16 32 35t33 39t29.5 38.5t22.5 32.5q13 19 13 28q0 17 -40 17v45h149v-45h-11q-11 0 -20.5 -6.5t-24.5 -20.5q-5 -6 -21.5 -26t-36 -45.5l-39 -51t-30.5 -41.5
q26 -6 47 -35q11 -14 21 -31t19.5 -33.5t19 -32t19.5 -26.5q21 -23 34.5 -31.5t30.5 -8.5h7v-46z" />
    <glyph glyph-name="l" unicode="l" horiz-adv-x="231" 
d="M212 0h-193v46h16q7 0 12 3.5t9 16.5t7 30.5t4.5 55.5t2.5 104t1 175v122.5t-1 73.5t-2 41t-4 26q-4 20 -9 26t-24 6h-12v44h148q0 -26 -1 -52t-2 -63t-1.5 -91t-0.5 -138q0 -116 0.5 -183t1 -102.5t1.5 -47.5t2 -17q3 -17 8.5 -23.5t21.5 -6.5h15v-46z" />
    <glyph glyph-name="m" unicode="m" horiz-adv-x="664" 
d="M656 0h-185v46h7q19 0 24 8q3 3 5 9.5t3.5 27t2.5 59t1 106.5q0 48 -1 75.5t-3.5 43.5t-7 24t-11.5 17q-17 21 -50 21q-18 0 -30.5 -7t-19.5 -17q-10 -14 -12.5 -36t-2.5 -67q0 -85 1 -133.5t2 -74t2.5 -34t2.5 -11.5q4 -11 26 -11h11v-46h-173v46h8q19 0 24 8q2 3 4 9.5
t3.5 27t2.5 59.5t1 107q0 49 -0.5 77.5t-2 44.5t-5 23.5t-8.5 14.5q-8 11 -17 15.5t-26 4.5q-18 0 -30 -7t-20 -17q-6 -8 -10.5 -19t-7 -29t-3.5 -45.5t-1 -68.5v-100t0.5 -54.5t1 -24.5t2.5 -10q6 -16 27 -16h10v-46h-186v46h15q20 0 27 20q2 6 3.5 14t2 29t1 62t0.5 115
v65t-1 39t-2.5 20.5t-4.5 9.5q-6 6 -12.5 10.5t-18.5 4.5h-10v45h27q20 0 33 -2.5t22 -8.5t15.5 -15t13.5 -21q10 14 20 24.5t23 18t30.5 11.5t41.5 4q41 0 64.5 -17t37.5 -42q19 28 45.5 43.5t73.5 15.5q42 0 70.5 -14t46.5 -36t25.5 -48.5t7.5 -50.5q0 -97 0.5 -152
t1.5 -83.5t2.5 -37.5t2.5 -12q4 -11 26 -11h11v-46z" />
    <glyph glyph-name="n" unicode="n" horiz-adv-x="453" 
d="M447 0h-192v46h14q19 0 24 8q3 3 5 9.5t3.5 27t2.5 59t1 106.5q0 48 -1 75.5t-3.5 43.5t-7 24t-11.5 17q-17 21 -50 21q-18 0 -30 -7t-20 -17q-6 -8 -10.5 -19t-7 -29t-3.5 -45.5t-1 -68.5v-100t0.5 -54.5t1 -24.5t2.5 -10q3 -8 10 -12t24 -4h10v-46h-193v46h15
q20 0 27 20q2 6 3.5 14t2 29t1 62t0.5 115v65t-1 39t-2.5 20.5t-4.5 9.5q-6 6 -12.5 10.5t-18.5 4.5h-10v45h27q20 0 33 -2.5t22 -8.5t15.5 -15t13.5 -21q20 28 48.5 43t78.5 15q42 0 70.5 -14t46 -36t25 -48.5t7.5 -50.5q0 -97 1 -152t2 -83.5t2.5 -37.5t2.5 -12
q4 -11 26 -11h11v-46z" />
    <glyph glyph-name="o" unicode="o" 
d="M192 491q30 0 56.5 -10.5t48.5 -30.5q15 -14 27.5 -30t21.5 -40t13.5 -59t4.5 -87q0 -41 -4 -71t-11.5 -52.5t-18.5 -39.5t-24 -31q-23 -25 -52 -37.5t-62 -12.5q-35 0 -65 14t-53 40q-12 14 -22 29.5t-17 37.5t-10.5 52t-3.5 73q0 46 4.5 79t12.5 57.5t19.5 42
t26.5 31.5q22 21 49.5 33t58.5 12zM192 446q-29 0 -48 -22q-5 -5 -8.5 -13.5t-6 -28t-4 -54.5t-1.5 -92q0 -53 1.5 -85.5t4 -51.5t6 -27.5t8.5 -14.5q9 -11 21.5 -17t26.5 -6q30 0 47 22q5 6 8.5 14.5t6 27.5t4 51.5t1.5 86.5q0 57 -1.5 91.5t-3.5 54t-6 28.5t-8 14
q-19 22 -48 22z" />
    <glyph glyph-name="p" unicode="p" horiz-adv-x="418" 
d="M150 -104q0 -32 4.5 -48t10.5 -24q7 -8 15.5 -9.5t21.5 -1.5v-45h-193v45q20 0 30 4t15 16q4 10 4.5 24t0.5 39v240v111t-0.5 71.5t-1.5 47.5t-3 39q-2 19 -8 24.5t-25 5.5h-12v45h19q38 0 59 -9.5t34 -37.5q19 24 47 41t57 17q35 0 66 -15.5t54 -46t36 -76t13 -105.5
q0 -72 -13.5 -121.5t-35.5 -79.5t-50 -43.5t-56 -13.5q-64 0 -89 44v-138zM157 119q0 -16 4.5 -31.5t13 -27.5t21 -19t29.5 -7q13 0 24.5 6.5t19.5 16.5q5 6 9 15.5t7 29.5t4.5 54.5t1.5 91.5q0 51 -1 82t-3 49.5t-5.5 27.5t-7.5 15q-9 12 -22 18t-27 6q-33 0 -50.5 -26.5
t-17.5 -60.5v-240z" />
    <glyph glyph-name="q" unicode="q" horiz-adv-x="418" 
d="M357 -88q0 -38 1.5 -52t6.5 -23q6 -13 18 -13q6 0 11 6q4 8 4 22v29h41v-36q0 -35 -21 -56t-56 -21q-23 0 -41 9.5t-28 22.5q-8 11 -13 20.5t-8 20.5t-4.5 26t-1.5 36v131q-25 -44 -89 -44q-29 0 -56.5 13.5t-49.5 43.5t-35.5 79.5t-13.5 121.5q0 60 13 105.5t36 76
t54 46t66 15.5q29 0 57 -17t47 -41q13 28 34 37.5t59 9.5h19v-45h-12q-19 0 -25 -5.5t-8 -24.5q-2 -20 -3 -39t-1.5 -47.5t-0.5 -71.5v-111v-224zM259 359q0 34 -17.5 60.5t-50.5 26.5q-14 0 -27 -6t-22 -18q-5 -6 -8 -15t-5 -27.5t-3 -49.5t-1 -82q0 -57 1.5 -91.5
t4.5 -54.5t7 -29.5t9 -15.5q8 -10 19.5 -16.5t24.5 -6.5q16 0 29 7t21.5 19t13 27.5t4.5 31.5v240z" />
    <glyph glyph-name="r" unicode="r" horiz-adv-x="378" 
d="M129 430q17 24 46 42.5t69 18.5q60 0 90 -32t30 -104q0 -34 -19 -54.5t-47 -20.5q-29 0 -46 19t-17 50q0 26 13.5 46.5t38.5 20.5q0 17 -12.5 23t-26.5 6q-42 0 -65 -33t-23 -110v-51v-100t0.5 -54.5t1 -24.5t2.5 -10q3 -8 10 -12t24 -4h24v-46h-207v46h15q20 0 27 20
q2 6 3.5 14t2 29t1 62t0.5 115v65t-1 39t-2.5 20.5t-4.5 9.5q-6 6 -12.5 10.5t-18.5 4.5h-10v45h27q20 0 33.5 -2.5t23 -8.5t16.5 -15.5t14 -23.5z" />
    <glyph glyph-name="s" unicode="s" horiz-adv-x="340" 
d="M165 491q26 0 50 -10t39 -37v47h40v-141h-40v9q0 15 -3 27.5t-12 26.5q-11 17 -25.5 26t-37.5 9q-28 0 -42 -15t-14 -42q0 -20 9 -34t28 -27q14 -9 32 -18l42 -21q38 -18 58 -45q17 -21 23.5 -42.5t6.5 -49.5q0 -41 -13 -71.5t-35.5 -51t-52.5 -31t-64 -10.5
q-27 0 -52 8.5t-44.5 26t-32.5 42.5t-15 58l30 8q6 -46 38.5 -72.5t72.5 -26.5q34 0 56 20.5t22 59.5q0 23 -5.5 36t-20.5 28q-10 10 -27.5 21t-37 22t-38 22.5t-30.5 23.5q-21 21 -30.5 45t-9.5 50q0 59 38 94t97 35z" />
    <glyph glyph-name="t" unicode="t" horiz-adv-x="267" 
d="M307 -30q-1 -15 -8.5 -30.5t-20.5 -27.5t-31 -20t-41 -8q-33 0 -58.5 9.5t-45.5 39.5q-7 11 -12.5 26t-9 38.5t-5.5 58t-2 84.5v127.5t-0.5 81t-1.5 50.5t-2 36h-53v45h7q24 0 44 16t34.5 41t22.5 56.5t8 61.5v20h38v-195h82v-45h-82q-3 -25 -4.5 -50.5t-3 -59t-2 -78
t-0.5 -107.5q0 -44 0.5 -71t2 -44.5t3.5 -29.5t6 -25q6 -23 19.5 -32.5t31.5 -9.5q23 0 37 14.5t19 33.5z" />
    <glyph glyph-name="u" unicode="u" horiz-adv-x="421" 
d="M416 435h-12q-19 0 -26 -13q-3 -4 -4.5 -11t-2 -27t-1 -57.5t-0.5 -102.5q0 -42 -1.5 -70.5t-4 -48t-7 -32.5t-10.5 -23q-35 -60 -124 -60q-45 0 -80 12t-57 38q-9 10 -15 24t-9.5 36.5t-5.5 55.5t-2 81q0 61 -0.5 97t-1 55t-2 25.5t-3.5 9.5q-4 6 -12 8.5t-27 2.5v45
h194v-45h-15q-14 0 -23 -10q-4 -4 -6 -10t-3.5 -23.5t-2 -50t-0.5 -90.5q0 -52 1 -83.5t2.5 -50t4 -28t6.5 -17.5q10 -20 23 -27.5t36 -7.5q20 0 33.5 8t23.5 27q4 8 6.5 17.5t4 27.5t2 47.5t0.5 79.5q0 52 -0.5 83.5t-1 50.5t-2 27.5t-3.5 13.5q-5 16 -32 16h-8v45h168v-45
z" />
    <glyph glyph-name="v" unicode="v" horiz-adv-x="391" 
d="M376 435h-9q-11 0 -18 -5.5t-13 -24.5q-11 -33 -23.5 -78t-26 -97.5t-27 -111t-25.5 -118.5h-71q-11 49 -26 109t-31 118.5t-31 108.5t-26 79q-7 20 -27 20h-7v45h186v-45h-12q-10 0 -21.5 -3t-11.5 -20q0 -4 0.5 -10t2.5 -17q14 -70 31 -137.5t34 -120.5q15 53 31 123
t31 155q1 3 1 10q0 20 -35 20h-8v45h132v-45z" />
    <glyph glyph-name="w" unicode="w" horiz-adv-x="602" 
d="M588 435h-9q-11 0 -17.5 -5.5t-11.5 -24.5q-10 -33 -20.5 -78t-22 -97.5t-22 -111t-20.5 -118.5h-64q-9 35 -21 76t-24.5 83t-25.5 83t-25 77q-20 -66 -43 -148t-43 -171h-70q-10 49 -23.5 109t-27.5 118.5t-27.5 108.5t-23.5 79q-7 20 -27 20h-5v45h191v-45h-19
q-10 0 -22 -3t-12 -20q0 -4 0.5 -10t2.5 -17q11 -70 25.5 -137.5t30.5 -120.5q8 25 19 62t21.5 76.5t19.5 76.5t12 62h84q5 -25 14.5 -61.5t21 -75.5t23.5 -76.5t22 -63.5q13 48 25 113t23 142q1 5 2 16.5t1 16.5q0 8 -8 14t-25 6h-14v45h135v-45z" />
    <glyph glyph-name="x" unicode="x" horiz-adv-x="388" 
d="M18 46q11 0 20.5 2.5t17.5 10.5q7 7 15.5 19t20.5 33.5t27.5 53t38.5 77.5q-22 36 -44.5 77.5t-51.5 84.5q-11 17 -20 24t-21 7h-13v45h180v-45h-5q-12 0 -19 -5.5t-7 -13.5q0 -16 52 -120q26 53 39.5 83t13.5 37q0 8 -6 13.5t-18 5.5h-7v45h141v-45h-14q-11 0 -18.5 -3
t-15.5 -8q-8 -6 -16 -18t-18.5 -31.5t-25 -48t-35.5 -67.5q9 -23 22 -50.5t27.5 -54t28.5 -49.5t26 -37q18 -22 39 -22h9v-46h-180v46h9q11 0 19 4.5t8 13.5q0 26 -57 136q-27 -55 -42 -89t-15 -47q0 -8 4.5 -13t19.5 -5h7v-46h-146v46h10z" />
    <glyph glyph-name="y" unicode="y" horiz-adv-x="396" 
d="M385 435h-6q-26 0 -35 -30q-3 -10 -10.5 -39.5t-17 -69t-20.5 -85t-21.5 -88t-20 -79t-14.5 -56.5q-12 -53 -25.5 -94t-30.5 -69t-40 -42.5t-56 -14.5q-31 0 -52 10t-33.5 27.5t-18 40t-5.5 47.5q0 35 17.5 56t46.5 21q27 0 43 -17t16 -49q0 -28 -15.5 -44.5t-43.5 -16.5
q0 -16 13.5 -23.5t25.5 -7.5q34 0 53 29q7 10 12 20t10 25.5t11 40.5t16 65q-3 11 -12.5 43t-22 74.5t-27 90.5t-27 90t-22.5 73.5t-14 41.5q-6 17 -12 23.5t-20 6.5h-12v45h194v-45h-18q-27 0 -27 -22q0 -11 4.5 -37t13 -63.5t21.5 -84.5t30 -101q13 49 24 95t19.5 83
t13 63.5t5.5 38.5q1 14 -4 21t-23 7h-15v45h132v-45z" />
    <glyph glyph-name="z" unicode="z" horiz-adv-x="380" 
d="M358 0h-333v46q12 18 29 48.5t36.5 66.5t39.5 75t38 75.5t32 67t22 49.5h-126q-28 0 -28 -48v-10h-43v110h323v-45q-11 -18 -28.5 -49t-37.5 -68.5t-41 -77.5t-39.5 -76.5t-33 -66t-21.5 -44.5h141q28 0 28 48v11h42v-112z" />
    <glyph glyph-name="braceleft" unicode="{" horiz-adv-x="330" 
d="M189 -59q0 -56 31.5 -83.5t88.5 -38.5v-51q-45 0 -82.5 13t-64 36.5t-41 56t-14.5 71.5q0 33 4 68.5t8.5 67.5t8.5 59t4 44q0 36 -11.5 57.5t-44.5 27.5v50q33 7 44.5 28.5t11.5 57.5q0 16 -4 43t-8.5 59.5t-8.5 68t-4 68.5q0 39 14.5 71.5t41 56t64 36.5t82.5 13v-51
q-57 -11 -88.5 -38.5t-31.5 -83.5q0 -18 4 -47.5t8.5 -63t8.5 -67t4 -59.5q0 -32 -11.5 -64.5t-43.5 -52.5q32 -20 43.5 -52.5t11.5 -63.5q0 -26 -4 -59.5t-8.5 -67t-8.5 -63t-4 -47.5z" />
    <glyph glyph-name="bar" unicode="|" horiz-adv-x="270" 
d="M94 821h83v-1053h-83v1053z" />
    <glyph glyph-name="braceright" unicode="}" horiz-adv-x="330" 
d="M140 -59q0 18 -4 47.5t-8.5 63t-8.5 67t-4 59.5q0 31 12 63.5t44 52.5q-32 20 -44 52.5t-12 64.5q0 26 4 59.5t8.5 67t8.5 63t4 47.5q0 56 -31 83.5t-88 38.5v51q45 0 82 -13t64 -36.5t41.5 -56t14.5 -71.5q0 -33 -4 -68.5t-8.5 -68t-8.5 -59.5t-4 -43q0 -36 11.5 -57.5
t44.5 -28.5v-50q-33 -6 -44.5 -27.5t-11.5 -57.5q0 -17 4 -44t8.5 -59t8.5 -67.5t4 -68.5q0 -39 -14.5 -71.5t-41.5 -56t-64 -36.5t-82 -13v51q57 11 88 38.5t31 83.5z" />
    <glyph glyph-name="asciitilde" unicode="~" horiz-adv-x="426" 
d="M410 371q-8 -12 -21.5 -23t-29 -19t-31.5 -13t-28 -5q-23 0 -43.5 9.5t-40 20.5t-38 20.5t-36.5 9.5q-26 0 -53.5 -21t-50.5 -53l-22 55q11 15 25.5 28.5t31 24t34 17t32.5 6.5q23 0 42 -9.5t36.5 -21t34.5 -21t36 -9.5q26 0 52.5 18t46.5 41z" />
    <glyph glyph-name="nonbreakingspace" unicode="&#xa0;" horiz-adv-x="243" 
 />
    <glyph glyph-name="exclamdown" unicode="&#xa1;" horiz-adv-x="220" 
d="M105 -196q-32 0 -50.5 20t-18.5 50q0 5 0.5 10t1.5 10q7 46 15.5 93.5t15.5 92t12 84.5t6 70q1 22 1.5 45t0.5 52h31q0 -50 1.5 -86.5t5 -70.5t9.5 -69t14 -81q9 -51 14.5 -79.5t8.5 -43t3.5 -19t0.5 -7.5q0 -31 -20.5 -51t-51.5 -20zM102 553q29 0 47 -21t18 -55
q0 -33 -18 -54.5t-47 -21.5q-30 0 -48 21.5t-18 54.5q0 34 18 55t48 21z" />
    <glyph glyph-name="cent" unicode="&#xa2;" horiz-adv-x="381" 
d="M224 737q-4 -21 -5.5 -53.5t-1.5 -76.5q34 -3 58 -14t40 -28.5t23.5 -40.5t7.5 -49q0 -32 -18.5 -56t-45.5 -24q-29 0 -47.5 20.5t-18.5 50.5q0 26 12.5 45.5t35.5 25.5q-5 14 -19 24t-46 10q-14 0 -26.5 -8t-20.5 -18q-6 -7 -10 -17t-7 -30.5t-4 -55t-1 -90.5
q0 -48 1 -78t3 -48.5t6 -28t9 -15.5q21 -26 64 -26q42 0 71.5 24.5t37.5 57.5l27 -6q-17 -57 -50 -88.5t-83 -36.5q1 -44 2.5 -66t3.5 -41h-49q2 24 2.5 53t0.5 56q-31 4 -58 20.5t-47.5 46t-32 73.5t-11.5 105q0 65 11.5 111t31.5 76t48 45.5t60 19.5q0 44 -1.5 76t-3.5 55
h51v0z" />
    <glyph glyph-name="sterling" unicode="&#xa3;" horiz-adv-x="528" 
d="M208 327q4 -24 6 -46t2 -41q0 -79 -42 -138q28 14 48 17t46 3q34 0 58.5 -10t43 -21.5t33 -21.5t29.5 -10q23 0 35.5 6t23.5 28l31 -15q-20 -44 -44 -66t-62 -22q-29 0 -53 10t-46 22.5t-43.5 22.5t-45.5 10q-23 0 -39 -1t-29.5 -3.5t-26 -6.5t-28.5 -10q-19 -11 -39 -20
t-43 -14l-14 40q19 7 36 16.5t30 25t21 39t8 59.5q0 42 -4.5 77t-10.5 70h-69v47h62q-2 20 -3.5 41t-1.5 45q0 58 13.5 110.5t42 92t73.5 62.5t108 23q39 0 70.5 -10.5t53 -29t33.5 -43t12 -52.5q0 -29 -18 -53t-47 -24q-28 0 -46 18t-18 52q0 29 13 46t33 22q-25 29 -83 29
q-68 0 -102 -50.5t-34 -135.5q0 -23 6 -61.5t14 -81.5h238v-47h-231z" />
    <glyph glyph-name="currency" unicode="&#xa4;" horiz-adv-x="511" 
d="M21 167l77 77q-16 26 -25 55.5t-9 62.5q0 32 8.5 61t23.5 54l-74 75l40 42l71 -72q24 22 54.5 34.5t64.5 12.5t65 -13t55 -36l74 74l42 -42l-79 -78q14 -24 22.5 -53t8.5 -59q0 -32 -9 -60.5t-23 -53.5l81 -81l-42 -40l-76 76q-24 -22 -55 -34.5t-64 -12.5q-34 0 -64 12
t-53 33l-74 -74zM111 362q0 -32 11 -61t30 -50.5t45 -34t55 -12.5t54.5 12.5t44.5 34t30 50.5t11 61t-11 61t-30 50.5t-44.5 34t-54.5 12.5t-55 -12.5t-45 -34t-30 -50.5t-11 -61z" />
    <glyph glyph-name="yen" unicode="&#xa5;" horiz-adv-x="535" 
d="M470 152h-159v-60q0 -28 10.5 -37t27.5 -9h16v-46h-193v46h11q14 0 26.5 7t12.5 39v60h-148v52h149v54h-149v50h145q-14 36 -29.5 74t-35 81t-42.5 91.5t-51 107.5q-9 20 -16 25t-22 5h-6v45h208v-45h-24q-23 0 -23 -16q0 -3 1.5 -10.5t4.5 -17.5q11 -34 38.5 -103
t70.5 -175q47 114 74.5 185.5t37.5 101.5q4 13 4 19q0 16 -15 16h-30v45h155v-45h-7q-10 0 -15 -2t-10 -9q-4 -4 -7.5 -9.5t-9 -16.5t-14.5 -30t-23 -50q-33 -71 -54 -116t-34 -74t-20 -46t-12 -31h157v-50h-159v-54h159v-52z" />
    <glyph glyph-name="brokenbar" unicode="&#xa6;" horiz-adv-x="270" 
d="M94 194h83v-426h-83v426zM177 430h-83v391h83v-391z" />
    <glyph glyph-name="section" unicode="&#xa7;" horiz-adv-x="353" 
d="M170 748q26 0 49.5 -10t38.5 -37v47h40v-141h-40v9q0 17 -5 33t-15 28.5t-24.5 20t-33.5 7.5q-27 0 -41.5 -15t-14.5 -42q0 -17 6.5 -29.5t20 -23.5t34.5 -22t50 -25q49 -23 68.5 -58.5t19.5 -78.5q0 -48 -17.5 -82t-46.5 -54q33 -23 46.5 -54t13.5 -67q0 -41 -13 -71.5
t-35.5 -51t-52.5 -31t-64 -10.5q-27 0 -52 8.5t-44.5 26t-32.5 42.5t-15 58l30 8q6 -46 38.5 -72.5t72.5 -26.5q34 0 56 20.5t22 59.5q0 32 -16.5 51.5t-40.5 34.5t-52 29.5t-50 37.5q-21 21 -30.5 45t-9.5 50q0 48 26.5 81t70.5 44q-52 28 -72.5 60.5t-20.5 71.5
q0 59 38.5 94t97.5 35zM157 330q8 -7 20 -12.5t26 -12.5q30 19 30 66q0 22 -7.5 38.5t-33.5 37.5q-4 0 -8 0.5t-8 0.5q-28 0 -42 -15t-14 -42q0 -20 9 -34t28 -27z" />
    <glyph glyph-name="dieresis" unicode="&#xa8;" horiz-adv-x="390" 
d="M283 598q-29 0 -47 19.5t-18 51.5t18 52.5t47 20.5t46.5 -20.5t17.5 -52.5t-17.5 -51.5t-46.5 -19.5zM106 598q-29 0 -46.5 19.5t-17.5 51.5t17.5 52.5t46.5 20.5t47 -20.5t18 -52.5t-18 -51.5t-47 -19.5z" />
    <glyph glyph-name="ordfeminine" unicode="&#xaa;" horiz-adv-x="294" 
d="M278 493q0 -21 -14 -36.5t-38 -15.5q-17 0 -30 11t-21 25q-10 -17 -27.5 -27.5t-38.5 -10.5q-45 0 -68 20.5t-23 56.5q0 24 9 39t31 29q18 11 33 18.5t27.5 13.5t23 12.5t20.5 16.5q0 43 -8.5 54.5t-28.5 11.5q-19 0 -26 -9q13 -6 17.5 -15.5t4.5 -28.5
q0 -20 -12.5 -32.5t-29.5 -12.5q-20 0 -32.5 11.5t-12.5 35.5q0 42 29.5 65.5t69.5 23.5q23 0 41.5 -5.5t30.5 -19.5q13 -15 18 -47t3 -93q-1 -34 -1 -53.5t1 -29.5t2.5 -12.5t3.5 -2.5q7 0 7 9v26h39v-28zM164 517q-1 11 -1 24v27v33q-8 -5 -17.5 -13t-26.5 -19
q-17 -12 -23.5 -22t-6.5 -29q0 -14 10.5 -23t24.5 -9q18 0 27 11t13 20zM263 344q-28 4 -56 5.5t-57 1.5q-32 0 -65 -1.5t-65 -5.5v69q37 -5 70 -7.5t65 -2.5q27 0 54 2.5t54 7.5v-69z" />
    <glyph glyph-name="guillemotleft" unicode="&#xab;" horiz-adv-x="383" 
d="M17 181zM174 493v-83l-118 -73l118 -68v-88l-157 106v100zM365 493v-83l-118 -73l118 -68v-88l-157 106v100z" />
    <glyph glyph-name="logicalnot" unicode="&#xac;" horiz-adv-x="426" 
d="M352 0v332h-336v58h394v-390h-58z" />
    <glyph glyph-name="macron" unicode="&#xaf;" horiz-adv-x="336" 
d="M317 589q-71 6 -138 6q-81 0 -160 -6v82q47 -4 87.5 -7t78.5 -3q33 0 65.5 2.5t66.5 7.5v-82z" />
    <glyph glyph-name="degree" unicode="&#xb0;" horiz-adv-x="308" 
d="M154 480q-57 0 -91 37.5t-34 96.5q0 60 34 97t91 37t91 -37t34 -97q0 -59 -34 -96.5t-91 -37.5zM154 543q28 0 45 19.5t17 51.5t-17 51.5t-45 19.5q-29 0 -45.5 -19.5t-16.5 -51.5t16.5 -51.5t45.5 -19.5z" />
    <glyph glyph-name="plusminus" unicode="&#xb1;" horiz-adv-x="426" 
d="M16 1zM183 163v169h-167v58h167v167h58v-167h169v-58h-169v-169h-58zM410 1h-394v58h394v-58z" />
    <glyph glyph-name="twosuperior" unicode="&#xb2;" horiz-adv-x="238" 
d="M26 345zM111 758q47 0 73 -27.5t26 -81.5q0 -41 -17.5 -69.5t-55.5 -54.5q-18 -13 -28.5 -24.5t-16.5 -25t-7.5 -31.5t-1.5 -43v-16h83q10 0 10 29h32v-69h-182v49q0 36 5.5 60t16 41.5t25.5 30.5t34 28q45 36 45 101q0 31 -12 48.5t-32 17.5t-22 -6q21 -13 21 -40
q0 -18 -11.5 -31t-28.5 -13t-29 12.5t-12 29.5q0 38 23.5 61.5t61.5 23.5z" />
    <glyph glyph-name="threesuperior" unicode="&#xb3;" horiz-adv-x="240" 
d="M24 337zM213 459q0 -25 -6.5 -47.5t-19.5 -39t-32.5 -26t-45.5 -9.5q-38 0 -61.5 23.5t-23.5 62.5q0 16 12 29t28 13q18 0 29.5 -13.5t11.5 -30.5q0 -31 -21 -41q4 -6 21 -6q12 0 19 3.5t12 10.5q2 3 4.5 7t4 12t2.5 21.5t1 34.5q0 48 -6.5 65.5t-28.5 17.5h-30v31h30
q17 0 23 13.5t6 60.5q0 26 -2.5 40.5t-7.5 21t-11.5 7.5t-13.5 1q-14 0 -20 -6q21 -13 21 -40q0 -18 -12 -31t-28 -13q-18 0 -29.5 12.5t-11.5 32.5q0 35 22.5 57.5t65.5 22.5q42 0 66 -26.5t24 -75.5q0 -38 -8 -60.5t-29 -33.5q21 -14 33 -37.5t12 -63.5z" />
    <glyph glyph-name="acute" unicode="&#xb4;" horiz-adv-x="232" 
d="M105 713h114l-116 -157h-91z" />
    <glyph glyph-name="paragraph" unicode="&#xb6;" horiz-adv-x="617" 
d="M458 361q0 98 -1 155.5t-2.5 89t-4 43.5t-5.5 20q-5 13 -13 18t-20 5q-18 0 -28 -16q-5 -7 -7.5 -19t-4.5 -36t-2.5 -64.5t-0.5 -104.5v-94.5t0.5 -146.5t0.5 -185v-210h-93q1 21 1.5 75t1 124t1 149t0.5 151h-83q-45 0 -80.5 13.5t-58.5 42.5q-11 14 -18.5 28.5
t-12.5 32.5t-7 40.5t-2 51.5q0 63 10 99.5t33 63.5t54.5 38.5t73.5 11.5h408v-45q-17 0 -27.5 -5t-16 -28t-7 -71.5t-1.5 -135.5v-94.5t0.5 -146.5t0.5 -185v-210h-94q1 21 2 75.5t1.5 129t1 163t0.5 177.5zM219 692q-22 0 -41 -7.5t-31 -24.5q-6 -8 -10.5 -20t-7.5 -29.5
t-4.5 -42t-1.5 -57.5q0 -47 4.5 -71t13.5 -40q24 -39 78 -39h62q0 98 -0.5 155.5t-2 89t-4 43.5t-6.5 20q-10 23 -30 23h-19z" />
    <glyph glyph-name="periodcentered" unicode="&#xb7;" horiz-adv-x="216" 
d="M42 254zM107 254q-29 0 -47 21t-18 55q0 33 18 54.5t47 21.5q30 0 48 -21.5t18 -54.5q0 -34 -18 -55t-48 -21z" />
    <glyph glyph-name="cedilla" unicode="&#xb8;" horiz-adv-x="191" 
d="M159 -106q0 -51 -27 -84.5t-66 -41.5l-9 21q27 11 38 22.5t14 25.5q-8 -4 -19 -4q-25 0 -41.5 17t-16.5 50q0 25 17.5 43.5t46.5 18.5q28 0 45.5 -18t17.5 -50z" />
    <glyph glyph-name="onesuperior" unicode="&#xb9;" horiz-adv-x="158" 
d="M21 344zM136 344h-115v36h14q8 0 10 11q0 4 0.5 11t1 24t1 46t0.5 76v72.5t-2 49.5h-25v36q18 2 33 13.5t17 31.5h37q-1 -24 -1 -77.5v-125.5q0 -44 0.5 -72t1 -45t1.5 -26.5t2 -15.5q2 -3 5 -6t7 -3h12v-36z" />
    <glyph glyph-name="ordmasculine" unicode="&#xba;" horiz-adv-x="267" 
d="M241 344q-25 4 -49.5 5.5t-50.5 1.5q-29 0 -58 -1.5t-58 -5.5v69q33 -5 62.5 -7.5t57.5 -2.5q50 0 96 10v-69zM133 749q31 0 52 -14.5t33 -37t17 -50.5t5 -55q0 -43 -9.5 -72.5t-24.5 -47.5t-34.5 -25.5t-38.5 -7.5q-20 0 -39.5 6.5t-35 23.5t-25 47t-9.5 77q0 46 9.5 76
t25 48t35 25t39.5 7zM133 710q-14 0 -21 -7q-3 -4 -6 -9t-5 -16.5t-3 -31.5t-1 -53q0 -30 1 -49t2.5 -30t4 -15.5t4.5 -7.5q7 -11 24 -11q11 0 21 11q3 2 5 6.5t3.5 15.5t2 30t0.5 50q0 32 -0.5 51.5t-2 30.5t-3.5 15.5t-5 6.5q-10 13 -21 13z" />
    <glyph glyph-name="guillemotright" unicode="&#xbb;" horiz-adv-x="383" 
d="M17 181zM174 387v-100l-157 -106v88l117 68l-117 73v83zM365 387v-100l-157 -106v88l117 68l-117 73v83z" />
    <glyph glyph-name="onequarter" unicode="&#xbc;" horiz-adv-x="607" 
d="M25 0zM189 344h-115v36h14q8 0 10 11q0 4 0.5 11t1 24t1 46t0.5 76v72.5t-2 49.5h-25v36q18 2 33 13.5t17 31.5h37q-1 -24 -1 -77.5v-125.5q0 -44 0.5 -72t1 -45t1.5 -26.5t2 -15.5q2 -3 5 -6t7 -3h12v-36zM582 737q-30 -39 -71.5 -99.5t-87.5 -131t-93 -146t-88.5 -144
t-74.5 -125.5t-50 -91h-92q28 39 68.5 99.5t87 131t94.5 145.5t90 143.5t75 125.5t50 92h92zM580 165h-33l-1 -93q-1 -28 2 -37t15 -9h11v-36h-122v36h23q9 0 12 11.5t3 34.5v93h-115q33 105 43 187h54q-4 -15 -8 -28.5t-8 -30t-8.5 -38.5t-9.5 -53h52l1 88q0 39 -1.5 64
t-3.5 43h88v-36h-12q-8 0 -10.5 -15t-3.5 -62l-1 -82h33v-37z" />
    <glyph glyph-name="onehalf" unicode="&#xbd;" horiz-adv-x="607" 
d="M25 0zM189 344h-115v36h14q8 0 10 11q0 4 0.5 11t1 24t1 46t0.5 76v72.5t-2 49.5h-25v36q18 2 33 13.5t17 31.5h37q-1 -24 -1 -77.5v-125.5q0 -44 0.5 -72t1 -45t1.5 -26.5t2 -15.5q2 -3 5 -6t7 -3h12v-36zM582 737q-30 -39 -71.5 -99.5t-87.5 -131t-93 -146t-88.5 -144
t-74.5 -125.5t-50 -91h-92q28 39 68.5 99.5t87 131t94.5 145.5t90 143.5t75 125.5t50 92h92zM476 404q47 0 73 -27.5t26 -81.5q0 -41 -17.5 -69.5t-55.5 -54.5q-18 -13 -28.5 -24.5t-16.5 -25t-7.5 -31.5t-1.5 -43v-16h83q10 0 10 29h32v-69h-182v49q0 36 5.5 60t16 41.5
t25.5 30.5t34 28q45 36 45 101q0 31 -12 48.5t-32 17.5t-22 -6q21 -13 21 -40q0 -18 -11.5 -31t-28.5 -13t-29 12.5t-12 29.5q0 38 23.5 61.5t61.5 23.5z" />
    <glyph glyph-name="threequarters" unicode="&#xbe;" horiz-adv-x="607" 
d="M25 0zM215 459q0 -25 -6.5 -47.5t-19.5 -39t-32.5 -26t-45.5 -9.5q-38 0 -61.5 23.5t-23.5 62.5q0 16 12 29t28 13q18 0 29.5 -13.5t11.5 -30.5q0 -31 -21 -41q4 -6 21 -6q12 0 19 3.5t12 10.5q2 3 4.5 7t4 12t2.5 21.5t1 34.5q0 48 -6.5 65.5t-28.5 17.5h-30v31h30
q17 0 23 13.5t6 60.5q0 26 -2.5 40.5t-7.5 21t-11.5 7.5t-13.5 1q-14 0 -20 -6q21 -13 21 -40q0 -18 -12 -31t-28 -13q-18 0 -29.5 12.5t-11.5 32.5q0 35 22.5 57.5t65.5 22.5q42 0 66 -26.5t24 -75.5q0 -38 -8 -60.5t-29 -33.5q21 -14 33 -37.5t12 -63.5zM582 737
q-30 -39 -71.5 -99.5t-87.5 -131t-93 -146t-88.5 -144t-74.5 -125.5t-50 -91h-92q28 39 68.5 99.5t87 131t94.5 145.5t90 143.5t75 125.5t50 92h92zM580 165h-33l-1 -93q-1 -28 2 -37t15 -9h11v-36h-122v36h23q9 0 12 11.5t3 34.5v93h-115q33 105 43 187h54q-4 -15 -8 -28.5
t-8 -30t-8.5 -38.5t-9.5 -53h52l1 88q0 39 -1.5 64t-3.5 43h88v-36h-12q-8 0 -10.5 -15t-3.5 -62l-1 -82h33v-37z" />
    <glyph glyph-name="questiondown" unicode="&#xbf;" horiz-adv-x="350" 
d="M16 -21q0 44 15.5 77t39 59t50.5 46.5t50.5 39.5t39 38t15.5 43q0 28 -16.5 42.5t-37.5 16.5v23q19 0 35.5 -6.5t28.5 -18.5t19 -28.5t7 -35.5q0 -24 -6.5 -42.5t-18.5 -32.5q-20 -26 -46 -47t-49 -51q-15 -22 -25 -51t-10 -70q0 -73 23.5 -103t65.5 -30q16 0 34.5 6.5
t20.5 23.5q-46 18 -46 69q0 28 18.5 49.5t46.5 21.5t46.5 -21t18.5 -53q0 -31 -11 -56.5t-30.5 -44t-46.5 -29t-60 -10.5q-81 0 -126 40t-45 135zM200 562q29 0 47 -21.5t18 -54.5q0 -34 -18 -55t-47 -21q-30 0 -48 21t-18 55q0 33 18 54.5t48 21.5z" />
    <glyph glyph-name="Agrave" unicode="&#xc0;" horiz-adv-x="508" 
d="M15 0zM496 -184h-211v46h12q36 0 36 18q0 14 -3.5 45.5t-10.5 72.5h-194l-16 -100q-1 -6 -1 -10v-9q0 -11 8.5 -14t25.5 -3h13v-46h-140v46h12q25 0 32 29q5 16 15.5 69.5t24.5 129t30 165.5t31 178.5t28 168.5t21 135h98q9 -79 23 -173.5t30.5 -192.5t34.5 -193.5
t35 -176.5q9 -44 14.5 -69t9 -38t5.5 -17.5t4 -6.5q4 -5 8.5 -6.5t14.5 -1.5h10v-46zM313 43l-81 537q-2 -10 -9.5 -49.5t-18 -95t-22.5 -119t-22.5 -120t-18 -98.5t-9.5 -55h181zM304 782h-90l-117 157h115z" />
    <glyph glyph-name="Aacute" unicode="&#xc1;" horiz-adv-x="508" 
d="M15 0zM496 -184h-211v46h12q36 0 36 18q0 14 -3.5 45.5t-10.5 72.5h-194l-16 -100q-1 -6 -1 -10v-9q0 -11 8.5 -14t25.5 -3h13v-46h-140v46h12q25 0 32 29q5 16 15.5 69.5t24.5 129t30 165.5t31 178.5t28 168.5t21 135h98q9 -79 23 -173.5t30.5 -192.5t34.5 -193.5
t35 -176.5q9 -44 14.5 -69t9 -38t5.5 -17.5t4 -6.5q4 -5 8.5 -6.5t14.5 -1.5h10v-46zM313 43l-81 537q-2 -10 -9.5 -49.5t-18 -95t-22.5 -119t-22.5 -120t-18 -98.5t-9.5 -55h181zM284 939h114l-116 -157h-91z" />
    <glyph glyph-name="Acircumflex" unicode="&#xc2;" horiz-adv-x="508" 
d="M15 0zM496 -184h-211v46h12q36 0 36 18q0 14 -3.5 45.5t-10.5 72.5h-194l-16 -100q-1 -6 -1 -10v-9q0 -11 8.5 -14t25.5 -3h13v-46h-140v46h12q25 0 32 29q5 16 15.5 69.5t24.5 129t30 165.5t31 178.5t28 168.5t21 135h98q9 -79 23 -173.5t30.5 -192.5t34.5 -193.5
t35 -176.5q9 -44 14.5 -69t9 -38t5.5 -17.5t4 -6.5q4 -5 8.5 -6.5t14.5 -1.5h10v-46zM313 43l-81 537q-2 -10 -9.5 -49.5t-18 -95t-22.5 -119t-22.5 -120t-18 -98.5t-9.5 -55h181zM409 782h-83l-73 97l-72 -97h-84l106 157h100z" />
    <glyph glyph-name="Atilde" unicode="&#xc3;" horiz-adv-x="508" 
d="M15 0zM496 -184h-211v46h12q36 0 36 18q0 14 -3.5 45.5t-10.5 72.5h-194l-16 -100q-1 -6 -1 -10v-9q0 -11 8.5 -14t25.5 -3h13v-46h-140v46h12q25 0 32 29q5 16 15.5 69.5t24.5 129t30 165.5t31 178.5t28 168.5t21 135h98q9 -79 23 -173.5t30.5 -192.5t34.5 -193.5
t35 -176.5q9 -44 14.5 -69t9 -38t5.5 -17.5t4 -6.5q4 -5 8.5 -6.5t14.5 -1.5h10v-46zM313 43l-81 537q-2 -10 -9.5 -49.5t-18 -95t-22.5 -119t-22.5 -120t-18 -98.5t-9.5 -55h181zM408 856q-6 -10 -17 -18.5t-23 -15t-24.5 -10.5t-22.5 -4q-18 0 -34 7.5t-31 16.5t-29 16.5
t-29 7.5q-21 0 -43 -17t-39 -41l-18 62q17 24 45 42.5t52 18.5q18 0 33 -7.5t29 -16.5t27.5 -16.5t28.5 -7.5q20 0 41 14.5t36 31.5z" />
    <glyph glyph-name="Adieresis" unicode="&#xc4;" horiz-adv-x="508" 
d="M15 0zM496 -184h-211v46h12q36 0 36 18q0 14 -3.5 45.5t-10.5 72.5h-194l-16 -100q-1 -6 -1 -10v-9q0 -11 8.5 -14t25.5 -3h13v-46h-140v46h12q25 0 32 29q5 16 15.5 69.5t24.5 129t30 165.5t31 178.5t28 168.5t21 135h98q9 -79 23 -173.5t30.5 -192.5t34.5 -193.5
t35 -176.5q9 -44 14.5 -69t9 -38t5.5 -17.5t4 -6.5q4 -5 8.5 -6.5t14.5 -1.5h10v-46zM313 43l-81 537q-2 -10 -9.5 -49.5t-18 -95t-22.5 -119t-22.5 -120t-18 -98.5t-9.5 -55h181zM342 824q-29 0 -47 19.5t-18 51.5t18 52.5t47 20.5t46.5 -20.5t17.5 -52.5t-17.5 -51.5
t-46.5 -19.5zM165 824q-29 0 -46.5 19.5t-17.5 51.5t17.5 52.5t46.5 20.5t47 -20.5t18 -52.5t-18 -51.5t-47 -19.5z" />
    <glyph glyph-name="Aring" unicode="&#xc5;" horiz-adv-x="508" 
d="M15 0zM496 -184h-211v46h12q36 0 36 18q0 14 -3.5 45.5t-10.5 72.5h-194l-16 -100q-1 -6 -1 -10v-9q0 -11 8.5 -14t25.5 -3h13v-46h-140v46h12q25 0 32 29q5 16 15.5 69.5t24.5 129t30 165.5t31 178.5t28 168.5t21 135h98q9 -79 23 -173.5t30.5 -192.5t34.5 -193.5
t35 -176.5q9 -44 14.5 -69t9 -38t5.5 -17.5t4 -6.5q4 -5 8.5 -6.5t14.5 -1.5h10v-46zM313 43l-81 537q-2 -10 -9.5 -49.5t-18 -95t-22.5 -119t-22.5 -120t-18 -98.5t-9.5 -55h181zM360 850q0 -41 -32 -64.5t-75 -23.5q-46 0 -76 25t-30 63q0 18 8.5 34t23 28.5t33.5 19.5
t41 7q21 0 40.5 -7t34.5 -19t23.5 -28t8.5 -35zM289 846q0 29 -10 44t-26 15q-34 0 -34 -59q0 -56 34 -56q16 0 26 13t10 43z" />
    <glyph glyph-name="AE" unicode="&#xc6;" horiz-adv-x="688" 
d="M681 -184h-443l3 46h13q37 0 37 18q0 17 -0.5 48t-3.5 70h-162l-16 -100q-1 -6 -1 -10v-9q0 -11 8.5 -14t25.5 -3h13v-46h-140v46h12q25 0 32 29q5 16 15.5 69.5t24.5 129t30 165.5t31 178.5t28 168.5t21 135h340v-104h-43q0 59 -28 59h-107q-36 0 -36 -14
q0 -68 6.5 -147t14.5 -158h74q34 0 34 59h42v-164h-42q0 61 -34 61h-70q8 -88 17.5 -172t19.5 -156l14 -98q3 -17 9 -22.5t17 -5.5h175q14 0 21 13t7 42h41v-114zM284 43l-43 590q-4 -23 -13.5 -72t-20.5 -110t-23.5 -127.5t-23.5 -124.5t-18.5 -100.5t-9.5 -55.5h152z" />
    <glyph glyph-name="Ccedilla" unicode="&#xc7;" horiz-adv-x="447" 
d="M432 613q0 -29 -18.5 -53t-47.5 -24q-56 0 -56 67q0 29 7 44.5t32 26.5q-25 29 -83 29q-62 0 -98 -45q-10 -12 -17 -29.5t-11.5 -49t-7 -81.5t-2.5 -128q0 -75 3 -124.5t8 -81t11 -48.5t13 -27q21 -29 44.5 -41.5t62.5 -12.5q94 0 118 84l32 -14q-18 -63 -57 -89
t-101 -26q-57 0 -101.5 20.5t-74.5 58.5q-16 20 -27.5 44t-19.5 58t-12 80.5t-4 112.5q0 58 2 101t7 75.5t15 58t25 50.5q29 46 75.5 72.5t113.5 26.5q39 0 70 -10.5t53 -29t34 -43t12 -52.5zM305 -106q0 -51 -27.5 -84.5t-66.5 -41.5l-8 21q26 11 37.5 22.5t14.5 25.5
q-8 -4 -19 -4q-25 0 -41.5 17t-16.5 50q0 25 17.5 43.5t45.5 18.5q29 0 46.5 -18t17.5 -50z" />
    <glyph glyph-name="Egrave" unicode="&#xc8;" horiz-adv-x="489" 
d="M19 0zM482 -184h-463v46h13q17 0 25.5 6.5t10.5 30.5q2 46 2.5 106.5t0.5 135.5v173v123t-0.5 84t-1 56t-1.5 40.5t-2 36.5q-2 20 -8.5 29t-22.5 9h-16v45h330v-104h-42q0 59 -28 59h-71q-23 0 -30.5 -4.5t-10.5 -26.5q-2 -25 -4 -95.5t-3 -192.5h70q34 0 34 59h43v-164
h-43q0 61 -34 61h-71v-93q0 -136 1.5 -221t6.5 -119q2 -12 11.5 -16.5t29.5 -4.5h204q14 0 21 13t7 42h42v-114zM253 782h-90l-117 157h115z" />
    <glyph glyph-name="Eacute" unicode="&#xc9;" horiz-adv-x="489" 
d="M19 0zM482 -184h-463v46h13q17 0 25.5 6.5t10.5 30.5q2 46 2.5 106.5t0.5 135.5v173v123t-0.5 84t-1 56t-1.5 40.5t-2 36.5q-2 20 -8.5 29t-22.5 9h-16v45h330v-104h-42q0 59 -28 59h-71q-23 0 -30.5 -4.5t-10.5 -26.5q-2 -25 -4 -95.5t-3 -192.5h70q34 0 34 59h43v-164
h-43q0 61 -34 61h-71v-93q0 -136 1.5 -221t6.5 -119q2 -12 11.5 -16.5t29.5 -4.5h204q14 0 21 13t7 42h42v-114zM233 939h114l-116 -157h-91z" />
    <glyph glyph-name="Ecircumflex" unicode="&#xca;" horiz-adv-x="489" 
d="M19 0zM482 -184h-463v46h13q17 0 25.5 6.5t10.5 30.5q2 46 2.5 106.5t0.5 135.5v173v123t-0.5 84t-1 56t-1.5 40.5t-2 36.5q-2 20 -8.5 29t-22.5 9h-16v45h330v-104h-42q0 59 -28 59h-71q-23 0 -30.5 -4.5t-10.5 -26.5q-2 -25 -4 -95.5t-3 -192.5h70q34 0 34 59h43v-164
h-43q0 61 -34 61h-71v-93q0 -136 1.5 -221t6.5 -119q2 -12 11.5 -16.5t29.5 -4.5h204q14 0 21 13t7 42h42v-114zM358 782h-83l-73 97l-72 -97h-84l106 157h100z" />
    <glyph glyph-name="Edieresis" unicode="&#xcb;" horiz-adv-x="489" 
d="M19 0zM482 -184h-463v46h13q17 0 25.5 6.5t10.5 30.5q2 46 2.5 106.5t0.5 135.5v173v123t-0.5 84t-1 56t-1.5 40.5t-2 36.5q-2 20 -8.5 29t-22.5 9h-16v45h330v-104h-42q0 59 -28 59h-71q-23 0 -30.5 -4.5t-10.5 -26.5q-2 -25 -4 -95.5t-3 -192.5h70q34 0 34 59h43v-164
h-43q0 61 -34 61h-71v-93q0 -136 1.5 -221t6.5 -119q2 -12 11.5 -16.5t29.5 -4.5h204q14 0 21 13t7 42h42v-114zM291 824q-29 0 -47 19.5t-18 51.5t18 52.5t47 20.5t46.5 -20.5t17.5 -52.5t-17.5 -51.5t-46.5 -19.5zM114 824q-29 0 -46.5 19.5t-17.5 51.5t17.5 52.5
t46.5 20.5t47 -20.5t18 -52.5t-18 -51.5t-47 -19.5z" />
    <glyph glyph-name="Igrave" unicode="&#xcc;" horiz-adv-x="229" 
d="M0 0zM19 -138h16q14 0 19 3.5t8 14.5q1 4 2 29t2 63t1.5 85t1 96t0.5 94.5v81.5q0 48 -0.5 105t-1 108t-2 88t-3.5 43q-3 11 -8 15t-19 4h-16v45h191v-45h-17q-13 0 -18 -4t-9 -15q-2 -6 -3 -43t-2 -88t-1 -108v-105v-81t0.5 -95t1 -96t1 -85t1.5 -63t2 -29
q4 -11 9 -14.5t18 -3.5h17v-46h-191v46zM167 782h-90l-117 157h115z" />
    <glyph glyph-name="Iacute" unicode="&#xcd;" horiz-adv-x="229" 
d="M19 0zM19 -138h16q14 0 19 3.5t8 14.5q1 4 2 29t2 63t1.5 85t1 96t0.5 94.5v81.5q0 48 -0.5 105t-1 108t-2 88t-3.5 43q-3 11 -8 15t-19 4h-16v45h191v-45h-17q-13 0 -18 -4t-9 -15q-2 -6 -3 -43t-2 -88t-1 -108v-105v-81t0.5 -95t1 -96t1 -85t1.5 -63t2 -29
q4 -11 9 -14.5t18 -3.5h17v-46h-191v46zM145 939h114l-116 -157h-91z" />
    <glyph glyph-name="Icircumflex" unicode="&#xce;" horiz-adv-x="229" 
d="M0 0zM19 -138h16q14 0 19 3.5t8 14.5q1 4 2 29t2 63t1.5 85t1 96t0.5 94.5v81.5q0 48 -0.5 105t-1 108t-2 88t-3.5 43q-3 11 -8 15t-19 4h-16v45h191v-45h-17q-13 0 -18 -4t-9 -15q-2 -6 -3 -43t-2 -88t-1 -108v-105v-81t0.5 -95t1 -96t1 -85t1.5 -63t2 -29
q4 -11 9 -14.5t18 -3.5h17v-46h-191v46zM271 782h-83l-73 97l-72 -97h-84l106 157h100z" />
    <glyph glyph-name="Idieresis" unicode="&#xcf;" horiz-adv-x="229" 
d="M0 0zM19 -138h16q14 0 19 3.5t8 14.5q1 4 2 29t2 63t1.5 85t1 96t0.5 94.5v81.5q0 48 -0.5 105t-1 108t-2 88t-3.5 43q-3 11 -8 15t-19 4h-16v45h191v-45h-17q-13 0 -18 -4t-9 -15q-2 -6 -3 -43t-2 -88t-1 -108v-105v-81t0.5 -95t1 -96t1 -85t1.5 -63t2 -29
q4 -11 9 -14.5t18 -3.5h17v-46h-191v46zM204 824q-29 0 -47 19.5t-18 51.5t18 52.5t47 20.5t46.5 -20.5t17.5 -52.5t-17.5 -51.5t-46.5 -19.5zM27 824q-29 0 -46.5 19.5t-17.5 51.5t17.5 52.5t46.5 20.5t47 -20.5t18 -52.5t-18 -51.5t-47 -19.5z" />
    <glyph glyph-name="Eth" unicode="&#xd0;" horiz-adv-x="532" 
d="M321 737q39 0 73 -18.5t58 -54.5q14 -22 24.5 -51t17.5 -73t10.5 -107t3.5 -151q0 -90 -4 -153.5t-11.5 -108.5t-18.5 -75t-25 -51q-27 -41 -64.5 -59.5t-84.5 -18.5h-281v46h10q9 0 16 3.5t11.5 17t7.5 41.5t4.5 76.5t2 121.5t0.5 178v29h-53v44h53q0 81 -1.5 135
t-3 88.5t-3.5 53t-3 28.5q-2 9 -9.5 11.5t-20.5 2.5h-11v45h302zM201 692q-14 0 -23 -7t-11 -24q-2 -12 -3 -29.5t-2.5 -49t-2 -81.5t-0.5 -128h81q35 0 35 59h42v-164h-42q0 61 -35 61h-81v-175.5t0.5 -110.5t1 -67.5t2.5 -45.5q3 -39 11 -53.5t33 -14.5h62q30 0 55 12
t43 41q9 13 15.5 33.5t11.5 58t7.5 99t2.5 157.5q0 94 -2 155.5t-6 101t-10 62t-13 38.5q-17 38 -42.5 55t-60.5 17h-69z" />
    <glyph glyph-name="Ntilde" unicode="&#xd1;" horiz-adv-x="490" 
d="M19 0zM485 692h-9q-23 0 -31 -11q-3 -4 -5 -9.5t-3.5 -18t-2.5 -34.5t-1.5 -58.5t-0.5 -91.5v-132q0 -135 0.5 -224.5t1.5 -147t2.5 -91.5t3.5 -58h-104q-9 36 -24.5 95t-34.5 130t-41 148t-43.5 149t-41.5 133.5t-35 100.5q0 -10 -0.5 -35.5t-1 -75.5t-0.5 -128v-192
q0 -86 0.5 -135t2 -75t3.5 -35.5t6 -17.5q5 -10 11.5 -13t19.5 -3h10v-46h-148v46h10q8 0 13.5 2t11.5 12q3 5 6 11.5t4.5 22t2.5 42.5t2 73.5t1 115.5v168q0 117 -0.5 186.5t-2 108t-3 53t-4.5 21.5q-3 8 -7 11t-15 3h-19v45h152q49 -184 103 -361.5t110 -340.5
q2 88 3 166.5t1 151.5q0 108 -1 171t-2.5 96t-4 44.5t-5.5 16.5q-4 8 -8 9.5t-10 1.5h-21v45h149v-45zM399 856q-6 -10 -17 -18.5t-23 -15t-24.5 -10.5t-22.5 -4q-18 0 -34 7.5t-31 16.5t-29 16.5t-29 7.5q-21 0 -43 -17t-39 -41l-18 62q17 24 45 42.5t52 18.5q18 0 33 -7.5
t29 -16.5t27.5 -16.5t28.5 -7.5q20 0 41 14.5t36 31.5z" />
    <glyph glyph-name="Ograve" unicode="&#xd2;" horiz-adv-x="529" 
d="M25 0zM274 -196q-62 0 -106 16t-73 45q-18 18 -31.5 43.5t-22 69t-12.5 111t-4 170.5q0 106 4 178t13 121t23.5 79t35.5 51q27 29 66.5 44.5t93.5 15.5q58 0 100 -17t71 -47q20 -21 33.5 -50.5t22 -78t12.5 -120.5t4 -177q0 -102 -4 -169.5t-12.5 -111t-21 -68.5
t-29.5 -43q-60 -62 -163 -62zM265 -150q36 0 64.5 16.5t45.5 46.5q6 10 10.5 25t7.5 50t4.5 99t1.5 171q0 118 -2 189.5t-6 112.5t-10.5 60t-14.5 31q-17 25 -42 38.5t-59 13.5q-67 0 -103 -53q-8 -12 -14.5 -30.5t-10.5 -59.5t-6 -112.5t-2 -188.5q0 -110 2 -176t6 -103.5
t10 -53.5t14 -26q18 -23 44 -36.5t60 -13.5zM316 782h-90l-117 157h115z" />
    <glyph glyph-name="Oacute" unicode="&#xd3;" horiz-adv-x="529" 
d="M25 0zM274 -196q-62 0 -106 16t-73 45q-18 18 -31.5 43.5t-22 69t-12.5 111t-4 170.5q0 106 4 178t13 121t23.5 79t35.5 51q27 29 66.5 44.5t93.5 15.5q58 0 100 -17t71 -47q20 -21 33.5 -50.5t22 -78t12.5 -120.5t4 -177q0 -102 -4 -169.5t-12.5 -111t-21 -68.5
t-29.5 -43q-60 -62 -163 -62zM265 -150q36 0 64.5 16.5t45.5 46.5q6 10 10.5 25t7.5 50t4.5 99t1.5 171q0 118 -2 189.5t-6 112.5t-10.5 60t-14.5 31q-17 25 -42 38.5t-59 13.5q-67 0 -103 -53q-8 -12 -14.5 -30.5t-10.5 -59.5t-6 -112.5t-2 -188.5q0 -110 2 -176t6 -103.5
t10 -53.5t14 -26q18 -23 44 -36.5t60 -13.5zM295 939h114l-116 -157h-91z" />
    <glyph glyph-name="Ocircumflex" unicode="&#xd4;" horiz-adv-x="529" 
d="M25 0zM274 -196q-62 0 -106 16t-73 45q-18 18 -31.5 43.5t-22 69t-12.5 111t-4 170.5q0 106 4 178t13 121t23.5 79t35.5 51q27 29 66.5 44.5t93.5 15.5q58 0 100 -17t71 -47q20 -21 33.5 -50.5t22 -78t12.5 -120.5t4 -177q0 -102 -4 -169.5t-12.5 -111t-21 -68.5
t-29.5 -43q-60 -62 -163 -62zM265 -150q36 0 64.5 16.5t45.5 46.5q6 10 10.5 25t7.5 50t4.5 99t1.5 171q0 118 -2 189.5t-6 112.5t-10.5 60t-14.5 31q-17 25 -42 38.5t-59 13.5q-67 0 -103 -53q-8 -12 -14.5 -30.5t-10.5 -59.5t-6 -112.5t-2 -188.5q0 -110 2 -176t6 -103.5
t10 -53.5t14 -26q18 -23 44 -36.5t60 -13.5zM420 782h-83l-73 97l-72 -97h-84l106 157h100z" />
    <glyph glyph-name="Otilde" unicode="&#xd5;" horiz-adv-x="529" 
d="M25 0zM274 -196q-62 0 -106 16t-73 45q-18 18 -31.5 43.5t-22 69t-12.5 111t-4 170.5q0 106 4 178t13 121t23.5 79t35.5 51q27 29 66.5 44.5t93.5 15.5q58 0 100 -17t71 -47q20 -21 33.5 -50.5t22 -78t12.5 -120.5t4 -177q0 -102 -4 -169.5t-12.5 -111t-21 -68.5
t-29.5 -43q-60 -62 -163 -62zM265 -150q36 0 64.5 16.5t45.5 46.5q6 10 10.5 25t7.5 50t4.5 99t1.5 171q0 118 -2 189.5t-6 112.5t-10.5 60t-14.5 31q-17 25 -42 38.5t-59 13.5q-67 0 -103 -53q-8 -12 -14.5 -30.5t-10.5 -59.5t-6 -112.5t-2 -188.5q0 -110 2 -176t6 -103.5
t10 -53.5t14 -26q18 -23 44 -36.5t60 -13.5zM419 856q-6 -10 -17 -18.5t-23 -15t-24.5 -10.5t-22.5 -4q-18 0 -34 7.5t-31 16.5t-29 16.5t-29 7.5q-21 0 -43 -17t-39 -41l-18 62q17 24 45 42.5t52 18.5q18 0 33 -7.5t29 -16.5t27.5 -16.5t28.5 -7.5q20 0 41 14.5t36 31.5z
" />
    <glyph glyph-name="Odieresis" unicode="&#xd6;" horiz-adv-x="529" 
d="M25 0zM274 -196q-62 0 -106 16t-73 45q-18 18 -31.5 43.5t-22 69t-12.5 111t-4 170.5q0 106 4 178t13 121t23.5 79t35.5 51q27 29 66.5 44.5t93.5 15.5q58 0 100 -17t71 -47q20 -21 33.5 -50.5t22 -78t12.5 -120.5t4 -177q0 -102 -4 -169.5t-12.5 -111t-21 -68.5
t-29.5 -43q-60 -62 -163 -62zM265 -150q36 0 64.5 16.5t45.5 46.5q6 10 10.5 25t7.5 50t4.5 99t1.5 171q0 118 -2 189.5t-6 112.5t-10.5 60t-14.5 31q-17 25 -42 38.5t-59 13.5q-67 0 -103 -53q-8 -12 -14.5 -30.5t-10.5 -59.5t-6 -112.5t-2 -188.5q0 -110 2 -176t6 -103.5
t10 -53.5t14 -26q18 -23 44 -36.5t60 -13.5zM353 824q-29 0 -47 19.5t-18 51.5t18 52.5t47 20.5t46.5 -20.5t17.5 -52.5t-17.5 -51.5t-46.5 -19.5zM176 824q-29 0 -46.5 19.5t-17.5 51.5t17.5 52.5t46.5 20.5t47 -20.5t18 -52.5t-18 -51.5t-47 -19.5z" />
    <glyph glyph-name="multiply" unicode="&#xd7;" horiz-adv-x="426" 
d="M53 241l119 120l-119 118l42 41l118 -119l119 119l40 -41l-118 -118l119 -120l-41 -40l-119 118l-119 -118z" />
    <glyph glyph-name="Oslash" unicode="&#xd8;" horiz-adv-x="529" 
d="M274 -196q-41 0 -73.5 7t-58.5 19q-5 -15 -8.5 -30.5t-7.5 -31.5h-100l50 119q-14 19 -23.5 46t-15.5 70t-9 105t-3 151q0 106 4 178t13 121t23.5 79t35.5 51q27 29 66.5 44.5t93.5 15.5q35 0 64.5 -7t53.5 -18q7 23 12.5 44.5t10.5 40.5h100l-58 -139q16 -21 27.5 -52
t19 -78.5t10.5 -116t3 -164.5q0 -102 -4 -169.5t-12.5 -111t-21 -68.5t-29.5 -43q-60 -62 -163 -62zM265 -150q36 0 64.5 16.5t45.5 46.5q6 10 10.5 25t7.5 50t4.5 99t1.5 171q0 106 -1.5 174t-5.5 110q-72 -180 -129 -339.5t-101 -304.5q18 -22 44.5 -35t58.5 -13zM133 28
q30 78 61.5 161.5t61.5 165.5t56.5 160t47.5 144q-35 44 -95 44q-67 0 -103 -53q-8 -12 -14.5 -30.5t-10.5 -59.5t-6 -112.5t-2 -188.5q0 -81 1 -137t3 -94z" />
    <glyph glyph-name="Ugrave" unicode="&#xd9;" horiz-adv-x="527" 
d="M15 0zM513 692h-13q-14 0 -23 -13q-4 -7 -6.5 -15t-4 -21.5t-2 -35t-0.5 -55.5q0 -30 0.5 -83t1.5 -117t1.5 -131.5t0.5 -125.5q0 -81 -10.5 -140t-36.5 -94q-21 -29 -55 -43t-91 -14q-55 0 -99 16.5t-72 54.5q-12 16 -20.5 34t-14 40.5t-8 52t-2.5 70.5q0 96 2 196.5
t2 220.5v80t-0.5 50t-1.5 30t-3 20q-3 13 -8.5 18t-22.5 5h-12v45h200v-45h-13q-21 0 -29 -21q-4 -10 -6.5 -22t-3.5 -34.5t-1.5 -60t-0.5 -100.5q0 -32 -1 -118t-1 -207q0 -58 1.5 -94t4 -59t7 -37t10.5 -27q15 -34 40 -48t63 -14q32 0 54 8t35 28q13 19 22 41t14.5 54
t7.5 79t2 118q0 100 -0.5 168t-1.5 116.5t-2 84t-2 70.5q-1 29 -2.5 41t-7.5 21q-11 13 -29 13h-11v45h149v-45zM335 782h-90l-117 157h115z" />
    <glyph glyph-name="Uacute" unicode="&#xda;" horiz-adv-x="527" 
d="M15 0zM513 692h-13q-14 0 -23 -13q-4 -7 -6.5 -15t-4 -21.5t-2 -35t-0.5 -55.5q0 -30 0.5 -83t1.5 -117t1.5 -131.5t0.5 -125.5q0 -81 -10.5 -140t-36.5 -94q-21 -29 -55 -43t-91 -14q-55 0 -99 16.5t-72 54.5q-12 16 -20.5 34t-14 40.5t-8 52t-2.5 70.5q0 96 2 196.5
t2 220.5v80t-0.5 50t-1.5 30t-3 20q-3 13 -8.5 18t-22.5 5h-12v45h200v-45h-13q-21 0 -29 -21q-4 -10 -6.5 -22t-3.5 -34.5t-1.5 -60t-0.5 -100.5q0 -32 -1 -118t-1 -207q0 -58 1.5 -94t4 -59t7 -37t10.5 -27q15 -34 40 -48t63 -14q32 0 54 8t35 28q13 19 22 41t14.5 54
t7.5 79t2 118q0 100 -0.5 168t-1.5 116.5t-2 84t-2 70.5q-1 29 -2.5 41t-7.5 21q-11 13 -29 13h-11v45h149v-45zM315 939h114l-116 -157h-91z" />
    <glyph glyph-name="Ucircumflex" unicode="&#xdb;" horiz-adv-x="527" 
d="M15 0zM513 692h-13q-14 0 -23 -13q-4 -7 -6.5 -15t-4 -21.5t-2 -35t-0.5 -55.5q0 -30 0.5 -83t1.5 -117t1.5 -131.5t0.5 -125.5q0 -81 -10.5 -140t-36.5 -94q-21 -29 -55 -43t-91 -14q-55 0 -99 16.5t-72 54.5q-12 16 -20.5 34t-14 40.5t-8 52t-2.5 70.5q0 96 2 196.5
t2 220.5v80t-0.5 50t-1.5 30t-3 20q-3 13 -8.5 18t-22.5 5h-12v45h200v-45h-13q-21 0 -29 -21q-4 -10 -6.5 -22t-3.5 -34.5t-1.5 -60t-0.5 -100.5q0 -32 -1 -118t-1 -207q0 -58 1.5 -94t4 -59t7 -37t10.5 -27q15 -34 40 -48t63 -14q32 0 54 8t35 28q13 19 22 41t14.5 54
t7.5 79t2 118q0 100 -0.5 168t-1.5 116.5t-2 84t-2 70.5q-1 29 -2.5 41t-7.5 21q-11 13 -29 13h-11v45h149v-45zM440 782h-83l-73 97l-72 -97h-84l106 157h100z" />
    <glyph glyph-name="Udieresis" unicode="&#xdc;" horiz-adv-x="527" 
d="M15 0zM513 692h-13q-14 0 -23 -13q-4 -7 -6.5 -15t-4 -21.5t-2 -35t-0.5 -55.5q0 -30 0.5 -83t1.5 -117t1.5 -131.5t0.5 -125.5q0 -81 -10.5 -140t-36.5 -94q-21 -29 -55 -43t-91 -14q-55 0 -99 16.5t-72 54.5q-12 16 -20.5 34t-14 40.5t-8 52t-2.5 70.5q0 96 2 196.5
t2 220.5v80t-0.5 50t-1.5 30t-3 20q-3 13 -8.5 18t-22.5 5h-12v45h200v-45h-13q-21 0 -29 -21q-4 -10 -6.5 -22t-3.5 -34.5t-1.5 -60t-0.5 -100.5q0 -32 -1 -118t-1 -207q0 -58 1.5 -94t4 -59t7 -37t10.5 -27q15 -34 40 -48t63 -14q32 0 54 8t35 28q13 19 22 41t14.5 54
t7.5 79t2 118q0 100 -0.5 168t-1.5 116.5t-2 84t-2 70.5q-1 29 -2.5 41t-7.5 21q-11 13 -29 13h-11v45h149v-45zM372 824q-29 0 -47 19.5t-18 51.5t18 52.5t47 20.5t46.5 -20.5t17.5 -52.5t-17.5 -51.5t-46.5 -19.5zM195 824q-29 0 -46.5 19.5t-17.5 51.5t17.5 52.5
t46.5 20.5t47 -20.5t18 -52.5t-18 -51.5t-47 -19.5z" />
    <glyph glyph-name="Yacute" unicode="&#xdd;" horiz-adv-x="517" 
d="M7 0zM510 692h-8q-12 0 -19.5 -6t-18.5 -30q-17 -35 -37 -81.5t-41 -98.5t-42.5 -105t-40.5 -100v-124t-0.5 -95.5t-0.5 -72.5v-55q0 -40 9 -51t33 -11h18v-46h-215v46h27q7 0 12.5 2.5t9.5 9.5t6.5 20t4.5 35q1 21 2 50.5t2 70.5t1.5 94.5t1.5 121.5q-14 40 -30 82.5
t-36 90.5t-43.5 102.5t-52.5 119.5q-8 18 -15 24.5t-20 6.5h-10v45h208v-45h-18q-29 0 -29 -19q0 -14 30 -92t88 -233q58 154 85.5 232.5t27.5 92.5q0 8 -5 13.5t-16 5.5h-23v45h155v-45zM312 939h114l-116 -157h-91z" />
    <glyph glyph-name="Thorn" unicode="&#xde;" horiz-adv-x="449" 
d="M181 739l5 -45q-3 1 -12 1q-25 0 -29 -24t-4 -68q0 -29 2 -60.5t4 -59.5h101q85 0 128 -56t43 -158q0 -47 -11.5 -85t-34 -66t-56 -43t-77.5 -15h-83q0 -68 1 -105.5t3 -55.5t3.5 -21.5t3.5 -4.5q6 -5 14.5 -8.5t26.5 -3.5v-45h-192v45h10q15 0 23.5 7t12.5 36t5 87
t1 160q0 126 -0.5 215.5t-2.5 150t-5.5 96t-9 53.5t-14 23t-20.5 5v45h164zM198 437q-17 0 -25.5 -21t-11.5 -62t-3 -103.5t-1 -144.5h61q48 0 72.5 32.5t24.5 88.5v80q0 59 -26 94.5t-71 35.5h-20z" />
    <glyph glyph-name="germandbls" unicode="&#xdf;" horiz-adv-x="420" 
d="M406 215q0 -44 -3 -74.5t-9 -51.5t-14 -35.5t-18 -24.5q-21 -23 -43.5 -31t-51.5 -8q-49 0 -85 32l20 35q9 -8 16.5 -10.5t26.5 -2.5q14 0 25 6.5t16 16.5q4 7 7 15.5t5 25.5t3 45.5t1 75.5q0 51 -2 82t-5.5 48.5t-7.5 26t-8 14.5q-14 20 -38 20h-26v38h27q10 0 19 3.5
t16 16.5t11 38t4 68q0 33 -1 55t-3 35.5t-4.5 21t-5.5 13.5q-8 13 -18 20t-26 7q-24 0 -39.5 -7.5t-24.5 -27.5q-7 -15 -10.5 -29.5t-5.5 -39.5t-2.5 -64t-0.5 -102q0 -24 0.5 -62.5t1.5 -83.5t1.5 -93t1.5 -91.5t1.5 -79.5t0.5 -56h-149v46h16q10 0 16.5 4t10.5 19t5.5 44
t1.5 79v35v70t-0.5 88.5t-0.5 90.5v76.5v47.5q0 92 45.5 136.5t130.5 44.5q77 0 116.5 -45t39.5 -134q0 -30 -1.5 -51t-4 -36t-7 -25.5t-10.5 -18.5q-18 -25 -49 -33q22 -12 39 -36t27.5 -55t16 -65.5t5.5 -66.5z" />
    <glyph glyph-name="agrave" unicode="&#xe0;" horiz-adv-x="428" 
d="M10 0zM426 69q0 -32 -19.5 -54.5t-57.5 -22.5q-27 0 -46.5 18t-31.5 42q-20 -28 -48.5 -45t-69.5 -17q-72 0 -107.5 31t-35.5 86q0 38 14 61.5t49 44.5q26 17 59.5 31.5t65.5 34.5q14 9 29 18t26 21q0 43 -3 67.5t-13 38.5q-9 14 -21 19t-35 5q-25 0 -41 -9t-19 -23
q44 -16 44 -68q0 -28 -18 -48.5t-45 -20.5q-29 0 -47 18.5t-18 55.5q0 32 12.5 57.5t34 43.5t50 27.5t59.5 9.5q36 0 65.5 -9t48.5 -31q12 -14 19.5 -32t11.5 -44.5t5.5 -64.5t1.5 -92v-69t1 -41.5t1.5 -24t2.5 -15.5q3 -14 8 -18t11 -4q17 0 17 27v33h40v-37zM257 106v41
t-0.5 46.5t-1 46.5t-0.5 41q-17 -25 -43 -41.5t-49 -33.5q-25 -19 -40 -38t-15 -56q0 -30 20.5 -48.5t51.5 -18.5q18 0 31 6t22 15t15 19.5t9 20.5zM254 556h-90l-117 157h115z" />
    <glyph glyph-name="aacute" unicode="&#xe1;" horiz-adv-x="428" 
d="M10 0zM426 69q0 -32 -19.5 -54.5t-57.5 -22.5q-27 0 -46.5 18t-31.5 42q-20 -28 -48.5 -45t-69.5 -17q-72 0 -107.5 31t-35.5 86q0 38 14 61.5t49 44.5q26 17 59.5 31.5t65.5 34.5q14 9 29 18t26 21q0 43 -3 67.5t-13 38.5q-9 14 -21 19t-35 5q-25 0 -41 -9t-19 -23
q44 -16 44 -68q0 -28 -18 -48.5t-45 -20.5q-29 0 -47 18.5t-18 55.5q0 32 12.5 57.5t34 43.5t50 27.5t59.5 9.5q36 0 65.5 -9t48.5 -31q12 -14 19.5 -32t11.5 -44.5t5.5 -64.5t1.5 -92v-69t1 -41.5t1.5 -24t2.5 -15.5q3 -14 8 -18t11 -4q17 0 17 27v33h40v-37zM257 106v41
t-0.5 46.5t-1 46.5t-0.5 41q-17 -25 -43 -41.5t-49 -33.5q-25 -19 -40 -38t-15 -56q0 -30 20.5 -48.5t51.5 -18.5q18 0 31 6t22 15t15 19.5t9 20.5zM234 713h114l-116 -157h-91z" />
    <glyph glyph-name="acircumflex" unicode="&#xe2;" horiz-adv-x="428" 
d="M10 0zM426 69q0 -32 -19.5 -54.5t-57.5 -22.5q-27 0 -46.5 18t-31.5 42q-20 -28 -48.5 -45t-69.5 -17q-72 0 -107.5 31t-35.5 86q0 38 14 61.5t49 44.5q26 17 59.5 31.5t65.5 34.5q14 9 29 18t26 21q0 43 -3 67.5t-13 38.5q-9 14 -21 19t-35 5q-25 0 -41 -9t-19 -23
q44 -16 44 -68q0 -28 -18 -48.5t-45 -20.5q-29 0 -47 18.5t-18 55.5q0 32 12.5 57.5t34 43.5t50 27.5t59.5 9.5q36 0 65.5 -9t48.5 -31q12 -14 19.5 -32t11.5 -44.5t5.5 -64.5t1.5 -92v-69t1 -41.5t1.5 -24t2.5 -15.5q3 -14 8 -18t11 -4q17 0 17 27v33h40v-37zM257 106v41
t-0.5 46.5t-1 46.5t-0.5 41q-17 -25 -43 -41.5t-49 -33.5q-25 -19 -40 -38t-15 -56q0 -30 20.5 -48.5t51.5 -18.5q18 0 31 6t22 15t15 19.5t9 20.5zM360 556h-83l-73 97l-72 -97h-84l106 157h100z" />
    <glyph glyph-name="atilde" unicode="&#xe3;" horiz-adv-x="428" 
d="M10 0zM426 69q0 -32 -19.5 -54.5t-57.5 -22.5q-27 0 -46.5 18t-31.5 42q-20 -28 -48.5 -45t-69.5 -17q-72 0 -107.5 31t-35.5 86q0 38 14 61.5t49 44.5q26 17 59.5 31.5t65.5 34.5q14 9 29 18t26 21q0 43 -3 67.5t-13 38.5q-9 14 -21 19t-35 5q-25 0 -41 -9t-19 -23
q44 -16 44 -68q0 -28 -18 -48.5t-45 -20.5q-29 0 -47 18.5t-18 55.5q0 32 12.5 57.5t34 43.5t50 27.5t59.5 9.5q36 0 65.5 -9t48.5 -31q12 -14 19.5 -32t11.5 -44.5t5.5 -64.5t1.5 -92v-69t1 -41.5t1.5 -24t2.5 -15.5q3 -14 8 -18t11 -4q17 0 17 27v33h40v-37zM257 106v41
t-0.5 46.5t-1 46.5t-0.5 41q-17 -25 -43 -41.5t-49 -33.5q-25 -19 -40 -38t-15 -56q0 -30 20.5 -48.5t51.5 -18.5q18 0 31 6t22 15t15 19.5t9 20.5zM358 630q-6 -10 -17 -18.5t-23 -15t-24.5 -10.5t-22.5 -4q-18 0 -34 7.5t-31 16.5t-29 16.5t-29 7.5q-21 0 -43 -17t-39 -41
l-18 62q17 24 45 42.5t52 18.5q18 0 33 -7.5t29 -16.5t27.5 -16.5t28.5 -7.5q20 0 41 14.5t36 31.5z" />
    <glyph glyph-name="adieresis" unicode="&#xe4;" horiz-adv-x="428" 
d="M10 0zM426 69q0 -32 -19.5 -54.5t-57.5 -22.5q-27 0 -46.5 18t-31.5 42q-20 -28 -48.5 -45t-69.5 -17q-72 0 -107.5 31t-35.5 86q0 38 14 61.5t49 44.5q26 17 59.5 31.5t65.5 34.5q14 9 29 18t26 21q0 43 -3 67.5t-13 38.5q-9 14 -21 19t-35 5q-25 0 -41 -9t-19 -23
q44 -16 44 -68q0 -28 -18 -48.5t-45 -20.5q-29 0 -47 18.5t-18 55.5q0 32 12.5 57.5t34 43.5t50 27.5t59.5 9.5q36 0 65.5 -9t48.5 -31q12 -14 19.5 -32t11.5 -44.5t5.5 -64.5t1.5 -92v-69t1 -41.5t1.5 -24t2.5 -15.5q3 -14 8 -18t11 -4q17 0 17 27v33h40v-37zM257 106v41
t-0.5 46.5t-1 46.5t-0.5 41q-17 -25 -43 -41.5t-49 -33.5q-25 -19 -40 -38t-15 -56q0 -30 20.5 -48.5t51.5 -18.5q18 0 31 6t22 15t15 19.5t9 20.5zM292 598q-29 0 -47 19.5t-18 51.5t18 52.5t47 20.5t46.5 -20.5t17.5 -52.5t-17.5 -51.5t-46.5 -19.5zM115 598
q-29 0 -46.5 19.5t-17.5 51.5t17.5 52.5t46.5 20.5t47 -20.5t18 -52.5t-18 -51.5t-47 -19.5z" />
    <glyph glyph-name="aring" unicode="&#xe5;" horiz-adv-x="428" 
d="M10 0zM426 69q0 -32 -19.5 -54.5t-57.5 -22.5q-27 0 -46.5 18t-31.5 42q-20 -28 -48.5 -45t-69.5 -17q-72 0 -107.5 31t-35.5 86q0 38 14 61.5t49 44.5q26 17 59.5 31.5t65.5 34.5q14 9 29 18t26 21q0 43 -3 67.5t-13 38.5q-9 14 -21 19t-35 5q-25 0 -41 -9t-19 -23
q44 -16 44 -68q0 -28 -18 -48.5t-45 -20.5q-29 0 -47 18.5t-18 55.5q0 32 12.5 57.5t34 43.5t50 27.5t59.5 9.5q36 0 65.5 -9t48.5 -31q12 -14 19.5 -32t11.5 -44.5t5.5 -64.5t1.5 -92v-69t1 -41.5t1.5 -24t2.5 -15.5q3 -14 8 -18t11 -4q17 0 17 27v33h40v-37zM257 106v41
t-0.5 46.5t-1 46.5t-0.5 41q-17 -25 -43 -41.5t-49 -33.5q-25 -19 -40 -38t-15 -56q0 -30 20.5 -48.5t51.5 -18.5q18 0 31 6t22 15t15 19.5t9 20.5zM310 624q0 -41 -32 -64.5t-75 -23.5q-46 0 -76 25t-30 63q0 18 8.5 34t23 28.5t33.5 19.5t41 7q21 0 40.5 -7t34.5 -19
t23.5 -28t8.5 -35zM239 620q0 29 -10 44t-26 15q-34 0 -34 -59q0 -56 34 -56q16 0 26 13t10 43z" />
    <glyph glyph-name="ae" unicode="&#xe6;" horiz-adv-x="594" 
d="M578 114q-38 -124 -151 -124q-43 0 -77 22.5t-57 60.5q-3 2 -4 7q-20 -38 -52.5 -64t-83.5 -26q-72 0 -107.5 31t-35.5 86q0 38 14 61.5t49 44.5q26 17 59.5 31.5t65.5 34.5q14 9 29 18t26 21q0 43 -3 67.5t-13 38.5q-9 14 -21 19t-35 5q-25 0 -41 -9t-19 -23
q44 -16 44 -68q0 -28 -18 -48.5t-45 -20.5q-29 0 -47 18.5t-18 55.5q0 32 12.5 57.5t34 43.5t50 27.5t59.5 9.5q36 0 65.5 -9t48.5 -31q6 -8 8 -12q23 24 51.5 38t60.5 14q69 0 108.5 -35t39.5 -106q0 -15 -3 -26.5t-12 -21.5t-24.5 -19t-40.5 -20l-136 -60q0 -40 1.5 -65.5
t4.5 -41t7.5 -24.5t9.5 -15q20 -23 45 -23q51 0 82.5 26.5t41.5 59.5zM180 45q35 0 54.5 21.5t34.5 61.5q-13 43 -13 109v23t1 22q-8 -14 -18.5 -24t-23 -18.5t-26 -16.5t-26.5 -17q-25 -19 -40 -38t-15 -56q0 -30 20.5 -48.5t51.5 -18.5zM502 356q0 45 -15.5 67.5
t-59.5 22.5q-15 0 -27.5 -7.5t-21.5 -19.5q-5 -6 -8.5 -14t-6 -25.5t-3.5 -46.5t-1 -76l117 48q14 5 20 16.5t6 34.5z" />
    <glyph glyph-name="ccedilla" unicode="&#xe7;" horiz-adv-x="360" 
d="M21 0zM343 114q-38 -124 -151 -124q-34 0 -63.5 14.5t-52.5 40.5q-26 30 -40.5 74.5t-14.5 116.5q0 81 15.5 130t44.5 78q22 23 50.5 35t60.5 12q39 0 67 -10t46 -28t26.5 -42.5t8.5 -52.5q0 -32 -18.5 -56t-45.5 -24q-29 0 -47.5 20.5t-18.5 49.5q0 26 12.5 46t35.5 25
q-5 14 -19.5 24t-46.5 10q-14 0 -26 -7.5t-20 -18.5q-6 -7 -10 -17t-7 -30t-4 -55t-1 -91q0 -48 1 -78t3 -48.5t5.5 -28t8.5 -15.5q24 -26 65 -26q42 0 71.5 25t37.5 58zM254 -106q0 -51 -27 -84.5t-66 -41.5l-9 21q27 11 38 22.5t14 25.5q-8 -4 -19 -4q-25 0 -41.5 17
t-16.5 50q0 25 17.5 43.5t46.5 18.5q28 0 45.5 -18t17.5 -50z" />
    <glyph glyph-name="egrave" unicode="&#xe8;" horiz-adv-x="359" 
d="M21 0zM343 114q-38 -124 -151 -124q-43 0 -77 22.5t-57 60.5q-18 29 -27.5 69t-9.5 95q0 75 14.5 121t40.5 76q23 26 52.5 41.5t63.5 15.5q69 0 108.5 -35t39.5 -106q0 -15 -3 -26.5t-12 -21.5t-24.5 -19t-40.5 -20l-136 -60q0 -40 1.5 -65.5t4.5 -41t7.5 -24.5t9.5 -15
q20 -23 45 -23q51 0 82.5 26.5t41.5 59.5zM267 356q0 45 -15.5 67.5t-59.5 22.5q-15 0 -27.5 -7.5t-22.5 -19.5q-5 -6 -8 -14t-5.5 -25.5t-3.5 -46.5t-1 -76l117 48q14 5 20 16.5t6 34.5zM241 556h-90l-117 157h115z" />
    <glyph glyph-name="eacute" unicode="&#xe9;" horiz-adv-x="359" 
d="M21 0zM343 114q-38 -124 -151 -124q-43 0 -77 22.5t-57 60.5q-18 29 -27.5 69t-9.5 95q0 75 14.5 121t40.5 76q23 26 52.5 41.5t63.5 15.5q69 0 108.5 -35t39.5 -106q0 -15 -3 -26.5t-12 -21.5t-24.5 -19t-40.5 -20l-136 -60q0 -40 1.5 -65.5t4.5 -41t7.5 -24.5t9.5 -15
q20 -23 45 -23q51 0 82.5 26.5t41.5 59.5zM267 356q0 45 -15.5 67.5t-59.5 22.5q-15 0 -27.5 -7.5t-22.5 -19.5q-5 -6 -8 -14t-5.5 -25.5t-3.5 -46.5t-1 -76l117 48q14 5 20 16.5t6 34.5zM220 713h114l-116 -157h-91z" />
    <glyph glyph-name="ecircumflex" unicode="&#xea;" horiz-adv-x="359" 
d="M21 0zM343 114q-38 -124 -151 -124q-43 0 -77 22.5t-57 60.5q-18 29 -27.5 69t-9.5 95q0 75 14.5 121t40.5 76q23 26 52.5 41.5t63.5 15.5q69 0 108.5 -35t39.5 -106q0 -15 -3 -26.5t-12 -21.5t-24.5 -19t-40.5 -20l-136 -60q0 -40 1.5 -65.5t4.5 -41t7.5 -24.5t9.5 -15
q20 -23 45 -23q51 0 82.5 26.5t41.5 59.5zM267 356q0 45 -15.5 67.5t-59.5 22.5q-15 0 -27.5 -7.5t-22.5 -19.5q-5 -6 -8 -14t-5.5 -25.5t-3.5 -46.5t-1 -76l117 48q14 5 20 16.5t6 34.5zM345 556h-83l-73 97l-72 -97h-84l106 157h100z" />
    <glyph glyph-name="edieresis" unicode="&#xeb;" horiz-adv-x="359" 
d="M21 0zM343 114q-38 -124 -151 -124q-43 0 -77 22.5t-57 60.5q-18 29 -27.5 69t-9.5 95q0 75 14.5 121t40.5 76q23 26 52.5 41.5t63.5 15.5q69 0 108.5 -35t39.5 -106q0 -15 -3 -26.5t-12 -21.5t-24.5 -19t-40.5 -20l-136 -60q0 -40 1.5 -65.5t4.5 -41t7.5 -24.5t9.5 -15
q20 -23 45 -23q51 0 82.5 26.5t41.5 59.5zM267 356q0 45 -15.5 67.5t-59.5 22.5q-15 0 -27.5 -7.5t-22.5 -19.5q-5 -6 -8 -14t-5.5 -25.5t-3.5 -46.5t-1 -76l117 48q14 5 20 16.5t6 34.5zM280 598q-29 0 -47 19.5t-18 51.5t18 52.5t47 20.5t46.5 -20.5t17.5 -52.5
t-17.5 -51.5t-46.5 -19.5zM103 598q-29 0 -46.5 19.5t-17.5 51.5t17.5 52.5t46.5 20.5t47 -20.5t18 -52.5t-18 -51.5t-47 -19.5z" />
    <glyph glyph-name="igrave" unicode="&#xec;" horiz-adv-x="236" 
d="M0 0zM217 0h-192v46h15q9 0 14.5 4t10.5 17q4 9 6 19.5t3.5 35t2 71.5t0.5 130q0 42 -3 65t-16 34q-5 5 -12 9t-15 4h-6v45h149q-1 -8 -2 -22t-2 -42t-1.5 -73t-0.5 -113q0 -53 0.5 -83t2 -47.5t5 -25.5t9.5 -16q10 -12 24 -12h8v-46zM173 556h-90l-117 157h115z" />
    <glyph glyph-name="iacute" unicode="&#xed;" horiz-adv-x="239" 
d="M19 0zM211 0h-192v46h15q9 0 14.5 4t10.5 17q4 9 6 19.5t3.5 35t2 71.5t0.5 130q0 42 -3 65t-16 34q-5 5 -12 9t-15 4h-6v45h149q-1 -8 -2 -22t-2 -42t-1.5 -73t-0.5 -113q0 -53 0.5 -83t2 -47.5t5 -25.5t9.5 -16q10 -12 24 -12h8v-46zM146 713h114l-116 -157h-91z" />
    <glyph glyph-name="icircumflex" unicode="&#xee;" horiz-adv-x="288" 
d="M0 0zM239 0h-192v46h15q9 0 14.5 4t10.5 17q4 9 6 19.5t3.5 35t2 71.5t0.5 130q0 42 -3 65t-16 34q-5 5 -12 9t-15 4h-6v45h149q-1 -8 -2 -22t-2 -42t-1.5 -73t-0.5 -113q0 -53 0.5 -83t2 -47.5t5 -25.5t9.5 -16q10 -12 24 -12h8v-46zM300 556h-83l-73 97l-72 -97h-84
l106 157h100z" />
    <glyph glyph-name="idieresis" unicode="&#xef;" horiz-adv-x="291" 
d="M0 0zM239 0h-192v46h15q9 0 14.5 4t10.5 17q4 9 6 19.5t3.5 35t2 71.5t0.5 130q0 42 -3 65t-16 34q-5 5 -12 9t-15 4h-6v45h149q-1 -8 -2 -22t-2 -42t-1.5 -73t-0.5 -113q0 -53 0.5 -83t2 -47.5t5 -25.5t9.5 -16q10 -12 24 -12h8v-46zM233 598q-29 0 -47 19.5t-18 51.5
t18 52.5t47 20.5t46.5 -20.5t17.5 -52.5t-17.5 -51.5t-46.5 -19.5zM56 598q-29 0 -46.5 19.5t-17.5 51.5t17.5 52.5t46.5 20.5t47 -20.5t18 -52.5t-18 -51.5t-47 -19.5z" />
    <glyph glyph-name="eth" unicode="&#xf0;" horiz-adv-x="392" 
d="M74 555l131 107q-20 28 -46 49t-61 41l12 29q42 -14 77 -33.5t64 -47.5l58 48l24 -32l-56 -46q32 -43 49.5 -95t26 -108.5t10 -115.5t1.5 -117q0 -41 -4 -71t-11.5 -52.5t-18.5 -39.5t-24 -31q-23 -25 -52 -37.5t-62 -12.5q-35 0 -65 14t-53 40q-12 14 -22 29.5t-17 37.5
t-10.5 52t-3.5 73q0 46 4.5 79t12.5 57.5t19.5 42t26.5 31.5q22 21 49.5 33t58.5 12q36 0 66 -15q-3 49 -11.5 86t-21.5 65l-127 -104zM192 446q-30 0 -48 -22q-5 -5 -8.5 -13.5t-6 -28t-4 -54.5t-1.5 -92q0 -53 1.5 -85.5t4 -51.5t6 -27.5t8.5 -14.5q9 -11 21.5 -17
t26.5 -6q30 0 47 22q5 6 8.5 14.5t6 27.5t4 51.5t1.5 86.5q0 57 -1 91.5t-3.5 54t-6 28.5t-8.5 14q-18 22 -48 22z" />
    <glyph glyph-name="ntilde" unicode="&#xf1;" horiz-adv-x="453" 
d="M15 0zM447 0h-192v46h14q19 0 24 8q3 3 5 9.5t3.5 27t2.5 59t1 106.5q0 48 -1 75.5t-3.5 43.5t-7 24t-11.5 17q-17 21 -50 21q-18 0 -30 -7t-20 -17q-6 -8 -10.5 -19t-7 -29t-3.5 -45.5t-1 -68.5v-100t0.5 -54.5t1 -24.5t2.5 -10q3 -8 10 -12t24 -4h10v-46h-193v46h15
q20 0 27 20q2 6 3.5 14t2 29t1 62t0.5 115v65t-1 39t-2.5 20.5t-4.5 9.5q-6 6 -12.5 10.5t-18.5 4.5h-10v45h27q20 0 33 -2.5t22 -8.5t15.5 -15t13.5 -21q20 28 48.5 43t78.5 15q42 0 70.5 -14t46 -36t25 -48.5t7.5 -50.5q0 -97 1 -152t2 -83.5t2.5 -37.5t2.5 -12
q4 -11 26 -11h11v-46zM381 630q-6 -10 -17 -18.5t-23 -15t-24.5 -10.5t-22.5 -4q-18 0 -34 7.5t-31 16.5t-29 16.5t-29 7.5q-21 0 -43 -17t-39 -41l-18 62q17 24 45 42.5t52 18.5q18 0 33 -7.5t29 -16.5t27.5 -16.5t28.5 -7.5q20 0 41 14.5t36 31.5z" />
    <glyph glyph-name="ograve" unicode="&#xf2;" 
d="M21 0zM192 491q30 0 56.5 -10.5t48.5 -30.5q15 -14 27.5 -30t21.5 -40t13.5 -59t4.5 -87q0 -41 -4 -71t-11.5 -52.5t-18.5 -39.5t-24 -31q-23 -25 -52 -37.5t-62 -12.5q-35 0 -65 14t-53 40q-12 14 -22 29.5t-17 37.5t-10.5 52t-3.5 73q0 46 4.5 79t12.5 57.5t19.5 42
t26.5 31.5q22 21 49.5 33t58.5 12zM192 446q-29 0 -48 -22q-5 -5 -8.5 -13.5t-6 -28t-4 -54.5t-1.5 -92q0 -53 1.5 -85.5t4 -51.5t6 -27.5t8.5 -14.5q9 -11 21.5 -17t26.5 -6q30 0 47 22q5 6 8.5 14.5t6 27.5t4 51.5t1.5 86.5q0 57 -1.5 91.5t-3.5 54t-6 28.5t-8 14
q-19 22 -48 22zM243 556h-90l-117 157h115z" />
    <glyph glyph-name="oacute" unicode="&#xf3;" 
d="M21 0zM192 491q30 0 56.5 -10.5t48.5 -30.5q15 -14 27.5 -30t21.5 -40t13.5 -59t4.5 -87q0 -41 -4 -71t-11.5 -52.5t-18.5 -39.5t-24 -31q-23 -25 -52 -37.5t-62 -12.5q-35 0 -65 14t-53 40q-12 14 -22 29.5t-17 37.5t-10.5 52t-3.5 73q0 46 4.5 79t12.5 57.5t19.5 42
t26.5 31.5q22 21 49.5 33t58.5 12zM192 446q-29 0 -48 -22q-5 -5 -8.5 -13.5t-6 -28t-4 -54.5t-1.5 -92q0 -53 1.5 -85.5t4 -51.5t6 -27.5t8.5 -14.5q9 -11 21.5 -17t26.5 -6q30 0 47 22q5 6 8.5 14.5t6 27.5t4 51.5t1.5 86.5q0 57 -1.5 91.5t-3.5 54t-6 28.5t-8 14
q-19 22 -48 22zM223 713h114l-116 -157h-91z" />
    <glyph glyph-name="ocircumflex" unicode="&#xf4;" 
d="M21 0zM192 491q30 0 56.5 -10.5t48.5 -30.5q15 -14 27.5 -30t21.5 -40t13.5 -59t4.5 -87q0 -41 -4 -71t-11.5 -52.5t-18.5 -39.5t-24 -31q-23 -25 -52 -37.5t-62 -12.5q-35 0 -65 14t-53 40q-12 14 -22 29.5t-17 37.5t-10.5 52t-3.5 73q0 46 4.5 79t12.5 57.5t19.5 42
t26.5 31.5q22 21 49.5 33t58.5 12zM192 446q-29 0 -48 -22q-5 -5 -8.5 -13.5t-6 -28t-4 -54.5t-1.5 -92q0 -53 1.5 -85.5t4 -51.5t6 -27.5t8.5 -14.5q9 -11 21.5 -17t26.5 -6q30 0 47 22q5 6 8.5 14.5t6 27.5t4 51.5t1.5 86.5q0 57 -1.5 91.5t-3.5 54t-6 28.5t-8 14
q-19 22 -48 22zM348 556h-83l-73 97l-72 -97h-84l106 157h100z" />
    <glyph glyph-name="otilde" unicode="&#xf5;" 
d="M21 0zM192 491q30 0 56.5 -10.5t48.5 -30.5q15 -14 27.5 -30t21.5 -40t13.5 -59t4.5 -87q0 -41 -4 -71t-11.5 -52.5t-18.5 -39.5t-24 -31q-23 -25 -52 -37.5t-62 -12.5q-35 0 -65 14t-53 40q-12 14 -22 29.5t-17 37.5t-10.5 52t-3.5 73q0 46 4.5 79t12.5 57.5t19.5 42
t26.5 31.5q22 21 49.5 33t58.5 12zM192 446q-29 0 -48 -22q-5 -5 -8.5 -13.5t-6 -28t-4 -54.5t-1.5 -92q0 -53 1.5 -85.5t4 -51.5t6 -27.5t8.5 -14.5q9 -11 21.5 -17t26.5 -6q30 0 47 22q5 6 8.5 14.5t6 27.5t4 51.5t1.5 86.5q0 57 -1.5 91.5t-3.5 54t-6 28.5t-8 14
q-19 22 -48 22zM347 630q-6 -10 -17 -18.5t-23 -15t-24.5 -10.5t-22.5 -4q-18 0 -34 7.5t-31 16.5t-29 16.5t-29 7.5q-21 0 -43 -17t-39 -41l-18 62q17 24 45 42.5t52 18.5q18 0 33 -7.5t29 -16.5t27.5 -16.5t28.5 -7.5q20 0 41 14.5t36 31.5z" />
    <glyph glyph-name="odieresis" unicode="&#xf6;" 
d="M21 0zM192 491q30 0 56.5 -10.5t48.5 -30.5q15 -14 27.5 -30t21.5 -40t13.5 -59t4.5 -87q0 -41 -4 -71t-11.5 -52.5t-18.5 -39.5t-24 -31q-23 -25 -52 -37.5t-62 -12.5q-35 0 -65 14t-53 40q-12 14 -22 29.5t-17 37.5t-10.5 52t-3.5 73q0 46 4.5 79t12.5 57.5t19.5 42
t26.5 31.5q22 21 49.5 33t58.5 12zM192 446q-29 0 -48 -22q-5 -5 -8.5 -13.5t-6 -28t-4 -54.5t-1.5 -92q0 -53 1.5 -85.5t4 -51.5t6 -27.5t8.5 -14.5q9 -11 21.5 -17t26.5 -6q30 0 47 22q5 6 8.5 14.5t6 27.5t4 51.5t1.5 86.5q0 57 -1.5 91.5t-3.5 54t-6 28.5t-8 14
q-19 22 -48 22zM282 598q-29 0 -47 19.5t-18 51.5t18 52.5t47 20.5t46.5 -20.5t17.5 -52.5t-17.5 -51.5t-46.5 -19.5zM105 598q-29 0 -46.5 19.5t-17.5 51.5t17.5 52.5t46.5 20.5t47 -20.5t18 -52.5t-18 -51.5t-47 -19.5z" />
    <glyph glyph-name="divide" unicode="&#xf7;" horiz-adv-x="426" 
d="M16 76zM410 332h-394v58h394v-58zM213 494q-29 0 -47 21t-18 55q0 33 18 54.5t47 21.5q30 0 48 -21.5t18 -54.5q0 -34 -18 -55t-48 -21zM213 76q-29 0 -47 21t-18 55q0 33 18 54.5t47 21.5q30 0 48 -21.5t18 -54.5q0 -34 -18 -55t-48 -21z" />
    <glyph glyph-name="oslash" unicode="&#xf8;" 
d="M192 491q34 0 66 -15q14 32 23.5 59.5t14.5 50.5h94q-22 -39 -41 -76.5t-36 -74.5q12 -13 21 -29t16 -39.5t10.5 -55.5t3.5 -77q0 -41 -4 -71t-11.5 -52.5t-18.5 -39.5t-24 -31q-23 -25 -52 -37.5t-62 -12.5q-19 0 -36 4t-33 11q-20 -43 -34 -94h-93q17 28 35.5 63
t36.5 77q-12 13 -20.5 28.5t-14.5 37t-9 50.5t-3 69q0 46 4.5 79t12.5 57.5t19.5 42t26.5 31.5q22 21 49.5 33t58.5 12zM259 321q-34 -70 -63 -136t-54 -128q21 -23 50 -23q30 0 47 22q5 6 8.5 14.5t6 27.5t4 51.5t1.5 86.5v85zM192 446q-30 0 -48 -22q-4 -5 -7.5 -12.5
t-6.5 -26t-4.5 -52.5t-1.5 -91v-72q31 66 60.5 131t53.5 125q-17 20 -46 20z" />
    <glyph glyph-name="ugrave" unicode="&#xf9;" horiz-adv-x="421" 
d="M8 0zM416 435h-12q-19 0 -26 -13q-3 -4 -4.5 -11t-2 -27t-1 -57.5t-0.5 -102.5q0 -42 -1.5 -70.5t-4 -48t-7 -32.5t-10.5 -23q-35 -60 -124 -60q-45 0 -80 12t-57 38q-9 10 -15 24t-9.5 36.5t-5.5 55.5t-2 81q0 61 -0.5 97t-1 55t-2 25.5t-3.5 9.5q-4 6 -12 8.5t-27 2.5
v45h194v-45h-15q-14 0 -23 -10q-4 -4 -6 -10t-3.5 -23.5t-2 -50t-0.5 -90.5q0 -52 1 -83.5t2.5 -50t4 -28t6.5 -17.5q10 -20 23 -27.5t36 -7.5q20 0 33.5 8t23.5 27q4 8 6.5 17.5t4 27.5t2 47.5t0.5 79.5q0 52 -0.5 83.5t-1 50.5t-2 27.5t-3.5 13.5q-5 16 -32 16h-8v45h168
v-45zM272 556h-90l-117 157h115z" />
    <glyph glyph-name="uacute" unicode="&#xfa;" horiz-adv-x="421" 
d="M8 0zM416 435h-12q-19 0 -26 -13q-3 -4 -4.5 -11t-2 -27t-1 -57.5t-0.5 -102.5q0 -42 -1.5 -70.5t-4 -48t-7 -32.5t-10.5 -23q-35 -60 -124 -60q-45 0 -80 12t-57 38q-9 10 -15 24t-9.5 36.5t-5.5 55.5t-2 81q0 61 -0.5 97t-1 55t-2 25.5t-3.5 9.5q-4 6 -12 8.5t-27 2.5
v45h194v-45h-15q-14 0 -23 -10q-4 -4 -6 -10t-3.5 -23.5t-2 -50t-0.5 -90.5q0 -52 1 -83.5t2.5 -50t4 -28t6.5 -17.5q10 -20 23 -27.5t36 -7.5q20 0 33.5 8t23.5 27q4 8 6.5 17.5t4 27.5t2 47.5t0.5 79.5q0 52 -0.5 83.5t-1 50.5t-2 27.5t-3.5 13.5q-5 16 -32 16h-8v45h168
v-45zM252 713h114l-116 -157h-91z" />
    <glyph glyph-name="ucircumflex" unicode="&#xfb;" horiz-adv-x="421" 
d="M8 0zM416 435h-12q-19 0 -26 -13q-3 -4 -4.5 -11t-2 -27t-1 -57.5t-0.5 -102.5q0 -42 -1.5 -70.5t-4 -48t-7 -32.5t-10.5 -23q-35 -60 -124 -60q-45 0 -80 12t-57 38q-9 10 -15 24t-9.5 36.5t-5.5 55.5t-2 81q0 61 -0.5 97t-1 55t-2 25.5t-3.5 9.5q-4 6 -12 8.5t-27 2.5
v45h194v-45h-15q-14 0 -23 -10q-4 -4 -6 -10t-3.5 -23.5t-2 -50t-0.5 -90.5q0 -52 1 -83.5t2.5 -50t4 -28t6.5 -17.5q10 -20 23 -27.5t36 -7.5q20 0 33.5 8t23.5 27q4 8 6.5 17.5t4 27.5t2 47.5t0.5 79.5q0 52 -0.5 83.5t-1 50.5t-2 27.5t-3.5 13.5q-5 16 -32 16h-8v45h168
v-45zM376 556h-83l-73 97l-72 -97h-84l106 157h100z" />
    <glyph glyph-name="udieresis" unicode="&#xfc;" horiz-adv-x="421" 
d="M8 0zM416 435h-12q-19 0 -26 -13q-3 -4 -4.5 -11t-2 -27t-1 -57.5t-0.5 -102.5q0 -42 -1.5 -70.5t-4 -48t-7 -32.5t-10.5 -23q-35 -60 -124 -60q-45 0 -80 12t-57 38q-9 10 -15 24t-9.5 36.5t-5.5 55.5t-2 81q0 61 -0.5 97t-1 55t-2 25.5t-3.5 9.5q-4 6 -12 8.5t-27 2.5
v45h194v-45h-15q-14 0 -23 -10q-4 -4 -6 -10t-3.5 -23.5t-2 -50t-0.5 -90.5q0 -52 1 -83.5t2.5 -50t4 -28t6.5 -17.5q10 -20 23 -27.5t36 -7.5q20 0 33.5 8t23.5 27q4 8 6.5 17.5t4 27.5t2 47.5t0.5 79.5q0 52 -0.5 83.5t-1 50.5t-2 27.5t-3.5 13.5q-5 16 -32 16h-8v45h168
v-45zM309 598q-29 0 -47 19.5t-18 51.5t18 52.5t47 20.5t46.5 -20.5t17.5 -52.5t-17.5 -51.5t-46.5 -19.5zM132 598q-29 0 -46.5 19.5t-17.5 51.5t17.5 52.5t46.5 20.5t47 -20.5t18 -52.5t-18 -51.5t-47 -19.5z" />
    <glyph glyph-name="yacute" unicode="&#xfd;" horiz-adv-x="396" 
d="M0 0zM385 435h-6q-26 0 -35 -30q-3 -10 -10.5 -39.5t-17 -69t-20.5 -85t-21.5 -88t-20 -79t-14.5 -56.5q-12 -53 -25.5 -94t-30.5 -69t-40 -42.5t-56 -14.5q-31 0 -52 10t-33.5 27.5t-18 40t-5.5 47.5q0 35 17.5 56t46.5 21q27 0 43 -17t16 -49q0 -28 -15.5 -44.5
t-43.5 -16.5q0 -16 13.5 -23.5t25.5 -7.5q34 0 53 29q7 10 12 20t10 25.5t11 40.5t16 65q-3 11 -12.5 43t-22 74.5t-27 90.5t-27 90t-22.5 73.5t-14 41.5q-6 17 -12 23.5t-20 6.5h-12v45h194v-45h-18q-27 0 -27 -22q0 -11 4.5 -37t13 -63.5t21.5 -84.5t30 -101q13 49 24 95
t19.5 83t13 63.5t5.5 38.5q1 14 -4 21t-23 7h-15v45h132v-45zM250 713h114l-116 -157h-91z" />
    <glyph glyph-name="thorn" unicode="&#xfe;" horiz-adv-x="416" 
d="M223 488q36 0 67 -17.5t54.5 -47t36.5 -68t13 -80.5v-71q0 -43 -13.5 -82t-37 -68t-54.5 -46.5t-66 -17.5q-44 0 -73 41q-1 -35 -1 -56.5v-41.5q0 -44 2.5 -68.5t8.5 -36t15.5 -13.5t23.5 -2v-45h-193v45q16 0 25.5 2.5t14.5 8.5t7 17t2 28q0 15 -0.5 32.5t-0.5 41.5
v74.5v98.5t0.5 108t0.5 102v81.5v46.5q0 172 -3 240q-2 11 -4 17t-7 9t-13 3.5t-22 0.5v46h149q-1 -23 -1 -50v-58q0 -47 0.5 -97.5t2.5 -97.5q16 10 32.5 15.5t33.5 5.5zM223 444q-15 0 -28 -7.5t-22 -19.5t-14 -27t-5 -31v-211q0 -62 20 -88t49 -26q14 0 26 7t21 19
t14.5 27.5t5.5 31.5v240q0 16 -5 31t-13.5 27t-21 19.5t-27.5 7.5z" />
    <glyph glyph-name="ydieresis" unicode="&#xff;" horiz-adv-x="396" 
d="M0 0zM385 435h-6q-26 0 -35 -30q-3 -10 -10.5 -39.5t-17 -69t-20.5 -85t-21.5 -88t-20 -79t-14.5 -56.5q-12 -53 -25.5 -94t-30.5 -69t-40 -42.5t-56 -14.5q-31 0 -52 10t-33.5 27.5t-18 40t-5.5 47.5q0 35 17.5 56t46.5 21q27 0 43 -17t16 -49q0 -28 -15.5 -44.5
t-43.5 -16.5q0 -16 13.5 -23.5t25.5 -7.5q34 0 53 29q7 10 12 20t10 25.5t11 40.5t16 65q-3 11 -12.5 43t-22 74.5t-27 90.5t-27 90t-22.5 73.5t-14 41.5q-6 17 -12 23.5t-20 6.5h-12v45h194v-45h-18q-27 0 -27 -22q0 -11 4.5 -37t13 -63.5t21.5 -84.5t30 -101q13 49 24 95
t19.5 83t13 63.5t5.5 38.5q1 14 -4 21t-23 7h-15v45h132v-45zM286 598q-29 0 -47 19.5t-18 51.5t18 52.5t47 20.5t46.5 -20.5t17.5 -52.5t-17.5 -51.5t-46.5 -19.5zM109 598q-29 0 -46.5 19.5t-17.5 51.5t17.5 52.5t46.5 20.5t47 -20.5t18 -52.5t-18 -51.5t-47 -19.5z" />
    <glyph glyph-name="Amacron" unicode="&#x100;" horiz-adv-x="508" 
d="M15 0zM496 -184h-211v46h12q36 0 36 18q0 14 -3.5 45.5t-10.5 72.5h-194l-16 -100q-1 -6 -1 -10v-9q0 -11 8.5 -14t25.5 -3h13v-46h-140v46h12q25 0 32 29q5 16 15.5 69.5t24.5 129t30 165.5t31 178.5t28 168.5t21 135h98q9 -79 23 -173.5t30.5 -192.5t34.5 -193.5
t35 -176.5q9 -44 14.5 -69t9 -38t5.5 -17.5t4 -6.5q4 -5 8.5 -6.5t14.5 -1.5h10v-46zM313 43l-81 537q-2 -10 -9.5 -49.5t-18 -95t-22.5 -119t-22.5 -120t-18 -98.5t-9.5 -55h181zM402 815q-71 6 -138 6q-81 0 -160 -6v82q47 -4 87.5 -7t78.5 -3q33 0 65.5 2.5t66.5 7.5v-82
z" />
    <glyph glyph-name="amacron" unicode="&#x101;" horiz-adv-x="428" 
d="M10 0zM426 69q0 -32 -19.5 -54.5t-57.5 -22.5q-27 0 -46.5 18t-31.5 42q-20 -28 -48.5 -45t-69.5 -17q-72 0 -107.5 31t-35.5 86q0 38 14 61.5t49 44.5q26 17 59.5 31.5t65.5 34.5q14 9 29 18t26 21q0 43 -3 67.5t-13 38.5q-9 14 -21 19t-35 5q-25 0 -41 -9t-19 -23
q44 -16 44 -68q0 -28 -18 -48.5t-45 -20.5q-29 0 -47 18.5t-18 55.5q0 32 12.5 57.5t34 43.5t50 27.5t59.5 9.5q36 0 65.5 -9t48.5 -31q12 -14 19.5 -32t11.5 -44.5t5.5 -64.5t1.5 -92v-69t1 -41.5t1.5 -24t2.5 -15.5q3 -14 8 -18t11 -4q17 0 17 27v33h40v-37zM257 106v41
t-0.5 46.5t-1 46.5t-0.5 41q-17 -25 -43 -41.5t-49 -33.5q-25 -19 -40 -38t-15 -56q0 -30 20.5 -48.5t51.5 -18.5q18 0 31 6t22 15t15 19.5t9 20.5zM352 589q-71 6 -138 6q-81 0 -160 -6v82q47 -4 87.5 -7t78.5 -3q33 0 65.5 2.5t66.5 7.5v-82z" />
    <glyph glyph-name="Abreve" unicode="&#x102;" horiz-adv-x="508" 
d="M15 0zM496 -184h-211v46h12q36 0 36 18q0 14 -3.5 45.5t-10.5 72.5h-194l-16 -100q-1 -6 -1 -10v-9q0 -11 8.5 -14t25.5 -3h13v-46h-140v46h12q25 0 32 29q5 16 15.5 69.5t24.5 129t30 165.5t31 178.5t28 168.5t21 135h98q9 -79 23 -173.5t30.5 -192.5t34.5 -193.5
t35 -176.5q9 -44 14.5 -69t9 -38t5.5 -17.5t4 -6.5q4 -5 8.5 -6.5t14.5 -1.5h10v-46zM313 43l-81 537q-2 -10 -9.5 -49.5t-18 -95t-22.5 -119t-22.5 -120t-18 -98.5t-9.5 -55h181zM255 782q-33 0 -60.5 13.5t-48 35t-33 50t-16.5 58.5h78q0 -17 4.5 -34.5t14 -31t24.5 -22
t36 -8.5q20 0 35 8.5t24.5 22t14 31t4.5 34.5h77q-5 -30 -16.5 -58.5t-30 -50t-45 -35t-62.5 -13.5z" />
    <glyph glyph-name="abreve" unicode="&#x103;" horiz-adv-x="428" 
d="M10 0zM426 69q0 -32 -19.5 -54.5t-57.5 -22.5q-27 0 -46.5 18t-31.5 42q-20 -28 -48.5 -45t-69.5 -17q-72 0 -107.5 31t-35.5 86q0 38 14 61.5t49 44.5q26 17 59.5 31.5t65.5 34.5q14 9 29 18t26 21q0 43 -3 67.5t-13 38.5q-9 14 -21 19t-35 5q-25 0 -41 -9t-19 -23
q44 -16 44 -68q0 -28 -18 -48.5t-45 -20.5q-29 0 -47 18.5t-18 55.5q0 32 12.5 57.5t34 43.5t50 27.5t59.5 9.5q36 0 65.5 -9t48.5 -31q12 -14 19.5 -32t11.5 -44.5t5.5 -64.5t1.5 -92v-69t1 -41.5t1.5 -24t2.5 -15.5q3 -14 8 -18t11 -4q17 0 17 27v33h40v-37zM257 106v41
t-0.5 46.5t-1 46.5t-0.5 41q-17 -25 -43 -41.5t-49 -33.5q-25 -19 -40 -38t-15 -56q0 -30 20.5 -48.5t51.5 -18.5q18 0 31 6t22 15t15 19.5t9 20.5zM206 556q-33 0 -60.5 13.5t-48 35t-33 50t-16.5 58.5h78q0 -17 4.5 -34.5t14 -31t24.5 -22t36 -8.5q20 0 35 8.5t24.5 22
t14 31t4.5 34.5h77q-5 -30 -16.5 -58.5t-30 -50t-45 -35t-62.5 -13.5z" />
    <glyph glyph-name="Aogonek" unicode="&#x104;" horiz-adv-x="445" 
d="M465 -133q-1 -15 -8.5 -30.5t-20.5 -27.5t-31 -20t-41 -8q-19 0 -40 3.5t-38.5 13.5t-29 29t-11.5 49q0 33 28 67.5t95 56.5h-150v46h13q35 0 35 18q0 14 -3.5 45.5t-9.5 72.5h-131l-16 -100q-1 -6 -1 -10v-9q0 -11 8 -14t26 -3h13v-46h-141v46h13q25 0 32 29
q4 15 13 58.5t20 106.5q12 67 24.5 137t23.5 136t20 123.5t16 100.5h97q7 -69 15.5 -132.5t19 -129t24 -136t30.5 -154.5q9 -44 15 -69t10.5 -38t7 -17.5t4.5 -6.5q7 -8 23 -8h11v-46q-31 -13 -51 -27t-31.5 -29t-16 -29t-4.5 -27q0 -35 17 -49t37 -14q23 0 37 14.5t19 33.5
zM249 227l-53 353q-2 -9 -9 -43.5t-16.5 -84t-20.5 -108.5t-21 -117h120z" />
    <glyph glyph-name="aogonek" unicode="&#x105;" horiz-adv-x="428" 
d="M423 -133q-1 -15 -8.5 -30.5t-20 -27.5t-31 -20t-41.5 -8q-19 0 -40 3.5t-38 13.5t-28.5 29t-11.5 49q0 32 26 66t90 56q-17 7 -29 22t-20 32q-20 -28 -48.5 -45t-69.5 -17q-72 0 -107.5 31t-35.5 86q0 38 14 61.5t49 44.5q26 17 59.5 31.5t65.5 34.5q14 9 29 18t26 21
q0 43 -3 67.5t-13 38.5q-9 14 -21 19t-35 5q-25 0 -41 -9t-19 -23q44 -16 44 -68q0 -28 -18 -48.5t-45 -20.5q-29 0 -47 18.5t-18 55.5q0 32 12.5 57.5t34 43.5t50 27.5t59.5 9.5q36 0 65.5 -9t48.5 -31q12 -14 19.5 -32t11.5 -44.5t5.5 -64.5t1.5 -92v-69t1 -41.5t1.5 -24
t2.5 -15.5q3 -14 8 -18t11 -4q17 0 17 27v33h40v-37q0 -23 -9.5 -42t-28.5 -27q-60 -27 -81.5 -56.5t-21.5 -55.5q0 -35 17 -49t37 -14q23 0 37 14.5t19 33.5zM257 106v41t-0.5 46.5t-1 46.5t-0.5 41q-17 -25 -43 -41.5t-49 -33.5q-25 -19 -40 -38t-15 -56q0 -30 20.5 -48.5
t51.5 -18.5q18 0 31 6t22 15t15 19.5t9 20.5z" />
    <glyph glyph-name="Cacute" unicode="&#x106;" horiz-adv-x="447" 
d="M25 0zM432 613q0 -29 -18.5 -53t-47.5 -24q-56 0 -56 67q0 29 7 44.5t32 26.5q-25 29 -83 29q-62 0 -98 -45q-10 -12 -17 -30.5t-11.5 -57.5t-7 -105t-2.5 -172q0 -122 2 -194.5t5.5 -112t9 -56t12.5 -26.5q21 -29 44.5 -41.5t62.5 -12.5q48 0 77 21t41 62l32 -13
q-18 -63 -57 -89.5t-101 -26.5q-57 0 -101.5 21t-74.5 59q-16 20 -27 44.5t-17.5 66t-9.5 105.5t-3 163q0 96 2 159.5t7 105.5t15 69t25 52q29 46 75.5 72.5t113.5 26.5q39 0 70 -10.5t53 -29t34 -43t12 -52.5zM285 939h114l-116 -157h-91z" />
    <glyph glyph-name="cacute" unicode="&#x107;" horiz-adv-x="360" 
d="M21 0zM343 114q-38 -124 -151 -124q-34 0 -63.5 14.5t-52.5 40.5q-26 30 -40.5 74.5t-14.5 116.5q0 81 15.5 130t44.5 78q22 23 50.5 35t60.5 12q39 0 67 -10t46 -28t26.5 -42.5t8.5 -52.5q0 -32 -18.5 -56t-45.5 -24q-29 0 -47.5 20.5t-18.5 49.5q0 26 12.5 46t35.5 25
q-5 14 -19.5 24t-46.5 10q-14 0 -26 -7.5t-20 -18.5q-6 -7 -10 -17t-7 -30t-4 -55t-1 -91q0 -48 1 -78t3 -48.5t5.5 -28t8.5 -15.5q24 -26 65 -26q42 0 71.5 25t37.5 58zM220 713h114l-116 -157h-91z" />
    <glyph glyph-name="Cdotaccent" unicode="&#x10a;" horiz-adv-x="447" 
d="M25 0zM432 613q0 -29 -18.5 -53t-47.5 -24q-56 0 -56 67q0 29 7 44.5t32 26.5q-25 29 -83 29q-62 0 -98 -45q-10 -12 -17 -30.5t-11.5 -57.5t-7 -105t-2.5 -172q0 -122 2 -194.5t5.5 -112t9 -56t12.5 -26.5q21 -29 44.5 -41.5t62.5 -12.5q48 0 77 21t41 62l32 -13
q-18 -63 -57 -89.5t-101 -26.5q-57 0 -101.5 21t-74.5 59q-16 20 -27 44.5t-17.5 66t-9.5 105.5t-3 163q0 96 2 159.5t7 105.5t15 69t25 52q29 46 75.5 72.5t113.5 26.5q39 0 70 -10.5t53 -29t34 -43t12 -52.5zM244 824q-29 0 -46.5 19.5t-17.5 51.5t17.5 52.5t46.5 20.5
t47 -20.5t18 -52.5t-18 -51.5t-47 -19.5z" />
    <glyph glyph-name="cdotaccent" unicode="&#x10b;" horiz-adv-x="360" 
d="M21 0zM343 114q-38 -124 -151 -124q-34 0 -63.5 14.5t-52.5 40.5q-26 30 -40.5 74.5t-14.5 116.5q0 81 15.5 130t44.5 78q22 23 50.5 35t60.5 12q39 0 67 -10t46 -28t26.5 -42.5t8.5 -52.5q0 -32 -18.5 -56t-45.5 -24q-29 0 -47.5 20.5t-18.5 49.5q0 26 12.5 46t35.5 25
q-5 14 -19.5 24t-46.5 10q-14 0 -26 -7.5t-20 -18.5q-6 -7 -10 -17t-7 -30t-4 -55t-1 -91q0 -48 1 -78t3 -48.5t5.5 -28t8.5 -15.5q24 -26 65 -26q42 0 71.5 25t37.5 58zM190 598q-29 0 -46.5 19.5t-17.5 51.5t17.5 52.5t46.5 20.5t47 -20.5t18 -52.5t-18 -51.5t-47 -19.5z
" />
    <glyph glyph-name="Ccaron" unicode="&#x10c;" horiz-adv-x="447" 
d="M25 0zM432 613q0 -29 -18.5 -53t-47.5 -24q-56 0 -56 67q0 29 7 44.5t32 26.5q-25 29 -83 29q-62 0 -98 -45q-10 -12 -17 -30.5t-11.5 -57.5t-7 -105t-2.5 -172q0 -122 2 -194.5t5.5 -112t9 -56t12.5 -26.5q21 -29 44.5 -41.5t62.5 -12.5q48 0 77 21t41 62l32 -13
q-18 -63 -57 -89.5t-101 -26.5q-57 0 -101.5 21t-74.5 59q-16 20 -27 44.5t-17.5 66t-9.5 105.5t-3 163q0 96 2 159.5t7 105.5t15 69t25 52q29 46 75.5 72.5t113.5 26.5q39 0 70 -10.5t53 -29t34 -43t12 -52.5zM88 939h84l72 -96l73 96h83l-106 -157h-100z" />
    <glyph glyph-name="ccaron" unicode="&#x10d;" horiz-adv-x="360" 
d="M21 0zM343 114q-38 -124 -151 -124q-34 0 -63.5 14.5t-52.5 40.5q-26 30 -40.5 74.5t-14.5 116.5q0 81 15.5 130t44.5 78q22 23 50.5 35t60.5 12q39 0 67 -10t46 -28t26.5 -42.5t8.5 -52.5q0 -32 -18.5 -56t-45.5 -24q-29 0 -47.5 20.5t-18.5 49.5q0 26 12.5 46t35.5 25
q-5 14 -19.5 24t-46.5 10q-14 0 -26 -7.5t-20 -18.5q-6 -7 -10 -17t-7 -30t-4 -55t-1 -91q0 -48 1 -78t3 -48.5t5.5 -28t8.5 -15.5q24 -26 65 -26q42 0 71.5 25t37.5 58zM34 713h84l72 -96l73 96h83l-106 -157h-100z" />
    <glyph glyph-name="Dcaron" unicode="&#x10e;" horiz-adv-x="532" 
d="M19 0zM321 737q39 0 73 -18.5t58 -54.5q14 -22 24.5 -51t17.5 -73t10.5 -107t3.5 -151q0 -90 -4 -153.5t-11.5 -108.5t-18.5 -75t-25 -51q-27 -41 -64.5 -59.5t-84.5 -18.5h-281v46h10q9 0 16 3.5t11.5 17t7.5 41.5t4.5 76.5t2 121.5t0.5 178q0 104 -1 172t-2.5 110.5
t-3.5 63.5t-4 32q-2 9 -9.5 11.5t-20.5 2.5h-11v45h302zM201 692q-14 0 -23 -7t-11 -24q-2 -13 -3 -31.5t-2.5 -54t-2 -93.5t-0.5 -149v-178t0.5 -112t1 -67.5t2.5 -45.5q3 -39 11 -53.5t33 -14.5h62q30 0 55 12t43 41q9 13 15.5 33.5t11.5 58t7.5 99t2.5 157.5
q0 94 -2 155.5t-6 101t-10 62t-13 38.5q-17 38 -42.5 55t-60.5 17h-69zM89 939h84l72 -96l73 96h83l-106 -157h-100z" />
    <glyph glyph-name="dcaron" unicode="&#x10f;" horiz-adv-x="534" 
d="M21 0zM257 696q-5 19 -12 24.5t-21 5.5h-16v44h150q-1 -18 -1 -34.5t-0.5 -37t-0.5 -49v-70v-99v-136.5v-111t0.5 -71t1.5 -47t3 -39q2 -19 8 -24.5t25 -5.5h12v-46h-19q-38 0 -59 9.5t-34 38.5q-19 -24 -47 -41t-57 -17q-35 0 -66 15.5t-54 46t-36 76t-13 105.5
q0 72 13.5 121t35.5 79.5t49.5 44t56.5 13.5q63 0 89 -45q0 75 -0.5 120t-1.5 71t-2.5 38t-3.5 21zM258 362q0 32 -17.5 58t-50.5 26q-26 0 -44 -23q-5 -6 -9 -15t-7 -29t-4.5 -54.5t-1.5 -91.5q0 -51 1 -82t3 -49.5t5 -28t8 -15.5q9 -11 22 -17.5t27 -6.5q33 0 50.5 27
t17.5 61v240zM509 714q0 -51 -27 -84.5t-66 -41.5l-9 21q27 11 38 22.5t14 25.5q-8 -4 -19 -4q-25 0 -41.5 17t-16.5 50q0 25 17.5 43.5t46.5 18.5q28 0 45.5 -18t17.5 -50z" />
    <glyph glyph-name="Dcroat" unicode="&#x110;" horiz-adv-x="532" 
d="M18 0zM321 737q39 0 73 -18.5t58 -54.5q14 -22 24.5 -51t17.5 -73t10.5 -107t3.5 -151q0 -90 -4 -153.5t-11.5 -108.5t-18.5 -75t-25 -51q-27 -41 -64.5 -59.5t-84.5 -18.5h-281v46h10q9 0 16 3.5t11.5 17t7.5 41.5t4.5 76.5t2 121.5t0.5 178v29h-53v44h53q0 81 -1.5 135
t-3 88.5t-3.5 53t-3 28.5q-2 9 -9.5 11.5t-20.5 2.5h-11v45h302zM201 692q-14 0 -23 -7t-11 -24q-2 -12 -3 -29.5t-2.5 -49t-2 -81.5t-0.5 -128h81q35 0 35 59h42v-164h-42q0 61 -35 61h-81v-175.5t0.5 -110.5t1 -67.5t2.5 -45.5q3 -39 11 -53.5t33 -14.5h62q30 0 55 12
t43 41q9 13 15.5 33.5t11.5 58t7.5 99t2.5 157.5q0 94 -2 155.5t-6 101t-10 62t-13 38.5q-17 38 -42.5 55t-60.5 17h-69z" />
    <glyph glyph-name="dmacron" unicode="&#x111;" horiz-adv-x="407" 
d="M407 578l-51 4v-238v-111t0.5 -71t1.5 -47t3 -39q2 -19 8 -24.5t25 -5.5h12v-46h-19q-38 0 -59 9.5t-34 38.5q-19 -24 -47 -41t-57 -17q-35 0 -66 15.5t-54 46t-36 76t-13 105.5q0 72 13.5 121t35.5 79.5t49.5 44t56.5 13.5q63 0 89 -45v78.5t-1 59.5q-78 0 -156 -6v82
q43 -4 81 -6.5t73 -2.5q-1 25 -4 39.5t-7.5 22.5t-11 10.5t-15.5 2.5h-16v44h150q-1 -26 -1.5 -51t-0.5 -65q24 1 51 6v-82zM258 362q0 32 -17.5 58t-50.5 26q-26 0 -44 -23q-5 -6 -9 -15t-7 -29t-4.5 -54.5t-1.5 -91.5q0 -51 1 -82t3 -49.5t5 -28t8 -15.5q9 -11 22 -17.5
t27 -6.5q33 0 50.5 27t17.5 61v240z" />
    <glyph glyph-name="Emacron" unicode="&#x112;" horiz-adv-x="489" 
d="M19 0zM482 -184h-463v46h13q17 0 25.5 6.5t10.5 30.5q2 46 2.5 106.5t0.5 135.5v173v123t-0.5 84t-1 56t-1.5 40.5t-2 36.5q-2 20 -8.5 29t-22.5 9h-16v45h330v-104h-42q0 59 -28 59h-71q-23 0 -30.5 -4.5t-10.5 -26.5q-2 -25 -4 -95.5t-3 -192.5h70q34 0 34 59h43v-164
h-43q0 61 -34 61h-71v-93q0 -136 1.5 -221t6.5 -119q2 -12 11.5 -16.5t29.5 -4.5h204q14 0 21 13t7 42h42v-114zM362 815q-71 6 -138 6q-81 0 -160 -6v82q47 -4 87.5 -7t78.5 -3q33 0 65.5 2.5t66.5 7.5v-82z" />
    <glyph glyph-name="emacron" unicode="&#x113;" horiz-adv-x="359" 
d="M21 0zM343 114q-38 -124 -151 -124q-43 0 -77 22.5t-57 60.5q-18 29 -27.5 69t-9.5 95q0 75 14.5 121t40.5 76q23 26 52.5 41.5t63.5 15.5q69 0 108.5 -35t39.5 -106q0 -15 -3 -26.5t-12 -21.5t-24.5 -19t-40.5 -20l-136 -60q0 -40 1.5 -65.5t4.5 -41t7.5 -24.5t9.5 -15
q20 -23 45 -23q51 0 82.5 26.5t41.5 59.5zM267 356q0 45 -15.5 67.5t-59.5 22.5q-15 0 -27.5 -7.5t-22.5 -19.5q-5 -6 -8 -14t-5.5 -25.5t-3.5 -46.5t-1 -76l117 48q14 5 20 16.5t6 34.5zM349 589q-71 6 -138 6q-81 0 -160 -6v82q47 -4 87.5 -7t78.5 -3q33 0 65.5 2.5
t66.5 7.5v-82z" />
    <glyph glyph-name="Ebreve" unicode="&#x114;" horiz-adv-x="489" 
d="M19 0zM482 -184h-463v46h13q17 0 25.5 6.5t10.5 30.5q2 46 2.5 106.5t0.5 135.5v173v123t-0.5 84t-1 56t-1.5 40.5t-2 36.5q-2 20 -8.5 29t-22.5 9h-16v45h330v-104h-42q0 59 -28 59h-71q-23 0 -30.5 -4.5t-10.5 -26.5q-2 -25 -4 -95.5t-3 -192.5h70q34 0 34 59h43v-164
h-43q0 61 -34 61h-71v-93q0 -136 1.5 -221t6.5 -119q2 -12 11.5 -16.5t29.5 -4.5h204q14 0 21 13t7 42h42v-114zM215 782q-33 0 -60.5 13.5t-48 35t-33 50t-16.5 58.5h78q0 -17 4.5 -34.5t14 -31t24.5 -22t36 -8.5q20 0 35 8.5t24.5 22t14 31t4.5 34.5h77
q-5 -30 -16.5 -58.5t-30 -50t-45 -35t-62.5 -13.5z" />
    <glyph glyph-name="ebreve" unicode="&#x115;" horiz-adv-x="359" 
d="M21 0zM343 114q-38 -124 -151 -124q-43 0 -77 22.5t-57 60.5q-18 29 -27.5 69t-9.5 95q0 75 14.5 121t40.5 76q23 26 52.5 41.5t63.5 15.5q69 0 108.5 -35t39.5 -106q0 -15 -3 -26.5t-12 -21.5t-24.5 -19t-40.5 -20l-136 -60q0 -40 1.5 -65.5t4.5 -41t7.5 -24.5t9.5 -15
q20 -23 45 -23q51 0 82.5 26.5t41.5 59.5zM267 356q0 45 -15.5 67.5t-59.5 22.5q-15 0 -27.5 -7.5t-22.5 -19.5q-5 -6 -8 -14t-5.5 -25.5t-3.5 -46.5t-1 -76l117 48q14 5 20 16.5t6 34.5zM191 556q-33 0 -60.5 13.5t-48 35t-33 50t-16.5 58.5h78q0 -17 4.5 -34.5t14 -31
t24.5 -22t36 -8.5q20 0 35 8.5t24.5 22t14 31t4.5 34.5h77q-5 -30 -16.5 -58.5t-30 -50t-45 -35t-62.5 -13.5z" />
    <glyph glyph-name="Edotaccent" unicode="&#x116;" horiz-adv-x="489" 
d="M19 0zM482 -184h-463v46h13q17 0 25.5 6.5t10.5 30.5q2 46 2.5 106.5t0.5 135.5v173v123t-0.5 84t-1 56t-1.5 40.5t-2 36.5q-2 20 -8.5 29t-22.5 9h-16v45h330v-104h-42q0 59 -28 59h-71q-23 0 -30.5 -4.5t-10.5 -26.5q-2 -25 -4 -95.5t-3 -192.5h70q34 0 34 59h43v-164
h-43q0 61 -34 61h-71v-93q0 -136 1.5 -221t6.5 -119q2 -12 11.5 -16.5t29.5 -4.5h204q14 0 21 13t7 42h42v-114zM213 824q-29 0 -46.5 19.5t-17.5 51.5t17.5 52.5t46.5 20.5t47 -20.5t18 -52.5t-18 -51.5t-47 -19.5z" />
    <glyph glyph-name="edotaccent" unicode="&#x117;" horiz-adv-x="359" 
d="M21 0zM343 114q-38 -124 -151 -124q-43 0 -77 22.5t-57 60.5q-18 29 -27.5 69t-9.5 95q0 75 14.5 121t40.5 76q23 26 52.5 41.5t63.5 15.5q69 0 108.5 -35t39.5 -106q0 -15 -3 -26.5t-12 -21.5t-24.5 -19t-40.5 -20l-136 -60q0 -40 1.5 -65.5t4.5 -41t7.5 -24.5t9.5 -15
q20 -23 45 -23q51 0 82.5 26.5t41.5 59.5zM267 356q0 45 -15.5 67.5t-59.5 22.5q-15 0 -27.5 -7.5t-22.5 -19.5q-5 -6 -8 -14t-5.5 -25.5t-3.5 -46.5t-1 -76l117 48q14 5 20 16.5t6 34.5zM189 598q-29 0 -46.5 19.5t-17.5 51.5t17.5 52.5t46.5 20.5t47 -20.5t18 -52.5
t-18 -51.5t-47 -19.5z" />
    <glyph glyph-name="Eogonek" unicode="&#x118;" horiz-adv-x="489" 
d="M482 -133q-2 -15 -9 -30.5t-20 -27.5t-31 -20t-41 -8q-19 0 -40 3.5t-38.5 13.5t-29 29t-11.5 49q0 33 27.5 67.5t95.5 56.5h-366v46h13q17 0 25.5 6.5t10.5 30.5q2 47 2.5 107.5t0.5 135.5v110t-0.5 87t-1.5 70.5t-3 60.5q-2 20 -8.5 29t-22.5 9h-16v45h330v-104h-42
q0 59 -28 59h-71q-23 0 -30.5 -4.5t-10.5 -26.5q-2 -25 -4 -95.5t-3 -192.5h70q34 0 34 59h43v-164h-43q0 61 -34 61h-71v-93v-71t0.5 -39.5t1 -18t1.5 -7t2 -6t3 -14.5q2 -12 11.5 -16.5t29.5 -4.5h204q14 0 21 13t7 42h42v-114q-22 -2 -46.5 -9.5t-45 -22t-34 -34.5
t-13.5 -46q0 -35 17 -49t37 -14q23 0 37 14.5t19 33.5z" />
    <glyph glyph-name="eogonek" unicode="&#x119;" horiz-adv-x="359" 
d="M302 -133q-2 -15 -9 -30.5t-20 -27.5t-31 -20t-41 -8q-19 0 -40 3.5t-38.5 13.5t-29 29t-11.5 49q0 29 19 60.5t65 55.5q-34 6 -61.5 27.5t-46.5 53.5q-18 29 -27.5 69t-9.5 95q0 75 14.5 121t40.5 76q23 26 52.5 41.5t63.5 15.5q69 0 108.5 -35t39.5 -106
q0 -15 -3 -26.5t-12 -21.5t-24.5 -19t-40.5 -20l-136 -60q0 -40 1.5 -65.5t4.5 -41t7.5 -24.5t9.5 -15q20 -23 45 -23q51 0 82.5 26.5t41.5 59.5l27 -6q-14 -45 -38.5 -73t-58.5 -42q-25 -11 -41 -25t-25.5 -29t-13 -30t-3.5 -27q0 -35 17 -49t37 -14q23 0 37.5 14.5
t19.5 33.5zM267 356q0 45 -15.5 67.5t-59.5 22.5q-15 0 -27.5 -7.5t-22.5 -19.5q-5 -6 -8 -14t-5.5 -25.5t-3.5 -46.5t-1 -76l117 48q14 5 20 16.5t6 34.5z" />
    <glyph glyph-name="Ecaron" unicode="&#x11a;" horiz-adv-x="489" 
d="M19 0zM482 -184h-463v46h13q17 0 25.5 6.5t10.5 30.5q2 46 2.5 106.5t0.5 135.5v173v123t-0.5 84t-1 56t-1.5 40.5t-2 36.5q-2 20 -8.5 29t-22.5 9h-16v45h330v-104h-42q0 59 -28 59h-71q-23 0 -30.5 -4.5t-10.5 -26.5q-2 -25 -4 -95.5t-3 -192.5h70q34 0 34 59h43v-164
h-43q0 61 -34 61h-71v-93q0 -136 1.5 -221t6.5 -119q2 -12 11.5 -16.5t29.5 -4.5h204q14 0 21 13t7 42h42v-114zM57 939h84l72 -96l73 96h83l-106 -157h-100z" />
    <glyph glyph-name="ecaron" unicode="&#x11b;" horiz-adv-x="359" 
d="M21 0zM343 114q-38 -124 -151 -124q-43 0 -77 22.5t-57 60.5q-18 29 -27.5 69t-9.5 95q0 75 14.5 121t40.5 76q23 26 52.5 41.5t63.5 15.5q69 0 108.5 -35t39.5 -106q0 -15 -3 -26.5t-12 -21.5t-24.5 -19t-40.5 -20l-136 -60q0 -40 1.5 -65.5t4.5 -41t7.5 -24.5t9.5 -15
q20 -23 45 -23q51 0 82.5 26.5t41.5 59.5zM267 356q0 45 -15.5 67.5t-59.5 22.5q-15 0 -27.5 -7.5t-22.5 -19.5q-5 -6 -8 -14t-5.5 -25.5t-3.5 -46.5t-1 -76l117 48q14 5 20 16.5t6 34.5zM33 713h84l72 -96l73 96h83l-106 -157h-100z" />
    <glyph glyph-name="Gbreve" unicode="&#x11e;" horiz-adv-x="503" 
d="M25 0zM490 -184q-5 -2 -13 -3t-18 -1q-24 0 -40.5 4.5t-28.5 14.5t-20.5 24.5t-16.5 34.5q-9 -37 -43.5 -61.5t-87.5 -24.5q-51 0 -88.5 23.5t-62.5 65.5q-11 19 -19.5 43.5t-14.5 64.5t-9 100.5t-3 150.5q0 105 4 175.5t11.5 117.5t19 75.5t26.5 49.5q28 37 68.5 57.5
t94.5 20.5q44 0 77.5 -10.5t56 -29t33.5 -43t11 -52.5q0 -36 -15.5 -56.5t-45.5 -20.5q-32 0 -46 21t-14 48q0 29 9.5 45t29.5 24q-25 29 -83 29q-36 0 -62 -14.5t-43 -40.5q-8 -12 -14 -30.5t-9.5 -60t-5.5 -113.5t-2 -192q0 -102 1 -163t3.5 -96t6.5 -50.5t9 -26.5
q14 -30 37.5 -48t55.5 -18q25 0 45 18.5t34 50t21.5 73t7.5 88.5q0 52 -1.5 85.5t-7 52.5t-15.5 26t-27 7v44h194v-44h-29q-1 0 -5 -6t-8.5 -31.5t-8 -78t-3.5 -145.5q0 -26 1.5 -49.5t6 -41.5t12.5 -28.5t21 -10.5h6.5t6.5 1v-45zM253 782q-33 0 -60.5 13.5t-48 35t-33 50
t-16.5 58.5h78q0 -17 4.5 -34.5t14 -31t24.5 -22t36 -8.5q20 0 35 8.5t24.5 22t14 31t4.5 34.5h77q-5 -30 -16.5 -58.5t-30 -50t-45 -35t-62.5 -13.5z" />
    <glyph glyph-name="gbreve" unicode="&#x11f;" horiz-adv-x="411" 
d="M0 0zM428 523q0 -26 -12.5 -41.5t-40.5 -15.5q-22 0 -33.5 -7.5t-22.5 -33.5q22 -21 33.5 -53.5t11.5 -61.5q0 -39 -7 -72t-22.5 -58.5t-40 -42t-60.5 -21.5q12 -14 21.5 -29t16.5 -33t13.5 -40t12.5 -49q-47 40 -119 40q-80 0 -80 -88q0 -53 34.5 -79t86.5 -26
q57 0 91.5 27t44.5 78l27 -9q-11 -62 -56 -101t-111 -39q-49 0 -89.5 11.5t-69 33t-44.5 51.5t-16 66q0 64 33.5 101t87.5 37q17 0 36.5 -3.5t37 -9.5t31.5 -14t20 -17q-2 16 -12.5 33.5t-27.5 31.5q-12 11 -23 14.5t-26 7.5q-46 12 -73 39q-29 29 -41.5 69.5t-12.5 94.5
q0 81 44.5 129t124.5 48q28 0 53.5 -8.5t45.5 -31.5q9 58 25 92.5t54 34.5q29 0 41.5 -14.5t12.5 -40.5zM263 303q0 32 -1.5 53.5t-4 35t-6 21.5t-8.5 14q-18 24 -47 24t-47 -24q-5 -6 -9 -14t-6.5 -21.5t-4 -35t-1.5 -53.5q0 -33 1.5 -56t4.5 -38t7 -23.5t9 -14.5
q17 -22 46 -22q28 0 47 25q5 6 8.5 13.5t6 21.5t4 36.5t1.5 57.5zM217 556q-33 0 -60.5 13.5t-48 35t-33 50t-16.5 58.5h78q0 -17 4.5 -34.5t14 -31t24.5 -22t36 -8.5q20 0 35 8.5t24.5 22t14 31t4.5 34.5h77q-5 -30 -16.5 -58.5t-30 -50t-45 -35t-62.5 -13.5z" />
    <glyph glyph-name="Gdotaccent" unicode="&#x120;" horiz-adv-x="503" 
d="M25 0zM490 -184q-5 -2 -13 -3t-18 -1q-24 0 -40.5 4.5t-28.5 14.5t-20.5 24.5t-16.5 34.5q-9 -37 -43.5 -61.5t-87.5 -24.5q-51 0 -88.5 23.5t-62.5 65.5q-11 19 -19.5 43.5t-14.5 64.5t-9 100.5t-3 150.5q0 105 4 175.5t11.5 117.5t19 75.5t26.5 49.5q28 37 68.5 57.5
t94.5 20.5q44 0 77.5 -10.5t56 -29t33.5 -43t11 -52.5q0 -36 -15.5 -56.5t-45.5 -20.5q-32 0 -46 21t-14 48q0 29 9.5 45t29.5 24q-25 29 -83 29q-36 0 -62 -14.5t-43 -40.5q-8 -12 -14 -30.5t-9.5 -60t-5.5 -113.5t-2 -192q0 -102 1 -163t3.5 -96t6.5 -50.5t9 -26.5
q14 -30 37.5 -48t55.5 -18q25 0 45 18.5t34 50t21.5 73t7.5 88.5q0 52 -1.5 85.5t-7 52.5t-15.5 26t-27 7v44h194v-44h-29q-1 0 -5 -6t-8.5 -31.5t-8 -78t-3.5 -145.5q0 -26 1.5 -49.5t6 -41.5t12.5 -28.5t21 -10.5h6.5t6.5 1v-45zM251 824q-29 0 -46.5 19.5t-17.5 51.5
t17.5 52.5t46.5 20.5t47 -20.5t18 -52.5t-18 -51.5t-47 -19.5z" />
    <glyph glyph-name="gdotaccent" unicode="&#x121;" horiz-adv-x="411" 
d="M0 0zM428 523q0 -26 -12.5 -41.5t-40.5 -15.5q-22 0 -33.5 -7.5t-22.5 -33.5q22 -21 33.5 -53.5t11.5 -61.5q0 -39 -7 -72t-22.5 -58.5t-40 -42t-60.5 -21.5q12 -14 21.5 -29t16.5 -33t13.5 -40t12.5 -49q-47 40 -119 40q-80 0 -80 -88q0 -53 34.5 -79t86.5 -26
q57 0 91.5 27t44.5 78l27 -9q-11 -62 -56 -101t-111 -39q-49 0 -89.5 11.5t-69 33t-44.5 51.5t-16 66q0 64 33.5 101t87.5 37q17 0 36.5 -3.5t37 -9.5t31.5 -14t20 -17q-2 16 -12.5 33.5t-27.5 31.5q-12 11 -23 14.5t-26 7.5q-46 12 -73 39q-29 29 -41.5 69.5t-12.5 94.5
q0 81 44.5 129t124.5 48q28 0 53.5 -8.5t45.5 -31.5q9 58 25 92.5t54 34.5q29 0 41.5 -14.5t12.5 -40.5zM263 303q0 32 -1.5 53.5t-4 35t-6 21.5t-8.5 14q-18 24 -47 24t-47 -24q-5 -6 -9 -14t-6.5 -21.5t-4 -35t-1.5 -53.5q0 -33 1.5 -56t4.5 -38t7 -23.5t9 -14.5
q17 -22 46 -22q28 0 47 25q5 6 8.5 13.5t6 21.5t4 36.5t1.5 57.5zM204 598q-29 0 -46.5 19.5t-17.5 51.5t17.5 52.5t46.5 20.5t47 -20.5t18 -52.5t-18 -51.5t-47 -19.5z" />
    <glyph glyph-name="Gcommaaccent" unicode="&#x122;" horiz-adv-x="503" 
d="M490 1q-5 -2 -13 -3t-18 -1q-24 0 -40.5 4.5t-28.5 14.5t-20.5 24.5t-16.5 34.5q-9 -37 -43.5 -61t-87.5 -24q-51 0 -88.5 23t-62.5 65q-11 19 -19.5 39t-14.5 48.5t-9 68.5t-3 97q0 70 1.5 118t5 81t8.5 54t12 35.5t15.5 25.5t18.5 25q28 37 68.5 57.5t94.5 20.5
q44 0 77.5 -10.5t56 -29t33.5 -43t11 -52.5q0 -36 -15.5 -56.5t-45.5 -20.5q-32 0 -46 21t-14 48q0 29 9.5 45t29.5 24q-25 29 -83 29q-36 0 -62 -14.5t-43 -40.5q-5 -8 -9.5 -12.5t-8 -13t-6 -25.5t-4 -49.5t-2.5 -84.5t-1 -132q0 -59 1 -98.5t3.5 -65t6.5 -40.5t9 -26
q14 -30 37.5 -48t55.5 -18q25 0 45 18.5t34 50t21.5 73t7.5 88.5q0 33 -8.5 49t-42.5 16v44h194v-44h-29q-1 0 -5 -5.5t-8.5 -22t-8 -47t-3.5 -80.5q0 -26 1.5 -49.5t6 -41.5t12.5 -28.5t21 -10.5h6.5t6.5 1v-45zM315 -106q0 -51 -27 -84.5t-66 -41.5l-9 21q27 11 38 22.5
t14 25.5q-8 -4 -19 -4q-25 0 -41.5 17t-16.5 50q0 25 17.5 43.5t46.5 18.5q28 0 45.5 -18t17.5 -50z" />
    <glyph glyph-name="gcommaaccent" unicode="&#x123;" horiz-adv-x="411" 
d="M0 0zM428 523q0 -26 -12.5 -41.5t-40.5 -15.5q-22 0 -33.5 -7.5t-22.5 -33.5q22 -21 33.5 -53.5t11.5 -61.5q0 -39 -7 -72t-22.5 -58.5t-40 -42t-60.5 -21.5q12 -14 21.5 -29t16.5 -33t13.5 -40t12.5 -49q-47 40 -119 40q-80 0 -80 -88q0 -53 34.5 -79t86.5 -26
q57 0 91.5 27t44.5 78l27 -9q-11 -62 -56 -101t-111 -39q-49 0 -89.5 11.5t-69 33t-44.5 51.5t-16 66q0 64 33.5 101t87.5 37q17 0 36.5 -3.5t37 -9.5t31.5 -14t20 -17q-2 16 -12.5 33.5t-27.5 31.5q-12 11 -23 14.5t-26 7.5q-46 12 -73 39q-29 29 -41.5 69.5t-12.5 94.5
q0 81 44.5 129t124.5 48q28 0 53.5 -8.5t45.5 -31.5q9 58 25 92.5t54 34.5q29 0 41.5 -14.5t12.5 -40.5zM263 303q0 32 -1.5 53.5t-4 35t-6 21.5t-8.5 14q-18 24 -47 24t-47 -24q-5 -6 -9 -14t-6.5 -21.5t-4 -35t-1.5 -53.5q0 -33 1.5 -56t4.5 -38t7 -23.5t9 -14.5
q17 -22 46 -22q28 0 47 25q5 6 8.5 13.5t6 21.5t4 36.5t1.5 57.5zM143.991 599.963q0 50.9971 26.998 84.4951q26.999 33.498 65.9961 41.498l9 -20.999q-26.999 -10.999 -37.998 -22.499q-10.999 -11.499 -13.999 -25.498q7.99902 4 18.999 4q24.998 0 41.4971 -16.999
t16.499 -49.9971q0 -24.999 -17.499 -43.4971q-17.499 -18.499 -46.4971 -18.499q-27.998 0 -45.4971 17.999q-17.499 17.998 -17.499 49.9961z" />
    <glyph glyph-name="Hbar" unicode="&#x126;" horiz-adv-x="519" 
d="M515 499l-65 3v-173v-81t0.5 -95t1 -96t1.5 -85t2 -63t2 -29q3 -11 8 -14.5t19 -3.5h16v-46h-195v46h21q13 0 18 3.5t9 14.5q1 4 2 29t1.5 63t1 85t1 96t0.5 94.5v81.5h-199v-81t0.5 -95t1 -96t1 -85t1.5 -63t2 -29q4 -11 9 -14.5t18 -3.5h21v-46h-195v46h16q14 0 19 3.5
t8 14.5q1 4 2 29t2 63t1.5 85t1 96t0.5 94.5v81.5v83t-1 90l-61 -3v82q11 -1 27 -2t33 -2q-1 38 -2 64.5t-3 31.5q-3 11 -8 15t-19 4h-16v45h195v-45h-21q-13 0 -18 -4t-9 -15q-2 -5 -3 -32.5t-2 -66.5q37 -2 69 -2h50h31.5t45.5 1q-1 40 -1.5 67.5t-2.5 32.5q-4 11 -9 15
t-18 4h-21v45h195v-45h-16q-14 0 -19 -4t-8 -15q-2 -5 -3.5 -32t-2.5 -65q20 1 36.5 2t27.5 3v-82zM359 373v65.5t-1 65.5q-27 1 -49.5 1h-34.5h-48.5t-65.5 -1v-131h199z" />
    <glyph glyph-name="hbar" unicode="&#x127;" horiz-adv-x="458" 
d="M298 578q-66 6 -133 6q0 -29 -0.5 -62t-1.5 -70q14 20 34.5 29.5t52.5 9.5q35 0 63.5 -11.5t48.5 -31.5t31 -47t11 -57v-135q0 -60 2 -93t7.5 -48.5t14.5 -18.5t23 -3v-46h-193v46h14q12 0 19 2.5t10.5 14t4 34t0.5 61.5v198q0 15 -5 30t-14.5 26.5t-22.5 18.5t-29 7
q-34 0 -53.5 -25.5t-19.5 -58.5v-205q0 -29 1.5 -49t6.5 -32t14.5 -17t26.5 -5v-46h-192v46h15q28 0 29 31q5 92 6 179t1 178v70t-2 78l-68 -4v82q17 -2 33.5 -3t32.5 -2q-2 24 -4 38t-6 21t-12.5 8.5t-24.5 1.5v46h148v-54t-1 -65q66 0 132 9v-82z" />
    <glyph glyph-name="Imacron" unicode="&#x12a;" horiz-adv-x="229" 
d="M0 0zM19 -138h16q14 0 19 3.5t8 14.5q1 4 2 29t2 63t1.5 85t1 96t0.5 94.5v81.5q0 48 -0.5 105t-1 108t-2 88t-3.5 43q-3 11 -8 15t-19 4h-16v45h191v-45h-17q-13 0 -18 -4t-9 -15q-2 -6 -3 -43t-2 -88t-1 -108v-105v-81t0.5 -95t1 -96t1 -85t1.5 -63t2 -29
q4 -11 9 -14.5t18 -3.5h17v-46h-191v46zM265 815q-71 6 -138 6q-81 0 -160 -6v82q47 -4 87.5 -7t78.5 -3q33 0 65.5 2.5t66.5 7.5v-82z" />
    <glyph glyph-name="imacron" unicode="&#x12b;" horiz-adv-x="285" 
d="M0 0zM239 0h-192v46h15q9 0 14.5 4t10.5 17q4 9 6 19.5t3.5 35t2 71.5t0.5 130q0 42 -3 65t-16 34q-5 5 -12 9t-15 4h-6v45h149q-1 -8 -2 -22t-2 -42t-1.5 -73t-0.5 -113q0 -53 0.5 -83t2 -47.5t5 -25.5t9.5 -16q10 -12 24 -12h8v-46zM293 589q-71 6 -138 6
q-81 0 -160 -6v82q47 -4 87.5 -7t78.5 -3q33 0 65.5 2.5t66.5 7.5v-82z" />
    <glyph glyph-name="Ibreve" unicode="&#x12c;" horiz-adv-x="229" 
d="M0 0zM19 -138h16q14 0 19 3.5t8 14.5q1 4 2 29t2 63t1.5 85t1 96t0.5 94.5v81.5q0 48 -0.5 105t-1 108t-2 88t-3.5 43q-3 11 -8 15t-19 4h-16v45h191v-45h-17q-13 0 -18 -4t-9 -15q-2 -6 -3 -43t-2 -88t-1 -108v-105v-81t0.5 -95t1 -96t1 -85t1.5 -63t2 -29
q4 -11 9 -14.5t18 -3.5h17v-46h-191v46zM117 782q-33 0 -60.5 13.5t-48 35t-33 50t-16.5 58.5h78q0 -17 4.5 -34.5t14 -31t24.5 -22t36 -8.5q20 0 35 8.5t24.5 22t14 31t4.5 34.5h77q-5 -30 -16.5 -58.5t-30 -50t-45 -35t-62.5 -13.5z" />
    <glyph glyph-name="ibreve" unicode="&#x12d;" horiz-adv-x="290" 
d="M0 0zM242 0h-192v46h15q9 0 14.5 4t10.5 17q4 9 6 19.5t3.5 35t2 71.5t0.5 130q0 42 -3 65t-16 34q-5 5 -12 9t-15 4h-6v45h149q-1 -8 -2 -22t-2 -42t-1.5 -73t-0.5 -113q0 -53 0.5 -83t2 -47.5t5 -25.5t9.5 -16q10 -12 24 -12h8v-46zM149 556q-33 0 -60.5 13.5t-48 35
t-33 50t-16.5 58.5h78q0 -17 4.5 -34.5t14 -31t24.5 -22t36 -8.5q20 0 35 8.5t24.5 22t14 31t4.5 34.5h77q-5 -30 -16.5 -58.5t-30 -50t-45 -35t-62.5 -13.5z" />
    <glyph glyph-name="Iogonek" unicode="&#x12e;" horiz-adv-x="229" 
d="M19 46h16q14 0 19 3.5t8 14.5q2 6 3.5 32.5t2 66.5t1 90.5t0.5 103.5q0 37 -0.5 88.5t-1 100t-2 85t-3.5 42.5q-3 11 -8 15t-19 4h-16v45h191v-45h-17q-13 0 -18 -4t-9 -15q-2 -6 -3 -42.5t-2 -85t-1 -100v-88.5q0 -53 0.5 -103.5t1 -90.5t1.5 -66.5t3 -32.5
q4 -11 9 -14.5t18 -3.5h17v-46q-19 -3 -39.5 -13t-37 -24.5t-27.5 -33.5t-11 -41q0 -35 17 -49t37 -14q23 0 37 14.5t19 33.5l28 -6q-1 -15 -8.5 -30.5t-20.5 -27.5t-31 -20t-41 -8q-19 0 -40 3.5t-38 13.5t-28.5 29t-11.5 49q0 33 27.5 67.5t94.5 56.5h-117v46z" />
    <glyph glyph-name="iogonek" unicode="&#x12f;" horiz-adv-x="230" 
d="M234 -133q-1 -15 -8.5 -30.5t-20.5 -27.5t-31 -20t-41 -8q-19 0 -40 3.5t-38 13.5t-28.5 29t-11.5 49q0 33 27.5 67.5t94.5 56.5h-118v46h15q9 0 14.5 4t10.5 17q4 9 6 19.5t3.5 35t2 71.5t0.5 130q0 60 -10 86t-36 26h-6v45h149q-1 -8 -2 -22t-2 -42t-1.5 -73t-0.5 -113
q0 -53 0.5 -83t2 -47.5t5 -25.5t9.5 -16q10 -12 24 -12h8v-46q-19 -3 -39.5 -12.5t-37 -24.5t-27.5 -34t-11 -41q0 -35 17 -49t37 -14q23 0 37 14.5t19 33.5zM111 598q-29 0 -46.5 19.5t-17.5 51.5t17.5 52.5t46.5 20.5t47 -20.5t18 -52.5t-18 -51.5t-47 -19.5z" />
    <glyph glyph-name="Idotaccent" unicode="&#x130;" horiz-adv-x="229" 
d="M19 0zM19 -138h16q14 0 19 3.5t8 14.5q1 4 2 29t2 63t1.5 85t1 96t0.5 94.5v81.5q0 48 -0.5 105t-1 108t-2 88t-3.5 43q-3 11 -8 15t-19 4h-16v45h191v-45h-17q-13 0 -18 -4t-9 -15q-2 -6 -3 -43t-2 -88t-1 -108v-105v-81t0.5 -95t1 -96t1 -85t1.5 -63t2 -29
q4 -11 9 -14.5t18 -3.5h17v-46h-191v46zM114 824q-29 0 -46.5 19.5t-17.5 51.5t17.5 52.5t46.5 20.5t47 -20.5t18 -52.5t-18 -51.5t-47 -19.5z" />
    <glyph glyph-name="dotlessi" unicode="&#x131;" horiz-adv-x="230" 
d="M211 0h-192v46h15q9 0 14.5 4t10.5 17q4 9 6 19.5t3.5 35t2 71.5t0.5 130q0 42 -3 65t-16 34q-5 5 -12 9t-15 4h-6v45h149q-1 -8 -2 -22t-2 -42t-1.5 -73t-0.5 -113q0 -53 0.5 -83t2 -47.5t5 -25.5t9.5 -16q10 -12 24 -12h8v-46z" />
    <glyph glyph-name="IJ" unicode="&#x132;" horiz-adv-x="578" 
d="M19 0zM19 -138h16q14 0 19 3.5t8 14.5q1 4 2 29t2 63t1.5 85t1 96t0.5 94.5v81.5q0 48 -0.5 105t-1 108t-2 88t-3.5 43q-3 11 -8 15t-19 4h-16v45h191v-45h-17q-13 0 -18 -4t-9 -15q-2 -6 -3 -43t-2 -88t-1 -108v-105v-81t0.5 -95t1 -96t1 -85t1.5 -63t2 -29
q4 -11 9 -14.5t18 -3.5h17v-46h-191v46zM560 737q-4 -23 -7.5 -67.5t-5.5 -126.5t-3.5 -209.5t-1.5 -314.5q0 -100 -43 -157.5t-118 -57.5q-67 0 -107 40t-40 105q0 28 18 49t46 21t46.5 -22t18.5 -51q0 -26 -10 -44t-36 -24q2 -6 5.5 -10.5t8.5 -7.5q14 -11 42 -11
q46 0 68 45q3 6 5.5 14t4.5 24t3 42.5t2 70t1.5 106t0.5 150.5v41t-1 65.5t-1.5 77.5t-1.5 76.5t-2.5 62.5t-2.5 36q-2 21 -9.5 26.5t-24.5 5.5h-13v45h158z" />
    <glyph glyph-name="ij" unicode="&#x133;" horiz-adv-x="443" 
d="M19 0zM211 0h-192v46h15q9 0 14.5 4t10.5 17q4 9 6 19.5t3.5 35t2 71.5t0.5 130q0 42 -3 65t-16 34q-5 5 -12 9t-15 4h-6v45h149q-1 -8 -2 -22t-2 -42t-1.5 -73t-0.5 -113q0 -53 0.5 -83t2 -47.5t5 -25.5t9.5 -16q10 -12 24 -12h8v-46zM111 598q-29 0 -46.5 19.5
t-17.5 51.5t17.5 52.5t46.5 20.5t47 -20.5t18 -52.5t-18 -51.5t-47 -19.5zM414 480q-3 -34 -4.5 -65.5t-3 -71.5t-2 -94.5t-0.5 -133.5v-127q0 -103 -43 -161.5t-119 -58.5q-65 0 -105.5 34.5t-40.5 97.5q0 34 18 52.5t45 18.5q29 0 47 -18.5t18 -47.5q0 -27 -11 -41
t-34 -21q3 -12 15.5 -20.5t36.5 -8.5q20 0 34.5 8t24.5 27q7 13 12 27t8 33.5t5 48t3 71t1 102.5v143q0 50 -2 81.5t-7 49t-13.5 24t-21.5 6.5h-10v45h149zM357 598q-29 0 -47 19.5t-18 51.5t18 52.5t47 20.5t46.5 -20.5t17.5 -52.5t-17.5 -51.5t-46.5 -19.5z" />
    <glyph glyph-name="Kcommaaccent" unicode="&#x136;" horiz-adv-x="601" 
d="M19 0zM598 -184h-66q-29 0 -51 5.5t-39.5 19.5t-32 38t-29.5 62q-24 59 -42.5 121t-42.5 116q-16 37 -30.5 62.5t-30.5 42.5t-34 25.5t-40 11.5v-81.5t0.5 -93t1 -93.5t1 -83t1.5 -61t2 -28q4 -11 9 -14.5t18 -3.5h17v-46h-191v46h16q14 0 19 3.5t8 14.5q1 4 2 29t2 63
t1.5 85t1 96t0.5 94.5v81.5q0 48 -0.5 105t-1 108t-2 88t-3.5 43q-3 11 -8 15t-19 4h-16v45h191v-45h-17q-13 0 -18 -4t-9 -15q-2 -6 -3 -39.5t-2 -81t-1 -101.5v-102q31 1 48.5 27t28.5 66q9 29 15 61t12.5 63t15 60t22.5 52q15 27 36.5 43t58.5 16h65v-45h-43
q-41 0 -59 -72q-14 -51 -22 -94t-25 -88q-12 -32 -31.5 -58.5t-46.5 -37.5q26 -6 48.5 -16t42 -27.5t36.5 -44t32 -65.5q13 -33 24.5 -69t23.5 -72.5t25 -72.5t30 -68q14 -25 28 -35t37 -10h36v-46zM353 -106q0 -51 -27 -84.5t-66 -41.5l-9 21q27 11 38 22.5t14 25.5
q-8 -4 -19 -4q-25 0 -41.5 17t-16.5 50q0 25 17.5 43.5t46.5 18.5q28 0 45.5 -18t17.5 -50z" />
    <glyph glyph-name="kcommaaccent" unicode="&#x137;" horiz-adv-x="416" 
d="M19 0zM414 0h-46q-24 0 -43 5t-36.5 19t-34.5 40.5t-36 68.5q-16 37 -29.5 56.5t-27.5 30.5q0 -37 0.5 -59.5t1 -37t2 -25t3.5 -22.5q4 -20 11.5 -25t32.5 -5v-46h-193v46h23q8 0 12.5 5t8.5 23q2 9 3.5 17.5t2.5 25.5t2 45t1.5 76t0.5 118.5v172.5q0 49 -0.5 79.5
t-2 49.5t-5 30t-9.5 20q-11 18 -30 18h-7v44h149q-2 -25 -3.5 -66t-2.5 -93.5t-2 -114t-1 -127.5v-61.5t1 -62.5q15 16 32 35t33 39t29.5 38.5t22.5 32.5q13 19 13 28q0 17 -40 17v45h149v-45h-11q-11 0 -20.5 -6.5t-24.5 -20.5q-5 -6 -21.5 -26t-36 -45.5l-39 -51
t-30.5 -41.5q26 -6 47 -35q11 -14 21 -31t19.5 -33.5t19 -32t19.5 -26.5q21 -23 34.5 -31.5t30.5 -8.5h7v-46zM282 -106q0 -51 -27 -84.5t-66 -41.5l-9 21q27 11 38 22.5t14 25.5q-8 -4 -19 -4q-25 0 -41.5 17t-16.5 50q0 25 17.5 43.5t46.5 18.5q28 0 45.5 -18t17.5 -50z
" />
    <glyph glyph-name="Lacute" unicode="&#x139;" horiz-adv-x="494" 
d="M19 0zM482 -184h-463v46h15q11 0 17 3.5t9 13t4 27t3 44.5q1 17 1.5 44t1 73.5t0.5 117v172.5q0 79 -0.5 130t-1 83.5t-2 52.5t-3.5 38t-8.5 24.5t-21.5 6.5h-14v45h207v-45h-27q-26 0 -32 -31q-1 -8 -2.5 -24t-2.5 -51t-2 -95.5t-1 -157.5q0 -108 1 -202.5t3 -180.5
q1 -39 9 -57t28 -18h211q14 0 21 13t7 42h43v-114zM176 939h114l-116 -157h-91z" />
    <glyph glyph-name="lacute" unicode="&#x13a;" horiz-adv-x="231" 
d="M19 0zM212 0h-193v46h16q7 0 12 3.5t9 16.5t7 30.5t4.5 55.5t2.5 104t1 175v122.5t-1 73.5t-2 41t-4 26q-4 20 -9 26t-24 6h-12v44h148q0 -26 -1 -52t-2 -63t-1.5 -91t-0.5 -138q0 -116 0.5 -183t1 -102.5t1.5 -47.5t2 -17q3 -17 8.5 -23.5t21.5 -6.5h15v-46zM146 939
h114l-116 -157h-91z" />
    <glyph glyph-name="Lcommaaccent" unicode="&#x13b;" horiz-adv-x="494" 
d="M482 0h-463v46h15q11 0 17 3.5t9 13t4 27t3 44.5q1 17 1.5 40t1 57t0.5 80v108q0 56 -0.5 94t-1 65t-2 46t-3.5 37t-8.5 24.5t-21.5 6.5h-14v45h207v-45h-27q-26 0 -32 -31q-1 -8 -2.5 -22.5t-2.5 -42t-2 -70.5t-1 -107v-80t0.5 -65.5t1.5 -64t2 -75.5q1 -39 9 -57
t28 -18h211q14 0 21 13t7 42h43v-114zM324 -106q0 -51 -27 -84.5t-66 -41.5l-8 21q26 11 37 22.5t15 25.5q-9 -4 -19 -4q-25 0 -41.5 17t-16.5 50q0 25 17.5 43.5t45.5 18.5t45.5 -18t17.5 -50z" />
    <glyph glyph-name="lcommaaccent" unicode="&#x13c;" horiz-adv-x="231" 
d="M19 0zM212 0h-193v46h16q7 0 12 3.5t9 16.5t7 30.5t4.5 55.5t2.5 104t1 175v122.5t-1 73.5t-2 41t-4 26q-4 20 -9 26t-24 6h-12v44h148q0 -26 -1 -52t-2 -63t-1.5 -91t-0.5 -138q0 -116 0.5 -183t1 -102.5t1.5 -47.5t2 -17q3 -17 8.5 -23.5t21.5 -6.5h15v-46zM179 -106
q0 -51 -27 -84.5t-66 -41.5l-9 21q27 11 38 22.5t14 25.5q-8 -4 -19 -4q-25 0 -41.5 17t-16.5 50q0 25 17.5 43.5t46.5 18.5q28 0 45.5 -18t17.5 -50z" />
    <glyph glyph-name="Lcaron" unicode="&#x13d;" horiz-adv-x="494" 
d="M19 0zM482 -184h-463v46h15q11 0 17 3.5t9 13t4 27t3 44.5q1 17 1.5 44t1 73.5t0.5 117v172.5q0 79 -0.5 130t-1 83.5t-2 52.5t-3.5 38t-8.5 24.5t-21.5 6.5h-14v45h207v-45h-27q-26 0 -32 -31q-1 -8 -2.5 -24t-2.5 -51t-2 -95.5t-1 -157.5q0 -108 1 -202.5t3 -180.5
q1 -39 9 -57t28 -18h211q14 0 21 13t7 42h43v-114zM385 714q0 -51 -27 -84.5t-66 -41.5l-9 21q27 11 38 22.5t14 25.5q-8 -4 -19 -4q-25 0 -41.5 17t-16.5 50q0 25 17.5 43.5t46.5 18.5q28 0 45.5 -18t17.5 -50z" />
    <glyph glyph-name="lcaron" unicode="&#x13e;" horiz-adv-x="336" 
d="M19 0zM212 0h-193v46h16q7 0 12 3.5t9 16.5t7 30.5t4.5 55.5t2.5 104t1 175v122.5t-1 73.5t-2 41t-4 26q-4 20 -9 26t-24 6h-12v44h148q0 -26 -1 -52t-2 -63t-1.5 -91t-0.5 -138q0 -116 0.5 -183t1 -102.5t1.5 -47.5t2 -17q3 -17 8.5 -23.5t21.5 -6.5h15v-46zM317 714
q0 -51 -27 -84.5t-66 -41.5l-9 21q27 11 38 22.5t14 25.5q-8 -4 -19 -4q-25 0 -41.5 17t-16.5 50q0 25 17.5 43.5t46.5 18.5q28 0 45.5 -18t17.5 -50z" />
    <glyph glyph-name="Ldot" unicode="&#x13f;" horiz-adv-x="494" 
d="M19 0zM482 -184h-463v46h15q11 0 17 3.5t9 13t4 27t3 44.5q1 17 1.5 44t1 73.5t0.5 117v172.5q0 79 -0.5 130t-1 83.5t-2 52.5t-3.5 38t-8.5 24.5t-21.5 6.5h-14v45h207v-45h-27q-26 0 -32 -31q-1 -8 -2.5 -24t-2.5 -51t-2 -95.5t-1 -157.5q0 -108 1 -202.5t3 -180.5
q1 -39 9 -57t28 -18h211q14 0 21 13t7 42h43v-114zM249 227q-29 0 -46.5 19.5t-17.5 51.5t17.5 52.5t46.5 20.5t47 -20.5t18 -52.5t-18 -51.5t-47 -19.5z" />
    <glyph glyph-name="ldot" unicode="&#x140;" horiz-adv-x="338" 
d="M19 0zM212 0h-193v46h16q7 0 12 3.5t9 16.5t7 30.5t4.5 55.5t2.5 104t1 175v122.5t-1 73.5t-2 41t-4 26q-4 20 -9 26t-24 6h-12v44h148q0 -26 -1 -52t-2 -63t-1.5 -91t-0.5 -138q0 -116 0.5 -183t1 -102.5t1.5 -47.5t2 -17q3 -17 8.5 -23.5t21.5 -6.5h15v-46zM256 339
q-29 0 -46.5 19.5t-17.5 51.5t17.5 52.5t46.5 20.5t47 -20.5t18 -52.5t-18 -51.5t-47 -19.5z" />
    <glyph glyph-name="Lslash" unicode="&#x141;" horiz-adv-x="494" 
d="M376 449q-21 -6 -43 -12.5t-47.5 -14.5t-56.5 -19t-70 -25v-45q0 -108 1 -202.5t3 -180.5q1 -39 9 -57t28 -18h211q14 0 21 13t7 42h43v-114h-463v46h15q11 0 17 3.5t9 13t4 27t3 44.5q1 16 1.5 43t1 72.5t0.5 112.5v165l-52 -22v83l52 14q0 58 -1 97.5t-1.5 66t-2 44.5
t-2.5 35q-2 18 -8.5 24.5t-21.5 6.5h-14v45h207v-45h-27q-26 0 -32 -31q-1 -7 -2.5 -19t-2.5 -36t-2 -62.5t-1 -98.5q55 17 109 38.5t108 47.5v-82z" />
    <glyph glyph-name="lslash" unicode="&#x142;" horiz-adv-x="231" 
d="M212 0h-193v46h16q7 0 12 3.5t9 16.5q3 8 5 18.5t3.5 29t3 47t2 74t1 110t0.5 154.5q-26 -7 -50 -17.5t-48 -21.5v71q24 5 48.5 12t49.5 17q0 32 -0.5 54t-1.5 37t-2 24.5t-3 18.5q-4 20 -9 26t-24 6h-12v44h148q0 -18 -0.5 -35.5t-1.5 -38t-1.5 -45.5t-0.5 -59
q26 8 48.5 18.5t44.5 21.5v-71q-49 -11 -94 -29v-177t0.5 -122.5t1 -79t1 -45.5t1 -22.5t1.5 -9.5q3 -17 8.5 -23.5t21.5 -6.5h15v-46z" />
    <glyph glyph-name="Nacute" unicode="&#x143;" horiz-adv-x="490" 
d="M19 0zM485 692h-9q-23 0 -31 -11q-3 -4 -5 -9.5t-3.5 -18t-2.5 -34.5t-1.5 -58.5t-0.5 -91.5v-132q0 -135 0.5 -224.5t1.5 -147t2.5 -91.5t3.5 -58h-104q-9 36 -24.5 95t-34.5 130t-41 148t-43.5 149t-41.5 133.5t-35 100.5q0 -10 -0.5 -35.5t-1 -75.5t-0.5 -128v-192
q0 -86 0.5 -135t2 -75t3.5 -35.5t6 -17.5q5 -10 11.5 -13t19.5 -3h10v-46h-148v46h10q8 0 13.5 2t11.5 12q3 5 6 11.5t4.5 22t2.5 42.5t2 73.5t1 115.5v168q0 117 -0.5 186.5t-2 108t-3 53t-4.5 21.5q-3 8 -7 11t-15 3h-19v45h152q49 -184 103 -361.5t110 -340.5
q2 88 3 166.5t1 151.5q0 108 -1 171t-2.5 96t-4 44.5t-5.5 16.5q-4 8 -8 9.5t-10 1.5h-21v45h149v-45zM276 939h114l-116 -157h-91z" />
    <glyph glyph-name="nacute" unicode="&#x144;" horiz-adv-x="453" 
d="M15 0zM447 0h-192v46h14q19 0 24 8q3 3 5 9.5t3.5 27t2.5 59t1 106.5q0 48 -1 75.5t-3.5 43.5t-7 24t-11.5 17q-17 21 -50 21q-18 0 -30 -7t-20 -17q-6 -8 -10.5 -19t-7 -29t-3.5 -45.5t-1 -68.5v-100t0.5 -54.5t1 -24.5t2.5 -10q3 -8 10 -12t24 -4h10v-46h-193v46h15
q20 0 27 20q2 6 3.5 14t2 29t1 62t0.5 115v65t-1 39t-2.5 20.5t-4.5 9.5q-6 6 -12.5 10.5t-18.5 4.5h-10v45h27q20 0 33 -2.5t22 -8.5t15.5 -15t13.5 -21q20 28 48.5 43t78.5 15q42 0 70.5 -14t46 -36t25 -48.5t7.5 -50.5q0 -97 1 -152t2 -83.5t2.5 -37.5t2.5 -12
q4 -11 26 -11h11v-46zM257 713h114l-116 -157h-91z" />
    <glyph glyph-name="Ncommaaccent" unicode="&#x145;" horiz-adv-x="490" 
d="M19 0zM485 692h-9q-23 0 -31 -11q-3 -4 -5 -9.5t-3.5 -18t-2.5 -34.5t-1.5 -58.5t-0.5 -91.5v-132q0 -135 0.5 -224.5t1.5 -147t2.5 -91.5t3.5 -58h-104q-9 36 -24.5 95t-34.5 130t-41 148t-43.5 149t-41.5 133.5t-35 100.5q0 -10 -0.5 -35.5t-1 -75.5t-0.5 -128v-192
q0 -86 0.5 -135t2 -75t3.5 -35.5t6 -17.5q5 -10 11.5 -13t19.5 -3h10v-46h-148v46h10q8 0 13.5 2t11.5 12q3 5 6 11.5t4.5 22t2.5 42.5t2 73.5t1 115.5v168q0 117 -0.5 186.5t-2 108t-3 53t-4.5 21.5q-3 8 -7 11t-15 3h-19v45h152q49 -184 103 -361.5t110 -340.5
q2 88 3 166.5t1 151.5q0 108 -1 171t-2.5 96t-4 44.5t-5.5 16.5q-4 8 -8 9.5t-10 1.5h-21v45h149v-45zM296 -106q0 -51 -27 -84.5t-66 -41.5l-9 21q27 11 38 22.5t14 25.5q-8 -4 -19 -4q-25 0 -41.5 17t-16.5 50q0 25 17.5 43.5t46.5 18.5q28 0 45.5 -18t17.5 -50z" />
    <glyph glyph-name="ncommaaccent" unicode="&#x146;" horiz-adv-x="453" 
d="M15 0zM447 0h-192v46h14q19 0 24 8q3 3 5 9.5t3.5 27t2.5 59t1 106.5q0 48 -1 75.5t-3.5 43.5t-7 24t-11.5 17q-17 21 -50 21q-18 0 -30 -7t-20 -17q-6 -8 -10.5 -19t-7 -29t-3.5 -45.5t-1 -68.5v-100t0.5 -54.5t1 -24.5t2.5 -10q3 -8 10 -12t24 -4h10v-46h-193v46h15
q20 0 27 20q2 6 3.5 14t2 29t1 62t0.5 115v65t-1 39t-2.5 20.5t-4.5 9.5q-6 6 -12.5 10.5t-18.5 4.5h-10v45h27q20 0 33 -2.5t22 -8.5t15.5 -15t13.5 -21q20 28 48.5 43t78.5 15q42 0 70.5 -14t46 -36t25 -48.5t7.5 -50.5q0 -97 1 -152t2 -83.5t2.5 -37.5t2.5 -12
q4 -11 26 -11h11v-46zM292 -106q0 -51 -27 -84.5t-66 -41.5l-9 21q27 11 38 22.5t14 25.5q-8 -4 -19 -4q-25 0 -41.5 17t-16.5 50q0 25 17.5 43.5t46.5 18.5q28 0 45.5 -18t17.5 -50z" />
    <glyph glyph-name="Ncaron" unicode="&#x147;" horiz-adv-x="490" 
d="M19 0zM485 692h-9q-23 0 -31 -11q-3 -4 -5 -9.5t-3.5 -18t-2.5 -34.5t-1.5 -58.5t-0.5 -91.5v-132q0 -135 0.5 -224.5t1.5 -147t2.5 -91.5t3.5 -58h-104q-9 36 -24.5 95t-34.5 130t-41 148t-43.5 149t-41.5 133.5t-35 100.5q0 -10 -0.5 -35.5t-1 -75.5t-0.5 -128v-192
q0 -86 0.5 -135t2 -75t3.5 -35.5t6 -17.5q5 -10 11.5 -13t19.5 -3h10v-46h-148v46h10q8 0 13.5 2t11.5 12q3 5 6 11.5t4.5 22t2.5 42.5t2 73.5t1 115.5v168q0 117 -0.5 186.5t-2 108t-3 53t-4.5 21.5q-3 8 -7 11t-15 3h-19v45h152q49 -184 103 -361.5t110 -340.5
q2 88 3 166.5t1 151.5q0 108 -1 171t-2.5 96t-4 44.5t-5.5 16.5q-4 8 -8 9.5t-10 1.5h-21v45h149v-45zM88 939h84l72 -96l73 96h83l-106 -157h-100z" />
    <glyph glyph-name="ncaron" unicode="&#x148;" horiz-adv-x="453" 
d="M15 0zM447 0h-192v46h14q19 0 24 8q3 3 5 9.5t3.5 27t2.5 59t1 106.5q0 48 -1 75.5t-3.5 43.5t-7 24t-11.5 17q-17 21 -50 21q-18 0 -30 -7t-20 -17q-6 -8 -10.5 -19t-7 -29t-3.5 -45.5t-1 -68.5v-100t0.5 -54.5t1 -24.5t2.5 -10q3 -8 10 -12t24 -4h10v-46h-193v46h15
q20 0 27 20q2 6 3.5 14t2 29t1 62t0.5 115v65t-1 39t-2.5 20.5t-4.5 9.5q-6 6 -12.5 10.5t-18.5 4.5h-10v45h27q20 0 33 -2.5t22 -8.5t15.5 -15t13.5 -21q20 28 48.5 43t78.5 15q42 0 70.5 -14t46 -36t25 -48.5t7.5 -50.5q0 -97 1 -152t2 -83.5t2.5 -37.5t2.5 -12
q4 -11 26 -11h11v-46zM70 713h84l72 -96l73 96h83l-106 -157h-100z" />
    <glyph glyph-name="Eng" unicode="&#x14a;" horiz-adv-x="490" 
d="M319 -151q7 13 11.5 25.5t7.5 29.5q-14 50 -33.5 112t-41 127.5t-43.5 131t-41.5 122.5t-36 103t-26.5 72q0 -10 -0.5 -37t-1 -62t-0.5 -74v-73q0 -59 0.5 -97t2 -61.5t3.5 -35.5t6 -20q5 -10 11.5 -13t19.5 -3h10v-46h-148v46h10q15 0 23.5 15t12 42.5t4.5 67t1 88.5
q0 117 -0.5 186.5t-2 108t-3 53t-4.5 21.5q-3 8 -7 11t-15 3h-19v45h152q49 -184 103 -361.5t110 -340.5q2 88 3 166.5t1 151.5q0 108 -1 171t-2.5 96t-4 44.5t-5.5 16.5q-4 8 -8 9.5t-10 1.5h-21v45h149v-45h-9q-23 0 -31 -11q-3 -5 -5 -12t-3.5 -25.5t-2.5 -52t-1.5 -91
t-0.5 -142.5v-207q0 -42 0.5 -82t0.5 -81q0 -103 -43 -161.5t-119 -58.5q-65 0 -105.5 34.5t-40.5 97.5q0 34 18 52.5t45 18.5q29 0 47 -18.5t18 -47.5q0 -27 -11 -41t-34 -21q3 -12 15.5 -20.5t36.5 -8.5q20 0 34.5 8t24.5 27z" />
    <glyph glyph-name="eng" unicode="&#x14b;" horiz-adv-x="444" 
d="M401 -12q-1 -103 -43 -161.5t-118 -58.5q-65 0 -105.5 34.5t-40.5 97.5q0 34 18 52.5t45 18.5q28 0 46.5 -18.5t18.5 -47.5q0 -27 -11 -41t-34 -21q3 -12 15.5 -20.5t36.5 -8.5q20 0 32 8t22 27q9 19 14 40.5t6.5 64t1.5 113.5v189q0 48 -1 75.5t-3.5 43.5t-7 24
t-11.5 17q-17 21 -50 21q-18 0 -30 -7t-20 -17q-6 -8 -10.5 -19t-7 -29t-3.5 -45.5t-1 -68.5v-100t0.5 -54.5t1 -24.5t2.5 -10q3 -8 10 -12t24 -4h10v-46h-193v46h15q20 0 27 20q2 6 3.5 14t2 29t1 62t0.5 115v65t-1 39t-2.5 20.5t-4.5 9.5q-6 6 -12.5 10.5t-18.5 4.5h-10
v45h27q20 0 33 -2.5t22 -8.5t15.5 -15t13.5 -21q20 28 48.5 43t78.5 15q42 0 70.5 -14t46 -36t25 -48.5t7.5 -50.5z" />
    <glyph glyph-name="Omacron" unicode="&#x14c;" horiz-adv-x="529" 
d="M25 0zM274 -196q-62 0 -106 16t-73 45q-18 18 -31.5 43.5t-22 69t-12.5 111t-4 170.5q0 106 4 178t13 121t23.5 79t35.5 51q27 29 66.5 44.5t93.5 15.5q58 0 100 -17t71 -47q20 -21 33.5 -50.5t22 -78t12.5 -120.5t4 -177q0 -102 -4 -169.5t-12.5 -111t-21 -68.5
t-29.5 -43q-60 -62 -163 -62zM265 -150q36 0 64.5 16.5t45.5 46.5q6 10 10.5 25t7.5 50t4.5 99t1.5 171q0 118 -2 189.5t-6 112.5t-10.5 60t-14.5 31q-17 25 -42 38.5t-59 13.5q-67 0 -103 -53q-8 -12 -14.5 -30.5t-10.5 -59.5t-6 -112.5t-2 -188.5q0 -110 2 -176t6 -103.5
t10 -53.5t14 -26q18 -23 44 -36.5t60 -13.5zM414 815q-71 6 -138 6q-81 0 -160 -6v82q47 -4 87.5 -7t78.5 -3q33 0 65.5 2.5t66.5 7.5v-82z" />
    <glyph glyph-name="omacron" unicode="&#x14d;" 
d="M21 0zM192 491q30 0 56.5 -10.5t48.5 -30.5q15 -14 27.5 -30t21.5 -40t13.5 -59t4.5 -87q0 -41 -4 -71t-11.5 -52.5t-18.5 -39.5t-24 -31q-23 -25 -52 -37.5t-62 -12.5q-35 0 -65 14t-53 40q-12 14 -22 29.5t-17 37.5t-10.5 52t-3.5 73q0 46 4.5 79t12.5 57.5t19.5 42
t26.5 31.5q22 21 49.5 33t58.5 12zM192 446q-29 0 -48 -22q-5 -5 -8.5 -13.5t-6 -28t-4 -54.5t-1.5 -92q0 -53 1.5 -85.5t4 -51.5t6 -27.5t8.5 -14.5q9 -11 21.5 -17t26.5 -6q30 0 47 22q5 6 8.5 14.5t6 27.5t4 51.5t1.5 86.5q0 57 -1.5 91.5t-3.5 54t-6 28.5t-8 14
q-19 22 -48 22zM341 589q-71 6 -138 6q-81 0 -160 -6v82q47 -4 87.5 -7t78.5 -3q33 0 65.5 2.5t66.5 7.5v-82z" />
    <glyph glyph-name="Obreve" unicode="&#x14e;" horiz-adv-x="529" 
d="M25 0zM274 -196q-62 0 -106 16t-73 45q-18 18 -31.5 43.5t-22 69t-12.5 111t-4 170.5q0 106 4 178t13 121t23.5 79t35.5 51q27 29 66.5 44.5t93.5 15.5q58 0 100 -17t71 -47q20 -21 33.5 -50.5t22 -78t12.5 -120.5t4 -177q0 -102 -4 -169.5t-12.5 -111t-21 -68.5
t-29.5 -43q-60 -62 -163 -62zM265 -150q36 0 64.5 16.5t45.5 46.5q6 10 10.5 25t7.5 50t4.5 99t1.5 171q0 118 -2 189.5t-6 112.5t-10.5 60t-14.5 31q-17 25 -42 38.5t-59 13.5q-67 0 -103 -53q-8 -12 -14.5 -30.5t-10.5 -59.5t-6 -112.5t-2 -188.5q0 -110 2 -176t6 -103.5
t10 -53.5t14 -26q18 -23 44 -36.5t60 -13.5zM266 782q-33 0 -60.5 13.5t-48 35t-33 50t-16.5 58.5h78q0 -17 4.5 -34.5t14 -31t24.5 -22t36 -8.5q20 0 35 8.5t24.5 22t14 31t4.5 34.5h77q-5 -30 -16.5 -58.5t-30 -50t-45 -35t-62.5 -13.5z" />
    <glyph glyph-name="obreve" unicode="&#x14f;" 
d="M21 0zM192 491q30 0 56.5 -10.5t48.5 -30.5q15 -14 27.5 -30t21.5 -40t13.5 -59t4.5 -87q0 -41 -4 -71t-11.5 -52.5t-18.5 -39.5t-24 -31q-23 -25 -52 -37.5t-62 -12.5q-35 0 -65 14t-53 40q-12 14 -22 29.5t-17 37.5t-10.5 52t-3.5 73q0 46 4.5 79t12.5 57.5t19.5 42
t26.5 31.5q22 21 49.5 33t58.5 12zM192 446q-29 0 -48 -22q-5 -5 -8.5 -13.5t-6 -28t-4 -54.5t-1.5 -92q0 -53 1.5 -85.5t4 -51.5t6 -27.5t8.5 -14.5q9 -11 21.5 -17t26.5 -6q30 0 47 22q5 6 8.5 14.5t6 27.5t4 51.5t1.5 86.5q0 57 -1.5 91.5t-3.5 54t-6 28.5t-8 14
q-19 22 -48 22zM194 556q-33 0 -60.5 13.5t-48 35t-33 50t-16.5 58.5h78q0 -17 4.5 -34.5t14 -31t24.5 -22t36 -8.5q20 0 35 8.5t24.5 22t14 31t4.5 34.5h77q-5 -30 -16.5 -58.5t-30 -50t-45 -35t-62.5 -13.5z" />
    <glyph glyph-name="Ohungarumlaut" unicode="&#x150;" horiz-adv-x="529" 
d="M25 0zM274 -196q-62 0 -106 16t-73 45q-18 18 -31.5 43.5t-22 69t-12.5 111t-4 170.5q0 106 4 178t13 121t23.5 79t35.5 51q27 29 66.5 44.5t93.5 15.5q58 0 100 -17t71 -47q20 -21 33.5 -50.5t22 -78t12.5 -120.5t4 -177q0 -102 -4 -169.5t-12.5 -111t-21 -68.5
t-29.5 -43q-60 -62 -163 -62zM265 -150q36 0 64.5 16.5t45.5 46.5q6 10 10.5 25t7.5 50t4.5 99t1.5 171q0 118 -2 189.5t-6 112.5t-10.5 60t-14.5 31q-17 25 -42 38.5t-59 13.5q-67 0 -103 -53q-8 -12 -14.5 -30.5t-10.5 -59.5t-6 -112.5t-2 -188.5q0 -110 2 -176t6 -103.5
t10 -53.5t14 -26q18 -23 44 -36.5t60 -13.5zM394 939h114l-116 -157h-91zM217 939h114l-116 -157h-91z" />
    <glyph glyph-name="ohungarumlaut" unicode="&#x151;" 
d="M21 0zM192 491q30 0 56.5 -10.5t48.5 -30.5q15 -14 27.5 -30t21.5 -40t13.5 -59t4.5 -87q0 -41 -4 -71t-11.5 -52.5t-18.5 -39.5t-24 -31q-23 -25 -52 -37.5t-62 -12.5q-35 0 -65 14t-53 40q-12 14 -22 29.5t-17 37.5t-10.5 52t-3.5 73q0 46 4.5 79t12.5 57.5t19.5 42
t26.5 31.5q22 21 49.5 33t58.5 12zM192 446q-29 0 -48 -22q-5 -5 -8.5 -13.5t-6 -28t-4 -54.5t-1.5 -92q0 -53 1.5 -85.5t4 -51.5t6 -27.5t8.5 -14.5q9 -11 21.5 -17t26.5 -6q30 0 47 22q5 6 8.5 14.5t6 27.5t4 51.5t1.5 86.5q0 57 -1.5 91.5t-3.5 54t-6 28.5t-8 14
q-19 22 -48 22zM322 713h114l-116 -157h-91zM145 713h114l-116 -157h-91z" />
    <glyph glyph-name="OE" unicode="&#x152;" horiz-adv-x="785" 
d="M778 -184h-424q-18 -5 -38 -8.5t-42 -3.5q-62 0 -106 16t-73 45q-18 18 -31.5 43.5t-22 69t-12.5 111t-4 170.5q0 106 4 178t13 121t23.5 79t35.5 51q27 29 66.5 44.5t93.5 15.5q42 0 78 -11h307v-104h-43q0 59 -28 59h-71q-23 0 -30.5 -4.5t-9.5 -26.5q-2 -25 -4 -95.5
t-3 -192.5h69q35 0 35 59h42v-164h-42q0 61 -35 61h-70v-93q0 -136 1.5 -221t6.5 -119q2 -12 11 -16.5t29 -4.5h204q14 0 21 13t7 42h42v-114zM265 -150q31 0 56 12t43 34q2 48 2.5 109t0.5 136v173v123t-0.5 84.5t-1 57t-1.5 41t-2 37.5q-17 22 -41 34t-56 12
q-67 0 -103 -53q-8 -12 -14.5 -30.5t-10.5 -59.5t-6 -112.5t-2 -188.5q0 -110 2 -176t6 -103.5t10 -53.5t14 -26q18 -23 44 -36.5t60 -13.5z" />
    <glyph glyph-name="oe" unicode="&#x153;" horiz-adv-x="584" 
d="M569 114q-38 -124 -151 -124q-34 0 -61.5 13.5t-49.5 37.5l-1 -1q-23 -25 -52 -37.5t-62 -12.5q-35 0 -65 14t-53 40q-12 14 -22 29.5t-17 37.5t-10.5 52t-3.5 73q0 46 4.5 79t12.5 57.5t19.5 42t26.5 31.5q22 21 49.5 33t58.5 12t64 -13t52 -38q22 23 50 37t60 14
q69 0 108.5 -35t39.5 -106q0 -15 -3.5 -26.5t-12.5 -21.5t-24.5 -19t-39.5 -20l-137 -60q0 -40 2 -65.5t5 -41t7 -24.5t9 -15q21 -23 46 -23q51 0 82 26.5t42 59.5zM192 446q-30 0 -48 -22q-5 -5 -8.5 -13.5t-6 -28t-4 -54.5t-1.5 -92q0 -53 1.5 -85.5t4 -51.5t6 -27.5
t8.5 -14.5q9 -11 21.5 -17t26.5 -6q32 0 50 17t27 49q-11 26 -17 60t-6 77q0 48 5.5 82.5t16.5 61.5q-6 28 -21 46.5t-55 18.5zM493 356q0 45 -16 67.5t-59 22.5q-16 0 -28 -7.5t-22 -19.5q-5 -6 -8.5 -14t-5.5 -25.5t-3.5 -46.5t-1.5 -76l118 48q14 5 20 16.5t6 34.5z" />
    <glyph glyph-name="Racute" unicode="&#x154;" horiz-adv-x="601" 
d="M19 0zM250 737q41 0 72 -12t53 -38q12 -14 20.5 -27.5t14 -32t8.5 -43.5t3 -60q0 -63 -14 -99t-41 -60q-19 -17 -41.5 -25t-56.5 -10q15 -3 26 -9.5t25 -17.5q17 -13 37.5 -43t37.5 -71q13 -33 24.5 -69t23.5 -72.5t25 -72.5t30 -68q14 -25 28 -35t37 -10h36v-46h-66
q-29 0 -51 5.5t-39.5 19.5t-32 38t-29.5 62q-24 59 -42.5 121t-42.5 116q-23 49 -42 80t-43 45q-26 14 -51 17q0 -126 0.5 -204.5t1.5 -124.5t2.5 -67t3.5 -33q4 -20 11 -24.5t23 -4.5h10v-46h-192v46h9q19 0 26 5.5t9 23.5q2 11 3 22.5t1.5 30t1 47.5t1 76.5t0.5 117v168.5
q0 73 -0.5 123.5t-1 85t-1.5 55.5t-2.5 33t-4 18.5t-5.5 12.5q-5 11 -24 11h-12v45h231zM200 692q-18 0 -27 -23q-5 -13 -7.5 -27.5t-4 -45t-2 -83t-0.5 -140.5h61q26 0 46 10.5t32 28.5q11 16 15.5 40.5t4.5 74.5q0 31 -1 51.5t-3.5 34.5t-6.5 23.5t-10 18.5
q-12 18 -30 27.5t-47 9.5h-20zM279 939h114l-116 -157h-91z" />
    <glyph glyph-name="racute" unicode="&#x155;" horiz-adv-x="378" 
d="M15 0zM129 430q17 24 46 42.5t69 18.5q60 0 90 -32t30 -104q0 -34 -19 -54.5t-47 -20.5q-29 0 -46 19t-17 50q0 26 13.5 46.5t38.5 20.5q0 17 -12.5 23t-26.5 6q-42 0 -65 -33t-23 -110v-51v-100t0.5 -54.5t1 -24.5t2.5 -10q3 -8 10 -12t24 -4h24v-46h-207v46h15
q20 0 27 20q2 6 3.5 14t2 29t1 62t0.5 115v65t-1 39t-2.5 20.5t-4.5 9.5q-6 6 -12.5 10.5t-18.5 4.5h-10v45h27q20 0 33.5 -2.5t23 -8.5t16.5 -15.5t14 -23.5zM219 713h114l-116 -157h-91z" />
    <glyph glyph-name="Rcommaaccent" unicode="&#x156;" horiz-adv-x="601" 
d="M19 0zM250 737q41 0 72 -12t53 -38q12 -14 20.5 -27.5t14 -32t8.5 -43.5t3 -60q0 -63 -14 -99t-41 -60q-19 -17 -41.5 -25t-56.5 -10q15 -3 26 -9.5t25 -17.5q17 -13 37.5 -43t37.5 -71q13 -33 24.5 -69t23.5 -72.5t25 -72.5t30 -68q14 -25 28 -35t37 -10h36v-46h-66
q-29 0 -51 5.5t-39.5 19.5t-32 38t-29.5 62q-24 59 -42.5 121t-42.5 116q-23 49 -42 80t-43 45q-26 14 -51 17q0 -126 0.5 -204.5t1.5 -124.5t2.5 -67t3.5 -33q4 -20 11 -24.5t23 -4.5h10v-46h-192v46h9q19 0 26 5.5t9 23.5q2 11 3 22.5t1.5 30t1 47.5t1 76.5t0.5 117v168.5
q0 73 -0.5 123.5t-1 85t-1.5 55.5t-2.5 33t-4 18.5t-5.5 12.5q-5 11 -24 11h-12v45h231zM200 692q-18 0 -27 -23q-5 -13 -7.5 -27.5t-4 -45t-2 -83t-0.5 -140.5h61q26 0 46 10.5t32 28.5q11 16 15.5 40.5t4.5 74.5q0 31 -1 51.5t-3.5 34.5t-6.5 23.5t-10 18.5
q-12 18 -30 27.5t-47 9.5h-20zM355 -106q0 -51 -27 -84.5t-66 -41.5l-9 21q27 11 38 22.5t14 25.5q-8 -4 -19 -4q-25 0 -41.5 17t-16.5 50q0 25 17.5 43.5t46.5 18.5q28 0 45.5 -18t17.5 -50z" />
    <glyph glyph-name="rcommaaccent" unicode="&#x157;" horiz-adv-x="378" 
d="M15 0zM129 430q17 24 46 42.5t69 18.5q60 0 90 -32t30 -104q0 -34 -19 -54.5t-47 -20.5q-29 0 -46 19t-17 50q0 26 13.5 46.5t38.5 20.5q0 17 -12.5 23t-26.5 6q-42 0 -65 -33t-23 -110v-51v-100t0.5 -54.5t1 -24.5t2.5 -10q3 -8 10 -12t24 -4h24v-46h-207v46h15
q20 0 27 20q2 6 3.5 14t2 29t1 62t0.5 115v65t-1 39t-2.5 20.5t-4.5 9.5q-6 6 -12.5 10.5t-18.5 4.5h-10v45h27q20 0 33.5 -2.5t23 -8.5t16.5 -15.5t14 -23.5zM177 -106q0 -51 -27 -84.5t-66 -41.5l-9 21q27 11 38 22.5t14 25.5q-8 -4 -19 -4q-25 0 -41.5 17t-16.5 50
q0 25 17.5 43.5t46.5 18.5q28 0 45.5 -18t17.5 -50z" />
    <glyph glyph-name="Rcaron" unicode="&#x158;" horiz-adv-x="601" 
d="M19 0zM250 737q41 0 72 -12t53 -38q12 -14 20.5 -27.5t14 -32t8.5 -43.5t3 -60q0 -63 -14 -99t-41 -60q-19 -17 -41.5 -25t-56.5 -10q15 -3 26 -9.5t25 -17.5q17 -13 37.5 -43t37.5 -71q13 -33 24.5 -69t23.5 -72.5t25 -72.5t30 -68q14 -25 28 -35t37 -10h36v-46h-66
q-29 0 -51 5.5t-39.5 19.5t-32 38t-29.5 62q-24 59 -42.5 121t-42.5 116q-23 49 -42 80t-43 45q-26 14 -51 17q0 -126 0.5 -204.5t1.5 -124.5t2.5 -67t3.5 -33q4 -20 11 -24.5t23 -4.5h10v-46h-192v46h9q19 0 26 5.5t9 23.5q2 11 3 22.5t1.5 30t1 47.5t1 76.5t0.5 117v168.5
q0 73 -0.5 123.5t-1 85t-1.5 55.5t-2.5 33t-4 18.5t-5.5 12.5q-5 11 -24 11h-12v45h231zM200 692q-18 0 -27 -23q-5 -13 -7.5 -27.5t-4 -45t-2 -83t-0.5 -140.5h61q26 0 46 10.5t32 28.5q11 16 15.5 40.5t4.5 74.5q0 31 -1 51.5t-3.5 34.5t-6.5 23.5t-10 18.5
q-12 18 -30 27.5t-47 9.5h-20zM82 939h84l72 -96l73 96h83l-106 -157h-100z" />
    <glyph glyph-name="rcaron" unicode="&#x159;" horiz-adv-x="378" 
d="M15 0zM129 430q17 24 46 42.5t69 18.5q60 0 90 -32t30 -104q0 -34 -19 -54.5t-47 -20.5q-29 0 -46 19t-17 50q0 26 13.5 46.5t38.5 20.5q0 17 -12.5 23t-26.5 6q-42 0 -65 -33t-23 -110v-51v-100t0.5 -54.5t1 -24.5t2.5 -10q3 -8 10 -12t24 -4h24v-46h-207v46h15
q20 0 27 20q2 6 3.5 14t2 29t1 62t0.5 115v65t-1 39t-2.5 20.5t-4.5 9.5q-6 6 -12.5 10.5t-18.5 4.5h-10v45h27q20 0 33.5 -2.5t23 -8.5t16.5 -15.5t14 -23.5zM32 713h84l72 -96l73 96h83l-106 -157h-100z" />
    <glyph glyph-name="Sacute" unicode="&#x15a;" horiz-adv-x="372" 
d="M15 0zM354 4q0 -99 -51 -149.5t-137 -50.5q-56 0 -95.5 28t-55.5 88l32 13q10 -37 38 -60.5t65 -23.5q55 0 81 37.5t26 92.5q0 39 -8.5 72.5t-24 66t-37.5 67t-48 77.5q-28 47 -46 83.5t-31 72.5q-11 32 -19 68t-8 71q0 39 10 73.5t29.5 61t49.5 41.5t70 15q38 0 59 -10
t32 -26v46h47v-138h-47q0 36 -21 60.5t-62 24.5q-18 0 -35 -9t-26 -28q-11 -23 -11 -79q0 -32 4.5 -60t16.5 -59.5t32 -70.5t51 -94q18 -32 31 -54.5t23 -40t18 -33t16 -33.5q16 -36 24 -66t8 -74zM230 939h114l-116 -157h-91z" />
    <glyph glyph-name="sacute" unicode="&#x15b;" horiz-adv-x="340" 
d="M10 0zM165 491q26 0 50 -10t39 -37v47h40v-141h-40v9q0 15 -3 27.5t-12 26.5q-11 17 -25.5 26t-37.5 9q-28 0 -42 -15t-14 -42q0 -20 9 -34t28 -27q14 -9 32 -18l42 -21q38 -18 58 -45q17 -21 23.5 -42.5t6.5 -49.5q0 -41 -13 -71.5t-35.5 -51t-52.5 -31t-64 -10.5
q-27 0 -52 8.5t-44.5 26t-32.5 42.5t-15 58l30 8q6 -46 38.5 -72.5t72.5 -26.5q34 0 56 20.5t22 59.5q0 23 -5.5 36t-20.5 28q-10 10 -27.5 21t-37 22t-38 22.5t-30.5 23.5q-21 21 -30.5 45t-9.5 50q0 59 38 94t97 35zM204 713h114l-116 -157h-91z" />
    <glyph glyph-name="Scedilla" unicode="&#x15e;" horiz-adv-x="372" 
d="M354 189q0 -99 -51 -149t-137 -50q-56 0 -95.5 27.5t-55.5 87.5l32 14q10 -38 38 -61.5t65 -23.5q28 0 48 10t33 28t19.5 41.5t6.5 50.5q0 40 -16.5 70t-41 55.5t-53.5 50t-53.5 54.5t-41 69t-16.5 94q0 39 10 73.5t29.5 61t49.5 41.5t70 15q38 0 59 -10t32 -26v46h47
v-138h-47q0 36 -21 60.5t-62 24.5q-18 0 -35 -9t-26 -28q-11 -23 -11 -79q0 -43 16.5 -74t41.5 -57.5t54 -51.5t54 -55t41.5 -69t16.5 -93zM250 -106q0 -51 -27.5 -84.5t-66.5 -41.5l-8 21q26 11 37.5 22.5t14.5 25.5q-9 -4 -19 -4q-25 0 -41.5 17t-16.5 50q0 25 17.5 43.5
t45.5 18.5q29 0 46.5 -18t17.5 -50z" />
    <glyph glyph-name="scedilla" unicode="&#x15f;" horiz-adv-x="340" 
d="M10 0zM165 491q26 0 50 -10t39 -37v47h40v-141h-40v9q0 15 -3 27.5t-12 26.5q-11 17 -25.5 26t-37.5 9q-28 0 -42 -15t-14 -42q0 -20 9 -34t28 -27q14 -9 32 -18l42 -21q38 -18 58 -45q17 -21 23.5 -42.5t6.5 -49.5q0 -41 -13 -71.5t-35.5 -51t-52.5 -31t-64 -10.5
q-27 0 -52 8.5t-44.5 26t-32.5 42.5t-15 58l30 8q6 -46 38.5 -72.5t72.5 -26.5q34 0 56 20.5t22 59.5q0 23 -5.5 36t-20.5 28q-10 10 -27.5 21t-37 22t-38 22.5t-30.5 23.5q-21 21 -30.5 45t-9.5 50q0 59 38 94t97 35zM233 -106q0 -51 -27 -84.5t-66 -41.5l-9 21
q27 11 38 22.5t14 25.5q-8 -4 -19 -4q-25 0 -41.5 17t-16.5 50q0 25 17.5 43.5t46.5 18.5q28 0 45.5 -18t17.5 -50z" />
    <glyph glyph-name="Scaron" unicode="&#x160;" horiz-adv-x="372" 
d="M15 0zM354 4q0 -99 -51 -149.5t-137 -50.5q-56 0 -95.5 28t-55.5 88l32 13q10 -37 38 -60.5t65 -23.5q55 0 81 37.5t26 92.5q0 39 -8.5 72.5t-24 66t-37.5 67t-48 77.5q-28 47 -46 83.5t-31 72.5q-11 32 -19 68t-8 71q0 39 10 73.5t29.5 61t49.5 41.5t70 15q38 0 59 -10
t32 -26v46h47v-138h-47q0 36 -21 60.5t-62 24.5q-18 0 -35 -9t-26 -28q-11 -23 -11 -79q0 -32 4.5 -60t16.5 -59.5t32 -70.5t51 -94q18 -32 31 -54.5t23 -40t18 -33t16 -33.5q16 -36 24 -66t8 -74zM30 939h84l72 -96l73 96h83l-106 -157h-100z" />
    <glyph glyph-name="scaron" unicode="&#x161;" horiz-adv-x="340" 
d="M10 0zM165 491q26 0 50 -10t39 -37v47h40v-141h-40v9q0 15 -3 27.5t-12 26.5q-11 17 -25.5 26t-37.5 9q-28 0 -42 -15t-14 -42q0 -20 9 -34t28 -27q14 -9 32 -18l42 -21q38 -18 58 -45q17 -21 23.5 -42.5t6.5 -49.5q0 -41 -13 -71.5t-35.5 -51t-52.5 -31t-64 -10.5
q-27 0 -52 8.5t-44.5 26t-32.5 42.5t-15 58l30 8q6 -46 38.5 -72.5t72.5 -26.5q34 0 56 20.5t22 59.5q0 23 -5.5 36t-20.5 28q-10 10 -27.5 21t-37 22t-38 22.5t-30.5 23.5q-21 21 -30.5 45t-9.5 50q0 59 38 94t97 35zM18 713h84l72 -96l73 96h83l-106 -157h-100z" />
    <glyph glyph-name="Tcedilla" unicode="&#x162;" horiz-adv-x="430" 
d="M419 619h-44q0 34 -8 49t-37 15h-41q-14 0 -19 -3.5t-8 -14.5q-2 -6 -3 -41.5t-2 -85t-1 -105.5v-104q0 -53 0.5 -99t1 -81t1.5 -57t3 -28q3 -11 8 -14.5t19 -3.5h27v-46h-212v46h27q14 0 19 3.5t8 14.5q1 6 2.5 28t2 57t1 81t0.5 99v104t-1 105.5t-2 85t-3 41.5
q-3 11 -8 14.5t-19 3.5h-52q-14 0 -21 -17.5t-7 -46.5h-42v118h410v-118zM276 -106q0 -51 -27.5 -84.5t-66.5 -41.5l-8 21q26 11 37.5 22.5t14.5 25.5q-9 -4 -19 -4q-25 0 -41.5 17t-16.5 50q0 25 17.5 43.5t45.5 18.5q29 0 46.5 -18t17.5 -50z" />
    <glyph glyph-name="tcedilla" unicode="&#x163;" horiz-adv-x="313" 
d="M307 76q-1 -15 -8.5 -30.5t-20.5 -27.5t-31 -20t-41 -8q-33 0 -58.5 9.5t-45.5 40.5q-7 11 -12.5 26t-9 38t-5.5 57.5t-2 84.5v68t-0.5 49.5t-1.5 38t-2 33.5h-53v45h7q24 0 44 16t34.5 41t22.5 56.5t8 61.5v20h38v-195h82v-45h-82q-3 -25 -4.5 -47t-3 -44.5t-2 -46.5
t-0.5 -51q0 -44 0.5 -71t2 -44.5t3.5 -29.5t6 -25q6 -23 19.5 -32.5t31.5 -9.5q23 0 37 14.5t19 33.5zM245 -106q0 -51 -27 -84.5t-66 -41.5l-8 21q26 11 37 22.5t15 25.5q-9 -4 -19 -4q-25 0 -41.5 17t-16.5 50q0 25 17.5 43.5t45.5 18.5t45.5 -18t17.5 -50z" />
    <glyph glyph-name="Tcaron" unicode="&#x164;" horiz-adv-x="430" 
d="M9 0zM419 619h-44q0 34 -8 49t-37 15h-41q-14 0 -19 -3.5t-8 -14.5q-2 -6 -3 -41.5t-2 -85t-1 -105.5v-104v-81t0.5 -95t1 -96t1 -85t1.5 -63t2 -29q3 -11 8 -14.5t19 -3.5h27v-46h-212v46h27q14 0 19 3.5t8 14.5q1 4 2 29t1.5 63t1 85t1 96t0.5 94.5v81.5v104t-1 105.5
t-2 85t-3 41.5q-3 11 -8 14.5t-19 3.5h-52q-14 0 -21 -17.5t-7 -46.5h-42v118h410v-118zM58 939h84l72 -96l73 96h83l-106 -157h-100z" />
    <glyph glyph-name="tcaron" unicode="&#x165;" horiz-adv-x="369" 
d="M16 0zM307 -30q-1 -15 -8.5 -30.5t-20.5 -27.5t-31 -20t-41 -8q-33 0 -58.5 9.5t-45.5 39.5q-7 11 -12.5 26t-9 38.5t-5.5 58t-2 84.5v127.5t-0.5 81t-1.5 50.5t-2 36h-53v45h7q24 0 44 16t34.5 41t22.5 56.5t8 61.5v20h38v-195h82v-45h-82q-3 -25 -4.5 -50.5t-3 -59
t-2 -78t-0.5 -107.5q0 -44 0.5 -71t2 -44.5t3.5 -29.5t6 -25q6 -23 19.5 -32.5t31.5 -9.5q23 0 37 14.5t19 33.5zM343 714q0 -51 -27 -84.5t-66 -41.5l-9 21q27 11 38 22.5t14 25.5q-8 -4 -19 -4q-25 0 -41.5 17t-16.5 50q0 25 17.5 43.5t46.5 18.5q28 0 45.5 -18t17.5 -50z
" />
    <glyph glyph-name="Tbar" unicode="&#x166;" horiz-adv-x="430" 
d="M357 406q-19 2 -47 3.5t-54 2.5v-83v-81t0.5 -95t1 -96t1 -85t1.5 -63t2 -29q3 -11 8 -14.5t19 -3.5h27v-46h-212v46h27q14 0 19 3.5t8 14.5q1 4 2 29t1.5 63t1 85t1 96t0.5 94.5v81.5v82q-25 -1 -49 -2t-42 -3v82q20 -2 43.5 -4t46.5 -4q0 34 -0.5 65.5t-1 57t-1.5 42
t-2 20.5q-3 11 -8 14.5t-19 3.5h-52q-14 0 -21 -17.5t-7 -46.5h-42v118h410v-118h-44q0 34 -8 49t-37 15h-41q-14 0 -19 -3.5t-8 -14.5q-1 -5 -2 -21.5t-2 -42t-1.5 -57.5t-0.5 -66q25 1 53.5 3.5t47.5 6.5v-82z" />
    <glyph glyph-name="tbar" unicode="&#x167;" horiz-adv-x="267" 
d="M244 201q-42 4 -84 6v-67q0 -44 0.5 -71t2 -44.5t3.5 -29.5t6 -25q6 -23 19.5 -32.5t31.5 -9.5q23 0 37 14.5t19 33.5l28 -6q-1 -15 -8.5 -30.5t-20.5 -27.5t-31 -20t-41 -8q-33 0 -58.5 9.5t-45.5 39.5q-7 11 -12.5 26t-9 38.5t-5.5 58t-2 84.5v65l-50 -4v73l50 -7
q0 37 -0.5 63.5t-1 45.5t-1 32.5t-1.5 26.5h-53v45h7q24 0 44 16t34.5 41t22.5 56.5t8 61.5v20h38v-195h82v-45h-82q-2 -17 -3.5 -35t-2.5 -38t-2 -44t-2 -54q21 0 41.5 2.5t42.5 7.5v-73z" />
    <glyph glyph-name="Utilde" unicode="&#x168;" horiz-adv-x="527" 
d="M15 0zM513 692h-13q-14 0 -23 -13q-4 -7 -6.5 -15t-4 -21.5t-2 -35t-0.5 -55.5q0 -30 0.5 -83t1.5 -117t1.5 -131.5t0.5 -125.5q0 -81 -10.5 -140t-36.5 -94q-21 -29 -55 -43t-91 -14q-55 0 -99 16.5t-72 54.5q-12 16 -20.5 34t-14 40.5t-8 52t-2.5 70.5q0 96 2 196.5
t2 220.5v80t-0.5 50t-1.5 30t-3 20q-3 13 -8.5 18t-22.5 5h-12v45h200v-45h-13q-21 0 -29 -21q-4 -10 -6.5 -22t-3.5 -34.5t-1.5 -60t-0.5 -100.5q0 -32 -1 -118t-1 -207q0 -58 1.5 -94t4 -59t7 -37t10.5 -27q15 -34 40 -48t63 -14q32 0 54 8t35 28q13 19 22 41t14.5 54
t7.5 79t2 118q0 100 -0.5 168t-1.5 116.5t-2 84t-2 70.5q-1 29 -2.5 41t-7.5 21q-11 13 -29 13h-11v45h149v-45zM438 856q-6 -10 -17 -18.5t-23 -15t-24.5 -10.5t-22.5 -4q-18 0 -34 7.5t-31 16.5t-29 16.5t-29 7.5q-21 0 -43 -17t-39 -41l-18 62q17 24 45 42.5t52 18.5
q18 0 33 -7.5t29 -16.5t27.5 -16.5t28.5 -7.5q20 0 41 14.5t36 31.5z" />
    <glyph glyph-name="utilde" unicode="&#x169;" horiz-adv-x="421" 
d="M8 0zM416 435h-12q-19 0 -26 -13q-3 -4 -4.5 -11t-2 -27t-1 -57.5t-0.5 -102.5q0 -42 -1.5 -70.5t-4 -48t-7 -32.5t-10.5 -23q-35 -60 -124 -60q-45 0 -80 12t-57 38q-9 10 -15 24t-9.5 36.5t-5.5 55.5t-2 81q0 61 -0.5 97t-1 55t-2 25.5t-3.5 9.5q-4 6 -12 8.5t-27 2.5
v45h194v-45h-15q-14 0 -23 -10q-4 -4 -6 -10t-3.5 -23.5t-2 -50t-0.5 -90.5q0 -52 1 -83.5t2.5 -50t4 -28t6.5 -17.5q10 -20 23 -27.5t36 -7.5q20 0 33.5 8t23.5 27q4 8 6.5 17.5t4 27.5t2 47.5t0.5 79.5q0 52 -0.5 83.5t-1 50.5t-2 27.5t-3.5 13.5q-5 16 -32 16h-8v45h168
v-45zM375 630q-6 -10 -17 -18.5t-23 -15t-24.5 -10.5t-22.5 -4q-18 0 -34 7.5t-31 16.5t-29 16.5t-29 7.5q-21 0 -43 -17t-39 -41l-18 62q17 24 45 42.5t52 18.5q18 0 33 -7.5t29 -16.5t27.5 -16.5t28.5 -7.5q20 0 41 14.5t36 31.5z" />
    <glyph glyph-name="Umacron" unicode="&#x16a;" horiz-adv-x="527" 
d="M15 0zM513 692h-13q-14 0 -23 -13q-4 -7 -6.5 -15t-4 -21.5t-2 -35t-0.5 -55.5q0 -30 0.5 -83t1.5 -117t1.5 -131.5t0.5 -125.5q0 -81 -10.5 -140t-36.5 -94q-21 -29 -55 -43t-91 -14q-55 0 -99 16.5t-72 54.5q-12 16 -20.5 34t-14 40.5t-8 52t-2.5 70.5q0 96 2 196.5
t2 220.5v80t-0.5 50t-1.5 30t-3 20q-3 13 -8.5 18t-22.5 5h-12v45h200v-45h-13q-21 0 -29 -21q-4 -10 -6.5 -22t-3.5 -34.5t-1.5 -60t-0.5 -100.5q0 -32 -1 -118t-1 -207q0 -58 1.5 -94t4 -59t7 -37t10.5 -27q15 -34 40 -48t63 -14q32 0 54 8t35 28q13 19 22 41t14.5 54
t7.5 79t2 118q0 100 -0.5 168t-1.5 116.5t-2 84t-2 70.5q-1 29 -2.5 41t-7.5 21q-11 13 -29 13h-11v45h149v-45zM433 815q-71 6 -138 6q-81 0 -160 -6v82q47 -4 87.5 -7t78.5 -3q33 0 65.5 2.5t66.5 7.5v-82z" />
    <glyph glyph-name="umacron" unicode="&#x16b;" horiz-adv-x="421" 
d="M8 0zM416 435h-12q-19 0 -26 -13q-3 -4 -4.5 -11t-2 -27t-1 -57.5t-0.5 -102.5q0 -42 -1.5 -70.5t-4 -48t-7 -32.5t-10.5 -23q-35 -60 -124 -60q-45 0 -80 12t-57 38q-9 10 -15 24t-9.5 36.5t-5.5 55.5t-2 81q0 61 -0.5 97t-1 55t-2 25.5t-3.5 9.5q-4 6 -12 8.5t-27 2.5
v45h194v-45h-15q-14 0 -23 -10q-4 -4 -6 -10t-3.5 -23.5t-2 -50t-0.5 -90.5q0 -52 1 -83.5t2.5 -50t4 -28t6.5 -17.5q10 -20 23 -27.5t36 -7.5q20 0 33.5 8t23.5 27q4 8 6.5 17.5t4 27.5t2 47.5t0.5 79.5q0 52 -0.5 83.5t-1 50.5t-2 27.5t-3.5 13.5q-5 16 -32 16h-8v45h168
v-45zM370 589q-71 6 -138 6q-81 0 -160 -6v82q47 -4 87.5 -7t78.5 -3q33 0 65.5 2.5t66.5 7.5v-82z" />
    <glyph glyph-name="Ubreve" unicode="&#x16c;" horiz-adv-x="527" 
d="M15 0zM513 692h-13q-14 0 -23 -13q-4 -7 -6.5 -15t-4 -21.5t-2 -35t-0.5 -55.5q0 -30 0.5 -83t1.5 -117t1.5 -131.5t0.5 -125.5q0 -81 -10.5 -140t-36.5 -94q-21 -29 -55 -43t-91 -14q-55 0 -99 16.5t-72 54.5q-12 16 -20.5 34t-14 40.5t-8 52t-2.5 70.5q0 96 2 196.5
t2 220.5v80t-0.5 50t-1.5 30t-3 20q-3 13 -8.5 18t-22.5 5h-12v45h200v-45h-13q-21 0 -29 -21q-4 -10 -6.5 -22t-3.5 -34.5t-1.5 -60t-0.5 -100.5q0 -32 -1 -118t-1 -207q0 -58 1.5 -94t4 -59t7 -37t10.5 -27q15 -34 40 -48t63 -14q32 0 54 8t35 28q13 19 22 41t14.5 54
t7.5 79t2 118q0 100 -0.5 168t-1.5 116.5t-2 84t-2 70.5q-1 29 -2.5 41t-7.5 21q-11 13 -29 13h-11v45h149v-45zM286 782q-33 0 -60.5 13.5t-48 35t-33 50t-16.5 58.5h78q0 -17 4.5 -34.5t14 -31t24.5 -22t36 -8.5q20 0 35 8.5t24.5 22t14 31t4.5 34.5h77
q-5 -30 -16.5 -58.5t-30 -50t-45 -35t-62.5 -13.5z" />
    <glyph glyph-name="ubreve" unicode="&#x16d;" horiz-adv-x="421" 
d="M8 0zM416 435h-12q-19 0 -26 -13q-3 -4 -4.5 -11t-2 -27t-1 -57.5t-0.5 -102.5q0 -42 -1.5 -70.5t-4 -48t-7 -32.5t-10.5 -23q-35 -60 -124 -60q-45 0 -80 12t-57 38q-9 10 -15 24t-9.5 36.5t-5.5 55.5t-2 81q0 61 -0.5 97t-1 55t-2 25.5t-3.5 9.5q-4 6 -12 8.5t-27 2.5
v45h194v-45h-15q-14 0 -23 -10q-4 -4 -6 -10t-3.5 -23.5t-2 -50t-0.5 -90.5q0 -52 1 -83.5t2.5 -50t4 -28t6.5 -17.5q10 -20 23 -27.5t36 -7.5q20 0 33.5 8t23.5 27q4 8 6.5 17.5t4 27.5t2 47.5t0.5 79.5q0 52 -0.5 83.5t-1 50.5t-2 27.5t-3.5 13.5q-5 16 -32 16h-8v45h168
v-45zM222 556q-33 0 -60.5 13.5t-48 35t-33 50t-16.5 58.5h78q0 -17 4.5 -34.5t14 -31t24.5 -22t36 -8.5q20 0 35 8.5t24.5 22t14 31t4.5 34.5h77q-5 -30 -16.5 -58.5t-30 -50t-45 -35t-62.5 -13.5z" />
    <glyph glyph-name="Uring" unicode="&#x16e;" horiz-adv-x="527" 
d="M15 0zM513 692h-13q-14 0 -23 -13q-4 -7 -6.5 -15t-4 -21.5t-2 -35t-0.5 -55.5q0 -30 0.5 -83t1.5 -117t1.5 -131.5t0.5 -125.5q0 -81 -10.5 -140t-36.5 -94q-21 -29 -55 -43t-91 -14q-55 0 -99 16.5t-72 54.5q-12 16 -20.5 34t-14 40.5t-8 52t-2.5 70.5q0 96 2 196.5
t2 220.5v80t-0.5 50t-1.5 30t-3 20q-3 13 -8.5 18t-22.5 5h-12v45h200v-45h-13q-21 0 -29 -21q-4 -10 -6.5 -22t-3.5 -34.5t-1.5 -60t-0.5 -100.5q0 -32 -1 -118t-1 -207q0 -58 1.5 -94t4 -59t7 -37t10.5 -27q15 -34 40 -48t63 -14q32 0 54 8t35 28q13 19 22 41t14.5 54
t7.5 79t2 118q0 100 -0.5 168t-1.5 116.5t-2 84t-2 70.5q-1 29 -2.5 41t-7.5 21q-11 13 -29 13h-11v45h149v-45zM390 850q0 -41 -32 -64.5t-75 -23.5q-46 0 -76 25t-30 63q0 18 8.5 34t23 28.5t33.5 19.5t41 7q21 0 40.5 -7t34.5 -19t23.5 -28t8.5 -35zM319 846q0 29 -10 44
t-26 15q-34 0 -34 -59q0 -56 34 -56q16 0 26 13t10 43z" />
    <glyph glyph-name="uring" unicode="&#x16f;" horiz-adv-x="421" 
d="M8 0zM416 435h-12q-19 0 -26 -13q-3 -4 -4.5 -11t-2 -27t-1 -57.5t-0.5 -102.5q0 -42 -1.5 -70.5t-4 -48t-7 -32.5t-10.5 -23q-35 -60 -124 -60q-45 0 -80 12t-57 38q-9 10 -15 24t-9.5 36.5t-5.5 55.5t-2 81q0 61 -0.5 97t-1 55t-2 25.5t-3.5 9.5q-4 6 -12 8.5t-27 2.5
v45h194v-45h-15q-14 0 -23 -10q-4 -4 -6 -10t-3.5 -23.5t-2 -50t-0.5 -90.5q0 -52 1 -83.5t2.5 -50t4 -28t6.5 -17.5q10 -20 23 -27.5t36 -7.5q20 0 33.5 8t23.5 27q4 8 6.5 17.5t4 27.5t2 47.5t0.5 79.5q0 52 -0.5 83.5t-1 50.5t-2 27.5t-3.5 13.5q-5 16 -32 16h-8v45h168
v-45zM327 624q0 -41 -32 -64.5t-75 -23.5q-46 0 -76 25t-30 63q0 18 8.5 34t23 28.5t33.5 19.5t41 7q21 0 40.5 -7t34.5 -19t23.5 -28t8.5 -35zM256 620q0 29 -10 44t-26 15q-34 0 -34 -59q0 -56 34 -56q16 0 26 13t10 43z" />
    <glyph glyph-name="Uhungarumlaut" unicode="&#x170;" horiz-adv-x="527" 
d="M15 0zM513 692h-13q-14 0 -23 -13q-4 -7 -6.5 -15t-4 -21.5t-2 -35t-0.5 -55.5q0 -30 0.5 -83t1.5 -117t1.5 -131.5t0.5 -125.5q0 -81 -10.5 -140t-36.5 -94q-21 -29 -55 -43t-91 -14q-55 0 -99 16.5t-72 54.5q-12 16 -20.5 34t-14 40.5t-8 52t-2.5 70.5q0 96 2 196.5
t2 220.5v80t-0.5 50t-1.5 30t-3 20q-3 13 -8.5 18t-22.5 5h-12v45h200v-45h-13q-21 0 -29 -21q-4 -10 -6.5 -22t-3.5 -34.5t-1.5 -60t-0.5 -100.5q0 -32 -1 -118t-1 -207q0 -58 1.5 -94t4 -59t7 -37t10.5 -27q15 -34 40 -48t63 -14q32 0 54 8t35 28q13 19 22 41t14.5 54
t7.5 79t2 118q0 100 -0.5 168t-1.5 116.5t-2 84t-2 70.5q-1 29 -2.5 41t-7.5 21q-11 13 -29 13h-11v45h149v-45zM414 939h114l-116 -157h-91zM237 939h114l-116 -157h-91z" />
    <glyph glyph-name="uhungarumlaut" unicode="&#x171;" horiz-adv-x="421" 
d="M8 0zM416 435h-12q-19 0 -26 -13q-3 -4 -4.5 -11t-2 -27t-1 -57.5t-0.5 -102.5q0 -42 -1.5 -70.5t-4 -48t-7 -32.5t-10.5 -23q-35 -60 -124 -60q-45 0 -80 12t-57 38q-9 10 -15 24t-9.5 36.5t-5.5 55.5t-2 81q0 61 -0.5 97t-1 55t-2 25.5t-3.5 9.5q-4 6 -12 8.5t-27 2.5
v45h194v-45h-15q-14 0 -23 -10q-4 -4 -6 -10t-3.5 -23.5t-2 -50t-0.5 -90.5q0 -52 1 -83.5t2.5 -50t4 -28t6.5 -17.5q10 -20 23 -27.5t36 -7.5q20 0 33.5 8t23.5 27q4 8 6.5 17.5t4 27.5t2 47.5t0.5 79.5q0 52 -0.5 83.5t-1 50.5t-2 27.5t-3.5 13.5q-5 16 -32 16h-8v45h168
v-45zM355 713h114l-116 -157h-91zM178 713h114l-116 -157h-91z" />
    <glyph glyph-name="Uogonek" unicode="&#x172;" horiz-adv-x="527" 
d="M385 -133q-1 -15 -8.5 -30.5t-20.5 -27.5t-31 -20t-41 -8q-19 0 -40 3.5t-38.5 13.5t-29 29t-11.5 49t21.5 60.5t74.5 53.5q-51 2 -91 18.5t-66 51.5q-12 16 -20.5 34t-14 40.5t-8 52t-2.5 70.5q0 16 0.5 40.5t1.5 55t1.5 65t0.5 71.5v80t-0.5 50t-1.5 30t-3 20
q-3 13 -8.5 18t-22.5 5h-12v45h200v-45h-13q-21 0 -29 -21q-4 -10 -6.5 -22t-3.5 -34.5t-1.5 -60t-0.5 -100.5v-14t-0.5 -5t-0.5 -6t-0.5 -16.5t-0.5 -35.5v-63q0 -58 1.5 -94t4 -59t7 -37t10.5 -27q15 -34 40 -48t63 -14q32 0 54 8t35 28q13 19 22 41t14.5 54t7.5 79t2 118
q0 36 -0.5 73.5t-1.5 72t-2 62.5t-2 46q-2 29 -3 41t-7 21q-11 13 -29 13h-11v45h149v-45h-13q-14 0 -23 -13q-4 -7 -6.5 -15t-4 -21.5t-2 -35t-0.5 -55.5q0 -30 0.5 -58t1.5 -59.5t1.5 -69t0.5 -85.5q0 -81 -10.5 -139.5t-36.5 -94.5q-14 -20 -35 -30t-47 -20
q-29 -11 -47 -24.5t-28 -28t-14 -29t-4 -26.5q0 -35 17.5 -49t37.5 -14q23 0 37 14.5t19 33.5z" />
    <glyph glyph-name="uogonek" unicode="&#x173;" horiz-adv-x="421" 
d="M320 -133q-1 -15 -8.5 -30.5t-20 -27.5t-31 -20t-41.5 -8q-19 0 -40 3.5t-38 13.5t-28.5 29t-11.5 49t22 61.5t75 53.5q-35 3 -64 14.5t-48 34.5q-9 10 -15 24t-9.5 36.5t-5.5 55.5t-2 81q0 61 -0.5 97t-1 55t-2 25.5t-3.5 9.5q-4 6 -12 8.5t-27 2.5v45h194v-45h-15
q-14 0 -23 -10q-4 -4 -6 -10t-3.5 -23.5t-2 -50t-0.5 -90.5q0 -52 1 -83.5t2.5 -50t4 -28t6.5 -17.5q10 -20 23 -27.5t36 -7.5q20 0 33.5 8t23.5 27q4 8 6.5 17.5t4 27.5t2 47.5t0.5 79.5q0 52 -0.5 83.5t-1 50.5t-2 27.5t-3.5 13.5q-5 16 -32 16h-8v45h168v-45h-12
q-19 0 -26 -13q-3 -4 -4.5 -11t-2 -27t-1 -57.5t-0.5 -102.5q0 -42 -1.5 -70.5t-4 -48t-7 -32.5t-10.5 -23q-11 -20 -28.5 -32.5t-40.5 -20.5q-29 -11 -48 -24.5t-29.5 -28.5t-14.5 -29.5t-4 -26.5q0 -35 17 -49t37 -14q23 0 37 14.5t19 33.5z" />
    <glyph glyph-name="Wcircumflex" unicode="&#x174;" horiz-adv-x="755" 
d="M15 0zM626 511q7 49 11.5 78t7 45.5t3 24.5t0.5 15q0 11 -9 14.5t-26 3.5h-13v45h140v-45h-12q-14 0 -20.5 -7.5t-10.5 -22.5q-4 -16 -13.5 -69t-21.5 -128t-26 -164t-27.5 -177.5t-25 -169.5t-19.5 -138h-92q-8 53 -18 116.5t-22 132t-24.5 138t-25.5 134.5
q-14 -68 -28 -142t-27 -143.5t-24 -131t-18 -104.5h-98q-7 64 -18.5 151t-25.5 181t-29 186.5t-28.5 167.5t-23.5 124.5t-15 56.5q-6 9 -23 9h-9v45h210v-45h-13q-35 0 -36 -19q0 -6 1 -22t3 -38t5.5 -48.5t6.5 -53.5q18 -137 35 -270.5t37 -267.5q3 11 14 63t26.5 128
t33 166.5t34.5 178.5h72q23 -137 45.5 -270t47.5 -266q2 10 8.5 49.5t16 95t20 119t20 120t16 99t8.5 55.5zM558 782h-83l-73 97l-72 -97h-84l106 157h100z" />
    <glyph glyph-name="wcircumflex" unicode="&#x175;" horiz-adv-x="602" 
d="M15 0zM588 435h-9q-11 0 -17.5 -5.5t-11.5 -24.5q-10 -33 -20.5 -78t-22 -97.5t-22 -111t-20.5 -118.5h-64q-9 35 -21 76t-24.5 83t-25.5 83t-25 77q-20 -66 -43 -148t-43 -171h-70q-10 49 -23.5 109t-27.5 118.5t-27.5 108.5t-23.5 79q-7 20 -27 20h-5v45h191v-45h-19
q-10 0 -22 -3t-12 -20q0 -4 0.5 -10t2.5 -17q11 -70 25.5 -137.5t30.5 -120.5q8 25 19 62t21.5 76.5t19.5 76.5t12 62h84q5 -25 14.5 -61.5t21 -75.5t23.5 -76.5t22 -63.5q13 48 25 113t23 142q1 5 2 16.5t1 16.5q0 8 -8 14t-25 6h-14v45h135v-45zM477 556h-83l-73 97
l-72 -97h-84l106 157h100z" />
    <glyph glyph-name="Ycircumflex" unicode="&#x176;" horiz-adv-x="517" 
d="M7 0zM510 692h-8q-12 0 -19.5 -6t-18.5 -30q-17 -35 -37 -81.5t-41 -98.5t-42.5 -105t-40.5 -100v-124t-0.5 -95.5t-0.5 -72.5v-55q0 -40 9 -51t33 -11h18v-46h-215v46h27q7 0 12.5 2.5t9.5 9.5t6.5 20t4.5 35q1 21 2 50.5t2 70.5t1.5 94.5t1.5 121.5q-14 40 -30 82.5
t-36 90.5t-43.5 102.5t-52.5 119.5q-8 18 -15 24.5t-20 6.5h-10v45h208v-45h-18q-29 0 -29 -19q0 -14 30 -92t88 -233q58 154 85.5 232.5t27.5 92.5q0 8 -5 13.5t-16 5.5h-23v45h155v-45zM434 782h-83l-73 97l-72 -97h-84l106 157h100z" />
    <glyph glyph-name="ycircumflex" unicode="&#x177;" horiz-adv-x="396" 
d="M0 0zM385 435h-6q-26 0 -35 -30q-3 -10 -10.5 -39.5t-17 -69t-20.5 -85t-21.5 -88t-20 -79t-14.5 -56.5q-12 -53 -25.5 -94t-30.5 -69t-40 -42.5t-56 -14.5q-31 0 -52 10t-33.5 27.5t-18 40t-5.5 47.5q0 35 17.5 56t46.5 21q27 0 43 -17t16 -49q0 -28 -15.5 -44.5
t-43.5 -16.5q0 -16 13.5 -23.5t25.5 -7.5q34 0 53 29q7 10 12 20t10 25.5t11 40.5t16 65q-3 11 -12.5 43t-22 74.5t-27 90.5t-27 90t-22.5 73.5t-14 41.5q-6 17 -12 23.5t-20 6.5h-12v45h194v-45h-18q-27 0 -27 -22q0 -11 4.5 -37t13 -63.5t21.5 -84.5t30 -101q13 49 24 95
t19.5 83t13 63.5t5.5 38.5q1 14 -4 21t-23 7h-15v45h132v-45zM371 556h-83l-73 97l-72 -97h-84l106 157h100z" />
    <glyph glyph-name="Ydieresis" unicode="&#x178;" horiz-adv-x="517" 
d="M7 0zM510 692h-8q-12 0 -19.5 -6t-18.5 -30q-17 -35 -37 -81.5t-41 -98.5t-42.5 -105t-40.5 -100v-124t-0.5 -95.5t-0.5 -72.5v-55q0 -40 9 -51t33 -11h18v-46h-215v46h27q7 0 12.5 2.5t9.5 9.5t6.5 20t4.5 35q1 21 2 50.5t2 70.5t1.5 94.5t1.5 121.5q-14 40 -30 82.5
t-36 90.5t-43.5 102.5t-52.5 119.5q-8 18 -15 24.5t-20 6.5h-10v45h208v-45h-18q-29 0 -29 -19q0 -14 30 -92t88 -233q58 154 85.5 232.5t27.5 92.5q0 8 -5 13.5t-16 5.5h-23v45h155v-45zM346 792q-29 0 -47 19.5t-18 51.5t18 52.5t47 20.5t46.5 -20.5t17.5 -52.5
t-17.5 -51.5t-46.5 -19.5zM169 792q-29 0 -46.5 19.5t-17.5 51.5t17.5 52.5t46.5 20.5t47 -20.5t18 -52.5t-18 -51.5t-47 -19.5z" />
    <glyph glyph-name="Zacute" unicode="&#x179;" 
d="M14 0zM380 -184h-366v45q5 17 16.5 57.5t26.5 96.5t33 122.5t35.5 135.5t34.5 135.5t31 122.5t23.5 97.5t12.5 58.5h-117q-17 0 -22.5 -15t-5.5 -38h-41v103h306v-45q-7 -20 -19 -63t-27.5 -99.5t-33 -123t-35.5 -134.5t-34.5 -133t-30.5 -118.5t-23.5 -92t-12.5 -53.5
h179q14 0 21 13t7 42h42v-114zM233 939h114l-116 -157h-91z" />
    <glyph glyph-name="zacute" unicode="&#x17a;" horiz-adv-x="380" 
d="M25 0zM358 0h-333v46q12 18 29 48.5t36.5 66.5t39.5 75t38 75.5t32 67t22 49.5h-126q-28 0 -28 -48v-10h-43v110h323v-45q-11 -18 -28.5 -49t-37.5 -68.5t-41 -77.5t-39.5 -76.5t-33 -66t-21.5 -44.5h141q28 0 28 48v11h42v-112zM229 713h114l-116 -157h-91z" />
    <glyph glyph-name="Zdotaccent" unicode="&#x17b;" 
d="M14 0zM380 -184h-366v45q5 17 16.5 57.5t26.5 96.5t33 122.5t35.5 135.5t34.5 135.5t31 122.5t23.5 97.5t12.5 58.5h-117q-17 0 -22.5 -15t-5.5 -38h-41v103h306v-45q-7 -20 -19 -63t-27.5 -99.5t-33 -123t-35.5 -134.5t-34.5 -133t-30.5 -118.5t-23.5 -92t-12.5 -53.5
h179q14 0 21 13t7 42h42v-114zM197 824q-29 0 -46.5 19.5t-17.5 51.5t17.5 52.5t46.5 20.5t47 -20.5t18 -52.5t-18 -51.5t-47 -19.5z" />
    <glyph glyph-name="zdotaccent" unicode="&#x17c;" horiz-adv-x="380" 
d="M25 0zM358 0h-333v46q12 18 29 48.5t36.5 66.5t39.5 75t38 75.5t32 67t22 49.5h-126q-28 0 -28 -48v-10h-43v110h323v-45q-11 -18 -28.5 -49t-37.5 -68.5t-41 -77.5t-39.5 -76.5t-33 -66t-21.5 -44.5h141q28 0 28 48v11h42v-112zM190 598q-29 0 -46.5 19.5t-17.5 51.5
t17.5 52.5t46.5 20.5t47 -20.5t18 -52.5t-18 -51.5t-47 -19.5z" />
    <glyph glyph-name="Zcaron" unicode="&#x17d;" 
d="M14 0zM380 -184h-366v45q5 17 16.5 57.5t26.5 96.5t33 122.5t35.5 135.5t34.5 135.5t31 122.5t23.5 97.5t12.5 58.5h-117q-17 0 -22.5 -15t-5.5 -38h-41v103h306v-45q-7 -20 -19 -63t-27.5 -99.5t-33 -123t-35.5 -134.5t-34.5 -133t-30.5 -118.5t-23.5 -92t-12.5 -53.5
h179q14 0 21 13t7 42h42v-114zM44 939h84l72 -96l73 96h83l-106 -157h-100z" />
    <glyph glyph-name="zcaron" unicode="&#x17e;" horiz-adv-x="380" 
d="M25 0zM358 0h-333v46q12 18 29 48.5t36.5 66.5t39.5 75t38 75.5t32 67t22 49.5h-126q-28 0 -28 -48v-10h-43v110h323v-45q-11 -18 -28.5 -49t-37.5 -68.5t-41 -77.5t-39.5 -76.5t-33 -66t-21.5 -44.5h141q28 0 28 48v11h42v-112zM40 713h84l72 -96l73 96h83l-106 -157
h-100z" />
    <glyph glyph-name="florin" unicode="&#x192;" horiz-adv-x="541" 
d="M230 418l25 142q10 54 24 90.5t31.5 58t39 30.5t45.5 9q27 0 51 -8.5t41.5 -25t28 -40.5t10.5 -54q0 -18 -3.5 -35.5t-11 -31t-19.5 -22t-30 -8.5q-29 0 -45.5 21t-16.5 48q0 31 17 50t43 25q0 16 -12.5 26t-30.5 10q-14 0 -25 -8t-20 -27t-17 -49.5t-16 -76.5l-22 -124
h85v-46h-93l-74 -413q-17 -91 -60.5 -141t-106.5 -50q-35 0 -63.5 10t-48.5 28t-31 42t-11 51q0 42 18 61.5t47 19.5q30 0 48 -16t18 -42q0 -34 -16 -48t-40 -18q1 -13 15 -26t46 -13q30 0 50 26q8 11 15.5 24.5t14 33t13.5 47.5t15.5 69t18.5 96.5t23 130.5l22 128h-72v46
h80z" />
    <glyph glyph-name="Scommaaccent" unicode="&#x218;" horiz-adv-x="372" 
d="M15 0zM354 189q0 -99 -51 -149t-137 -50q-56 0 -95.5 27.5t-55.5 87.5l32 14q10 -38 38 -61.5t65 -23.5q28 0 48 10t33 28t19.5 41.5t6.5 50.5q0 40 -16.5 70t-41 55.5t-53.5 50t-53.5 54.5t-41 69t-16.5 94q0 39 10 73.5t29.5 61t49.5 41.5t70 15q38 0 59 -10t32 -26v46
h47v-138h-47q0 36 -21 60.5t-62 24.5q-18 0 -35 -9t-26 -28q-11 -23 -11 -79q0 -43 16.5 -74t41.5 -57.5t54 -51.5t54 -55t41.5 -69t16.5 -93zM250 -106q0 -51 -27.5 -84.5t-66.5 -41.5l-8 21q26 11 37.5 22.5t14.5 25.5q-9 -4 -19 -4q-25 0 -41.5 17t-16.5 50
q0 25 17.5 43.5t45.5 18.5q29 0 46.5 -18t17.5 -50z" />
    <glyph glyph-name="scommaaccent" unicode="&#x219;" horiz-adv-x="340" 
d="M10 0zM165 491q26 0 50 -10t39 -37v47h40v-141h-40v9q0 15 -3 27.5t-12 26.5q-11 17 -25.5 26t-37.5 9q-28 0 -42 -15t-14 -42q0 -20 9 -34t28 -27q14 -9 32 -18l42 -21q38 -18 58 -45q17 -21 23.5 -42.5t6.5 -49.5q0 -41 -13 -71.5t-35.5 -51t-52.5 -31t-64 -10.5
q-27 0 -52 8.5t-44.5 26t-32.5 42.5t-15 58l30 8q6 -46 38.5 -72.5t72.5 -26.5q34 0 56 20.5t22 59.5q0 23 -5.5 36t-20.5 28q-10 10 -27.5 21t-37 22t-38 22.5t-30.5 23.5q-21 21 -30.5 45t-9.5 50q0 59 38 94t97 35zM233 -106q0 -51 -27 -84.5t-66 -41.5l-9 21
q27 11 38 22.5t14 25.5q-8 -4 -19 -4q-25 0 -41.5 17t-16.5 50q0 25 17.5 43.5t46.5 18.5q28 0 45.5 -18t17.5 -50z" />
    <glyph glyph-name="uni021A" unicode="&#x21a;" horiz-adv-x="430" 
d="M9 0zM419 619h-44q0 34 -8 49t-37 15h-41q-14 0 -19 -3.5t-8 -14.5q-2 -6 -3 -41.5t-2 -85t-1 -105.5v-104q0 -53 0.5 -99t1 -81t1.5 -57t3 -28q3 -11 8 -14.5t19 -3.5h27v-46h-212v46h27q14 0 19 3.5t8 14.5q1 6 2.5 28t2 57t1 81t0.5 99v104t-1 105.5t-2 85t-3 41.5
q-3 11 -8 14.5t-19 3.5h-52q-14 0 -21 -17.5t-7 -46.5h-42v118h410v-118zM276 -106q0 -51 -27.5 -84.5t-66.5 -41.5l-8 21q26 11 37.5 22.5t14.5 25.5q-9 -4 -19 -4q-25 0 -41.5 17t-16.5 50q0 25 17.5 43.5t45.5 18.5q29 0 46.5 -18t17.5 -50z" />
    <glyph glyph-name="uni021B" unicode="&#x21b;" horiz-adv-x="313" 
d="M16 0zM307 76q-1 -15 -8.5 -30.5t-20.5 -27.5t-31 -20t-41 -8q-33 0 -58.5 9.5t-45.5 40.5q-7 11 -12.5 26t-9 38t-5.5 57.5t-2 84.5v68t-0.5 49.5t-1.5 38t-2 33.5h-53v45h7q24 0 44 16t34.5 41t22.5 56.5t8 61.5v20h38v-195h82v-45h-82q-3 -25 -4.5 -47t-3 -44.5
t-2 -46.5t-0.5 -51q0 -44 0.5 -71t2 -44.5t3.5 -29.5t6 -25q6 -23 19.5 -32.5t31.5 -9.5q23 0 37 14.5t19 33.5zM245 -106q0 -51 -27 -84.5t-66 -41.5l-8 21q26 11 37 22.5t15 25.5q-9 -4 -19 -4q-25 0 -41.5 17t-16.5 50q0 25 17.5 43.5t45.5 18.5t45.5 -18t17.5 -50z" />
    <glyph glyph-name="circumflex" unicode="&#x2c6;" horiz-adv-x="329" 
d="M320 556h-83l-73 97l-72 -97h-84l106 157h100z" />
    <glyph glyph-name="caron" unicode="&#x2c7;" horiz-adv-x="329" 
d="M8 713h84l72 -96l73 96h83l-106 -157h-100z" />
    <glyph glyph-name="breve" unicode="&#x2d8;" horiz-adv-x="329" 
d="M166 556q-33 0 -60.5 13.5t-48 35t-33 50t-16.5 58.5h78q0 -17 4.5 -34.5t14 -31t24.5 -22t36 -8.5q20 0 35 8.5t24.5 22t14 31t4.5 34.5h77q-5 -30 -16.5 -58.5t-30 -50t-45 -35t-62.5 -13.5z" />
    <glyph glyph-name="dotaccent" unicode="&#x2d9;" horiz-adv-x="230" 
d="M114 598q-29 0 -46.5 19.5t-17.5 51.5t17.5 52.5t46.5 20.5t47 -20.5t18 -52.5t-18 -51.5t-47 -19.5z" />
    <glyph glyph-name="ring" unicode="&#x2da;" horiz-adv-x="283" 
d="M248 624q0 -41 -32 -64.5t-75 -23.5q-46 0 -76 25t-30 63q0 18 8.5 34t23 28.5t33.5 19.5t41 7q21 0 40.5 -7t34.5 -19t23.5 -28t8.5 -35zM177 620q0 29 -10 44t-26 15q-34 0 -34 -59q0 -56 34 -56q16 0 26 13t10 43z" />
    <glyph glyph-name="ogonek" unicode="&#x2db;" horiz-adv-x="267" 
d="M243 -133q-1 -15 -8.5 -30.5t-20 -27.5t-31 -20t-41.5 -8q-19 0 -39.5 3.5t-38 13.5t-29 29t-11.5 49q0 33 27.5 67.5t95.5 56.5h61q-61 -26 -82 -56t-21 -56q0 -35 17 -49t37 -14q23 0 37 14.5t19 33.5z" />
    <glyph glyph-name="tilde" unicode="&#x2dc;" horiz-adv-x="336" 
d="M322 630q-6 -10 -17 -18.5t-23 -15t-24.5 -10.5t-22.5 -4q-18 0 -34 7.5t-31 16.5t-29 16.5t-29 7.5q-21 0 -43 -17t-39 -41l-18 62q17 24 45 42.5t52 18.5q18 0 33 -7.5t29 -16.5t27.5 -16.5t28.5 -7.5q20 0 41 14.5t36 31.5z" />
    <glyph glyph-name="hungarumlaut" unicode="&#x2dd;" horiz-adv-x="408" 
d="M281 713h114l-116 -157h-91zM104 713h114l-116 -157h-91z" />
    <glyph glyph-name="Delta" unicode="&#x394;" horiz-adv-x="436" 
d="M263 737q5 -39 15 -99.5t22.5 -132t27 -147t29 -144.5t27 -125.5t22.5 -88.5h-377q8 37 19.5 92.5t24 121.5t26 138t26 141.5t23 132.5t17.5 111h98zM188 580q-29 -131 -52 -264t-43 -270h169q-5 49 -12.5 110.5t-17 130.5t-21 143.5t-23.5 149.5z" />
    <glyph glyph-name="Omega" unicode="&#x3a9;" horiz-adv-x="549" 
d="M275 703q-51 0 -78.5 -14.5t-40 -49t-14.5 -92.5t-2 -146q0 -43 9 -97t23 -102.5t30.5 -82t32.5 -34.5v-85h-220v156h41q0 -30 7 -42.5t21 -12.5h69q-51 63 -84 142t-33 164q0 80 8.5 143t34 107t72.5 67.5t124 23.5q76 0 123 -23.5t72.5 -67.5t34 -107t8.5 -143
q0 -85 -33.5 -163t-83.5 -143h69q14 0 21 12.5t7 42.5h42v-156h-221v85q16 1 32.5 34.5t30.5 82t23 102.5t9 97q0 88 -2 146t-14 92.5t-39.5 49t-78.5 14.5z" />
    <glyph glyph-name="mu" unicode="&#x3bc;" horiz-adv-x="418" 
d="M119 58q1 -41 7 -70t13 -50.5t12.5 -38t5.5 -32.5q0 -24 -10 -43.5t-39 -19.5q-20 0 -34.5 14t-14.5 50v369q0 61 -0.5 97t-1 55t-2 25.5t-3.5 9.5q-4 6 -12 8.5t-26 2.5v45h193v-45h-15q-7 0 -12 -2t-10 -8q-4 -4 -6.5 -10t-4 -23.5t-2 -50t-0.5 -90.5v-162
q10 -17 27.5 -34.5t45.5 -17.5q35 0 51 22t19 54l2 221q0 36 -2 55t-7 30q-5 16 -32 16h-8v45h168v-45h-12q-19 0 -26 -13q-3 -4 -4.5 -11t-2 -27t-1 -57.5t-0.5 -102.5v-70q0 -21 0.5 -35t1.5 -23.5t2 -15.5l2 -12q2 -14 7 -18t11 -4q17 0 17 27v33h41v-37
q0 -32 -19.5 -54.5t-57.5 -22.5q-28 0 -44 12t-26 32q-6 -14 -24 -30t-58 -16q-36 0 -61.5 14.5t-47.5 53.5z" />
    <glyph glyph-name="pi" unicode="&#x3c0;" horiz-adv-x="565" 
d="M550 -30q-1 -15 -8.5 -30.5t-20 -27.5t-31 -20t-41.5 -8q-32 0 -58 9.5t-46 39.5q-7 11 -12.5 26t-9 38.5t-5.5 58t-2 84.5v127.5t-0.5 81t-1.5 50.5t-2 36h-118q-15 0 -22.5 -9.5t-7.5 -17.5q-1 -29 -1.5 -72t-0.5 -106q0 -53 0.5 -83t2 -47.5t5 -25.5t9.5 -16
q10 -12 24 -12h8v-46h-192v46h15q9 0 14.5 4t10.5 17q4 9 6 19.5t3.5 35t2 71.5t0.5 130q0 60 -10 86t-36 26h-6v45h476v-45h-82q-2 -25 -4 -50.5t-3 -59t-1.5 -78t-0.5 -107.5q0 -44 0.5 -71t1.5 -44.5t3.5 -29.5t5.5 -25q6 -23 19.5 -32.5t31.5 -9.5q23 0 37 14.5t19 33.5
z" />
    <glyph glyph-name="Wgrave" unicode="&#x1e80;" horiz-adv-x="755" 
d="M15 0zM626 511q7 49 11.5 78t7 45.5t3 24.5t0.5 15q0 11 -9 14.5t-26 3.5h-13v45h140v-45h-12q-14 0 -20.5 -7.5t-10.5 -22.5q-4 -16 -13.5 -69t-21.5 -128t-26 -164t-27.5 -177.5t-25 -169.5t-19.5 -138h-92q-8 53 -18 116.5t-22 132t-24.5 138t-25.5 134.5
q-14 -68 -28 -142t-27 -143.5t-24 -131t-18 -104.5h-98q-7 64 -18.5 151t-25.5 181t-29 186.5t-28.5 167.5t-23.5 124.5t-15 56.5q-6 9 -23 9h-9v45h210v-45h-13q-35 0 -36 -19q0 -6 1 -22t3 -38t5.5 -48.5t6.5 -53.5q18 -137 35 -270.5t37 -267.5q3 11 14 63t26.5 128
t33 166.5t34.5 178.5h72q23 -137 45.5 -270t47.5 -266q2 10 8.5 49.5t16 95t20 119t20 120t16 99t8.5 55.5zM459 782h-90l-117 157h115z" />
    <glyph glyph-name="wgrave" unicode="&#x1e81;" horiz-adv-x="602" 
d="M15 0zM588 435h-9q-11 0 -17.5 -5.5t-11.5 -24.5q-10 -33 -20.5 -78t-22 -97.5t-22 -111t-20.5 -118.5h-64q-9 35 -21 76t-24.5 83t-25.5 83t-25 77q-20 -66 -43 -148t-43 -171h-70q-10 49 -23.5 109t-27.5 118.5t-27.5 108.5t-23.5 79q-7 20 -27 20h-5v45h191v-45h-19
q-10 0 -22 -3t-12 -20q0 -4 0.5 -10t2.5 -17q11 -70 25.5 -137.5t30.5 -120.5q8 25 19 62t21.5 76.5t19.5 76.5t12 62h84q5 -25 14.5 -61.5t21 -75.5t23.5 -76.5t22 -63.5q13 48 25 113t23 142q1 5 2 16.5t1 16.5q0 8 -8 14t-25 6h-14v45h135v-45zM375 556h-90l-117 157h115
z" />
    <glyph glyph-name="Wacute" unicode="&#x1e82;" horiz-adv-x="755" 
d="M15 0zM626 511q7 49 11.5 78t7 45.5t3 24.5t0.5 15q0 11 -9 14.5t-26 3.5h-13v45h140v-45h-12q-14 0 -20.5 -7.5t-10.5 -22.5q-4 -16 -13.5 -69t-21.5 -128t-26 -164t-27.5 -177.5t-25 -169.5t-19.5 -138h-92q-8 53 -18 116.5t-22 132t-24.5 138t-25.5 134.5
q-14 -68 -28 -142t-27 -143.5t-24 -131t-18 -104.5h-98q-7 64 -18.5 151t-25.5 181t-29 186.5t-28.5 167.5t-23.5 124.5t-15 56.5q-6 9 -23 9h-9v45h210v-45h-13q-35 0 -36 -19q0 -6 1 -22t3 -38t5.5 -48.5t6.5 -53.5q18 -137 35 -270.5t37 -267.5q3 11 14 63t26.5 128
t33 166.5t34.5 178.5h72q23 -137 45.5 -270t47.5 -266q2 10 8.5 49.5t16 95t20 119t20 120t16 99t8.5 55.5zM428 939h114l-116 -157h-91z" />
    <glyph glyph-name="wacute" unicode="&#x1e83;" horiz-adv-x="602" 
d="M15 0zM588 435h-9q-11 0 -17.5 -5.5t-11.5 -24.5q-10 -33 -20.5 -78t-22 -97.5t-22 -111t-20.5 -118.5h-64q-9 35 -21 76t-24.5 83t-25.5 83t-25 77q-20 -66 -43 -148t-43 -171h-70q-10 49 -23.5 109t-27.5 118.5t-27.5 108.5t-23.5 79q-7 20 -27 20h-5v45h191v-45h-19
q-10 0 -22 -3t-12 -20q0 -4 0.5 -10t2.5 -17q11 -70 25.5 -137.5t30.5 -120.5q8 25 19 62t21.5 76.5t19.5 76.5t12 62h84q5 -25 14.5 -61.5t21 -75.5t23.5 -76.5t22 -63.5q13 48 25 113t23 142q1 5 2 16.5t1 16.5q0 8 -8 14t-25 6h-14v45h135v-45zM353 713h114l-116 -157
h-91z" />
    <glyph glyph-name="Wdieresis" unicode="&#x1e84;" horiz-adv-x="755" 
d="M15 0zM626 511q7 49 11.5 78t7 45.5t3 24.5t0.5 15q0 11 -9 14.5t-26 3.5h-13v45h140v-45h-12q-14 0 -20.5 -7.5t-10.5 -22.5q-4 -16 -13.5 -69t-21.5 -128t-26 -164t-27.5 -177.5t-25 -169.5t-19.5 -138h-92q-8 53 -18 116.5t-22 132t-24.5 138t-25.5 134.5
q-14 -68 -28 -142t-27 -143.5t-24 -131t-18 -104.5h-98q-7 64 -18.5 151t-25.5 181t-29 186.5t-28.5 167.5t-23.5 124.5t-15 56.5q-6 9 -23 9h-9v45h210v-45h-13q-35 0 -36 -19q0 -6 1 -22t3 -38t5.5 -48.5t6.5 -53.5q18 -137 35 -270.5t37 -267.5q3 11 14 63t26.5 128
t33 166.5t34.5 178.5h72q23 -137 45.5 -270t47.5 -266q2 10 8.5 49.5t16 95t20 119t20 120t16 99t8.5 55.5zM495 824q-29 0 -47 19.5t-18 51.5t18 52.5t47 20.5t46.5 -20.5t17.5 -52.5t-17.5 -51.5t-46.5 -19.5zM318 824q-29 0 -46.5 19.5t-17.5 51.5t17.5 52.5t46.5 20.5
t47 -20.5t18 -52.5t-18 -51.5t-47 -19.5z" />
    <glyph glyph-name="wdieresis" unicode="&#x1e85;" horiz-adv-x="602" 
d="M15 0zM588 435h-9q-11 0 -17.5 -5.5t-11.5 -24.5q-10 -33 -20.5 -78t-22 -97.5t-22 -111t-20.5 -118.5h-64q-9 35 -21 76t-24.5 83t-25.5 83t-25 77q-20 -66 -43 -148t-43 -171h-70q-10 49 -23.5 109t-27.5 118.5t-27.5 108.5t-23.5 79q-7 20 -27 20h-5v45h191v-45h-19
q-10 0 -22 -3t-12 -20q0 -4 0.5 -10t2.5 -17q11 -70 25.5 -137.5t30.5 -120.5q8 25 19 62t21.5 76.5t19.5 76.5t12 62h84q5 -25 14.5 -61.5t21 -75.5t23.5 -76.5t22 -63.5q13 48 25 113t23 142q1 5 2 16.5t1 16.5q0 8 -8 14t-25 6h-14v45h135v-45zM410 598q-29 0 -47 19.5
t-18 51.5t18 52.5t47 20.5t46.5 -20.5t17.5 -52.5t-17.5 -51.5t-46.5 -19.5zM233 598q-29 0 -46.5 19.5t-17.5 51.5t17.5 52.5t46.5 20.5t47 -20.5t18 -52.5t-18 -51.5t-47 -19.5z" />
    <glyph glyph-name="Ygrave" unicode="&#x1ef2;" horiz-adv-x="517" 
d="M7 0zM510 692h-8q-12 0 -19.5 -6t-18.5 -30q-17 -35 -37 -81.5t-41 -98.5t-42.5 -105t-40.5 -100v-124t-0.5 -95.5t-0.5 -72.5v-55q0 -40 9 -51t33 -11h18v-46h-215v46h27q7 0 12.5 2.5t9.5 9.5t6.5 20t4.5 35q1 21 2 50.5t2 70.5t1.5 94.5t1.5 121.5q-14 40 -30 82.5
t-36 90.5t-43.5 102.5t-52.5 119.5q-8 18 -15 24.5t-20 6.5h-10v45h208v-45h-18q-29 0 -29 -19q0 -14 30 -92t88 -233q58 154 85.5 232.5t27.5 92.5q0 8 -5 13.5t-16 5.5h-23v45h155v-45zM330 782h-90l-117 157h115z" />
    <glyph glyph-name="ygrave" unicode="&#x1ef3;" horiz-adv-x="396" 
d="M0 0zM385 435h-6q-26 0 -35 -30q-3 -10 -10.5 -39.5t-17 -69t-20.5 -85t-21.5 -88t-20 -79t-14.5 -56.5q-12 -53 -25.5 -94t-30.5 -69t-40 -42.5t-56 -14.5q-31 0 -52 10t-33.5 27.5t-18 40t-5.5 47.5q0 35 17.5 56t46.5 21q27 0 43 -17t16 -49q0 -28 -15.5 -44.5
t-43.5 -16.5q0 -16 13.5 -23.5t25.5 -7.5q34 0 53 29q7 10 12 20t10 25.5t11 40.5t16 65q-3 11 -12.5 43t-22 74.5t-27 90.5t-27 90t-22.5 73.5t-14 41.5q-6 17 -12 23.5t-20 6.5h-12v45h194v-45h-18q-27 0 -27 -22q0 -11 4.5 -37t13 -63.5t21.5 -84.5t30 -101q13 49 24 95
t19.5 83t13 63.5t5.5 38.5q1 14 -4 21t-23 7h-15v45h132v-45zM269 556h-90l-117 157h115z" />
    <glyph glyph-name="endash" unicode="&#x2013;" horiz-adv-x="395" 
d="M376 263q-84 6 -167 6q-97 0 -191 -6v82q56 -4 104 -6.5t95 -2.5q42 0 80 2t79 7v-82z" />
    <glyph glyph-name="emdash" unicode="&#x2014;" horiz-adv-x="696" 
d="M677 263q-156 6 -308 6q-91 0 -177 -1.5t-174 -4.5v82q101 -4 190 -6.5t177 -2.5q75 0 146 2t146 7v-82z" />
    <glyph glyph-name="quoteleft" unicode="&#x2018;" horiz-adv-x="216" 
d="M42 653q0 58 27.5 97t68.5 49l8 -21q-28 -13 -39.5 -28.5t-16.5 -31.5q10 5 20 5q29 0 46 -20t17 -58q0 -29 -18.5 -50t-47.5 -21t-47 21t-18 58z" />
    <glyph glyph-name="quoteright" unicode="&#x2019;" horiz-adv-x="216" 
d="M173 701q0 -58 -28 -97t-69 -49l-7 21q27 13 39 28.5t16 31.5q-8 -5 -20 -5q-28 0 -45 20t-17 58q0 29 18 50t47 21t47.5 -21t18.5 -58z" />
    <glyph glyph-name="quotesinglbase" unicode="&#x201a;" horiz-adv-x="216" 
d="M173 64q0 -57 -28 -96.5t-69 -48.5l-7 21q27 12 39 27.5t16 32.5q-8 -5 -20 -5q-28 0 -45 20t-17 58q0 29 18 50t47 21t47.5 -21.5t18.5 -58.5z" />
    <glyph glyph-name="quotedblleft" unicode="&#x201c;" horiz-adv-x="391" 
d="M42 574zM42 653q0 58 27.5 97t68.5 49l8 -21q-28 -13 -39.5 -28.5t-16.5 -31.5q10 5 20 5q29 0 46 -20t17 -58q0 -29 -18.5 -50t-47.5 -21t-47 21t-18 58zM217 653q0 58 27.5 97t68.5 49l8 -21q-28 -13 -39.5 -28.5t-16.5 -31.5q10 5 20 5q29 0 46 -20t17 -58
q0 -29 -18.5 -50t-47.5 -21t-47 21t-18 58z" />
    <glyph glyph-name="quotedblright" unicode="&#x201d;" horiz-adv-x="391" 
d="M42 555zM173 701q0 -58 -28 -97t-69 -49l-7 21q27 13 39 28.5t16 31.5q-8 -5 -20 -5q-28 0 -45 20t-17 58q0 29 18 50t47 21t47.5 -21t18.5 -58zM348 701q0 -58 -28 -97t-69 -49l-7 21q27 13 39 28.5t16 31.5q-8 -5 -20 -5q-28 0 -45 20t-17 58q0 29 18 50t47 21
t47.5 -21t18.5 -58z" />
    <glyph glyph-name="quotedblbase" unicode="&#x201e;" horiz-adv-x="391" 
d="M42 0zM173 64q0 -57 -28 -96.5t-69 -48.5l-7 21q27 12 39 27.5t16 32.5q-8 -5 -20 -5q-28 0 -45 20t-17 58q0 29 18 50t47 21t47.5 -21.5t18.5 -58.5zM348 64q0 -57 -28 -96.5t-69 -48.5l-7 21q27 12 39 27.5t16 32.5q-8 -5 -20 -5q-28 0 -45 20t-17 58q0 29 18 50t47 21
t47.5 -21.5t18.5 -58.5z" />
    <glyph glyph-name="dagger" unicode="&#x2020;" horiz-adv-x="426" 
d="M183 0v512h-167v58h167v167h58v-167h169v-58h-169v-512h-58z" />
    <glyph glyph-name="daggerdbl" unicode="&#x2021;" horiz-adv-x="426" 
d="M183 0v167h-167v59h167v286h-167v58h167v167h58v-167h169v-58h-169v-286h169v-59h-169v-167h-58z" />
    <glyph glyph-name="bullet" unicode="&#x2022;" horiz-adv-x="318" 
d="M48 372q0 23 8.5 43.5t23.5 35.5t35 24t43 9t43 -9t35 -24t24 -35.5t9 -43.5t-9 -43t-24 -35t-35 -23.5t-43 -8.5t-43 8.5t-35 23.5t-23.5 35t-8.5 43z" />
    <glyph glyph-name="ellipsis" unicode="&#x2026;" horiz-adv-x="844" 
d="M49 0zM114 -8q-29 0 -47 21t-18 55q0 33 18 54.5t47 21.5q30 0 48 -21.5t18 -54.5q0 -34 -18 -55t-48 -21zM422 -8q-29 0 -47 21t-18 55q0 33 18 54.5t47 21.5q30 0 48 -21.5t18 -54.5q0 -34 -18 -55t-48 -21zM730 -8q-29 0 -47 21t-18 55q0 33 18 54.5t47 21.5
q30 0 48 -21.5t18 -54.5q0 -34 -18 -55t-48 -21z" />
    <glyph glyph-name="perthousand" unicode="&#x2030;" horiz-adv-x="920" 
d="M26 0zM95 547q0 -41 1 -67t2 -42t2.5 -24t3.5 -13q6 -15 18.5 -21t26.5 -6t25.5 6.5t17.5 18.5q3 5 5 13.5t3.5 24t2.5 41t1 65.5q0 41 -0.5 67t-2 41.5t-3.5 24t-5 14.5q-14 31 -43 31q-35 0 -46 -31q-2 -6 -3.5 -13.5t-3 -23t-2 -41t-0.5 -65.5zM26 537q0 34 1.5 72.5
t13 71t37 54t72.5 21.5q45 0 69.5 -20.5t36 -52.5t13.5 -70.5t2 -75.5q0 -59 -7.5 -97.5t-22.5 -61t-38 -32t-55 -9.5q-31 0 -54 10.5t-38 34t-22.5 61.5t-7.5 94zM598 737q-30 -39 -71.5 -99.5t-87.5 -131t-93 -146t-88.5 -144t-74.5 -125.5t-50 -91h-92q28 39 68.5 99.5
t87 131t94.5 145.5t90 143.5t75 125.5t50 92h92zM432 193q0 -41 1 -67t2 -42t2.5 -24t3.5 -13q6 -15 18.5 -21t26.5 -6t25.5 6.5t17.5 18.5q3 5 5 13.5t3.5 24t2.5 41t1 65.5q0 41 -0.5 67t-2 41.5t-3.5 24t-5 14.5q-14 31 -43 31q-35 0 -46 -31q-2 -6 -3.5 -13.5t-3 -23
t-2 -41t-0.5 -65.5zM363 183q0 34 1.5 72.5t13 71t37 54t72.5 21.5q45 0 69.5 -20.5t36 -52.5t13.5 -70.5t2 -75.5q0 -59 -7.5 -97.5t-22.5 -61t-38 -32t-55 -9.5q-31 0 -54 10.5t-38 34t-22.5 61.5t-7.5 94zM719 193q0 -41 1 -67t2 -42t2.5 -24t3.5 -13q6 -15 18.5 -21
t26.5 -6t25.5 6.5t17.5 18.5q3 5 5 13.5t3.5 24t2.5 41t1 65.5q0 41 -0.5 67t-2 41.5t-3.5 24t-5 14.5q-14 31 -43 31q-35 0 -46 -31q-2 -6 -3.5 -13.5t-3 -23t-2 -41t-0.5 -65.5zM650 183q0 34 1.5 72.5t13 71t37 54t72.5 21.5q45 0 69.5 -20.5t36 -52.5t13.5 -70.5
t2 -75.5q0 -59 -7.5 -97.5t-22.5 -61t-38 -32t-55 -9.5q-31 0 -54 10.5t-38 34t-22.5 61.5t-7.5 94z" />
    <glyph glyph-name="guilsinglleft" unicode="&#x2039;" horiz-adv-x="191" 
d="M174 493v-83l-118 -73l118 -68v-88l-157 106v100z" />
    <glyph glyph-name="guilsinglright" unicode="&#x203a;" horiz-adv-x="191" 
d="M174 387v-100l-157 -106v88l117 68l-117 73v83z" />
    <glyph glyph-name="fraction" unicode="&#x2044;" horiz-adv-x="185" 
d="M371 737q-30 -39 -71.5 -99.5t-87.5 -131t-93 -146t-88.5 -144t-74.5 -125.5t-50 -91h-92q28 39 68.5 99.5t87 131t94.5 145.5t90 143.5t75 125.5t50 92h92z" />
    <glyph glyph-name="zerosuperior" unicode="&#x2070;" horiz-adv-x="297" 
d="M24 337zM93 547q0 -41 1 -67t2 -42t2.5 -24t3.5 -13q6 -15 18.5 -21t26.5 -6t25.5 6.5t17.5 18.5q3 5 5 13.5t3.5 24t2.5 41t1 65.5q0 41 -0.5 67t-2 41.5t-3.5 24t-5 14.5q-14 31 -43 31q-35 0 -46 -31q-2 -6 -3.5 -13.5t-3 -23t-2 -41t-0.5 -65.5zM24 537
q0 34 1.5 72.5t13 71t37 54t72.5 21.5q45 0 69.5 -20.5t36 -52.5t13.5 -70.5t2 -75.5q0 -59 -7.5 -97.5t-22.5 -61t-38 -32t-55 -9.5q-31 0 -54 10.5t-38 34t-22.5 61.5t-7.5 94z" />
    <glyph glyph-name="foursuperior" unicode="&#x2074;" horiz-adv-x="243" 
d="M10 344zM215 519h-33l-1 -93q-1 -28 2 -37t15 -9h11v-36h-122v36h23q9 0 12 11.5t3 34.5v93h-115q33 105 43 187h54q-4 -15 -8 -28.5t-8 -30t-8.5 -38.5t-9.5 -53h52l1 88q0 39 -1.5 64t-3.5 43h88v-36h-12q-8 0 -10.5 -15t-3.5 -62l-1 -82h33v-37z" />
    <glyph glyph-name="fivesuperior" unicode="&#x2075;" horiz-adv-x="244" 
d="M22 337zM216 467q0 -63 -27 -96.5t-76 -33.5q-27 0 -52 15t-39 52l33 24q10 -30 23.5 -42t30.5 -12q24 0 32 19t8 56q0 35 -2 57.5t-6.5 35t-12 17.5t-19.5 5q-17 0 -37.5 -6.5t-40.5 -20.5q1 12 2.5 26.5t2 32.5t1 41t0.5 54v29.5t-1 30.5h166v-76h-39q0 40 -13 40h-51
q-2 -18 -3 -36t-1 -36q0 -11 0.5 -23.5t1.5 -24.5q6 1 13.5 1.5t14.5 0.5q22 0 39 -6t28.5 -21t17.5 -40t6 -63z" />
    <glyph glyph-name="sixsuperior" unicode="&#x2076;" horiz-adv-x="254" 
d="M25 337zM139 583q37 0 62 -31.5t25 -89.5q0 -57 -27.5 -91t-68.5 -34q-26 0 -45.5 12t-33 32t-20 47.5t-6.5 59.5q0 50 12 95.5t33.5 81.5t50 60.5t61.5 32.5l12 -31q-43 -17 -70 -54.5t-32 -107.5q9 10 21.5 14t25.5 4zM126 547q-12 0 -20.5 -7t-16.5 -18v-16
q0 -59 10.5 -95.5t30.5 -36.5q17 0 23.5 22t6.5 69q0 48 -9 65t-25 17z" />
    <glyph glyph-name="sevensuperior" unicode="&#x2077;" horiz-adv-x="213" 
d="M15 337zM205 751q-9 -18 -20.5 -45.5t-25.5 -61.5q-49 -119 -49 -258q0 -49 -34 -49q-16 0 -26 10.5t-10 33.5q0 26 2.5 48t13 54.5t31.5 82.5t57 131h-85q-8 0 -8 -32h-36v86h190z" />
    <glyph glyph-name="eightsuperior" unicode="&#x2078;" horiz-adv-x="248" 
d="M22 337zM123 756q42 0 64.5 -24t22.5 -74q0 -32 -6 -54t-24 -36q21 -16 32 -39.5t11 -60.5q0 -60 -23.5 -95.5t-76.5 -35.5q-55 0 -78 32t-23 99q0 37 10.5 61t30.5 39q-17 14 -23 36t-6 54q0 50 23.5 74t65.5 24zM123 722q-5 0 -9.5 -1.5t-8 -7.5t-5.5 -19t-2 -35
q0 -35 5.5 -55.5t20.5 -20.5t19 20.5t4 55.5q0 22 -2 35t-5 19t-7.5 7.5t-9.5 1.5zM122 554q-22 0 -27.5 -21.5t-5.5 -72.5q0 -45 6.5 -65.5t27.5 -20.5t26 20.5t5 65.5q0 51 -5 72.5t-27 21.5z" />
    <glyph glyph-name="ninesuperior" unicode="&#x2079;" horiz-adv-x="249" 
d="M24 337zM109 509q-37 0 -61 31.5t-24 89.5q0 56 27.5 91t69.5 35q50 0 76.5 -42.5t26.5 -106.5q0 -49 -9.5 -93t-27.5 -79t-44 -60.5t-59 -37.5l-11 29q20 13 35.5 26.5t26 31.5t16.5 42.5t8 58.5q-19 -16 -50 -16zM124 544q20 0 36 23v19q0 60 -10 97.5t-29 37.5
q-17 0 -24.5 -19.5t-7.5 -75.5q0 -25 2 -41t6.5 -25t11 -12.5t15.5 -3.5z" />
    <glyph glyph-name="zeroinferior" unicode="&#x2080;" horiz-adv-x="297" 
d="M93 193q0 -41 1 -67t2 -42t2.5 -24t3.5 -13q6 -15 18.5 -21t26.5 -6t25.5 6.5t17.5 18.5q3 5 5 13.5t3.5 24t2.5 41t1 65.5q0 41 -0.5 67t-2 41.5t-3.5 24t-5 14.5q-14 31 -43 31q-35 0 -46 -31q-2 -6 -3.5 -13.5t-3 -23t-2 -41t-0.5 -65.5zM24 183q0 34 1.5 72.5t13 71
t37 54t72.5 21.5q45 0 69.5 -20.5t36 -52.5t13.5 -70.5t2 -75.5q0 -59 -7.5 -97.5t-22.5 -61t-38 -32t-55 -9.5q-31 0 -54 10.5t-38 34t-22.5 61.5t-7.5 94z" />
    <glyph glyph-name="oneinferior" unicode="&#x2081;" horiz-adv-x="158" 
d="M136 -10h-115v36h14q8 0 10 11q0 4 0.5 11t1 24t1 46t0.5 76v72.5t-2 49.5h-25v36q18 2 33 13.5t17 31.5h37q-1 -24 -1 -77.5v-125.5q0 -44 0.5 -72t1 -45t1.5 -26.5t2 -15.5q2 -3 5 -6t7 -3h12v-36z" />
    <glyph glyph-name="twoinferior" unicode="&#x2082;" horiz-adv-x="238" 
d="M111 404q47 0 73 -27.5t26 -81.5q0 -41 -17.5 -69.5t-55.5 -54.5q-18 -13 -28.5 -24.5t-16.5 -25t-7.5 -31.5t-1.5 -43v-16h83q10 0 10 29h32v-69h-182v49q0 36 5.5 60t16 41.5t25.5 30.5t34 28q45 36 45 101q0 31 -12 48.5t-32 17.5t-22 -6q21 -13 21 -40
q0 -18 -11.5 -31t-28.5 -13t-29 12.5t-12 29.5q0 38 23.5 61.5t61.5 23.5z" />
    <glyph glyph-name="threeinferior" unicode="&#x2083;" horiz-adv-x="240" 
d="M213 105q0 -25 -6.5 -47.5t-19.5 -39t-32.5 -26t-45.5 -9.5q-38 0 -61.5 23.5t-23.5 62.5q0 16 12 29t28 13q18 0 29.5 -13.5t11.5 -30.5q0 -31 -21 -41q4 -6 21 -6q12 0 19 3.5t12 10.5q2 3 4.5 7t4 12t2.5 21.5t1 34.5q0 48 -6.5 65.5t-28.5 17.5h-30v31h30
q17 0 23 13.5t6 60.5q0 26 -2.5 40.5t-7.5 21t-11.5 7.5t-13.5 1q-14 0 -20 -6q21 -13 21 -40q0 -18 -12 -31t-28 -13q-18 0 -29.5 12.5t-11.5 32.5q0 35 22.5 57.5t65.5 22.5q42 0 66 -26.5t24 -75.5q0 -38 -8 -60.5t-29 -33.5q21 -14 33 -37.5t12 -63.5z" />
    <glyph glyph-name="fourinferior" unicode="&#x2084;" horiz-adv-x="243" 
d="M215 165h-33l-1 -93q-1 -28 2 -37t15 -9h11v-36h-122v36h23q9 0 12 11.5t3 34.5v93h-115q33 105 43 187h54q-4 -15 -8 -28.5t-8 -30t-8.5 -38.5t-9.5 -53h52l1 88q0 39 -1.5 64t-3.5 43h88v-36h-12q-8 0 -10.5 -15t-3.5 -62l-1 -82h33v-37z" />
    <glyph glyph-name="fiveinferior" unicode="&#x2085;" horiz-adv-x="244" 
d="M216 113q0 -63 -27 -96.5t-76 -33.5q-27 0 -52 15t-39 52l33 24q10 -30 23.5 -42t30.5 -12q24 0 32 19t8 56q0 35 -2 57.5t-6.5 35t-12 17.5t-19.5 5q-17 0 -37.5 -6.5t-40.5 -20.5q1 12 2.5 26.5t2 32.5t1 41t0.5 54v29.5t-1 30.5h166v-76h-39q0 40 -13 40h-51
q-2 -18 -3 -36t-1 -36q0 -11 0.5 -23.5t1.5 -24.5q6 1 13.5 1.5t14.5 0.5q22 0 39 -6t28.5 -21t17.5 -40t6 -63z" />
    <glyph glyph-name="sixinferior" unicode="&#x2086;" horiz-adv-x="254" 
d="M139 229q37 0 62 -31.5t25 -89.5q0 -57 -27.5 -91t-68.5 -34q-26 0 -45.5 12t-33 32t-20 47.5t-6.5 59.5q0 50 12 95.5t33.5 81.5t50 60.5t61.5 32.5l12 -31q-43 -17 -70 -54.5t-32 -107.5q9 10 21.5 14t25.5 4zM126 193q-12 0 -20.5 -7t-16.5 -18v-16q0 -59 10.5 -95.5
t30.5 -36.5q17 0 23.5 22t6.5 69q0 48 -9 65t-25 17z" />
    <glyph glyph-name="seveninferior" unicode="&#x2087;" horiz-adv-x="213" 
d="M205 397q-9 -18 -20.5 -45.5t-25.5 -61.5q-49 -119 -49 -258q0 -49 -34 -49q-16 0 -26 10.5t-10 33.5q0 26 2.5 48t13 54.5t31.5 82.5t57 131h-85q-8 0 -8 -32h-36v86h190z" />
    <glyph glyph-name="eightinferior" unicode="&#x2088;" horiz-adv-x="248" 
d="M123 402q42 0 64.5 -24t22.5 -74q0 -32 -6 -54t-24 -36q21 -16 32 -39.5t11 -60.5q0 -60 -23.5 -95.5t-76.5 -35.5q-55 0 -78 32t-23 99q0 37 10.5 61t30.5 39q-17 14 -23 36t-6 54q0 50 23.5 74t65.5 24zM123 368q-5 0 -9.5 -1.5t-8 -7.5t-5.5 -19t-2 -35
q0 -35 5.5 -55.5t20.5 -20.5t19 20.5t4 55.5q0 22 -2 35t-5 19t-7.5 7.5t-9.5 1.5zM122 200q-22 0 -27.5 -21.5t-5.5 -72.5q0 -45 6.5 -65.5t27.5 -20.5t26 20.5t5 65.5q0 51 -5 72.5t-27 21.5z" />
    <glyph glyph-name="nineinferior" unicode="&#x2089;" horiz-adv-x="249" 
d="M109 155q-37 0 -61 31.5t-24 89.5q0 56 27.5 91t69.5 35q50 0 76.5 -42.5t26.5 -106.5q0 -49 -9.5 -93t-27.5 -79t-44 -60.5t-59 -37.5l-11 29q20 13 35.5 26.5t26 31.5t16.5 42.5t8 58.5q-19 -16 -50 -16zM124 190q20 0 36 23v19q0 60 -10 97.5t-29 37.5
q-17 0 -24.5 -19.5t-7.5 -75.5q0 -25 2 -41t6.5 -25t11 -12.5t15.5 -3.5z" />
    <glyph glyph-name="Euro" unicode="&#x20ac;" horiz-adv-x="484" 
d="M343 263h-177q1 -46 3 -75.5t5.5 -48t8 -29t9.5 -17.5q18 -27 46 -42.5t64 -15.5q48 0 79.5 21t42.5 59l32 -5q-43 -120 -155 -120q-50 0 -87 12.5t-65 35.5q-36 29 -57.5 79.5t-28.5 145.5h-59l11 43h47q0 6 -0.5 12.5t-0.5 17v26v39.5h-57l11 43h48q5 81 17 129t34 82
q29 43 74 68t110 25q39 0 70.5 -10.5t53 -29t33.5 -43t12 -52.5q0 -29 -18 -53t-47 -24q-28 0 -45 16.5t-17 50.5q0 29 10 44.5t35 26.5q-26 29 -83 29q-60 0 -96 -44q-9 -11 -15.5 -25t-11.5 -37.5t-8.5 -60.5t-4.5 -92h228l-10 -43h-219v-95h190z" />
    <glyph glyph-name="trademark" unicode="&#x2122;" horiz-adv-x="733" 
d="M702 363h-129v32h6q14 0 19 2t6 10q1 16 1.5 31t1.5 34t1.5 43t0.5 58q0 23 -0.5 30.5t-0.5 12.5q-26 -75 -45.5 -137.5t-35.5 -115.5h-55q-3 14 -13.5 48.5t-23.5 74t-25 75.5t-19 54q0 -9 -0.5 -18t-0.5 -18q0 -11 0.5 -36.5t1.5 -53t2 -52t1 -31.5q1 -8 7 -9.5
t17 -1.5h8v-32h-99v33h6q8 0 15 0.5t8 2.5q1 3 2.5 6t2.5 15t1.5 37t0.5 72v81q0 48 -2.5 65.5t-5.5 22.5q-3 4 -7.5 5.5t-15.5 1.5h-5v32h106q4 -18 12.5 -52.5t19.5 -75.5t24 -85t25 -83q10 24 21 51.5t22.5 62t25 79t30.5 103.5h88v-32h-6q-17 0 -23 -10
q-3 -6 -4.5 -12.5t-2 -20t-1 -36.5t-0.5 -61q0 -44 0.5 -71.5t1 -44.5t1.5 -26t3 -16q2 -8 7.5 -10t16.5 -2h7v-32zM297 677h-30q0 14 -5.5 19.5t-25.5 5.5h-27q-17 0 -19 -7q-1 -3 -2 -16.5t-1.5 -33t-0.5 -41.5v-40q0 -22 0.5 -49.5t1 -51.5t1 -41.5t1.5 -19.5q2 -7 19 -7
h18v-32h-144v32h19q8 0 11.5 1t6.5 6q1 3 2 23t1.5 47t0.5 56v49v38t-0.5 37t-1.5 28.5t-2 14.5q-3 5 -6.5 6t-11.5 1h-36q-19 0 -19 -25h-28v60h278v-60z" />
    <glyph glyph-name="onethird" unicode="&#x2153;" horiz-adv-x="607" 
d="M25 0zM189 344h-115v36h14q8 0 10 11q0 4 0.5 11t1 24t1 46t0.5 76v72.5t-2 49.5h-25v36q18 2 33 13.5t17 31.5h37q-1 -24 -1 -77.5v-125.5q0 -44 0.5 -72t1 -45t1.5 -26.5t2 -15.5q2 -3 5 -6t7 -3h12v-36zM582 737q-30 -39 -71.5 -99.5t-87.5 -131t-93 -146t-88.5 -144
t-74.5 -125.5t-50 -91h-92q28 39 68.5 99.5t87 131t94.5 145.5t90 143.5t75 125.5t50 92h92zM578 105q0 -25 -6.5 -47.5t-19.5 -39t-32.5 -26t-45.5 -9.5q-38 0 -61.5 23.5t-23.5 62.5q0 16 12 29t28 13q18 0 29.5 -13.5t11.5 -30.5q0 -31 -21 -41q4 -6 21 -6q12 0 19 3.5
t12 10.5q2 3 4.5 7t4 12t2.5 21.5t1 34.5q0 48 -6.5 65.5t-28.5 17.5h-30v31h30q17 0 23 13.5t6 60.5q0 26 -2.5 40.5t-7.5 21t-11.5 7.5t-13.5 1q-14 0 -20 -6q21 -13 21 -40q0 -18 -12 -31t-28 -13q-18 0 -29.5 12.5t-11.5 32.5q0 35 22.5 57.5t65.5 22.5q42 0 66 -26.5
t24 -75.5q0 -38 -8 -60.5t-29 -33.5q21 -14 33 -37.5t12 -63.5z" />
    <glyph glyph-name="twothirds" unicode="&#x2154;" horiz-adv-x="633" 
d="M26 0zM111 758q47 0 73 -27.5t26 -81.5q0 -41 -17.5 -69.5t-55.5 -54.5q-18 -13 -28.5 -24.5t-16.5 -25t-7.5 -31.5t-1.5 -43v-16h83q10 0 10 29h32v-69h-182v49q0 36 5.5 60t16 41.5t25.5 30.5t34 28q45 36 45 101q0 31 -12 48.5t-32 17.5t-22 -6q21 -13 21 -40
q0 -18 -11.5 -31t-28.5 -13t-29 12.5t-12 29.5q0 38 23.5 61.5t61.5 23.5zM608 737q-30 -39 -71.5 -99.5t-87.5 -131t-93 -146t-88.5 -144t-74.5 -125.5t-50 -91h-92q28 39 68.5 99.5t87 131t94.5 145.5t90 143.5t75 125.5t50 92h92zM604 105q0 -25 -6.5 -47.5t-19.5 -39
t-32.5 -26t-45.5 -9.5q-38 0 -61.5 23.5t-23.5 62.5q0 16 12 29t28 13q18 0 29.5 -13.5t11.5 -30.5q0 -31 -21 -41q4 -6 21 -6q12 0 19 3.5t12 10.5q2 3 4.5 7t4 12t2.5 21.5t1 34.5q0 48 -6.5 65.5t-28.5 17.5h-30v31h30q17 0 23 13.5t6 60.5q0 26 -2.5 40.5t-7.5 21
t-11.5 7.5t-13.5 1q-14 0 -20 -6q21 -13 21 -40q0 -18 -12 -31t-28 -13q-18 0 -29.5 12.5t-11.5 32.5q0 35 22.5 57.5t65.5 22.5q42 0 66 -26.5t24 -75.5q0 -38 -8 -60.5t-29 -33.5q21 -14 33 -37.5t12 -63.5z" />
    </font>
</defs>
</svg>
