<?xml version="1.0" standalone="no"?>
<!DOCTYPE svg PUBLIC "-//W3C//DTD SVG 1.1//EN" "http://www.w3.org/Graphics/SVG/1.1/DTD/svg11.dtd" >
<svg xmlns="http://www.w3.org/2000/svg" xmlns:xlink="http://www.w3.org/1999/xlink" version="1.1">
<metadata>
Created by FontForge 20160405 at Thu Dec 13 07:17:57 2018
 By www-data
Copyright (c) 2016 by Zetafonts. All rights reserved.
</metadata>
<defs>
<font id="CocogooseCompressedTrial-Bold" horiz-adv-x="2492" >
  <font-face 
    font-family="Cocogoose Compressed Trial"
    font-weight="700"
    font-stretch="normal"
    units-per-em="1920"
    panose-1="2 0 5 6 2 0 0 2 0 4"
    ascent="1536"
    descent="-384"
    x-height="1225"
    cap-height="1426"
    bbox="-293 -796 3422 2002"
    underline-thickness="96"
    underline-position="-288"
    unicode-range="U+000A-FB04"
  />
<missing-glyph horiz-adv-x="1081" 
d="M669 972q-57 17 -123 17q-102 0 -187.5 -36.5t-148 -98t-97.5 -142.5t-35 -171t36 -171.5t99 -143t148.5 -98t184.5 -36.5q96 0 181.5 35t149.5 96t101 143t37 175q0 82 -27.5 152.5t-74.5 126t-110 94.5t-134 58zM682 73q-33 -9 -66.5 -13t-69.5 -4q-109 0 -202.5 39
t-161.5 105.5t-107 154.5t-39 186q0 104 41 193t111 154.5t162.5 103t195.5 37.5q110 0 203.5 -40.5t161.5 -108t106 -155.5t38 -184q0 -88 -29 -163.5t-79.5 -136t-118.5 -103.5t-146 -65zM967 541q0 -73 -24.5 -138t-69.5 -119h-563l550 528q54 -63 80.5 -130t26.5 -141z
M261 841q58 49 130.5 76.5t154.5 27.5q81 0 153 -28t126 -76h-564zM229 271q-50 55 -77.5 123.5t-27.5 146.5q0 74 24.5 138t69.5 118h561zM829 240q-57 -46 -129.5 -74t-153.5 -28q-82 0 -153.5 28t-128.5 74h565z" />
    <glyph glyph-name="ff" unicode="ff" horiz-adv-x="1204" 
d="M121 886h-69q-14 0 -29 10t-15 29v262q0 17 15 27.5t29 10.5h69v70q0 119 39.5 190.5t106.5 108t156.5 44.5t189.5 2q31 -2 45 -12.5t14 -43.5v-131q25 66 71 105t107 59t135 24t154 -1q31 -2 45 -12.5t14 -43.5v-212q0 -32 -16.5 -42.5t-48.5 -10.5q-21 0 -39 -0.5
t-31.5 -6.5t-21 -19.5t-7.5 -38.5v-29h114q15 0 29 -12t14 -26v-262q0 -19 -14 -29t-29 -10h-114v-845q0 -41 -34 -41h-318q-35 0 -35 41v845h-139v-845q0 -41 -34 -41h-318q-35 0 -35 41v845zM508 1225h139v70v15t1 15q-8 -4 -18 -5t-23 -1q-21 0 -39 -0.5t-31.5 -6.5
t-21 -19.5t-7.5 -38.5v-29z" />
    <glyph glyph-name="fi" unicode="fi" horiz-adv-x="1126" 
d="M153 886h-68q-15 0 -29.5 10t-14.5 29v262q0 17 14.5 27.5t29.5 10.5h68v70q0 119 39.5 190.5t107 108t157 44.5t189.5 2q31 -2 45 -12.5t14 -43.5v-212q0 -32 -17 -42.5t-49 -10.5q-20 0 -37.5 -0.5t-31 -6t-21 -18t-8.5 -36.5v-33h479q30 -3 38 -28q2 -6 2 -10v-1145
q0 -42 -44 -42h-299q-44 0 -44 42v844h-132v-845q0 -41 -35 -41h-317q-17 0 -26.5 10.5t-9.5 30.5v845z" />
    <glyph glyph-name="fl" unicode="fl" horiz-adv-x="1121" 
d="M153 886h-68q-15 0 -29.5 10t-14.5 29v262q0 17 14.5 27.5t29.5 10.5h68v70q0 119 39.5 190.5t107 108t157 44.5t189.5 2q31 -2 45 -12.5t14 -43.5v-2q2 0 5 0.5t7 0.5h299q44 0 44 -43v-1498q0 -42 -44 -42h-299q-44 0 -44 42v844h-132v-845q0 -41 -35 -41h-317
q-17 0 -26.5 10.5t-9.5 30.5v845zM541 1225h132v97q-15 -3 -34 -3q-21 0 -38.5 -0.5t-31 -6.5t-21 -19.5t-7.5 -38.5v-29z" />
    <glyph glyph-name="ffi" unicode="ffi" horiz-adv-x="1612" 
d="M121 886h-69q-14 0 -29 10t-15 29v262q0 17 15 27.5t29 10.5h69v70q0 119 39.5 190.5t106.5 108t156.5 44.5t189.5 2q31 -2 45 -12.5t14 -43.5v-131q25 66 71 105t107 59t135 24t154 -1q31 -2 45 -12.5t14 -43.5v-212q0 -32 -16.5 -42.5t-48.5 -10.5q-21 0 -38.5 -0.5
t-31 -6t-21 -18t-8.5 -36.5v-33h479q1 0 2 -1q29 -3 37 -27q2 -6 2 -10v-1145q0 -42 -44 -42h-299q-44 0 -44 42v844h-133v-845q0 -41 -34 -41h-318q-35 0 -35 41v845h-139v-845q0 -41 -34 -41h-318q-35 0 -35 41v845zM647 1225v70v15t1 15q-8 -4 -18 -5t-23 -1
q-21 0 -38.5 -0.5t-31 -6t-21 -18t-8.5 -36.5v-33h139z" />
    <glyph glyph-name="ffl" unicode="ffl" horiz-adv-x="1612" 
d="M121 886h-69q-14 0 -29 10t-15 29v262q0 17 15 27.5t29 10.5h69v70q0 119 39.5 190.5t106.5 108t156.5 44.5t189.5 2q31 -2 45 -12.5t14 -43.5v-131q25 66 71 105t107 59t135 24t154 -1q14 -2 25 -4.5t18 -7.5q11 8 30 8h299q44 0 44 -43v-1551q0 -42 -44 -42h-299
q-44 0 -44 42v844h-134v-845q0 -41 -34 -41h-318q-35 0 -35 41v845h-139v-845q0 -41 -34 -41h-318q-35 0 -35 41v845zM647 1225v70v15t1 15q-8 -4 -18 -5t-23 -1q-21 0 -38.5 -0.5t-31 -6t-21 -18t-8.5 -36.5v-33h139zM1034 1225h134v98q-13 -4 -35 -4q-21 0 -39 -0.5
t-31.5 -6.5t-21 -19.5t-7.5 -38.5v-29z" />
    <glyph glyph-name="f_j" unicode="fj" horiz-adv-x="1113" 
d="M153 886h-68q-15 0 -29.5 10t-14.5 29v262q0 17 14.5 27.5t29.5 10.5h68v70q0 119 39.5 190.5t107 108t157 44.5t189.5 2q31 -2 45 -12.5t14 -43.5v-212q0 -32 -17 -42.5t-49 -10.5q-21 0 -38.5 -0.5t-31 -6.5t-21 -19.5t-7.5 -38.5v-29h169h2h308q2 0 4 -1q27 -5 35 -30
q0 -2 0.5 -3t0.5 -3v-1v-1191q0 -92 -33.5 -168.5t-98.5 -132t-160.5 -86t-219.5 -30.5q-23 0 -40 12.5t-17 33.5v244q0 24 10 38t39 14q37 0 62 8t41 25.5t23 45t7 67.5v819h-132v-845q0 -41 -35 -41h-317q-17 0 -26.5 10.5t-9.5 30.5v845z" />
    <glyph glyph-name=".notdef" horiz-adv-x="1081" 
d="M669 972q-57 17 -123 17q-102 0 -187.5 -36.5t-148 -98t-97.5 -142.5t-35 -171t36 -171.5t99 -143t148.5 -98t184.5 -36.5q96 0 181.5 35t149.5 96t101 143t37 175q0 82 -27.5 152.5t-74.5 126t-110 94.5t-134 58zM682 73q-33 -9 -66.5 -13t-69.5 -4q-109 0 -202.5 39
t-161.5 105.5t-107 154.5t-39 186q0 104 41 193t111 154.5t162.5 103t195.5 37.5q110 0 203.5 -40.5t161.5 -108t106 -155.5t38 -184q0 -88 -29 -163.5t-79.5 -136t-118.5 -103.5t-146 -65zM967 541q0 -73 -24.5 -138t-69.5 -119h-563l550 528q54 -63 80.5 -130t26.5 -141z
M261 841q58 49 130.5 76.5t154.5 27.5q81 0 153 -28t126 -76h-564zM229 271q-50 55 -77.5 123.5t-27.5 146.5q0 74 24.5 138t69.5 118h561zM829 240q-57 -46 -129.5 -74t-153.5 -28q-82 0 -153.5 28t-128.5 74h565z" />
    <glyph glyph-name=".null" horiz-adv-x="0" 
 />
    <glyph glyph-name="nonmarkingreturn" unicode="&#xd;" horiz-adv-x="631" 
 />
    <glyph glyph-name="NULL" horiz-adv-x="0" 
 />
    <glyph glyph-name="NULL" horiz-adv-x="0" 
 />
    <glyph glyph-name="LF" unicode="&#xa;" horiz-adv-x="535" 
d="M73 1383q0 43 45 43h300q44 0 44 -43v-1341q0 -42 -44 -42h-300q-45 0 -45 42v1341z" />
    <glyph glyph-name="RS" horiz-adv-x="0" 
 />
    <glyph glyph-name="US" horiz-adv-x="0" 
d="M-21 1219h108v164q0 43 44 43h229q38 14 80 22t89 8q44 0 85.5 -8t79.5 -22h238q13 0 27.5 -7.5t14.5 -33.5v-166h109v-77h-109v-643h9v-40h-9v-417q0 -21 -11 -31.5t-37 -10.5h-226q-79 -31 -171 -31q-45 0 -87 8t-81 23h-240q-2 1 -6 1q-18 5 -24 19q-4 7 -4 18v213
q-14 35 -21 72t-7 77v383q0 87 28 169v190h-108v77z" />
    <glyph glyph-name="space" unicode=" " horiz-adv-x="516" 
 />
    <glyph glyph-name="exclam" unicode="!" horiz-adv-x="519" 
d="M81 275q0 21 11.5 30.5t21.5 9.5h289q12 0 19.5 -4.5t11 -11t5 -13t1.5 -10.5v-238q0 -12 -5.5 -19.5t-12 -11.5t-13 -5.5t-7.5 -1.5h-284q-3 0 -9 1.5t-12 5.5t-11 11.5t-5 19.5v237zM81 1383q0 43 44 43h269q44 0 44 -43v-897q0 -42 -44 -42h-269q-44 0 -44 42v897z
" />
    <glyph glyph-name="quotedbl" unicode="&#x22;" horiz-adv-x="717" 
d="M77 1383q0 43 35 43h169q12 0 18 -4t9 -10.5t3 -14v-14.5v-377q0 -21 -8.5 -29t-22.5 -8h-167q-20 0 -28 13.5t-8 28.5v372zM411 1383q0 43 34 43h169q12 0 18.5 -4t9 -10.5t3 -14t0.5 -14.5v-377q0 -21 -7 -29t-21 -8h-172q-20 0 -27 11t-7 31v372z" />
    <glyph glyph-name="numbersign" unicode="#" horiz-adv-x="1032" 
d="M589 349h-181l-13 -307q-2 -42 -38 -42h-212q-15 0 -26 10.5t-10 31.5l13 307h-60q-5 0 -16.5 9.5t-11.5 29.5v199q0 17 8.5 30t23.5 13h68l9 225h-47q-6 0 -17.5 9.5t-11.5 30.5v199q0 17 9 29.5t24 12.5h55l14 307q2 43 38 43h213q16 0 25.5 -11t8.5 -32l-13 -307h181
l14 307q2 43 38 43h213q16 0 26.5 -11t9.5 -32l-14 -307h59q17 0 23 -11t6 -29v-201q0 -20 -9.5 -30t-22.5 -10h-68l-10 -225h47q16 0 23 -11.5t7 -29.5v-201q0 -19 -10 -29t-24 -10h-55l-13 -307q-2 -42 -38 -42h-212q-16 0 -26.5 10.5t-9.5 31.5zM420 630h181l9 225h-181z
" />
    <glyph glyph-name="dollar" unicode="$" horiz-adv-x="993" 
d="M56 429q0 35 7 47.5t35 12.5h296q30 0 37.5 -10t7.5 -39v-44q0 -20 5.5 -33.5t14.5 -21t21 -10.5t25 -3q21 0 40 13.5t19 43.5q0 20 -7 37.5t-21.5 35.5t-37.5 37.5t-54 42.5q-71 53 -127.5 94.5t-99.5 77.5t-73.5 71.5t-50 75.5t-28.5 89.5t-9 114.5q0 74 24.5 135
t66 108t96.5 79t115 49v144q0 34 25 34h226q26 0 26 -34v-145q65 -18 118.5 -52.5t92 -84.5t59.5 -115t21 -144v-56q0 -26 -8.5 -34t-42.5 -8h-290q-24 0 -30.5 8.5t-6.5 34.5v53q0 65 -52 65q-28 0 -40 -15t-12 -33q0 -21 2 -36t12 -30.5t31.5 -33.5t61.5 -44
q76 -49 148 -102.5t128.5 -118t90.5 -143.5t34 -179q0 -68 -23 -128.5t-65.5 -110t-104 -84.5t-138.5 -51v-140q0 -35 -27 -35h-227q-12 0 -20 9t-8 26v147q-79 22 -133 63t-87.5 92.5t-48 109t-14.5 112.5v56z" />
    <glyph glyph-name="percent" unicode="%" 
d="M2439 1024v-550h-2367v550h897q0 28 5.5 55t19.5 50q12 27 26 49t36 39q39 39 91 58q26 11 53 16t56 5q32 0 60.5 -6t52.5 -15q27 -13 50.5 -27.5t44.5 -34.5q34 -34 60 -88q18 -50 18 -101h897zM1014 1119q-20 -45 -20 -95q0 -54 20 -99q10 -20 24 -40.5t30 -39.5
q38 -35 85 -54q46 -21 103 -21q61 0 103 19q47 19 82 54q21 18 34.5 38t24.5 41q21 49 21 102q0 20 -3.5 42t-11.5 44q-13 36 -42 68q-14 18 -29 31t-34 24q-18 7 -37 16.5t-39 16.5q-15 3 -32 6t-37 3q-59 0 -105 -23q-48 -16 -83 -54q-18 -17 -31 -37t-23 -42zM1123 877
l310 298q61 -73 61 -151q0 -22 -3 -42t-12 -39q-7 -18 -17 -34.5t-22 -31.5h-317zM1077 870q-14 17 -24.5 34.5t-18.5 36.5q-8 17 -11 38t-3 45q0 18 3 37.5t11 39.5q4 18 14 33.5t25 30.5h314zM2161 194q3 -4 5.5 -10t4.5 -13q5 -8 5 -14v-29q0 -6 -5 -11q-2 -7 -4.5 -14
t-5.5 -13q-6 -9 -16 -19q-13 -11 -25 -18q-5 -5 -12 -7t-13 -4q-4 -1 -7 -1.5t-7 -0.5h-17q-20 0 -42 6l-16 12l-8 6t-8 7q-9 6 -14.5 13.5t-7.5 19.5q-7 9 -8.5 18.5t-1.5 21.5q0 8 1 13.5t1 13.5q7 16 14 23q2 8 5.5 12.5t10.5 10.5q3 4 10 8t12 9q4 2 11 4t13 6
q10 0 16 1t12 1q10 0 17 -1t14 -1q6 -4 13 -6t12 -4l13 -9l12 -8q2 -6 8 -10.5t8 -12.5zM1117 194q2 -4 4 -10t6 -13q2 -10 2 -14v-29q0 -5 -2 -11q-4 -7 -6 -14t-4 -13q-5 -4 -10 -9.5t-9 -9.5q-5 -5 -10 -9.5t-11 -8.5q-7 -5 -14 -7t-13 -4q-10 -2 -15 -2h-15q-10 0 -20 2
t-22 4q-12 6 -19 12t-16 13q-16 13 -22 33q-3 9 -5.5 18.5t-2.5 21.5v13q0 6 3 14q4 16 11 23q4 8 8 12.5t8 10.5q7 4 12 8t11 9l28 10q5 0 11.5 1t14.5 1t15.5 -1t14.5 -1q6 -5 13 -6l14 -4l11 -9l10 -8q4 -6 9 -10.5t10 -12.5zM2395 244l1 1q1 1 6 1h37v-206h-37v150
l-5 -9v-6q0 -2 -2 -4l-13 -33l-15 -30q-7 -18 -12.5 -33.5t-14.5 -34.5h-35l-55 131q-5 3 -5 10q0 4 -1 4l-2 2v-147h-41v206h39q5 0 6.5 -1t3.5 -1q2 -2 3 -2t3 -2l8 -4q0 -2 2 -3.5t2 -3.5q4 -16 11 -30t15 -32q7 -15 12.5 -30.5t11.5 -28.5v-12q2 0 5 -4q0 4 1 4v12l9 13
l44 108q0 1 2 3l2 4q0 1 3 3l3 1q2 2 4 2t4 2zM1308 246h38v-206h-36l-98 138l-5 3v2q-3 4 -3 5q-4 1 -4 4q0 4 -5 4v-156h-38v206h34q4 0 8.5 -1t4.5 -3q3 -2 5.5 -2t4.5 -2l22 -31l10 -16t10 -17q13 -13 23.5 -27.5t24.5 -27.5q0 -2 1 -4.5t1 -6.5l1 -2l1 -3v143zM661 246
l93 -206h-24q-9 0 -16 4q-2 2 -4 6.5t-7 8.5l-12 25h-99l-9 -25q0 -6 -4 -6q-3 -5 -5 -5l-3 -4q-2 0 -3.5 -1t-5.5 -1q0 -2 -2 -2h-28l95 206h34zM256 246h137v-37h-99v-46h81v-38h-81v-48h99v-37h-137v206zM72 246h157v-23q0 -3 -1 -5q0 -3 -2 -5l-4 -4l-104 -134h1l2 2
h107v-37h-163v13q0 9 2 11q0 2 5 7v4l3 4q2 2 4 3.5t2 5.5l92 121h-101v37zM825 618q1 6 2 10t1 9q0 12 -3 21q0 5 -3.5 8.5t-5.5 9.5q-3 4 -12 13l-7 6q-2 3 -8 8l-19 8q-5 0 -9.5 0.5t-10.5 0.5q-3 0 -8.5 -0.5t-11.5 -0.5q-11 -4 -18 -8q-4 -5 -8 -7.5t-8 -6.5
q-11 -8 -12 -13q-5 -6 -6 -9.5t-3 -8.5q-1 -5 -1.5 -10t-0.5 -11q0 -5 2 -13t4 -14q2 -7 7 -12.5t10 -11.5q11 -14 25 -14q12 -6 29 -6h20q6 2 10.5 4t8.5 4q10 4 15 12q7 6 12 15q2 4 5.5 8.5t3.5 8.5zM1935 618v40q-2 5 -3.5 9t-3.5 9q-4 5 -15 13q-1 4 -5.5 6.5t-9.5 7.5
l-4 2t-5 2l-7 4q-7 0 -11.5 0.5t-9.5 0.5q-7 0 -11.5 -0.5t-8.5 -0.5q-6 -2 -11 -4l-10 -4q-4 -5 -7 -7.5t-7 -6.5l-12 -13q-2 -6 -4.5 -9.5t-2.5 -8.5q-5 -10 -5 -21q0 -5 2.5 -13t5.5 -14q5 -15 16 -24q8 -14 25 -14q12 -6 30 -6h21q3 2 8 4t8 4q5 3 9.5 5.5t5.5 6.5
q10 6 15 15zM1810 190q-7 -7 -13 -23q-7 -9 -7 -23q0 -8 2 -13.5t5 -11.5q2 -7 5.5 -13.5t7.5 -9.5q9 -9 23 -15q8 -2 13.5 -3t14.5 -1q5 0 9.5 1t11.5 1q3 2 8 4.5t8 6.5q3 0 9 2h12q3 0 9 -2q2 -1 7 -6l6 -7q-3 -4 -6 -7.5t-7 -7.5q-7 -3 -11.5 -6t-11.5 -6
q-7 -4 -11.5 -5t-10.5 -3q-8 -2 -12 -2h-10q-12 0 -23.5 2t-21.5 4q-19 9 -34 25q-16 13 -22 33q-4 9 -7 18.5t-3 21.5q0 8 1 13.5t4 13.5q2 16 9 23q6 8 9 12.5t9 10.5q6 4 12.5 8t11.5 9q4 2 10 4t17 6q6 0 12.5 1t15.5 1h12q2 0 10 -2q6 -2 10.5 -3t11.5 -3l23 -13
q4 -4 7 -8l6 -8l-6 -7q-2 -1 -5 -4l-2 -4h-15q-6 0 -15 4q-3 2 -8 4.5t-8 4.5q-10 2 -12 2h-9q-16 0 -28 -6q-16 -2 -23 -13zM1663 141q4 -5 7.5 -9t3.5 -7q5 -8 5 -19q0 -14 -7 -27l-9 -12q-3 -5 -8 -8q-7 -6 -11.5 -9.5t-12.5 -5.5q-6 -2 -14 -3t-15 -1q-12 0 -32 4
q-10 4 -21 18q-3 1 -7 5l-4 8q-6 1 -6 9l6 4q2 2 4 2h5l2 2h9q4 0 4 -2q8 0 10 -2q5 -4 8.5 -5.5t6.5 -3.5q2 0 6 -1t9 -1h5q3 0 7 2q5 1 13 5q7 5 8 8q2 4 4 7t2 7q0 6 -6 9q-5 6 -8 6q-2 4 -6.5 5t-6.5 2q-5 0 -14 6q-5 0 -9 1t-10 6q-9 3 -13 6t-8 7q-11 4 -11 13
q-7 10 -7 23q0 18 7 25q1 4 5 10l8 9l10 4l12 6q7 0 11.5 1t13.5 1q4 0 8 -1t10 -1l16 -6q3 -4 6.5 -6.5t7.5 -6.5q3 -2 6.5 -5t3.5 -7l-7 -4l-6 -4q-3 -2 -3 -3h-18l-6 1q-3 1 -6 4q-2 0 -3.5 1t-3.5 1h-17q-2 0 -3 -1t-5 -3l-7 -5q-1 -3 -1 -10q0 -5 1 -5q2 -2 3.5 -4.5
t3.5 -6.5h6q1 0 5 -2l9 -3l10 -4l8 -2q6 -4 10 -5t9 -4q12 -5 17 -13zM1554 315q-12 7 -16 19q-6 13 -6 29v15l10 18l12 13q6 8 13 9q3 5 8.5 6t8.5 3q5 0 9 1.5t9 1.5q4 0 10.5 -1.5t10.5 -1.5q4 -2 8 -3t8 -6q2 -2 5.5 -4.5t6.5 -4.5l12 -13l9 -18q0 -4 1 -8.5t1 -6.5
q0 -6 -1 -13.5t-6 -15.5q-4 -12 -16 -19l-21 -16q-5 -1 -11.5 -1.5t-16.5 -0.5h-14q-5 0 -11 2q-16 4 -23 16zM2131 119q6 10 6 25t-6 23q-2 9 -6.5 14.5t-7.5 8.5q-10 10 -24 13q-5 4 -12 5t-17 1q-12 0 -25 -6q-11 -1 -23 -13q-4 -3 -8 -8.5t-8 -14.5q0 -4 -1 -9.5
t-1 -13.5t1 -13.5t1 -11.5q7 -14 16 -23q6 -4 11 -8t12 -7q7 -2 14 -3t11 -1q20 0 29 4q8 3 14 7t10 8q9 9 14 23zM2248 315q-6 -4 -12.5 -7.5t-11.5 -8.5q-8 -2 -12 -2h-30q-3 0 -6 0.5t-7 1.5q-10 4 -22 16q-7 7 -13 19q-7 19 -7 29q0 2 1 6.5t1 8.5q2 4 3.5 9t4.5 9
q2 3 5 6t5 7q5 4 17 9q3 5 8.5 6t7.5 3q5 0 8 1.5t11 1.5q2 0 7.5 -1.5t11.5 -1.5q4 -2 7.5 -3t5.5 -6l9 -5l8 -4q1 -2 2 -3.5t2 -3.5l4 -6q7 -8 8 -18q2 -4 3 -8.5t1 -6.5q0 -6 -1 -13.5t-5 -15.5q0 -6 -5 -10.5t-9 -8.5zM1087 119q4 11 4 25t-4 23q-4 16 -19 23q-2 6 -8 9
t-12 4q-12 6 -28 6q-14 0 -26 -6q-10 -1 -23 -13q-8 -5 -13 -23q-6 -5 -6 -10v-27q0 -5 6 -11q2 -7 5 -13.5t8 -9.5q7 -4 12 -8t11 -7q11 -4 26 -4q19 0 28 4q6 3 12 7t8 8q7 3 12 9.5t7 13.5zM762 246h137v-37h-99v-52h81v-36h-81v-81h-38v206zM562 209h-58v-169h-42v169
h-62v37h162v-37zM1367 246h163v-37h-64v-169h-39v169h-60v37zM1345 1233q17 -8 35.5 -19.5t34.5 -21.5h-319q35 28 74 41q39 17 86 17t89 -17zM1170 810q-19 7 -37 18t-35 24h317q-16 -13 -34.5 -24t-35.5 -18q-23 -6 -45 -10.5t-44 -4.5q-24 0 -44.5 4.5t-41.5 10.5z
M550 566l-46 64q3 0 4 1l8 3q7 3 8 9q8 6 8 11v24q0 1 -2 5q-4 9 -10 14q-5 8 -14 8q-4 6 -16 6h-55v-145h23v60h23l39 -52q1 -4 7 -6q2 -2 3 -2h20zM1151 566l-66 145h-21l-65 -145h11q6 0 10 2q0 2 6 6l10 25h76l11 -25q3 -5 6 -6q2 -2 8 -2h14zM1900 676q3 -2 7.5 -7.5
t5.5 -10.5q4 -7 4 -21q0 -12 -4 -21q-1 -4 -5.5 -8.5t-7.5 -6.5q-5 -4 -9 -6.5t-8 -6.5q-9 -4 -22 -4q-15 0 -22 4q-6 4 -10.5 6.5t-8.5 6.5q-4 2 -7 6.5t-3 8.5q-6 10 -6 21q0 10 6 21q0 5 3 10.5t7 7.5q6 6 19 11q9 4 22 4q11 0 22 -4zM789 676q6 -2 8.5 -7.5t4.5 -10.5
q4 -7 4 -21q0 -10 -4 -21q-2 -4 -4.5 -8.5t-8.5 -6.5q-5 -6 -17 -13q-4 -2 -10 -3t-12 -1q-11 0 -22 4q-5 4 -9.5 6.5t-8.5 6.5q-2 2 -6 6.5t-6 8.5q-4 11 -4 21q0 12 4 21q2 5 6 10.5t6 7.5q6 6 18 11q5 2 12 3t10 1q13 0 22 -4q11 -4 17 -11zM291 647q5 12 5 18q0 9 -5 18
q0 2 -4 6l-7 6q-2 3 -5 6.5t-9 3.5q-2 4 -8 5t-10 1h-52v-145h17v55h35q4 0 10 0.5t8 2.5q10 4 14 10q11 5 11 13zM2183 311h30q5 2 7 3t4 5q2 0 14 5l3 6q1 1 1.5 2t2.5 2q0 3 2.5 7.5t2.5 8.5v32q-2 6 -6 10t-6 7q-7 2 -10.5 5t-7.5 7h-42q-7 -4 -10.5 -7t-8.5 -5
q-8 -6 -12 -17q-2 -8 -2 -12v-20q0 -4 1 -8.5t4 -7.5q2 -2 4.5 -4t4.5 -6l6 -3q2 -2 4 -2q4 -4 7.5 -5t6.5 -3zM1554 382q-3 -6 -4 -11.5t-1 -7.5v-8q0 -3 2 -5q0 -8 5 -16q0 -2 2 -4t4 -6l6 -3q2 -2 9 -2q2 -4 6 -5t6 -3h27q5 2 8 3t7 5l6 2l4 3q2 4 4.5 6t2.5 4q3 3 4 7.5
t3 8.5q0 2 1 5.5t1 7.5q0 2 -1 7.5t-5 11.5q0 6 -4 10t-6 7q-3 1 -8 6l-10 6h-42q-7 -7 -19 -12q-2 -3 -5 -7t-3 -10zM2093 711h-21v-112l-3 5l-3 4l-73 97l-3 6h-24v-145h22v114l2 -2l86 -112h17v145zM982 711h-18v-112l-2 4q-2 6 -2 5l-73 97q-5 0 -6 6h-24v-145h20v117h2
l2 -1v-4l85 -112h16v145zM2081 357q-4 -1 -7 -2l-6 -2l45 -56h-12l-6 2q-4 0 -4 7l-38 47h-28v-56h-15v130h56q4 0 10 -2q2 -2 5.5 -4.5t4.5 -4.5q5 -2 6 -5.5t7 -7.5v-25q-4 -4 -5 -7.5t-3 -5.5zM1322 357q-3 -3 -12 -4l47 -56h-15q-3 0 -3 2q-7 0 -7 7l-37 47h-28v-56h-13
v130h55q1 0 7 -2q8 -1 16 -9q0 -2 3.5 -5.5t3.5 -7.5q2 -2 2 -6v-13q0 -2 -2 -6q0 -9 -4 -13l-6 -4q-3 -3 -7 -4zM405 711h-95v-145h95v20h-72v44h58v17h-58v42h72v22zM1695 711h-93v-145h93v20h-70v44h58v17h-58v42h70v22zM2421 425q6 2 5 2h13v-130h-11v106l-3 -2v-2
q-4 -7 -6.5 -16t-7.5 -13q-4 -7 -6.5 -12.5t-7.5 -13.5q-2 -8 -3 -14t-5 -9q-3 -8 -6.5 -12.5t-5.5 -11.5h-15q-9 12 -14 24.5t-11 26.5q-4 11 -11.5 24.5t-11.5 26.5v2h-4v-104h-14v130h14q4 0 6 -2l2 -2v-5l49 -99q0 -4 2 -4l1 2v4q0 1 7 5l40 92q2 5 3 5t1 2zM1456 711
h-21v-97q0 -3 -2 -7q-2 -8 -9 -12q0 -2 -4.5 -3.5t-6.5 -5.5l-8 -2h-9q-7 0 -13 2q-5 4 -8.5 5.5t-5.5 3.5l-10 12q0 3 -1 7t-1 10v87h-20v-87q0 -6 1 -10t1 -7q0 -8 6 -14q2 -6 9 -11l5 -6l8 -4q2 -2 6.5 -3t7.5 -3q4 0 7 -1t8 -1t8.5 1t10.5 1q2 2 5.5 3t6.5 3l13 10
q3 2 5 5t5 6q0 4 3 7t3 7v104zM653 592q2 5 3 8t1 8q0 10 -5 18t-12 13q-2 0 -3.5 2t-5.5 4l-4 2h-4q-1 0 -1 4q-8 0 -9 1q-7 2 -8.5 3t-6.5 3q-6 3 -8 3q-3 4 -3 6v15q0 1 1.5 2t1.5 3q2 0 4 1t4 1l6 2h9q2 -2 4 -2q7 0 8 -4q2 -2 4 -2h2q10 0 14 4l4 2q0 2 -2 4l-4 4
q-3 1 -5.5 3.5t-6.5 4.5q-2 0 -4 2t-5 4q-5 0 -7 0.5t-4 0.5q-6 0 -11.5 -0.5t-7.5 -0.5q-5 -2 -7 -4t-6 -4q-3 -5 -6.5 -7.5t-6.5 -6.5q0 -4 -2 -6.5t-2 -8.5q0 -7 4 -16l5 -7l5 -4q3 -2 7 -5t7 -3q8 -5 15 -5q1 -2 5.5 -2t6.5 -2l6 -2q2 0 4 -2t2 -3t2 -5q2 -2 2 -6v-9
q0 -2 -2 -4t-2 -4t-2 -3q-1 -3 -6 -5l-4 -1q-4 0 -7.5 -1t-4.5 -1q-4 0 -7.5 1t-5.5 1q-5 0 -5 6l-4 1q-4 4 -12 4h-5l-4 -2l-6 -2q0 -3 4 -3q0 -2 2 -4q0 -4 4 -4v-5h3q7 -7 16 -9t20 -2h8q4 0 12 2q4 2 8.5 4t6.5 5q12 5 13 15zM1572 592q7 7 7 16q0 20 -17 31q-6 4 -6 6
h-4q-1 0 -3 2h-4q-4 0 -5 4h-4q-2 0 -4 1q-2 2 -4 3t-7 3l-7 3q-2 1 -3 2l-2 2l-1 2q0 1 -1 3t-1 4q0 4 4 8q0 1 4 5q2 0 3 1t4 1q4 2 11 2l3 -1q2 -1 5 -1q3 -3 9 -4q6 -2 7 -2q7 0 8 4l6 2q0 2 -3 4t-5 4q0 1 -3 3.5t-5 4.5q-3 0 -5 2t-7 4h-6l-4 1q-6 0 -10 -0.5t-8 -0.5
l-14 -8l-6 -8l-5 -6q-1 -4 -3 -6.5t-2 -8.5q0 -4 2 -7.5t3 -8.5q2 -4 4.5 -6.5l4.5 -4.5q5 -2 7.5 -5t6.5 -3q8 -5 14 -5q4 -2 6.5 -2t5.5 -2q7 0 11 -4q2 -2 3.5 -3t1.5 -5q2 -2 2 -5v-9q0 -3 -2 -5q0 -5 -5 -7q-7 -4 -8 -5t-3 -1q-6 0 -7 -1t-5 -1q-2 0 -6 1t-6 1
q-3 1 -8 6l-2 1q-5 4 -10 4h-6q-2 0 -4 -2l-7 -2q2 -1 2 -2t3 -1q0 -2 1 -3l3 -3v-2q7 -5 8 -5q6 -7 14 -9t18 -2h11q2 0 12 2q2 2 5.5 4t7.5 5l6 7q3 3 4 8zM1714 297h-17v130h19q3 0 4 -4l72 -97q2 0 2 -4l3 -1v106h13v-130h-11l-81 106v4h-4v-110zM77 328q-5 4 -6 7.5
t-2 8.5q-2 6 -3 9.5t-1 9.5t4 15q1 4 2 9t6 9l4 6l5 7q2 2 6.5 4.5t6.5 4.5q5 5 9.5 6t9.5 3q3 0 8 1.5t10 1.5q15 0 28 -7q14 -5 21 -14q-2 -2 -4 -2v-4h-14q-3 2 -6.5 5t-7.5 3h-35l-21 -12q-11 -6 -12 -17q-2 -6 -3 -11.5t-1 -7.5q0 -9 4 -13q0 -4 0.5 -8.5t0.5 -7.5
l4 -4q4 -1 7 -6l7 -4q2 -1 7 -1q2 -4 5 -5t7 -3h32q2 2 7 3t9 5v27h-14v2q-2 0 -3 1l-3 3h-2q-1 1 -1 3v4h37v-48q-2 -5 -3.5 -6t-6.5 -6h-11q-4 -1 -7 -1.5t-6 -0.5h-33q-5 0 -9.5 2.5t-9.5 6.5q-2 0 -6.5 2.5t-6.5 6.5zM236 411v-41h55v-15h-55v-44h66v-14h-83v130h83v-16
h-66zM1153 411v-41h59v-15h-59v-44h67v-14h-83v130h83v-16h-67zM2337 711h-19q-4 0 -8 -4q-5 -5 -5 -9l-37 -44h-2q0 -2 -2 -2v2l-38 44q-1 6 -4 9q-4 4 -12 4h-17l57 -72v-2q0 -1 2 -1l2 -2v-68h21v66q2 0 2 2l3 3v2zM631 427v-79q0 -6 2 -9t5 -5q0 -6 3.5 -9t5.5 -4
q0 -2 4 -4t6 -4q6 -2 9 -2h15q2 0 6 2t7.5 4t6.5 4q5 2 9 13q4 3 4 14v79h14v-79q0 -12 -5 -22q-5 -11 -11 -15q-2 -5 -7 -8.5t-9 -3.5q-6 -1 -12 -1.5t-11 -0.5t-10.5 0.5t-13.5 1.5q-4 0 -16 12l-10 15q-1 6 -3.5 11t-2.5 11v79h14zM2218 586h-68v125h-21v-145h89v20z
M1251 586h-66v125h-20v-145h86v20zM1429 315q1 2 2 3.5t2 3.5q2 2 3 6t1 6q0 8 -2 10t-3 4t-3 4q-1 1 -7 3q-5 0 -7 2t-6 2q-3 0 -7 2l-6 4q-9 0 -13 7q-2 0 -3.5 3t-4.5 6v21q0 2 3 7q0 8 7 9l6 5l8 4q4 0 6.5 1.5t7.5 1.5l6 -2l5 -1q3 0 4 -1t5 -3q7 0 7 -7q4 0 6 -3l1 -2
l-2 -2q-6 -2 -10 -2h-6q-2 2 -2 4h-22q-9 0 -9 -2q-5 -7 -5 -8q-4 0 -4 -7q0 -5 4 -6q0 -5 3 -6q0 -2 3 -3l4 -1q4 -4 7 -4t7 -2q3 0 4 -1l3 -1q3 0 7 -5h4q2 0 4 -2h3q5 -4 7.5 -7t4.5 -4q1 -5 1.5 -9.5t0.5 -8.5v-10q0 -4 -4 -5q-4 -9 -10 -13q-3 -2 -7 -4.5t-6 -2.5
q-4 -2 -10 -2h-9q-9 0 -17 1t-13 8q-3 0 -4 2.5t-5 4.5v4l-2 2l4 2h7q1 0 3 -1t4 -1q4 -4 6.5 -5t4.5 -3h21q8 0 12 4zM1052 297l-58 130h6q6 0 8 -2t3 -2t3 -5l42 -97v-2l2 -6v6l2 2q6 13 13 25.5t12 23.5q4 14 9.5 25.5t12.5 22.5q0 5 1.5 5t1.5 2l6 2h11
q-8 -16 -15 -32.5t-16 -31.5q-4 -8 -7 -17l-6 -18l-15 -31h-16zM524 411v-46h59v-12h-59v-56h-16v130h84v-16h-68zM1928 411v-46h53v-12h-53v-56h-16v130h81v-16h-65zM865 427v-116h62v-14h-79v130h17zM365 297v114h-46v16h104v-16h-46v-114h-12zM772 427v-116h63v-14h-79
v130h16zM266 683q2 -1 3 -4t3 -5q3 -5 3 -9v-4q0 -3 -3 -7q-2 -2 -3 -4.5t-3 -2.5q-1 -3 -8 -8h-45v50h35q4 0 10 -2l4 -2zM1304 365q4 0 6 3q4 4 10 4l2 4q0 2 3 5q0 1 1 4t1 7q0 2 -1 3t-1 4q-3 2 -4 3t-1 5q-6 0 -10 4h-43v-46h37zM2068 368l4 3q1 1 4 1q5 7 5 9
q2 4 2 11q0 3 -2 7q0 1 -5 8q-3 0 -4 1l-4 3h-43v-46h35q3 0 8 3zM510 658l-4 -7q-2 0 -3 -2t-3 -2q-2 -2 -10 -2h-32v44h32q4 0 10 -2q2 0 3 -1l3 -3q1 -2 2 -3.5t2 -3.5q3 -2 3 -9q0 -6 -3 -9zM673 121l-26 64q0 2 -1 3l-1 2q0 4 -2 6v-6l-2 -2q-1 -1 -1 -3l-27 -64h60z
M1500 427v-130h-16v130h16zM1075 682v-4l27 -60h-57l28 60v5zM1727 77q7 0 7 -6q2 -2 2 -5v-4q0 -7 -2 -9q0 -5 -7 -9q-2 0 -5 -4h-18q-4 4 -9 4q0 3 -6 9q-2 2 -2 9v4q0 3 2 5l6 6q7 4 9 4q1 3 4 3h11q3 0 3 -3q4 0 5 -4z" />
    <glyph glyph-name="ampersand" unicode="&#x26;" horiz-adv-x="1151" 
d="M511 599q0 13 3.5 23.5t23.5 18.5q22 9 47 17.5t71 8.5q38 0 68.5 -7.5t59.5 -7.5q17 0 26 16t9 42q0 14 8.5 27t31.5 13l215 -1q21 0 27.5 -13.5t6.5 -25.5q0 -138 -44.5 -216t-118.5 -106v-18q0 -37 -9 -81t-29.5 -88t-53.5 -84.5t-81.5 -71.5t-114 -50t-150.5 -19
q-127 0 -214 33t-141 88t-78 126t-24 147v211q0 95 35.5 150.5t90.5 84.5q-48 35 -81.5 88.5t-33.5 126.5v53q0 81 31 147.5t85 114.5t128 74.5t160 26.5q85 0 160 -18.5t131.5 -64t89 -123.5t32.5 -198q0 -36 -6 -51.5t-30 -15.5l-271 -2q-24 0 -32 18.5t-8 37.5
q0 35 -10.5 50.5t-36.5 15.5q-25 0 -33 -13t-8 -30v-76q0 -43 32 -43q20 0 35 -5t15 -28v-212q0 -14 -5 -20.5t-12.5 -8.5t-15 -1.5t-12.5 0.5h-1q-15 0 -23.5 -5.5t-12.5 -13.5t-4.5 -19t-0.5 -23v-208q0 -25 7 -40t17.5 -22.5t23 -10t22.5 -2.5q24 0 43.5 14.5t19.5 39.5
v12l-13 -3q-18 -4 -32 5t-15 26v190z" />
    <glyph glyph-name="quotesingle" unicode="'" horiz-adv-x="385" 
d="M76 1383q0 43 35 43h169q12 0 18 -4t9 -10.5t3 -14v-14.5v-377q0 -21 -6.5 -29t-20.5 -8h-184q-20 0 -21.5 13.5t-1.5 28.5v372z" />
    <glyph glyph-name="parenleft" unicode="(" horiz-adv-x="698" 
d="M96 615q0 111 10 235.5t37 254t75 260t124 254.5q11 17 21 19.5t27 -7.5l261 -141q16 -9 18 -23t-8 -30q-37 -61 -65 -135.5t-48.5 -154t-34.5 -159.5t-22 -151t-11.5 -129t-3.5 -93h-380zM476 615q0 -35 3.5 -93t11.5 -129t22 -151t34.5 -159.5t48.5 -154.5t65 -135
q10 -16 7.5 -30t-17.5 -23l-261 -142q-16 -9 -26.5 -6.5t-21.5 19.5q-76 124 -124 254.5t-75 260t-37 254t-10 235.5h380z" />
    <glyph glyph-name="parenright" unicode=")" horiz-adv-x="698" 
d="M645 615q0 -111 -10 -235.5t-37 -254t-75.5 -260t-124.5 -254.5q-11 -17 -21 -19.5t-26 6.5l-262 142q-15 9 -17.5 23t7.5 30q37 60 65 135t49 154.5t34.5 159.5t22 151t12 129t3.5 93t-3.5 93t-12 129t-22 151t-34.5 159.5t-49 154t-65 135.5q-10 16 -8 30t18 23
l262 141q17 10 26.5 7.5t20.5 -19.5q76 -124 124.5 -254.5t75.5 -260t37 -254t10 -235.5z" />
    <glyph glyph-name="asterisk" unicode="*" horiz-adv-x="712" 
d="M39 1230q1 14 12 24.5t19 8.5l125 -31l-91 86q-8 6 -5.5 19t16.5 21l160 87q13 6 28 2.5t17 -12.5l38 -132l37 133q2 8 15.5 13t27.5 -3l158 -89q12 -7 16.5 -21.5t-2.5 -20.5l-80 -78l104 24q11 2 21 -7.5t10 -23.5l1 -177q0 -11 -4.5 -17.5t-10.5 -9.5t-11.5 -3.5
t-7.5 -0.5l-115 31l83 -84q8 -8 4.5 -20.5t-17.5 -19.5l-161 -89q-10 -6 -18 -5.5t-13.5 3.5t-9 7t-3.5 6l-27 98l-31 -97q-3 -11 -16 -14t-26 4l-160 88q-11 6 -15 12.5t-4 13t2 11t4 6.5l95 88l-136 -36q-8 -2 -18.5 6.5t-10.5 23.5v175z" />
    <glyph glyph-name="plus" unicode="+" horiz-adv-x="702" 
d="M464 934q14 0 24 -10.5t10 -19.5v-127h134q12 0 22 -8t10 -22v-219q0 -14 -12 -22t-22 -8h-132v-129q0 -11 -9 -20.5t-23 -9.5h-230q-15 0 -23 11.5t-8 20.5v127h-137q-2 0 -6.5 1.5t-9.5 5.5t-9 9.5t-4 13.5v217q0 14 11 23t20 9h135v129q0 2 1.5 6.5t5.5 9.5t10 8.5
t14 3.5h228z" />
    <glyph glyph-name="comma" unicode="," horiz-adv-x="521" 
d="M72 256q0 35 16.5 47t35.5 12h252q30 0 43 -14t13 -42v-172q0 -79 -15 -133.5t-37.5 -90.5t-47.5 -57.5t-44 -34.5q-11 -8 -26.5 -11t-35.5 12l-52 43q-13 10 -15.5 19.5t0.5 18t9 14.5l10 10q31 26 44.5 55t13.5 46q0 4 -1.5 13t-10.5 9h-105q-17 0 -32 12.5t-15 38.5
v205z" />
    <glyph glyph-name="hyphen" unicode="-" horiz-adv-x="702" 
d="M39 684q0 14 11 23t20 9h562q12 0 22 -8t10 -22v-219q0 -14 -12 -22t-22 -8h-562q-2 0 -6.5 1.5t-9.5 5.5t-9 9.5t-4 13.5v217z" />
    <glyph glyph-name="period" unicode="." horiz-adv-x="508" 
d="M72 275q0 21 11.5 30.5t22.5 9.5h289q12 0 19 -4.5t11 -11t5.5 -13t1.5 -10.5v-238q0 -12 -5.5 -19.5t-12 -11.5t-13 -5.5t-7.5 -1.5h-285q-2 0 -8 1.5t-12.5 5.5t-11.5 11.5t-5 19.5v237z" />
    <glyph glyph-name="slash" unicode="/" horiz-adv-x="867" 
d="M405 42q-14 -42 -59 -42h-309q-19 0 -19.5 12t5.5 30l444 1341q15 43 58 43h306q19 0 21 -11t-6 -32z" />
    <glyph glyph-name="zero" unicode="0" 
d="M2439 1024v-550h-2367v550h897q0 28 5.5 55t19.5 50q12 27 26 49t36 39q39 39 91 58q26 11 53 16t56 5q32 0 60.5 -6t52.5 -15q27 -13 50.5 -27.5t44.5 -34.5q34 -34 60 -88q18 -50 18 -101h897zM1014 1119q-20 -45 -20 -95q0 -54 20 -99q10 -20 24 -40.5t30 -39.5
q38 -35 85 -54q46 -21 103 -21q61 0 103 19q47 19 82 54q21 18 34.5 38t24.5 41q21 49 21 102q0 20 -3.5 42t-11.5 44q-13 36 -42 68q-14 18 -29 31t-34 24q-18 7 -37 16.5t-39 16.5q-15 3 -32 6t-37 3q-59 0 -105 -23q-48 -16 -83 -54q-18 -17 -31 -37t-23 -42zM1123 877
l310 298q61 -73 61 -151q0 -22 -3 -42t-12 -39q-7 -18 -17 -34.5t-22 -31.5h-317zM1077 870q-14 17 -24.5 34.5t-18.5 36.5q-8 17 -11 38t-3 45q0 18 3 37.5t11 39.5q4 18 14 33.5t25 30.5h314zM2161 194q3 -4 5.5 -10t4.5 -13q5 -8 5 -14v-29q0 -6 -5 -11q-2 -7 -4.5 -14
t-5.5 -13q-6 -9 -16 -19q-13 -11 -25 -18q-5 -5 -12 -7t-13 -4q-4 -1 -7 -1.5t-7 -0.5h-17q-20 0 -42 6l-16 12l-8 6t-8 7q-9 6 -14.5 13.5t-7.5 19.5q-7 9 -8.5 18.5t-1.5 21.5q0 8 1 13.5t1 13.5q7 16 14 23q2 8 5.5 12.5t10.5 10.5q3 4 10 8t12 9q4 2 11 4t13 6
q10 0 16 1t12 1q10 0 17 -1t14 -1q6 -4 13 -6t12 -4l13 -9l12 -8q2 -6 8 -10.5t8 -12.5zM1117 194q2 -4 4 -10t6 -13q2 -10 2 -14v-29q0 -5 -2 -11q-4 -7 -6 -14t-4 -13q-5 -4 -10 -9.5t-9 -9.5q-5 -5 -10 -9.5t-11 -8.5q-7 -5 -14 -7t-13 -4q-10 -2 -15 -2h-15q-10 0 -20 2
t-22 4q-12 6 -19 12t-16 13q-16 13 -22 33q-3 9 -5.5 18.5t-2.5 21.5v13q0 6 3 14q4 16 11 23q4 8 8 12.5t8 10.5q7 4 12 8t11 9l28 10q5 0 11.5 1t14.5 1t15.5 -1t14.5 -1q6 -5 13 -6l14 -4l11 -9l10 -8q4 -6 9 -10.5t10 -12.5zM2395 244l1 1q1 1 6 1h37v-206h-37v150
l-5 -9v-6q0 -2 -2 -4l-13 -33l-15 -30q-7 -18 -12.5 -33.5t-14.5 -34.5h-35l-55 131q-5 3 -5 10q0 4 -1 4l-2 2v-147h-41v206h39q5 0 6.5 -1t3.5 -1q2 -2 3 -2t3 -2l8 -4q0 -2 2 -3.5t2 -3.5q4 -16 11 -30t15 -32q7 -15 12.5 -30.5t11.5 -28.5v-12q2 0 5 -4q0 4 1 4v12l9 13
l44 108q0 1 2 3l2 4q0 1 3 3l3 1q2 2 4 2t4 2zM1308 246h38v-206h-36l-98 138l-5 3v2q-3 4 -3 5q-4 1 -4 4q0 4 -5 4v-156h-38v206h34q4 0 8.5 -1t4.5 -3q3 -2 5.5 -2t4.5 -2l22 -31l10 -16t10 -17q13 -13 23.5 -27.5t24.5 -27.5q0 -2 1 -4.5t1 -6.5l1 -2l1 -3v143zM661 246
l93 -206h-24q-9 0 -16 4q-2 2 -4 6.5t-7 8.5l-12 25h-99l-9 -25q0 -6 -4 -6q-3 -5 -5 -5l-3 -4q-2 0 -3.5 -1t-5.5 -1q0 -2 -2 -2h-28l95 206h34zM256 246h137v-37h-99v-46h81v-38h-81v-48h99v-37h-137v206zM72 246h157v-23q0 -3 -1 -5q0 -3 -2 -5l-4 -4l-104 -134h1l2 2
h107v-37h-163v13q0 9 2 11q0 2 5 7v4l3 4q2 2 4 3.5t2 5.5l92 121h-101v37zM825 618q1 6 2 10t1 9q0 12 -3 21q0 5 -3.5 8.5t-5.5 9.5q-3 4 -12 13l-7 6q-2 3 -8 8l-19 8q-5 0 -9.5 0.5t-10.5 0.5q-3 0 -8.5 -0.5t-11.5 -0.5q-11 -4 -18 -8q-4 -5 -8 -7.5t-8 -6.5
q-11 -8 -12 -13q-5 -6 -6 -9.5t-3 -8.5q-1 -5 -1.5 -10t-0.5 -11q0 -5 2 -13t4 -14q2 -7 7 -12.5t10 -11.5q11 -14 25 -14q12 -6 29 -6h20q6 2 10.5 4t8.5 4q10 4 15 12q7 6 12 15q2 4 5.5 8.5t3.5 8.5zM1935 618v40q-2 5 -3.5 9t-3.5 9q-4 5 -15 13q-1 4 -5.5 6.5t-9.5 7.5
l-4 2t-5 2l-7 4q-7 0 -11.5 0.5t-9.5 0.5q-7 0 -11.5 -0.5t-8.5 -0.5q-6 -2 -11 -4l-10 -4q-4 -5 -7 -7.5t-7 -6.5l-12 -13q-2 -6 -4.5 -9.5t-2.5 -8.5q-5 -10 -5 -21q0 -5 2.5 -13t5.5 -14q5 -15 16 -24q8 -14 25 -14q12 -6 30 -6h21q3 2 8 4t8 4q5 3 9.5 5.5t5.5 6.5
q10 6 15 15zM1810 190q-7 -7 -13 -23q-7 -9 -7 -23q0 -8 2 -13.5t5 -11.5q2 -7 5.5 -13.5t7.5 -9.5q9 -9 23 -15q8 -2 13.5 -3t14.5 -1q5 0 9.5 1t11.5 1q3 2 8 4.5t8 6.5q3 0 9 2h12q3 0 9 -2q2 -1 7 -6l6 -7q-3 -4 -6 -7.5t-7 -7.5q-7 -3 -11.5 -6t-11.5 -6
q-7 -4 -11.5 -5t-10.5 -3q-8 -2 -12 -2h-10q-12 0 -23.5 2t-21.5 4q-19 9 -34 25q-16 13 -22 33q-4 9 -7 18.5t-3 21.5q0 8 1 13.5t4 13.5q2 16 9 23q6 8 9 12.5t9 10.5q6 4 12.5 8t11.5 9q4 2 10 4t17 6q6 0 12.5 1t15.5 1h12q2 0 10 -2q6 -2 10.5 -3t11.5 -3l23 -13
q4 -4 7 -8l6 -8l-6 -7q-2 -1 -5 -4l-2 -4h-15q-6 0 -15 4q-3 2 -8 4.5t-8 4.5q-10 2 -12 2h-9q-16 0 -28 -6q-16 -2 -23 -13zM1663 141q4 -5 7.5 -9t3.5 -7q5 -8 5 -19q0 -14 -7 -27l-9 -12q-3 -5 -8 -8q-7 -6 -11.5 -9.5t-12.5 -5.5q-6 -2 -14 -3t-15 -1q-12 0 -32 4
q-10 4 -21 18q-3 1 -7 5l-4 8q-6 1 -6 9l6 4q2 2 4 2h5l2 2h9q4 0 4 -2q8 0 10 -2q5 -4 8.5 -5.5t6.5 -3.5q2 0 6 -1t9 -1h5q3 0 7 2q5 1 13 5q7 5 8 8q2 4 4 7t2 7q0 6 -6 9q-5 6 -8 6q-2 4 -6.5 5t-6.5 2q-5 0 -14 6q-5 0 -9 1t-10 6q-9 3 -13 6t-8 7q-11 4 -11 13
q-7 10 -7 23q0 18 7 25q1 4 5 10l8 9l10 4l12 6q7 0 11.5 1t13.5 1q4 0 8 -1t10 -1l16 -6q3 -4 6.5 -6.5t7.5 -6.5q3 -2 6.5 -5t3.5 -7l-7 -4l-6 -4q-3 -2 -3 -3h-18l-6 1q-3 1 -6 4q-2 0 -3.5 1t-3.5 1h-17q-2 0 -3 -1t-5 -3l-7 -5q-1 -3 -1 -10q0 -5 1 -5q2 -2 3.5 -4.5
t3.5 -6.5h6q1 0 5 -2l9 -3l10 -4l8 -2q6 -4 10 -5t9 -4q12 -5 17 -13zM1554 315q-12 7 -16 19q-6 13 -6 29v15l10 18l12 13q6 8 13 9q3 5 8.5 6t8.5 3q5 0 9 1.5t9 1.5q4 0 10.5 -1.5t10.5 -1.5q4 -2 8 -3t8 -6q2 -2 5.5 -4.5t6.5 -4.5l12 -13l9 -18q0 -4 1 -8.5t1 -6.5
q0 -6 -1 -13.5t-6 -15.5q-4 -12 -16 -19l-21 -16q-5 -1 -11.5 -1.5t-16.5 -0.5h-14q-5 0 -11 2q-16 4 -23 16zM2131 119q6 10 6 25t-6 23q-2 9 -6.5 14.5t-7.5 8.5q-10 10 -24 13q-5 4 -12 5t-17 1q-12 0 -25 -6q-11 -1 -23 -13q-4 -3 -8 -8.5t-8 -14.5q0 -4 -1 -9.5
t-1 -13.5t1 -13.5t1 -11.5q7 -14 16 -23q6 -4 11 -8t12 -7q7 -2 14 -3t11 -1q20 0 29 4q8 3 14 7t10 8q9 9 14 23zM2248 315q-6 -4 -12.5 -7.5t-11.5 -8.5q-8 -2 -12 -2h-30q-3 0 -6 0.5t-7 1.5q-10 4 -22 16q-7 7 -13 19q-7 19 -7 29q0 2 1 6.5t1 8.5q2 4 3.5 9t4.5 9
q2 3 5 6t5 7q5 4 17 9q3 5 8.5 6t7.5 3q5 0 8 1.5t11 1.5q2 0 7.5 -1.5t11.5 -1.5q4 -2 7.5 -3t5.5 -6l9 -5l8 -4q1 -2 2 -3.5t2 -3.5l4 -6q7 -8 8 -18q2 -4 3 -8.5t1 -6.5q0 -6 -1 -13.5t-5 -15.5q0 -6 -5 -10.5t-9 -8.5zM1087 119q4 11 4 25t-4 23q-4 16 -19 23q-2 6 -8 9
t-12 4q-12 6 -28 6q-14 0 -26 -6q-10 -1 -23 -13q-8 -5 -13 -23q-6 -5 -6 -10v-27q0 -5 6 -11q2 -7 5 -13.5t8 -9.5q7 -4 12 -8t11 -7q11 -4 26 -4q19 0 28 4q6 3 12 7t8 8q7 3 12 9.5t7 13.5zM762 246h137v-37h-99v-52h81v-36h-81v-81h-38v206zM562 209h-58v-169h-42v169
h-62v37h162v-37zM1367 246h163v-37h-64v-169h-39v169h-60v37zM1345 1233q17 -8 35.5 -19.5t34.5 -21.5h-319q35 28 74 41q39 17 86 17t89 -17zM1170 810q-19 7 -37 18t-35 24h317q-16 -13 -34.5 -24t-35.5 -18q-23 -6 -45 -10.5t-44 -4.5q-24 0 -44.5 4.5t-41.5 10.5z
M550 566l-46 64q3 0 4 1l8 3q7 3 8 9q8 6 8 11v24q0 1 -2 5q-4 9 -10 14q-5 8 -14 8q-4 6 -16 6h-55v-145h23v60h23l39 -52q1 -4 7 -6q2 -2 3 -2h20zM1151 566l-66 145h-21l-65 -145h11q6 0 10 2q0 2 6 6l10 25h76l11 -25q3 -5 6 -6q2 -2 8 -2h14zM1900 676q3 -2 7.5 -7.5
t5.5 -10.5q4 -7 4 -21q0 -12 -4 -21q-1 -4 -5.5 -8.5t-7.5 -6.5q-5 -4 -9 -6.5t-8 -6.5q-9 -4 -22 -4q-15 0 -22 4q-6 4 -10.5 6.5t-8.5 6.5q-4 2 -7 6.5t-3 8.5q-6 10 -6 21q0 10 6 21q0 5 3 10.5t7 7.5q6 6 19 11q9 4 22 4q11 0 22 -4zM789 676q6 -2 8.5 -7.5t4.5 -10.5
q4 -7 4 -21q0 -10 -4 -21q-2 -4 -4.5 -8.5t-8.5 -6.5q-5 -6 -17 -13q-4 -2 -10 -3t-12 -1q-11 0 -22 4q-5 4 -9.5 6.5t-8.5 6.5q-2 2 -6 6.5t-6 8.5q-4 11 -4 21q0 12 4 21q2 5 6 10.5t6 7.5q6 6 18 11q5 2 12 3t10 1q13 0 22 -4q11 -4 17 -11zM291 647q5 12 5 18q0 9 -5 18
q0 2 -4 6l-7 6q-2 3 -5 6.5t-9 3.5q-2 4 -8 5t-10 1h-52v-145h17v55h35q4 0 10 0.5t8 2.5q10 4 14 10q11 5 11 13zM2183 311h30q5 2 7 3t4 5q2 0 14 5l3 6q1 1 1.5 2t2.5 2q0 3 2.5 7.5t2.5 8.5v32q-2 6 -6 10t-6 7q-7 2 -10.5 5t-7.5 7h-42q-7 -4 -10.5 -7t-8.5 -5
q-8 -6 -12 -17q-2 -8 -2 -12v-20q0 -4 1 -8.5t4 -7.5q2 -2 4.5 -4t4.5 -6l6 -3q2 -2 4 -2q4 -4 7.5 -5t6.5 -3zM1554 382q-3 -6 -4 -11.5t-1 -7.5v-8q0 -3 2 -5q0 -8 5 -16q0 -2 2 -4t4 -6l6 -3q2 -2 9 -2q2 -4 6 -5t6 -3h27q5 2 8 3t7 5l6 2l4 3q2 4 4.5 6t2.5 4q3 3 4 7.5
t3 8.5q0 2 1 5.5t1 7.5q0 2 -1 7.5t-5 11.5q0 6 -4 10t-6 7q-3 1 -8 6l-10 6h-42q-7 -7 -19 -12q-2 -3 -5 -7t-3 -10zM2093 711h-21v-112l-3 5l-3 4l-73 97l-3 6h-24v-145h22v114l2 -2l86 -112h17v145zM982 711h-18v-112l-2 4q-2 6 -2 5l-73 97q-5 0 -6 6h-24v-145h20v117h2
l2 -1v-4l85 -112h16v145zM2081 357q-4 -1 -7 -2l-6 -2l45 -56h-12l-6 2q-4 0 -4 7l-38 47h-28v-56h-15v130h56q4 0 10 -2q2 -2 5.5 -4.5t4.5 -4.5q5 -2 6 -5.5t7 -7.5v-25q-4 -4 -5 -7.5t-3 -5.5zM1322 357q-3 -3 -12 -4l47 -56h-15q-3 0 -3 2q-7 0 -7 7l-37 47h-28v-56h-13
v130h55q1 0 7 -2q8 -1 16 -9q0 -2 3.5 -5.5t3.5 -7.5q2 -2 2 -6v-13q0 -2 -2 -6q0 -9 -4 -13l-6 -4q-3 -3 -7 -4zM405 711h-95v-145h95v20h-72v44h58v17h-58v42h72v22zM1695 711h-93v-145h93v20h-70v44h58v17h-58v42h70v22zM2421 425q6 2 5 2h13v-130h-11v106l-3 -2v-2
q-4 -7 -6.5 -16t-7.5 -13q-4 -7 -6.5 -12.5t-7.5 -13.5q-2 -8 -3 -14t-5 -9q-3 -8 -6.5 -12.5t-5.5 -11.5h-15q-9 12 -14 24.5t-11 26.5q-4 11 -11.5 24.5t-11.5 26.5v2h-4v-104h-14v130h14q4 0 6 -2l2 -2v-5l49 -99q0 -4 2 -4l1 2v4q0 1 7 5l40 92q2 5 3 5t1 2zM1456 711
h-21v-97q0 -3 -2 -7q-2 -8 -9 -12q0 -2 -4.5 -3.5t-6.5 -5.5l-8 -2h-9q-7 0 -13 2q-5 4 -8.5 5.5t-5.5 3.5l-10 12q0 3 -1 7t-1 10v87h-20v-87q0 -6 1 -10t1 -7q0 -8 6 -14q2 -6 9 -11l5 -6l8 -4q2 -2 6.5 -3t7.5 -3q4 0 7 -1t8 -1t8.5 1t10.5 1q2 2 5.5 3t6.5 3l13 10
q3 2 5 5t5 6q0 4 3 7t3 7v104zM653 592q2 5 3 8t1 8q0 10 -5 18t-12 13q-2 0 -3.5 2t-5.5 4l-4 2h-4q-1 0 -1 4q-8 0 -9 1q-7 2 -8.5 3t-6.5 3q-6 3 -8 3q-3 4 -3 6v15q0 1 1.5 2t1.5 3q2 0 4 1t4 1l6 2h9q2 -2 4 -2q7 0 8 -4q2 -2 4 -2h2q10 0 14 4l4 2q0 2 -2 4l-4 4
q-3 1 -5.5 3.5t-6.5 4.5q-2 0 -4 2t-5 4q-5 0 -7 0.5t-4 0.5q-6 0 -11.5 -0.5t-7.5 -0.5q-5 -2 -7 -4t-6 -4q-3 -5 -6.5 -7.5t-6.5 -6.5q0 -4 -2 -6.5t-2 -8.5q0 -7 4 -16l5 -7l5 -4q3 -2 7 -5t7 -3q8 -5 15 -5q1 -2 5.5 -2t6.5 -2l6 -2q2 0 4 -2t2 -3t2 -5q2 -2 2 -6v-9
q0 -2 -2 -4t-2 -4t-2 -3q-1 -3 -6 -5l-4 -1q-4 0 -7.5 -1t-4.5 -1q-4 0 -7.5 1t-5.5 1q-5 0 -5 6l-4 1q-4 4 -12 4h-5l-4 -2l-6 -2q0 -3 4 -3q0 -2 2 -4q0 -4 4 -4v-5h3q7 -7 16 -9t20 -2h8q4 0 12 2q4 2 8.5 4t6.5 5q12 5 13 15zM1572 592q7 7 7 16q0 20 -17 31q-6 4 -6 6
h-4q-1 0 -3 2h-4q-4 0 -5 4h-4q-2 0 -4 1q-2 2 -4 3t-7 3l-7 3q-2 1 -3 2l-2 2l-1 2q0 1 -1 3t-1 4q0 4 4 8q0 1 4 5q2 0 3 1t4 1q4 2 11 2l3 -1q2 -1 5 -1q3 -3 9 -4q6 -2 7 -2q7 0 8 4l6 2q0 2 -3 4t-5 4q0 1 -3 3.5t-5 4.5q-3 0 -5 2t-7 4h-6l-4 1q-6 0 -10 -0.5t-8 -0.5
l-14 -8l-6 -8l-5 -6q-1 -4 -3 -6.5t-2 -8.5q0 -4 2 -7.5t3 -8.5q2 -4 4.5 -6.5l4.5 -4.5q5 -2 7.5 -5t6.5 -3q8 -5 14 -5q4 -2 6.5 -2t5.5 -2q7 0 11 -4q2 -2 3.5 -3t1.5 -5q2 -2 2 -5v-9q0 -3 -2 -5q0 -5 -5 -7q-7 -4 -8 -5t-3 -1q-6 0 -7 -1t-5 -1q-2 0 -6 1t-6 1
q-3 1 -8 6l-2 1q-5 4 -10 4h-6q-2 0 -4 -2l-7 -2q2 -1 2 -2t3 -1q0 -2 1 -3l3 -3v-2q7 -5 8 -5q6 -7 14 -9t18 -2h11q2 0 12 2q2 2 5.5 4t7.5 5l6 7q3 3 4 8zM1714 297h-17v130h19q3 0 4 -4l72 -97q2 0 2 -4l3 -1v106h13v-130h-11l-81 106v4h-4v-110zM77 328q-5 4 -6 7.5
t-2 8.5q-2 6 -3 9.5t-1 9.5t4 15q1 4 2 9t6 9l4 6l5 7q2 2 6.5 4.5t6.5 4.5q5 5 9.5 6t9.5 3q3 0 8 1.5t10 1.5q15 0 28 -7q14 -5 21 -14q-2 -2 -4 -2v-4h-14q-3 2 -6.5 5t-7.5 3h-35l-21 -12q-11 -6 -12 -17q-2 -6 -3 -11.5t-1 -7.5q0 -9 4 -13q0 -4 0.5 -8.5t0.5 -7.5
l4 -4q4 -1 7 -6l7 -4q2 -1 7 -1q2 -4 5 -5t7 -3h32q2 2 7 3t9 5v27h-14v2q-2 0 -3 1l-3 3h-2q-1 1 -1 3v4h37v-48q-2 -5 -3.5 -6t-6.5 -6h-11q-4 -1 -7 -1.5t-6 -0.5h-33q-5 0 -9.5 2.5t-9.5 6.5q-2 0 -6.5 2.5t-6.5 6.5zM236 411v-41h55v-15h-55v-44h66v-14h-83v130h83v-16
h-66zM1153 411v-41h59v-15h-59v-44h67v-14h-83v130h83v-16h-67zM2337 711h-19q-4 0 -8 -4q-5 -5 -5 -9l-37 -44h-2q0 -2 -2 -2v2l-38 44q-1 6 -4 9q-4 4 -12 4h-17l57 -72v-2q0 -1 2 -1l2 -2v-68h21v66q2 0 2 2l3 3v2zM631 427v-79q0 -6 2 -9t5 -5q0 -6 3.5 -9t5.5 -4
q0 -2 4 -4t6 -4q6 -2 9 -2h15q2 0 6 2t7.5 4t6.5 4q5 2 9 13q4 3 4 14v79h14v-79q0 -12 -5 -22q-5 -11 -11 -15q-2 -5 -7 -8.5t-9 -3.5q-6 -1 -12 -1.5t-11 -0.5t-10.5 0.5t-13.5 1.5q-4 0 -16 12l-10 15q-1 6 -3.5 11t-2.5 11v79h14zM2218 586h-68v125h-21v-145h89v20z
M1251 586h-66v125h-20v-145h86v20zM1429 315q1 2 2 3.5t2 3.5q2 2 3 6t1 6q0 8 -2 10t-3 4t-3 4q-1 1 -7 3q-5 0 -7 2t-6 2q-3 0 -7 2l-6 4q-9 0 -13 7q-2 0 -3.5 3t-4.5 6v21q0 2 3 7q0 8 7 9l6 5l8 4q4 0 6.5 1.5t7.5 1.5l6 -2l5 -1q3 0 4 -1t5 -3q7 0 7 -7q4 0 6 -3l1 -2
l-2 -2q-6 -2 -10 -2h-6q-2 2 -2 4h-22q-9 0 -9 -2q-5 -7 -5 -8q-4 0 -4 -7q0 -5 4 -6q0 -5 3 -6q0 -2 3 -3l4 -1q4 -4 7 -4t7 -2q3 0 4 -1l3 -1q3 0 7 -5h4q2 0 4 -2h3q5 -4 7.5 -7t4.5 -4q1 -5 1.5 -9.5t0.5 -8.5v-10q0 -4 -4 -5q-4 -9 -10 -13q-3 -2 -7 -4.5t-6 -2.5
q-4 -2 -10 -2h-9q-9 0 -17 1t-13 8q-3 0 -4 2.5t-5 4.5v4l-2 2l4 2h7q1 0 3 -1t4 -1q4 -4 6.5 -5t4.5 -3h21q8 0 12 4zM1052 297l-58 130h6q6 0 8 -2t3 -2t3 -5l42 -97v-2l2 -6v6l2 2q6 13 13 25.5t12 23.5q4 14 9.5 25.5t12.5 22.5q0 5 1.5 5t1.5 2l6 2h11
q-8 -16 -15 -32.5t-16 -31.5q-4 -8 -7 -17l-6 -18l-15 -31h-16zM524 411v-46h59v-12h-59v-56h-16v130h84v-16h-68zM1928 411v-46h53v-12h-53v-56h-16v130h81v-16h-65zM865 427v-116h62v-14h-79v130h17zM365 297v114h-46v16h104v-16h-46v-114h-12zM772 427v-116h63v-14h-79
v130h16zM266 683q2 -1 3 -4t3 -5q3 -5 3 -9v-4q0 -3 -3 -7q-2 -2 -3 -4.5t-3 -2.5q-1 -3 -8 -8h-45v50h35q4 0 10 -2l4 -2zM1304 365q4 0 6 3q4 4 10 4l2 4q0 2 3 5q0 1 1 4t1 7q0 2 -1 3t-1 4q-3 2 -4 3t-1 5q-6 0 -10 4h-43v-46h37zM2068 368l4 3q1 1 4 1q5 7 5 9
q2 4 2 11q0 3 -2 7q0 1 -5 8q-3 0 -4 1l-4 3h-43v-46h35q3 0 8 3zM510 658l-4 -7q-2 0 -3 -2t-3 -2q-2 -2 -10 -2h-32v44h32q4 0 10 -2q2 0 3 -1l3 -3q1 -2 2 -3.5t2 -3.5q3 -2 3 -9q0 -6 -3 -9zM673 121l-26 64q0 2 -1 3l-1 2q0 4 -2 6v-6l-2 -2q-1 -1 -1 -3l-27 -64h60z
M1500 427v-130h-16v130h16zM1075 682v-4l27 -60h-57l28 60v5zM1727 77q7 0 7 -6q2 -2 2 -5v-4q0 -7 -2 -9q0 -5 -7 -9q-2 0 -5 -4h-18q-4 4 -9 4q0 3 -6 9q-2 2 -2 9v4q0 3 2 5l6 6q7 4 9 4q1 3 4 3h11q3 0 3 -3q4 0 5 -4z" />
    <glyph glyph-name="one" unicode="1" 
d="M2439 1024v-550h-2367v550h897q0 28 5.5 55t19.5 50q12 27 26 49t36 39q39 39 91 58q26 11 53 16t56 5q32 0 60.5 -6t52.5 -15q27 -13 50.5 -27.5t44.5 -34.5q34 -34 60 -88q18 -50 18 -101h897zM1014 1119q-20 -45 -20 -95q0 -54 20 -99q10 -20 24 -40.5t30 -39.5
q38 -35 85 -54q46 -21 103 -21q61 0 103 19q47 19 82 54q21 18 34.5 38t24.5 41q21 49 21 102q0 20 -3.5 42t-11.5 44q-13 36 -42 68q-14 18 -29 31t-34 24q-18 7 -37 16.5t-39 16.5q-15 3 -32 6t-37 3q-59 0 -105 -23q-48 -16 -83 -54q-18 -17 -31 -37t-23 -42zM1123 877
l310 298q61 -73 61 -151q0 -22 -3 -42t-12 -39q-7 -18 -17 -34.5t-22 -31.5h-317zM1077 870q-14 17 -24.5 34.5t-18.5 36.5q-8 17 -11 38t-3 45q0 18 3 37.5t11 39.5q4 18 14 33.5t25 30.5h314zM2161 194q3 -4 5.5 -10t4.5 -13q5 -8 5 -14v-29q0 -6 -5 -11q-2 -7 -4.5 -14
t-5.5 -13q-6 -9 -16 -19q-13 -11 -25 -18q-5 -5 -12 -7t-13 -4q-4 -1 -7 -1.5t-7 -0.5h-17q-20 0 -42 6l-16 12l-8 6t-8 7q-9 6 -14.5 13.5t-7.5 19.5q-7 9 -8.5 18.5t-1.5 21.5q0 8 1 13.5t1 13.5q7 16 14 23q2 8 5.5 12.5t10.5 10.5q3 4 10 8t12 9q4 2 11 4t13 6
q10 0 16 1t12 1q10 0 17 -1t14 -1q6 -4 13 -6t12 -4l13 -9l12 -8q2 -6 8 -10.5t8 -12.5zM1117 194q2 -4 4 -10t6 -13q2 -10 2 -14v-29q0 -5 -2 -11q-4 -7 -6 -14t-4 -13q-5 -4 -10 -9.5t-9 -9.5q-5 -5 -10 -9.5t-11 -8.5q-7 -5 -14 -7t-13 -4q-10 -2 -15 -2h-15q-10 0 -20 2
t-22 4q-12 6 -19 12t-16 13q-16 13 -22 33q-3 9 -5.5 18.5t-2.5 21.5v13q0 6 3 14q4 16 11 23q4 8 8 12.5t8 10.5q7 4 12 8t11 9l28 10q5 0 11.5 1t14.5 1t15.5 -1t14.5 -1q6 -5 13 -6l14 -4l11 -9l10 -8q4 -6 9 -10.5t10 -12.5zM2395 244l1 1q1 1 6 1h37v-206h-37v150
l-5 -9v-6q0 -2 -2 -4l-13 -33l-15 -30q-7 -18 -12.5 -33.5t-14.5 -34.5h-35l-55 131q-5 3 -5 10q0 4 -1 4l-2 2v-147h-41v206h39q5 0 6.5 -1t3.5 -1q2 -2 3 -2t3 -2l8 -4q0 -2 2 -3.5t2 -3.5q4 -16 11 -30t15 -32q7 -15 12.5 -30.5t11.5 -28.5v-12q2 0 5 -4q0 4 1 4v12l9 13
l44 108q0 1 2 3l2 4q0 1 3 3l3 1q2 2 4 2t4 2zM1308 246h38v-206h-36l-98 138l-5 3v2q-3 4 -3 5q-4 1 -4 4q0 4 -5 4v-156h-38v206h34q4 0 8.5 -1t4.5 -3q3 -2 5.5 -2t4.5 -2l22 -31l10 -16t10 -17q13 -13 23.5 -27.5t24.5 -27.5q0 -2 1 -4.5t1 -6.5l1 -2l1 -3v143zM661 246
l93 -206h-24q-9 0 -16 4q-2 2 -4 6.5t-7 8.5l-12 25h-99l-9 -25q0 -6 -4 -6q-3 -5 -5 -5l-3 -4q-2 0 -3.5 -1t-5.5 -1q0 -2 -2 -2h-28l95 206h34zM256 246h137v-37h-99v-46h81v-38h-81v-48h99v-37h-137v206zM72 246h157v-23q0 -3 -1 -5q0 -3 -2 -5l-4 -4l-104 -134h1l2 2
h107v-37h-163v13q0 9 2 11q0 2 5 7v4l3 4q2 2 4 3.5t2 5.5l92 121h-101v37zM825 618q1 6 2 10t1 9q0 12 -3 21q0 5 -3.5 8.5t-5.5 9.5q-3 4 -12 13l-7 6q-2 3 -8 8l-19 8q-5 0 -9.5 0.5t-10.5 0.5q-3 0 -8.5 -0.5t-11.5 -0.5q-11 -4 -18 -8q-4 -5 -8 -7.5t-8 -6.5
q-11 -8 -12 -13q-5 -6 -6 -9.5t-3 -8.5q-1 -5 -1.5 -10t-0.5 -11q0 -5 2 -13t4 -14q2 -7 7 -12.5t10 -11.5q11 -14 25 -14q12 -6 29 -6h20q6 2 10.5 4t8.5 4q10 4 15 12q7 6 12 15q2 4 5.5 8.5t3.5 8.5zM1935 618v40q-2 5 -3.5 9t-3.5 9q-4 5 -15 13q-1 4 -5.5 6.5t-9.5 7.5
l-4 2t-5 2l-7 4q-7 0 -11.5 0.5t-9.5 0.5q-7 0 -11.5 -0.5t-8.5 -0.5q-6 -2 -11 -4l-10 -4q-4 -5 -7 -7.5t-7 -6.5l-12 -13q-2 -6 -4.5 -9.5t-2.5 -8.5q-5 -10 -5 -21q0 -5 2.5 -13t5.5 -14q5 -15 16 -24q8 -14 25 -14q12 -6 30 -6h21q3 2 8 4t8 4q5 3 9.5 5.5t5.5 6.5
q10 6 15 15zM1810 190q-7 -7 -13 -23q-7 -9 -7 -23q0 -8 2 -13.5t5 -11.5q2 -7 5.5 -13.5t7.5 -9.5q9 -9 23 -15q8 -2 13.5 -3t14.5 -1q5 0 9.5 1t11.5 1q3 2 8 4.5t8 6.5q3 0 9 2h12q3 0 9 -2q2 -1 7 -6l6 -7q-3 -4 -6 -7.5t-7 -7.5q-7 -3 -11.5 -6t-11.5 -6
q-7 -4 -11.5 -5t-10.5 -3q-8 -2 -12 -2h-10q-12 0 -23.5 2t-21.5 4q-19 9 -34 25q-16 13 -22 33q-4 9 -7 18.5t-3 21.5q0 8 1 13.5t4 13.5q2 16 9 23q6 8 9 12.5t9 10.5q6 4 12.5 8t11.5 9q4 2 10 4t17 6q6 0 12.5 1t15.5 1h12q2 0 10 -2q6 -2 10.5 -3t11.5 -3l23 -13
q4 -4 7 -8l6 -8l-6 -7q-2 -1 -5 -4l-2 -4h-15q-6 0 -15 4q-3 2 -8 4.5t-8 4.5q-10 2 -12 2h-9q-16 0 -28 -6q-16 -2 -23 -13zM1663 141q4 -5 7.5 -9t3.5 -7q5 -8 5 -19q0 -14 -7 -27l-9 -12q-3 -5 -8 -8q-7 -6 -11.5 -9.5t-12.5 -5.5q-6 -2 -14 -3t-15 -1q-12 0 -32 4
q-10 4 -21 18q-3 1 -7 5l-4 8q-6 1 -6 9l6 4q2 2 4 2h5l2 2h9q4 0 4 -2q8 0 10 -2q5 -4 8.5 -5.5t6.5 -3.5q2 0 6 -1t9 -1h5q3 0 7 2q5 1 13 5q7 5 8 8q2 4 4 7t2 7q0 6 -6 9q-5 6 -8 6q-2 4 -6.5 5t-6.5 2q-5 0 -14 6q-5 0 -9 1t-10 6q-9 3 -13 6t-8 7q-11 4 -11 13
q-7 10 -7 23q0 18 7 25q1 4 5 10l8 9l10 4l12 6q7 0 11.5 1t13.5 1q4 0 8 -1t10 -1l16 -6q3 -4 6.5 -6.5t7.5 -6.5q3 -2 6.5 -5t3.5 -7l-7 -4l-6 -4q-3 -2 -3 -3h-18l-6 1q-3 1 -6 4q-2 0 -3.5 1t-3.5 1h-17q-2 0 -3 -1t-5 -3l-7 -5q-1 -3 -1 -10q0 -5 1 -5q2 -2 3.5 -4.5
t3.5 -6.5h6q1 0 5 -2l9 -3l10 -4l8 -2q6 -4 10 -5t9 -4q12 -5 17 -13zM1554 315q-12 7 -16 19q-6 13 -6 29v15l10 18l12 13q6 8 13 9q3 5 8.5 6t8.5 3q5 0 9 1.5t9 1.5q4 0 10.5 -1.5t10.5 -1.5q4 -2 8 -3t8 -6q2 -2 5.5 -4.5t6.5 -4.5l12 -13l9 -18q0 -4 1 -8.5t1 -6.5
q0 -6 -1 -13.5t-6 -15.5q-4 -12 -16 -19l-21 -16q-5 -1 -11.5 -1.5t-16.5 -0.5h-14q-5 0 -11 2q-16 4 -23 16zM2131 119q6 10 6 25t-6 23q-2 9 -6.5 14.5t-7.5 8.5q-10 10 -24 13q-5 4 -12 5t-17 1q-12 0 -25 -6q-11 -1 -23 -13q-4 -3 -8 -8.5t-8 -14.5q0 -4 -1 -9.5
t-1 -13.5t1 -13.5t1 -11.5q7 -14 16 -23q6 -4 11 -8t12 -7q7 -2 14 -3t11 -1q20 0 29 4q8 3 14 7t10 8q9 9 14 23zM2248 315q-6 -4 -12.5 -7.5t-11.5 -8.5q-8 -2 -12 -2h-30q-3 0 -6 0.5t-7 1.5q-10 4 -22 16q-7 7 -13 19q-7 19 -7 29q0 2 1 6.5t1 8.5q2 4 3.5 9t4.5 9
q2 3 5 6t5 7q5 4 17 9q3 5 8.5 6t7.5 3q5 0 8 1.5t11 1.5q2 0 7.5 -1.5t11.5 -1.5q4 -2 7.5 -3t5.5 -6l9 -5l8 -4q1 -2 2 -3.5t2 -3.5l4 -6q7 -8 8 -18q2 -4 3 -8.5t1 -6.5q0 -6 -1 -13.5t-5 -15.5q0 -6 -5 -10.5t-9 -8.5zM1087 119q4 11 4 25t-4 23q-4 16 -19 23q-2 6 -8 9
t-12 4q-12 6 -28 6q-14 0 -26 -6q-10 -1 -23 -13q-8 -5 -13 -23q-6 -5 -6 -10v-27q0 -5 6 -11q2 -7 5 -13.5t8 -9.5q7 -4 12 -8t11 -7q11 -4 26 -4q19 0 28 4q6 3 12 7t8 8q7 3 12 9.5t7 13.5zM762 246h137v-37h-99v-52h81v-36h-81v-81h-38v206zM562 209h-58v-169h-42v169
h-62v37h162v-37zM1367 246h163v-37h-64v-169h-39v169h-60v37zM1345 1233q17 -8 35.5 -19.5t34.5 -21.5h-319q35 28 74 41q39 17 86 17t89 -17zM1170 810q-19 7 -37 18t-35 24h317q-16 -13 -34.5 -24t-35.5 -18q-23 -6 -45 -10.5t-44 -4.5q-24 0 -44.5 4.5t-41.5 10.5z
M550 566l-46 64q3 0 4 1l8 3q7 3 8 9q8 6 8 11v24q0 1 -2 5q-4 9 -10 14q-5 8 -14 8q-4 6 -16 6h-55v-145h23v60h23l39 -52q1 -4 7 -6q2 -2 3 -2h20zM1151 566l-66 145h-21l-65 -145h11q6 0 10 2q0 2 6 6l10 25h76l11 -25q3 -5 6 -6q2 -2 8 -2h14zM1900 676q3 -2 7.5 -7.5
t5.5 -10.5q4 -7 4 -21q0 -12 -4 -21q-1 -4 -5.5 -8.5t-7.5 -6.5q-5 -4 -9 -6.5t-8 -6.5q-9 -4 -22 -4q-15 0 -22 4q-6 4 -10.5 6.5t-8.5 6.5q-4 2 -7 6.5t-3 8.5q-6 10 -6 21q0 10 6 21q0 5 3 10.5t7 7.5q6 6 19 11q9 4 22 4q11 0 22 -4zM789 676q6 -2 8.5 -7.5t4.5 -10.5
q4 -7 4 -21q0 -10 -4 -21q-2 -4 -4.5 -8.5t-8.5 -6.5q-5 -6 -17 -13q-4 -2 -10 -3t-12 -1q-11 0 -22 4q-5 4 -9.5 6.5t-8.5 6.5q-2 2 -6 6.5t-6 8.5q-4 11 -4 21q0 12 4 21q2 5 6 10.5t6 7.5q6 6 18 11q5 2 12 3t10 1q13 0 22 -4q11 -4 17 -11zM291 647q5 12 5 18q0 9 -5 18
q0 2 -4 6l-7 6q-2 3 -5 6.5t-9 3.5q-2 4 -8 5t-10 1h-52v-145h17v55h35q4 0 10 0.5t8 2.5q10 4 14 10q11 5 11 13zM2183 311h30q5 2 7 3t4 5q2 0 14 5l3 6q1 1 1.5 2t2.5 2q0 3 2.5 7.5t2.5 8.5v32q-2 6 -6 10t-6 7q-7 2 -10.5 5t-7.5 7h-42q-7 -4 -10.5 -7t-8.5 -5
q-8 -6 -12 -17q-2 -8 -2 -12v-20q0 -4 1 -8.5t4 -7.5q2 -2 4.5 -4t4.5 -6l6 -3q2 -2 4 -2q4 -4 7.5 -5t6.5 -3zM1554 382q-3 -6 -4 -11.5t-1 -7.5v-8q0 -3 2 -5q0 -8 5 -16q0 -2 2 -4t4 -6l6 -3q2 -2 9 -2q2 -4 6 -5t6 -3h27q5 2 8 3t7 5l6 2l4 3q2 4 4.5 6t2.5 4q3 3 4 7.5
t3 8.5q0 2 1 5.5t1 7.5q0 2 -1 7.5t-5 11.5q0 6 -4 10t-6 7q-3 1 -8 6l-10 6h-42q-7 -7 -19 -12q-2 -3 -5 -7t-3 -10zM2093 711h-21v-112l-3 5l-3 4l-73 97l-3 6h-24v-145h22v114l2 -2l86 -112h17v145zM982 711h-18v-112l-2 4q-2 6 -2 5l-73 97q-5 0 -6 6h-24v-145h20v117h2
l2 -1v-4l85 -112h16v145zM2081 357q-4 -1 -7 -2l-6 -2l45 -56h-12l-6 2q-4 0 -4 7l-38 47h-28v-56h-15v130h56q4 0 10 -2q2 -2 5.5 -4.5t4.5 -4.5q5 -2 6 -5.5t7 -7.5v-25q-4 -4 -5 -7.5t-3 -5.5zM1322 357q-3 -3 -12 -4l47 -56h-15q-3 0 -3 2q-7 0 -7 7l-37 47h-28v-56h-13
v130h55q1 0 7 -2q8 -1 16 -9q0 -2 3.5 -5.5t3.5 -7.5q2 -2 2 -6v-13q0 -2 -2 -6q0 -9 -4 -13l-6 -4q-3 -3 -7 -4zM405 711h-95v-145h95v20h-72v44h58v17h-58v42h72v22zM1695 711h-93v-145h93v20h-70v44h58v17h-58v42h70v22zM2421 425q6 2 5 2h13v-130h-11v106l-3 -2v-2
q-4 -7 -6.5 -16t-7.5 -13q-4 -7 -6.5 -12.5t-7.5 -13.5q-2 -8 -3 -14t-5 -9q-3 -8 -6.5 -12.5t-5.5 -11.5h-15q-9 12 -14 24.5t-11 26.5q-4 11 -11.5 24.5t-11.5 26.5v2h-4v-104h-14v130h14q4 0 6 -2l2 -2v-5l49 -99q0 -4 2 -4l1 2v4q0 1 7 5l40 92q2 5 3 5t1 2zM1456 711
h-21v-97q0 -3 -2 -7q-2 -8 -9 -12q0 -2 -4.5 -3.5t-6.5 -5.5l-8 -2h-9q-7 0 -13 2q-5 4 -8.5 5.5t-5.5 3.5l-10 12q0 3 -1 7t-1 10v87h-20v-87q0 -6 1 -10t1 -7q0 -8 6 -14q2 -6 9 -11l5 -6l8 -4q2 -2 6.5 -3t7.5 -3q4 0 7 -1t8 -1t8.5 1t10.5 1q2 2 5.5 3t6.5 3l13 10
q3 2 5 5t5 6q0 4 3 7t3 7v104zM653 592q2 5 3 8t1 8q0 10 -5 18t-12 13q-2 0 -3.5 2t-5.5 4l-4 2h-4q-1 0 -1 4q-8 0 -9 1q-7 2 -8.5 3t-6.5 3q-6 3 -8 3q-3 4 -3 6v15q0 1 1.5 2t1.5 3q2 0 4 1t4 1l6 2h9q2 -2 4 -2q7 0 8 -4q2 -2 4 -2h2q10 0 14 4l4 2q0 2 -2 4l-4 4
q-3 1 -5.5 3.5t-6.5 4.5q-2 0 -4 2t-5 4q-5 0 -7 0.5t-4 0.5q-6 0 -11.5 -0.5t-7.5 -0.5q-5 -2 -7 -4t-6 -4q-3 -5 -6.5 -7.5t-6.5 -6.5q0 -4 -2 -6.5t-2 -8.5q0 -7 4 -16l5 -7l5 -4q3 -2 7 -5t7 -3q8 -5 15 -5q1 -2 5.5 -2t6.5 -2l6 -2q2 0 4 -2t2 -3t2 -5q2 -2 2 -6v-9
q0 -2 -2 -4t-2 -4t-2 -3q-1 -3 -6 -5l-4 -1q-4 0 -7.5 -1t-4.5 -1q-4 0 -7.5 1t-5.5 1q-5 0 -5 6l-4 1q-4 4 -12 4h-5l-4 -2l-6 -2q0 -3 4 -3q0 -2 2 -4q0 -4 4 -4v-5h3q7 -7 16 -9t20 -2h8q4 0 12 2q4 2 8.5 4t6.5 5q12 5 13 15zM1572 592q7 7 7 16q0 20 -17 31q-6 4 -6 6
h-4q-1 0 -3 2h-4q-4 0 -5 4h-4q-2 0 -4 1q-2 2 -4 3t-7 3l-7 3q-2 1 -3 2l-2 2l-1 2q0 1 -1 3t-1 4q0 4 4 8q0 1 4 5q2 0 3 1t4 1q4 2 11 2l3 -1q2 -1 5 -1q3 -3 9 -4q6 -2 7 -2q7 0 8 4l6 2q0 2 -3 4t-5 4q0 1 -3 3.5t-5 4.5q-3 0 -5 2t-7 4h-6l-4 1q-6 0 -10 -0.5t-8 -0.5
l-14 -8l-6 -8l-5 -6q-1 -4 -3 -6.5t-2 -8.5q0 -4 2 -7.5t3 -8.5q2 -4 4.5 -6.5l4.5 -4.5q5 -2 7.5 -5t6.5 -3q8 -5 14 -5q4 -2 6.5 -2t5.5 -2q7 0 11 -4q2 -2 3.5 -3t1.5 -5q2 -2 2 -5v-9q0 -3 -2 -5q0 -5 -5 -7q-7 -4 -8 -5t-3 -1q-6 0 -7 -1t-5 -1q-2 0 -6 1t-6 1
q-3 1 -8 6l-2 1q-5 4 -10 4h-6q-2 0 -4 -2l-7 -2q2 -1 2 -2t3 -1q0 -2 1 -3l3 -3v-2q7 -5 8 -5q6 -7 14 -9t18 -2h11q2 0 12 2q2 2 5.5 4t7.5 5l6 7q3 3 4 8zM1714 297h-17v130h19q3 0 4 -4l72 -97q2 0 2 -4l3 -1v106h13v-130h-11l-81 106v4h-4v-110zM77 328q-5 4 -6 7.5
t-2 8.5q-2 6 -3 9.5t-1 9.5t4 15q1 4 2 9t6 9l4 6l5 7q2 2 6.5 4.5t6.5 4.5q5 5 9.5 6t9.5 3q3 0 8 1.5t10 1.5q15 0 28 -7q14 -5 21 -14q-2 -2 -4 -2v-4h-14q-3 2 -6.5 5t-7.5 3h-35l-21 -12q-11 -6 -12 -17q-2 -6 -3 -11.5t-1 -7.5q0 -9 4 -13q0 -4 0.5 -8.5t0.5 -7.5
l4 -4q4 -1 7 -6l7 -4q2 -1 7 -1q2 -4 5 -5t7 -3h32q2 2 7 3t9 5v27h-14v2q-2 0 -3 1l-3 3h-2q-1 1 -1 3v4h37v-48q-2 -5 -3.5 -6t-6.5 -6h-11q-4 -1 -7 -1.5t-6 -0.5h-33q-5 0 -9.5 2.5t-9.5 6.5q-2 0 -6.5 2.5t-6.5 6.5zM236 411v-41h55v-15h-55v-44h66v-14h-83v130h83v-16
h-66zM1153 411v-41h59v-15h-59v-44h67v-14h-83v130h83v-16h-67zM2337 711h-19q-4 0 -8 -4q-5 -5 -5 -9l-37 -44h-2q0 -2 -2 -2v2l-38 44q-1 6 -4 9q-4 4 -12 4h-17l57 -72v-2q0 -1 2 -1l2 -2v-68h21v66q2 0 2 2l3 3v2zM631 427v-79q0 -6 2 -9t5 -5q0 -6 3.5 -9t5.5 -4
q0 -2 4 -4t6 -4q6 -2 9 -2h15q2 0 6 2t7.5 4t6.5 4q5 2 9 13q4 3 4 14v79h14v-79q0 -12 -5 -22q-5 -11 -11 -15q-2 -5 -7 -8.5t-9 -3.5q-6 -1 -12 -1.5t-11 -0.5t-10.5 0.5t-13.5 1.5q-4 0 -16 12l-10 15q-1 6 -3.5 11t-2.5 11v79h14zM2218 586h-68v125h-21v-145h89v20z
M1251 586h-66v125h-20v-145h86v20zM1429 315q1 2 2 3.5t2 3.5q2 2 3 6t1 6q0 8 -2 10t-3 4t-3 4q-1 1 -7 3q-5 0 -7 2t-6 2q-3 0 -7 2l-6 4q-9 0 -13 7q-2 0 -3.5 3t-4.5 6v21q0 2 3 7q0 8 7 9l6 5l8 4q4 0 6.5 1.5t7.5 1.5l6 -2l5 -1q3 0 4 -1t5 -3q7 0 7 -7q4 0 6 -3l1 -2
l-2 -2q-6 -2 -10 -2h-6q-2 2 -2 4h-22q-9 0 -9 -2q-5 -7 -5 -8q-4 0 -4 -7q0 -5 4 -6q0 -5 3 -6q0 -2 3 -3l4 -1q4 -4 7 -4t7 -2q3 0 4 -1l3 -1q3 0 7 -5h4q2 0 4 -2h3q5 -4 7.5 -7t4.5 -4q1 -5 1.5 -9.5t0.5 -8.5v-10q0 -4 -4 -5q-4 -9 -10 -13q-3 -2 -7 -4.5t-6 -2.5
q-4 -2 -10 -2h-9q-9 0 -17 1t-13 8q-3 0 -4 2.5t-5 4.5v4l-2 2l4 2h7q1 0 3 -1t4 -1q4 -4 6.5 -5t4.5 -3h21q8 0 12 4zM1052 297l-58 130h6q6 0 8 -2t3 -2t3 -5l42 -97v-2l2 -6v6l2 2q6 13 13 25.5t12 23.5q4 14 9.5 25.5t12.5 22.5q0 5 1.5 5t1.5 2l6 2h11
q-8 -16 -15 -32.5t-16 -31.5q-4 -8 -7 -17l-6 -18l-15 -31h-16zM524 411v-46h59v-12h-59v-56h-16v130h84v-16h-68zM1928 411v-46h53v-12h-53v-56h-16v130h81v-16h-65zM865 427v-116h62v-14h-79v130h17zM365 297v114h-46v16h104v-16h-46v-114h-12zM772 427v-116h63v-14h-79
v130h16zM266 683q2 -1 3 -4t3 -5q3 -5 3 -9v-4q0 -3 -3 -7q-2 -2 -3 -4.5t-3 -2.5q-1 -3 -8 -8h-45v50h35q4 0 10 -2l4 -2zM1304 365q4 0 6 3q4 4 10 4l2 4q0 2 3 5q0 1 1 4t1 7q0 2 -1 3t-1 4q-3 2 -4 3t-1 5q-6 0 -10 4h-43v-46h37zM2068 368l4 3q1 1 4 1q5 7 5 9
q2 4 2 11q0 3 -2 7q0 1 -5 8q-3 0 -4 1l-4 3h-43v-46h35q3 0 8 3zM510 658l-4 -7q-2 0 -3 -2t-3 -2q-2 -2 -10 -2h-32v44h32q4 0 10 -2q2 0 3 -1l3 -3q1 -2 2 -3.5t2 -3.5q3 -2 3 -9q0 -6 -3 -9zM673 121l-26 64q0 2 -1 3l-1 2q0 4 -2 6v-6l-2 -2q-1 -1 -1 -3l-27 -64h60z
M1500 427v-130h-16v130h16zM1075 682v-4l27 -60h-57l28 60v5zM1727 77q7 0 7 -6q2 -2 2 -5v-4q0 -7 -2 -9q0 -5 -7 -9q-2 0 -5 -4h-18q-4 4 -9 4q0 3 -6 9q-2 2 -2 9v4q0 3 2 5l6 6q7 4 9 4q1 3 4 3h11q3 0 3 -3q4 0 5 -4z" />
    <glyph glyph-name="two" unicode="2" 
d="M2439 1024v-550h-2367v550h897q0 28 5.5 55t19.5 50q12 27 26 49t36 39q39 39 91 58q26 11 53 16t56 5q32 0 60.5 -6t52.5 -15q27 -13 50.5 -27.5t44.5 -34.5q34 -34 60 -88q18 -50 18 -101h897zM1014 1119q-20 -45 -20 -95q0 -54 20 -99q10 -20 24 -40.5t30 -39.5
q38 -35 85 -54q46 -21 103 -21q61 0 103 19q47 19 82 54q21 18 34.5 38t24.5 41q21 49 21 102q0 20 -3.5 42t-11.5 44q-13 36 -42 68q-14 18 -29 31t-34 24q-18 7 -37 16.5t-39 16.5q-15 3 -32 6t-37 3q-59 0 -105 -23q-48 -16 -83 -54q-18 -17 -31 -37t-23 -42zM1123 877
l310 298q61 -73 61 -151q0 -22 -3 -42t-12 -39q-7 -18 -17 -34.5t-22 -31.5h-317zM1077 870q-14 17 -24.5 34.5t-18.5 36.5q-8 17 -11 38t-3 45q0 18 3 37.5t11 39.5q4 18 14 33.5t25 30.5h314zM2161 194q3 -4 5.5 -10t4.5 -13q5 -8 5 -14v-29q0 -6 -5 -11q-2 -7 -4.5 -14
t-5.5 -13q-6 -9 -16 -19q-13 -11 -25 -18q-5 -5 -12 -7t-13 -4q-4 -1 -7 -1.5t-7 -0.5h-17q-20 0 -42 6l-16 12l-8 6t-8 7q-9 6 -14.5 13.5t-7.5 19.5q-7 9 -8.5 18.5t-1.5 21.5q0 8 1 13.5t1 13.5q7 16 14 23q2 8 5.5 12.5t10.5 10.5q3 4 10 8t12 9q4 2 11 4t13 6
q10 0 16 1t12 1q10 0 17 -1t14 -1q6 -4 13 -6t12 -4l13 -9l12 -8q2 -6 8 -10.5t8 -12.5zM1117 194q2 -4 4 -10t6 -13q2 -10 2 -14v-29q0 -5 -2 -11q-4 -7 -6 -14t-4 -13q-5 -4 -10 -9.5t-9 -9.5q-5 -5 -10 -9.5t-11 -8.5q-7 -5 -14 -7t-13 -4q-10 -2 -15 -2h-15q-10 0 -20 2
t-22 4q-12 6 -19 12t-16 13q-16 13 -22 33q-3 9 -5.5 18.5t-2.5 21.5v13q0 6 3 14q4 16 11 23q4 8 8 12.5t8 10.5q7 4 12 8t11 9l28 10q5 0 11.5 1t14.5 1t15.5 -1t14.5 -1q6 -5 13 -6l14 -4l11 -9l10 -8q4 -6 9 -10.5t10 -12.5zM2395 244l1 1q1 1 6 1h37v-206h-37v150
l-5 -9v-6q0 -2 -2 -4l-13 -33l-15 -30q-7 -18 -12.5 -33.5t-14.5 -34.5h-35l-55 131q-5 3 -5 10q0 4 -1 4l-2 2v-147h-41v206h39q5 0 6.5 -1t3.5 -1q2 -2 3 -2t3 -2l8 -4q0 -2 2 -3.5t2 -3.5q4 -16 11 -30t15 -32q7 -15 12.5 -30.5t11.5 -28.5v-12q2 0 5 -4q0 4 1 4v12l9 13
l44 108q0 1 2 3l2 4q0 1 3 3l3 1q2 2 4 2t4 2zM1308 246h38v-206h-36l-98 138l-5 3v2q-3 4 -3 5q-4 1 -4 4q0 4 -5 4v-156h-38v206h34q4 0 8.5 -1t4.5 -3q3 -2 5.5 -2t4.5 -2l22 -31l10 -16t10 -17q13 -13 23.5 -27.5t24.5 -27.5q0 -2 1 -4.5t1 -6.5l1 -2l1 -3v143zM661 246
l93 -206h-24q-9 0 -16 4q-2 2 -4 6.5t-7 8.5l-12 25h-99l-9 -25q0 -6 -4 -6q-3 -5 -5 -5l-3 -4q-2 0 -3.5 -1t-5.5 -1q0 -2 -2 -2h-28l95 206h34zM256 246h137v-37h-99v-46h81v-38h-81v-48h99v-37h-137v206zM72 246h157v-23q0 -3 -1 -5q0 -3 -2 -5l-4 -4l-104 -134h1l2 2
h107v-37h-163v13q0 9 2 11q0 2 5 7v4l3 4q2 2 4 3.5t2 5.5l92 121h-101v37zM825 618q1 6 2 10t1 9q0 12 -3 21q0 5 -3.5 8.5t-5.5 9.5q-3 4 -12 13l-7 6q-2 3 -8 8l-19 8q-5 0 -9.5 0.5t-10.5 0.5q-3 0 -8.5 -0.5t-11.5 -0.5q-11 -4 -18 -8q-4 -5 -8 -7.5t-8 -6.5
q-11 -8 -12 -13q-5 -6 -6 -9.5t-3 -8.5q-1 -5 -1.5 -10t-0.5 -11q0 -5 2 -13t4 -14q2 -7 7 -12.5t10 -11.5q11 -14 25 -14q12 -6 29 -6h20q6 2 10.5 4t8.5 4q10 4 15 12q7 6 12 15q2 4 5.5 8.5t3.5 8.5zM1935 618v40q-2 5 -3.5 9t-3.5 9q-4 5 -15 13q-1 4 -5.5 6.5t-9.5 7.5
l-4 2t-5 2l-7 4q-7 0 -11.5 0.5t-9.5 0.5q-7 0 -11.5 -0.5t-8.5 -0.5q-6 -2 -11 -4l-10 -4q-4 -5 -7 -7.5t-7 -6.5l-12 -13q-2 -6 -4.5 -9.5t-2.5 -8.5q-5 -10 -5 -21q0 -5 2.5 -13t5.5 -14q5 -15 16 -24q8 -14 25 -14q12 -6 30 -6h21q3 2 8 4t8 4q5 3 9.5 5.5t5.5 6.5
q10 6 15 15zM1810 190q-7 -7 -13 -23q-7 -9 -7 -23q0 -8 2 -13.5t5 -11.5q2 -7 5.5 -13.5t7.5 -9.5q9 -9 23 -15q8 -2 13.5 -3t14.5 -1q5 0 9.5 1t11.5 1q3 2 8 4.5t8 6.5q3 0 9 2h12q3 0 9 -2q2 -1 7 -6l6 -7q-3 -4 -6 -7.5t-7 -7.5q-7 -3 -11.5 -6t-11.5 -6
q-7 -4 -11.5 -5t-10.5 -3q-8 -2 -12 -2h-10q-12 0 -23.5 2t-21.5 4q-19 9 -34 25q-16 13 -22 33q-4 9 -7 18.5t-3 21.5q0 8 1 13.5t4 13.5q2 16 9 23q6 8 9 12.5t9 10.5q6 4 12.5 8t11.5 9q4 2 10 4t17 6q6 0 12.5 1t15.5 1h12q2 0 10 -2q6 -2 10.5 -3t11.5 -3l23 -13
q4 -4 7 -8l6 -8l-6 -7q-2 -1 -5 -4l-2 -4h-15q-6 0 -15 4q-3 2 -8 4.5t-8 4.5q-10 2 -12 2h-9q-16 0 -28 -6q-16 -2 -23 -13zM1663 141q4 -5 7.5 -9t3.5 -7q5 -8 5 -19q0 -14 -7 -27l-9 -12q-3 -5 -8 -8q-7 -6 -11.5 -9.5t-12.5 -5.5q-6 -2 -14 -3t-15 -1q-12 0 -32 4
q-10 4 -21 18q-3 1 -7 5l-4 8q-6 1 -6 9l6 4q2 2 4 2h5l2 2h9q4 0 4 -2q8 0 10 -2q5 -4 8.5 -5.5t6.5 -3.5q2 0 6 -1t9 -1h5q3 0 7 2q5 1 13 5q7 5 8 8q2 4 4 7t2 7q0 6 -6 9q-5 6 -8 6q-2 4 -6.5 5t-6.5 2q-5 0 -14 6q-5 0 -9 1t-10 6q-9 3 -13 6t-8 7q-11 4 -11 13
q-7 10 -7 23q0 18 7 25q1 4 5 10l8 9l10 4l12 6q7 0 11.5 1t13.5 1q4 0 8 -1t10 -1l16 -6q3 -4 6.5 -6.5t7.5 -6.5q3 -2 6.5 -5t3.5 -7l-7 -4l-6 -4q-3 -2 -3 -3h-18l-6 1q-3 1 -6 4q-2 0 -3.5 1t-3.5 1h-17q-2 0 -3 -1t-5 -3l-7 -5q-1 -3 -1 -10q0 -5 1 -5q2 -2 3.5 -4.5
t3.5 -6.5h6q1 0 5 -2l9 -3l10 -4l8 -2q6 -4 10 -5t9 -4q12 -5 17 -13zM1554 315q-12 7 -16 19q-6 13 -6 29v15l10 18l12 13q6 8 13 9q3 5 8.5 6t8.5 3q5 0 9 1.5t9 1.5q4 0 10.5 -1.5t10.5 -1.5q4 -2 8 -3t8 -6q2 -2 5.5 -4.5t6.5 -4.5l12 -13l9 -18q0 -4 1 -8.5t1 -6.5
q0 -6 -1 -13.5t-6 -15.5q-4 -12 -16 -19l-21 -16q-5 -1 -11.5 -1.5t-16.5 -0.5h-14q-5 0 -11 2q-16 4 -23 16zM2131 119q6 10 6 25t-6 23q-2 9 -6.5 14.5t-7.5 8.5q-10 10 -24 13q-5 4 -12 5t-17 1q-12 0 -25 -6q-11 -1 -23 -13q-4 -3 -8 -8.5t-8 -14.5q0 -4 -1 -9.5
t-1 -13.5t1 -13.5t1 -11.5q7 -14 16 -23q6 -4 11 -8t12 -7q7 -2 14 -3t11 -1q20 0 29 4q8 3 14 7t10 8q9 9 14 23zM2248 315q-6 -4 -12.5 -7.5t-11.5 -8.5q-8 -2 -12 -2h-30q-3 0 -6 0.5t-7 1.5q-10 4 -22 16q-7 7 -13 19q-7 19 -7 29q0 2 1 6.5t1 8.5q2 4 3.5 9t4.5 9
q2 3 5 6t5 7q5 4 17 9q3 5 8.5 6t7.5 3q5 0 8 1.5t11 1.5q2 0 7.5 -1.5t11.5 -1.5q4 -2 7.5 -3t5.5 -6l9 -5l8 -4q1 -2 2 -3.5t2 -3.5l4 -6q7 -8 8 -18q2 -4 3 -8.5t1 -6.5q0 -6 -1 -13.5t-5 -15.5q0 -6 -5 -10.5t-9 -8.5zM1087 119q4 11 4 25t-4 23q-4 16 -19 23q-2 6 -8 9
t-12 4q-12 6 -28 6q-14 0 -26 -6q-10 -1 -23 -13q-8 -5 -13 -23q-6 -5 -6 -10v-27q0 -5 6 -11q2 -7 5 -13.5t8 -9.5q7 -4 12 -8t11 -7q11 -4 26 -4q19 0 28 4q6 3 12 7t8 8q7 3 12 9.5t7 13.5zM762 246h137v-37h-99v-52h81v-36h-81v-81h-38v206zM562 209h-58v-169h-42v169
h-62v37h162v-37zM1367 246h163v-37h-64v-169h-39v169h-60v37zM1345 1233q17 -8 35.5 -19.5t34.5 -21.5h-319q35 28 74 41q39 17 86 17t89 -17zM1170 810q-19 7 -37 18t-35 24h317q-16 -13 -34.5 -24t-35.5 -18q-23 -6 -45 -10.5t-44 -4.5q-24 0 -44.5 4.5t-41.5 10.5z
M550 566l-46 64q3 0 4 1l8 3q7 3 8 9q8 6 8 11v24q0 1 -2 5q-4 9 -10 14q-5 8 -14 8q-4 6 -16 6h-55v-145h23v60h23l39 -52q1 -4 7 -6q2 -2 3 -2h20zM1151 566l-66 145h-21l-65 -145h11q6 0 10 2q0 2 6 6l10 25h76l11 -25q3 -5 6 -6q2 -2 8 -2h14zM1900 676q3 -2 7.5 -7.5
t5.5 -10.5q4 -7 4 -21q0 -12 -4 -21q-1 -4 -5.5 -8.5t-7.5 -6.5q-5 -4 -9 -6.5t-8 -6.5q-9 -4 -22 -4q-15 0 -22 4q-6 4 -10.5 6.5t-8.5 6.5q-4 2 -7 6.5t-3 8.5q-6 10 -6 21q0 10 6 21q0 5 3 10.5t7 7.5q6 6 19 11q9 4 22 4q11 0 22 -4zM789 676q6 -2 8.5 -7.5t4.5 -10.5
q4 -7 4 -21q0 -10 -4 -21q-2 -4 -4.5 -8.5t-8.5 -6.5q-5 -6 -17 -13q-4 -2 -10 -3t-12 -1q-11 0 -22 4q-5 4 -9.5 6.5t-8.5 6.5q-2 2 -6 6.5t-6 8.5q-4 11 -4 21q0 12 4 21q2 5 6 10.5t6 7.5q6 6 18 11q5 2 12 3t10 1q13 0 22 -4q11 -4 17 -11zM291 647q5 12 5 18q0 9 -5 18
q0 2 -4 6l-7 6q-2 3 -5 6.5t-9 3.5q-2 4 -8 5t-10 1h-52v-145h17v55h35q4 0 10 0.5t8 2.5q10 4 14 10q11 5 11 13zM2183 311h30q5 2 7 3t4 5q2 0 14 5l3 6q1 1 1.5 2t2.5 2q0 3 2.5 7.5t2.5 8.5v32q-2 6 -6 10t-6 7q-7 2 -10.5 5t-7.5 7h-42q-7 -4 -10.5 -7t-8.5 -5
q-8 -6 -12 -17q-2 -8 -2 -12v-20q0 -4 1 -8.5t4 -7.5q2 -2 4.5 -4t4.5 -6l6 -3q2 -2 4 -2q4 -4 7.5 -5t6.5 -3zM1554 382q-3 -6 -4 -11.5t-1 -7.5v-8q0 -3 2 -5q0 -8 5 -16q0 -2 2 -4t4 -6l6 -3q2 -2 9 -2q2 -4 6 -5t6 -3h27q5 2 8 3t7 5l6 2l4 3q2 4 4.5 6t2.5 4q3 3 4 7.5
t3 8.5q0 2 1 5.5t1 7.5q0 2 -1 7.5t-5 11.5q0 6 -4 10t-6 7q-3 1 -8 6l-10 6h-42q-7 -7 -19 -12q-2 -3 -5 -7t-3 -10zM2093 711h-21v-112l-3 5l-3 4l-73 97l-3 6h-24v-145h22v114l2 -2l86 -112h17v145zM982 711h-18v-112l-2 4q-2 6 -2 5l-73 97q-5 0 -6 6h-24v-145h20v117h2
l2 -1v-4l85 -112h16v145zM2081 357q-4 -1 -7 -2l-6 -2l45 -56h-12l-6 2q-4 0 -4 7l-38 47h-28v-56h-15v130h56q4 0 10 -2q2 -2 5.5 -4.5t4.5 -4.5q5 -2 6 -5.5t7 -7.5v-25q-4 -4 -5 -7.5t-3 -5.5zM1322 357q-3 -3 -12 -4l47 -56h-15q-3 0 -3 2q-7 0 -7 7l-37 47h-28v-56h-13
v130h55q1 0 7 -2q8 -1 16 -9q0 -2 3.5 -5.5t3.5 -7.5q2 -2 2 -6v-13q0 -2 -2 -6q0 -9 -4 -13l-6 -4q-3 -3 -7 -4zM405 711h-95v-145h95v20h-72v44h58v17h-58v42h72v22zM1695 711h-93v-145h93v20h-70v44h58v17h-58v42h70v22zM2421 425q6 2 5 2h13v-130h-11v106l-3 -2v-2
q-4 -7 -6.5 -16t-7.5 -13q-4 -7 -6.5 -12.5t-7.5 -13.5q-2 -8 -3 -14t-5 -9q-3 -8 -6.5 -12.5t-5.5 -11.5h-15q-9 12 -14 24.5t-11 26.5q-4 11 -11.5 24.5t-11.5 26.5v2h-4v-104h-14v130h14q4 0 6 -2l2 -2v-5l49 -99q0 -4 2 -4l1 2v4q0 1 7 5l40 92q2 5 3 5t1 2zM1456 711
h-21v-97q0 -3 -2 -7q-2 -8 -9 -12q0 -2 -4.5 -3.5t-6.5 -5.5l-8 -2h-9q-7 0 -13 2q-5 4 -8.5 5.5t-5.5 3.5l-10 12q0 3 -1 7t-1 10v87h-20v-87q0 -6 1 -10t1 -7q0 -8 6 -14q2 -6 9 -11l5 -6l8 -4q2 -2 6.5 -3t7.5 -3q4 0 7 -1t8 -1t8.5 1t10.5 1q2 2 5.5 3t6.5 3l13 10
q3 2 5 5t5 6q0 4 3 7t3 7v104zM653 592q2 5 3 8t1 8q0 10 -5 18t-12 13q-2 0 -3.5 2t-5.5 4l-4 2h-4q-1 0 -1 4q-8 0 -9 1q-7 2 -8.5 3t-6.5 3q-6 3 -8 3q-3 4 -3 6v15q0 1 1.5 2t1.5 3q2 0 4 1t4 1l6 2h9q2 -2 4 -2q7 0 8 -4q2 -2 4 -2h2q10 0 14 4l4 2q0 2 -2 4l-4 4
q-3 1 -5.5 3.5t-6.5 4.5q-2 0 -4 2t-5 4q-5 0 -7 0.5t-4 0.5q-6 0 -11.5 -0.5t-7.5 -0.5q-5 -2 -7 -4t-6 -4q-3 -5 -6.5 -7.5t-6.5 -6.5q0 -4 -2 -6.5t-2 -8.5q0 -7 4 -16l5 -7l5 -4q3 -2 7 -5t7 -3q8 -5 15 -5q1 -2 5.5 -2t6.5 -2l6 -2q2 0 4 -2t2 -3t2 -5q2 -2 2 -6v-9
q0 -2 -2 -4t-2 -4t-2 -3q-1 -3 -6 -5l-4 -1q-4 0 -7.5 -1t-4.5 -1q-4 0 -7.5 1t-5.5 1q-5 0 -5 6l-4 1q-4 4 -12 4h-5l-4 -2l-6 -2q0 -3 4 -3q0 -2 2 -4q0 -4 4 -4v-5h3q7 -7 16 -9t20 -2h8q4 0 12 2q4 2 8.5 4t6.5 5q12 5 13 15zM1572 592q7 7 7 16q0 20 -17 31q-6 4 -6 6
h-4q-1 0 -3 2h-4q-4 0 -5 4h-4q-2 0 -4 1q-2 2 -4 3t-7 3l-7 3q-2 1 -3 2l-2 2l-1 2q0 1 -1 3t-1 4q0 4 4 8q0 1 4 5q2 0 3 1t4 1q4 2 11 2l3 -1q2 -1 5 -1q3 -3 9 -4q6 -2 7 -2q7 0 8 4l6 2q0 2 -3 4t-5 4q0 1 -3 3.5t-5 4.5q-3 0 -5 2t-7 4h-6l-4 1q-6 0 -10 -0.5t-8 -0.5
l-14 -8l-6 -8l-5 -6q-1 -4 -3 -6.5t-2 -8.5q0 -4 2 -7.5t3 -8.5q2 -4 4.5 -6.5l4.5 -4.5q5 -2 7.5 -5t6.5 -3q8 -5 14 -5q4 -2 6.5 -2t5.5 -2q7 0 11 -4q2 -2 3.5 -3t1.5 -5q2 -2 2 -5v-9q0 -3 -2 -5q0 -5 -5 -7q-7 -4 -8 -5t-3 -1q-6 0 -7 -1t-5 -1q-2 0 -6 1t-6 1
q-3 1 -8 6l-2 1q-5 4 -10 4h-6q-2 0 -4 -2l-7 -2q2 -1 2 -2t3 -1q0 -2 1 -3l3 -3v-2q7 -5 8 -5q6 -7 14 -9t18 -2h11q2 0 12 2q2 2 5.5 4t7.5 5l6 7q3 3 4 8zM1714 297h-17v130h19q3 0 4 -4l72 -97q2 0 2 -4l3 -1v106h13v-130h-11l-81 106v4h-4v-110zM77 328q-5 4 -6 7.5
t-2 8.5q-2 6 -3 9.5t-1 9.5t4 15q1 4 2 9t6 9l4 6l5 7q2 2 6.5 4.5t6.5 4.5q5 5 9.5 6t9.5 3q3 0 8 1.5t10 1.5q15 0 28 -7q14 -5 21 -14q-2 -2 -4 -2v-4h-14q-3 2 -6.5 5t-7.5 3h-35l-21 -12q-11 -6 -12 -17q-2 -6 -3 -11.5t-1 -7.5q0 -9 4 -13q0 -4 0.5 -8.5t0.5 -7.5
l4 -4q4 -1 7 -6l7 -4q2 -1 7 -1q2 -4 5 -5t7 -3h32q2 2 7 3t9 5v27h-14v2q-2 0 -3 1l-3 3h-2q-1 1 -1 3v4h37v-48q-2 -5 -3.5 -6t-6.5 -6h-11q-4 -1 -7 -1.5t-6 -0.5h-33q-5 0 -9.5 2.5t-9.5 6.5q-2 0 -6.5 2.5t-6.5 6.5zM236 411v-41h55v-15h-55v-44h66v-14h-83v130h83v-16
h-66zM1153 411v-41h59v-15h-59v-44h67v-14h-83v130h83v-16h-67zM2337 711h-19q-4 0 -8 -4q-5 -5 -5 -9l-37 -44h-2q0 -2 -2 -2v2l-38 44q-1 6 -4 9q-4 4 -12 4h-17l57 -72v-2q0 -1 2 -1l2 -2v-68h21v66q2 0 2 2l3 3v2zM631 427v-79q0 -6 2 -9t5 -5q0 -6 3.5 -9t5.5 -4
q0 -2 4 -4t6 -4q6 -2 9 -2h15q2 0 6 2t7.5 4t6.5 4q5 2 9 13q4 3 4 14v79h14v-79q0 -12 -5 -22q-5 -11 -11 -15q-2 -5 -7 -8.5t-9 -3.5q-6 -1 -12 -1.5t-11 -0.5t-10.5 0.5t-13.5 1.5q-4 0 -16 12l-10 15q-1 6 -3.5 11t-2.5 11v79h14zM2218 586h-68v125h-21v-145h89v20z
M1251 586h-66v125h-20v-145h86v20zM1429 315q1 2 2 3.5t2 3.5q2 2 3 6t1 6q0 8 -2 10t-3 4t-3 4q-1 1 -7 3q-5 0 -7 2t-6 2q-3 0 -7 2l-6 4q-9 0 -13 7q-2 0 -3.5 3t-4.5 6v21q0 2 3 7q0 8 7 9l6 5l8 4q4 0 6.5 1.5t7.5 1.5l6 -2l5 -1q3 0 4 -1t5 -3q7 0 7 -7q4 0 6 -3l1 -2
l-2 -2q-6 -2 -10 -2h-6q-2 2 -2 4h-22q-9 0 -9 -2q-5 -7 -5 -8q-4 0 -4 -7q0 -5 4 -6q0 -5 3 -6q0 -2 3 -3l4 -1q4 -4 7 -4t7 -2q3 0 4 -1l3 -1q3 0 7 -5h4q2 0 4 -2h3q5 -4 7.5 -7t4.5 -4q1 -5 1.5 -9.5t0.5 -8.5v-10q0 -4 -4 -5q-4 -9 -10 -13q-3 -2 -7 -4.5t-6 -2.5
q-4 -2 -10 -2h-9q-9 0 -17 1t-13 8q-3 0 -4 2.5t-5 4.5v4l-2 2l4 2h7q1 0 3 -1t4 -1q4 -4 6.5 -5t4.5 -3h21q8 0 12 4zM1052 297l-58 130h6q6 0 8 -2t3 -2t3 -5l42 -97v-2l2 -6v6l2 2q6 13 13 25.5t12 23.5q4 14 9.5 25.5t12.5 22.5q0 5 1.5 5t1.5 2l6 2h11
q-8 -16 -15 -32.5t-16 -31.5q-4 -8 -7 -17l-6 -18l-15 -31h-16zM524 411v-46h59v-12h-59v-56h-16v130h84v-16h-68zM1928 411v-46h53v-12h-53v-56h-16v130h81v-16h-65zM865 427v-116h62v-14h-79v130h17zM365 297v114h-46v16h104v-16h-46v-114h-12zM772 427v-116h63v-14h-79
v130h16zM266 683q2 -1 3 -4t3 -5q3 -5 3 -9v-4q0 -3 -3 -7q-2 -2 -3 -4.5t-3 -2.5q-1 -3 -8 -8h-45v50h35q4 0 10 -2l4 -2zM1304 365q4 0 6 3q4 4 10 4l2 4q0 2 3 5q0 1 1 4t1 7q0 2 -1 3t-1 4q-3 2 -4 3t-1 5q-6 0 -10 4h-43v-46h37zM2068 368l4 3q1 1 4 1q5 7 5 9
q2 4 2 11q0 3 -2 7q0 1 -5 8q-3 0 -4 1l-4 3h-43v-46h35q3 0 8 3zM510 658l-4 -7q-2 0 -3 -2t-3 -2q-2 -2 -10 -2h-32v44h32q4 0 10 -2q2 0 3 -1l3 -3q1 -2 2 -3.5t2 -3.5q3 -2 3 -9q0 -6 -3 -9zM673 121l-26 64q0 2 -1 3l-1 2q0 4 -2 6v-6l-2 -2q-1 -1 -1 -3l-27 -64h60z
M1500 427v-130h-16v130h16zM1075 682v-4l27 -60h-57l28 60v5zM1727 77q7 0 7 -6q2 -2 2 -5v-4q0 -7 -2 -9q0 -5 -7 -9q-2 0 -5 -4h-18q-4 4 -9 4q0 3 -6 9q-2 2 -2 9v4q0 3 2 5l6 6q7 4 9 4q1 3 4 3h11q3 0 3 -3q4 0 5 -4z" />
    <glyph glyph-name="three" unicode="3" 
d="M2439 1024v-550h-2367v550h897q0 28 5.5 55t19.5 50q12 27 26 49t36 39q39 39 91 58q26 11 53 16t56 5q32 0 60.5 -6t52.5 -15q27 -13 50.5 -27.5t44.5 -34.5q34 -34 60 -88q18 -50 18 -101h897zM1014 1119q-20 -45 -20 -95q0 -54 20 -99q10 -20 24 -40.5t30 -39.5
q38 -35 85 -54q46 -21 103 -21q61 0 103 19q47 19 82 54q21 18 34.5 38t24.5 41q21 49 21 102q0 20 -3.5 42t-11.5 44q-13 36 -42 68q-14 18 -29 31t-34 24q-18 7 -37 16.5t-39 16.5q-15 3 -32 6t-37 3q-59 0 -105 -23q-48 -16 -83 -54q-18 -17 -31 -37t-23 -42zM1123 877
l310 298q61 -73 61 -151q0 -22 -3 -42t-12 -39q-7 -18 -17 -34.5t-22 -31.5h-317zM1077 870q-14 17 -24.5 34.5t-18.5 36.5q-8 17 -11 38t-3 45q0 18 3 37.5t11 39.5q4 18 14 33.5t25 30.5h314zM2161 194q3 -4 5.5 -10t4.5 -13q5 -8 5 -14v-29q0 -6 -5 -11q-2 -7 -4.5 -14
t-5.5 -13q-6 -9 -16 -19q-13 -11 -25 -18q-5 -5 -12 -7t-13 -4q-4 -1 -7 -1.5t-7 -0.5h-17q-20 0 -42 6l-16 12l-8 6t-8 7q-9 6 -14.5 13.5t-7.5 19.5q-7 9 -8.5 18.5t-1.5 21.5q0 8 1 13.5t1 13.5q7 16 14 23q2 8 5.5 12.5t10.5 10.5q3 4 10 8t12 9q4 2 11 4t13 6
q10 0 16 1t12 1q10 0 17 -1t14 -1q6 -4 13 -6t12 -4l13 -9l12 -8q2 -6 8 -10.5t8 -12.5zM1117 194q2 -4 4 -10t6 -13q2 -10 2 -14v-29q0 -5 -2 -11q-4 -7 -6 -14t-4 -13q-5 -4 -10 -9.5t-9 -9.5q-5 -5 -10 -9.5t-11 -8.5q-7 -5 -14 -7t-13 -4q-10 -2 -15 -2h-15q-10 0 -20 2
t-22 4q-12 6 -19 12t-16 13q-16 13 -22 33q-3 9 -5.5 18.5t-2.5 21.5v13q0 6 3 14q4 16 11 23q4 8 8 12.5t8 10.5q7 4 12 8t11 9l28 10q5 0 11.5 1t14.5 1t15.5 -1t14.5 -1q6 -5 13 -6l14 -4l11 -9l10 -8q4 -6 9 -10.5t10 -12.5zM2395 244l1 1q1 1 6 1h37v-206h-37v150
l-5 -9v-6q0 -2 -2 -4l-13 -33l-15 -30q-7 -18 -12.5 -33.5t-14.5 -34.5h-35l-55 131q-5 3 -5 10q0 4 -1 4l-2 2v-147h-41v206h39q5 0 6.5 -1t3.5 -1q2 -2 3 -2t3 -2l8 -4q0 -2 2 -3.5t2 -3.5q4 -16 11 -30t15 -32q7 -15 12.5 -30.5t11.5 -28.5v-12q2 0 5 -4q0 4 1 4v12l9 13
l44 108q0 1 2 3l2 4q0 1 3 3l3 1q2 2 4 2t4 2zM1308 246h38v-206h-36l-98 138l-5 3v2q-3 4 -3 5q-4 1 -4 4q0 4 -5 4v-156h-38v206h34q4 0 8.5 -1t4.5 -3q3 -2 5.5 -2t4.5 -2l22 -31l10 -16t10 -17q13 -13 23.5 -27.5t24.5 -27.5q0 -2 1 -4.5t1 -6.5l1 -2l1 -3v143zM661 246
l93 -206h-24q-9 0 -16 4q-2 2 -4 6.5t-7 8.5l-12 25h-99l-9 -25q0 -6 -4 -6q-3 -5 -5 -5l-3 -4q-2 0 -3.5 -1t-5.5 -1q0 -2 -2 -2h-28l95 206h34zM256 246h137v-37h-99v-46h81v-38h-81v-48h99v-37h-137v206zM72 246h157v-23q0 -3 -1 -5q0 -3 -2 -5l-4 -4l-104 -134h1l2 2
h107v-37h-163v13q0 9 2 11q0 2 5 7v4l3 4q2 2 4 3.5t2 5.5l92 121h-101v37zM825 618q1 6 2 10t1 9q0 12 -3 21q0 5 -3.5 8.5t-5.5 9.5q-3 4 -12 13l-7 6q-2 3 -8 8l-19 8q-5 0 -9.5 0.5t-10.5 0.5q-3 0 -8.5 -0.5t-11.5 -0.5q-11 -4 -18 -8q-4 -5 -8 -7.5t-8 -6.5
q-11 -8 -12 -13q-5 -6 -6 -9.5t-3 -8.5q-1 -5 -1.5 -10t-0.5 -11q0 -5 2 -13t4 -14q2 -7 7 -12.5t10 -11.5q11 -14 25 -14q12 -6 29 -6h20q6 2 10.5 4t8.5 4q10 4 15 12q7 6 12 15q2 4 5.5 8.5t3.5 8.5zM1935 618v40q-2 5 -3.5 9t-3.5 9q-4 5 -15 13q-1 4 -5.5 6.5t-9.5 7.5
l-4 2t-5 2l-7 4q-7 0 -11.5 0.5t-9.5 0.5q-7 0 -11.5 -0.5t-8.5 -0.5q-6 -2 -11 -4l-10 -4q-4 -5 -7 -7.5t-7 -6.5l-12 -13q-2 -6 -4.5 -9.5t-2.5 -8.5q-5 -10 -5 -21q0 -5 2.5 -13t5.5 -14q5 -15 16 -24q8 -14 25 -14q12 -6 30 -6h21q3 2 8 4t8 4q5 3 9.5 5.5t5.5 6.5
q10 6 15 15zM1810 190q-7 -7 -13 -23q-7 -9 -7 -23q0 -8 2 -13.5t5 -11.5q2 -7 5.5 -13.5t7.5 -9.5q9 -9 23 -15q8 -2 13.5 -3t14.5 -1q5 0 9.5 1t11.5 1q3 2 8 4.5t8 6.5q3 0 9 2h12q3 0 9 -2q2 -1 7 -6l6 -7q-3 -4 -6 -7.5t-7 -7.5q-7 -3 -11.5 -6t-11.5 -6
q-7 -4 -11.5 -5t-10.5 -3q-8 -2 -12 -2h-10q-12 0 -23.5 2t-21.5 4q-19 9 -34 25q-16 13 -22 33q-4 9 -7 18.5t-3 21.5q0 8 1 13.5t4 13.5q2 16 9 23q6 8 9 12.5t9 10.5q6 4 12.5 8t11.5 9q4 2 10 4t17 6q6 0 12.5 1t15.5 1h12q2 0 10 -2q6 -2 10.5 -3t11.5 -3l23 -13
q4 -4 7 -8l6 -8l-6 -7q-2 -1 -5 -4l-2 -4h-15q-6 0 -15 4q-3 2 -8 4.5t-8 4.5q-10 2 -12 2h-9q-16 0 -28 -6q-16 -2 -23 -13zM1663 141q4 -5 7.5 -9t3.5 -7q5 -8 5 -19q0 -14 -7 -27l-9 -12q-3 -5 -8 -8q-7 -6 -11.5 -9.5t-12.5 -5.5q-6 -2 -14 -3t-15 -1q-12 0 -32 4
q-10 4 -21 18q-3 1 -7 5l-4 8q-6 1 -6 9l6 4q2 2 4 2h5l2 2h9q4 0 4 -2q8 0 10 -2q5 -4 8.5 -5.5t6.5 -3.5q2 0 6 -1t9 -1h5q3 0 7 2q5 1 13 5q7 5 8 8q2 4 4 7t2 7q0 6 -6 9q-5 6 -8 6q-2 4 -6.5 5t-6.5 2q-5 0 -14 6q-5 0 -9 1t-10 6q-9 3 -13 6t-8 7q-11 4 -11 13
q-7 10 -7 23q0 18 7 25q1 4 5 10l8 9l10 4l12 6q7 0 11.5 1t13.5 1q4 0 8 -1t10 -1l16 -6q3 -4 6.5 -6.5t7.5 -6.5q3 -2 6.5 -5t3.5 -7l-7 -4l-6 -4q-3 -2 -3 -3h-18l-6 1q-3 1 -6 4q-2 0 -3.5 1t-3.5 1h-17q-2 0 -3 -1t-5 -3l-7 -5q-1 -3 -1 -10q0 -5 1 -5q2 -2 3.5 -4.5
t3.5 -6.5h6q1 0 5 -2l9 -3l10 -4l8 -2q6 -4 10 -5t9 -4q12 -5 17 -13zM1554 315q-12 7 -16 19q-6 13 -6 29v15l10 18l12 13q6 8 13 9q3 5 8.5 6t8.5 3q5 0 9 1.5t9 1.5q4 0 10.5 -1.5t10.5 -1.5q4 -2 8 -3t8 -6q2 -2 5.5 -4.5t6.5 -4.5l12 -13l9 -18q0 -4 1 -8.5t1 -6.5
q0 -6 -1 -13.5t-6 -15.5q-4 -12 -16 -19l-21 -16q-5 -1 -11.5 -1.5t-16.5 -0.5h-14q-5 0 -11 2q-16 4 -23 16zM2131 119q6 10 6 25t-6 23q-2 9 -6.5 14.5t-7.5 8.5q-10 10 -24 13q-5 4 -12 5t-17 1q-12 0 -25 -6q-11 -1 -23 -13q-4 -3 -8 -8.5t-8 -14.5q0 -4 -1 -9.5
t-1 -13.5t1 -13.5t1 -11.5q7 -14 16 -23q6 -4 11 -8t12 -7q7 -2 14 -3t11 -1q20 0 29 4q8 3 14 7t10 8q9 9 14 23zM2248 315q-6 -4 -12.5 -7.5t-11.5 -8.5q-8 -2 -12 -2h-30q-3 0 -6 0.5t-7 1.5q-10 4 -22 16q-7 7 -13 19q-7 19 -7 29q0 2 1 6.5t1 8.5q2 4 3.5 9t4.5 9
q2 3 5 6t5 7q5 4 17 9q3 5 8.5 6t7.5 3q5 0 8 1.5t11 1.5q2 0 7.5 -1.5t11.5 -1.5q4 -2 7.5 -3t5.5 -6l9 -5l8 -4q1 -2 2 -3.5t2 -3.5l4 -6q7 -8 8 -18q2 -4 3 -8.5t1 -6.5q0 -6 -1 -13.5t-5 -15.5q0 -6 -5 -10.5t-9 -8.5zM1087 119q4 11 4 25t-4 23q-4 16 -19 23q-2 6 -8 9
t-12 4q-12 6 -28 6q-14 0 -26 -6q-10 -1 -23 -13q-8 -5 -13 -23q-6 -5 -6 -10v-27q0 -5 6 -11q2 -7 5 -13.5t8 -9.5q7 -4 12 -8t11 -7q11 -4 26 -4q19 0 28 4q6 3 12 7t8 8q7 3 12 9.5t7 13.5zM762 246h137v-37h-99v-52h81v-36h-81v-81h-38v206zM562 209h-58v-169h-42v169
h-62v37h162v-37zM1367 246h163v-37h-64v-169h-39v169h-60v37zM1345 1233q17 -8 35.5 -19.5t34.5 -21.5h-319q35 28 74 41q39 17 86 17t89 -17zM1170 810q-19 7 -37 18t-35 24h317q-16 -13 -34.5 -24t-35.5 -18q-23 -6 -45 -10.5t-44 -4.5q-24 0 -44.5 4.5t-41.5 10.5z
M550 566l-46 64q3 0 4 1l8 3q7 3 8 9q8 6 8 11v24q0 1 -2 5q-4 9 -10 14q-5 8 -14 8q-4 6 -16 6h-55v-145h23v60h23l39 -52q1 -4 7 -6q2 -2 3 -2h20zM1151 566l-66 145h-21l-65 -145h11q6 0 10 2q0 2 6 6l10 25h76l11 -25q3 -5 6 -6q2 -2 8 -2h14zM1900 676q3 -2 7.5 -7.5
t5.5 -10.5q4 -7 4 -21q0 -12 -4 -21q-1 -4 -5.5 -8.5t-7.5 -6.5q-5 -4 -9 -6.5t-8 -6.5q-9 -4 -22 -4q-15 0 -22 4q-6 4 -10.5 6.5t-8.5 6.5q-4 2 -7 6.5t-3 8.5q-6 10 -6 21q0 10 6 21q0 5 3 10.5t7 7.5q6 6 19 11q9 4 22 4q11 0 22 -4zM789 676q6 -2 8.5 -7.5t4.5 -10.5
q4 -7 4 -21q0 -10 -4 -21q-2 -4 -4.5 -8.5t-8.5 -6.5q-5 -6 -17 -13q-4 -2 -10 -3t-12 -1q-11 0 -22 4q-5 4 -9.5 6.5t-8.5 6.5q-2 2 -6 6.5t-6 8.5q-4 11 -4 21q0 12 4 21q2 5 6 10.5t6 7.5q6 6 18 11q5 2 12 3t10 1q13 0 22 -4q11 -4 17 -11zM291 647q5 12 5 18q0 9 -5 18
q0 2 -4 6l-7 6q-2 3 -5 6.5t-9 3.5q-2 4 -8 5t-10 1h-52v-145h17v55h35q4 0 10 0.5t8 2.5q10 4 14 10q11 5 11 13zM2183 311h30q5 2 7 3t4 5q2 0 14 5l3 6q1 1 1.5 2t2.5 2q0 3 2.5 7.5t2.5 8.5v32q-2 6 -6 10t-6 7q-7 2 -10.5 5t-7.5 7h-42q-7 -4 -10.5 -7t-8.5 -5
q-8 -6 -12 -17q-2 -8 -2 -12v-20q0 -4 1 -8.5t4 -7.5q2 -2 4.5 -4t4.5 -6l6 -3q2 -2 4 -2q4 -4 7.5 -5t6.5 -3zM1554 382q-3 -6 -4 -11.5t-1 -7.5v-8q0 -3 2 -5q0 -8 5 -16q0 -2 2 -4t4 -6l6 -3q2 -2 9 -2q2 -4 6 -5t6 -3h27q5 2 8 3t7 5l6 2l4 3q2 4 4.5 6t2.5 4q3 3 4 7.5
t3 8.5q0 2 1 5.5t1 7.5q0 2 -1 7.5t-5 11.5q0 6 -4 10t-6 7q-3 1 -8 6l-10 6h-42q-7 -7 -19 -12q-2 -3 -5 -7t-3 -10zM2093 711h-21v-112l-3 5l-3 4l-73 97l-3 6h-24v-145h22v114l2 -2l86 -112h17v145zM982 711h-18v-112l-2 4q-2 6 -2 5l-73 97q-5 0 -6 6h-24v-145h20v117h2
l2 -1v-4l85 -112h16v145zM2081 357q-4 -1 -7 -2l-6 -2l45 -56h-12l-6 2q-4 0 -4 7l-38 47h-28v-56h-15v130h56q4 0 10 -2q2 -2 5.5 -4.5t4.5 -4.5q5 -2 6 -5.5t7 -7.5v-25q-4 -4 -5 -7.5t-3 -5.5zM1322 357q-3 -3 -12 -4l47 -56h-15q-3 0 -3 2q-7 0 -7 7l-37 47h-28v-56h-13
v130h55q1 0 7 -2q8 -1 16 -9q0 -2 3.5 -5.5t3.5 -7.5q2 -2 2 -6v-13q0 -2 -2 -6q0 -9 -4 -13l-6 -4q-3 -3 -7 -4zM405 711h-95v-145h95v20h-72v44h58v17h-58v42h72v22zM1695 711h-93v-145h93v20h-70v44h58v17h-58v42h70v22zM2421 425q6 2 5 2h13v-130h-11v106l-3 -2v-2
q-4 -7 -6.5 -16t-7.5 -13q-4 -7 -6.5 -12.5t-7.5 -13.5q-2 -8 -3 -14t-5 -9q-3 -8 -6.5 -12.5t-5.5 -11.5h-15q-9 12 -14 24.5t-11 26.5q-4 11 -11.5 24.5t-11.5 26.5v2h-4v-104h-14v130h14q4 0 6 -2l2 -2v-5l49 -99q0 -4 2 -4l1 2v4q0 1 7 5l40 92q2 5 3 5t1 2zM1456 711
h-21v-97q0 -3 -2 -7q-2 -8 -9 -12q0 -2 -4.5 -3.5t-6.5 -5.5l-8 -2h-9q-7 0 -13 2q-5 4 -8.5 5.5t-5.5 3.5l-10 12q0 3 -1 7t-1 10v87h-20v-87q0 -6 1 -10t1 -7q0 -8 6 -14q2 -6 9 -11l5 -6l8 -4q2 -2 6.5 -3t7.5 -3q4 0 7 -1t8 -1t8.5 1t10.5 1q2 2 5.5 3t6.5 3l13 10
q3 2 5 5t5 6q0 4 3 7t3 7v104zM653 592q2 5 3 8t1 8q0 10 -5 18t-12 13q-2 0 -3.5 2t-5.5 4l-4 2h-4q-1 0 -1 4q-8 0 -9 1q-7 2 -8.5 3t-6.5 3q-6 3 -8 3q-3 4 -3 6v15q0 1 1.5 2t1.5 3q2 0 4 1t4 1l6 2h9q2 -2 4 -2q7 0 8 -4q2 -2 4 -2h2q10 0 14 4l4 2q0 2 -2 4l-4 4
q-3 1 -5.5 3.5t-6.5 4.5q-2 0 -4 2t-5 4q-5 0 -7 0.5t-4 0.5q-6 0 -11.5 -0.5t-7.5 -0.5q-5 -2 -7 -4t-6 -4q-3 -5 -6.5 -7.5t-6.5 -6.5q0 -4 -2 -6.5t-2 -8.5q0 -7 4 -16l5 -7l5 -4q3 -2 7 -5t7 -3q8 -5 15 -5q1 -2 5.5 -2t6.5 -2l6 -2q2 0 4 -2t2 -3t2 -5q2 -2 2 -6v-9
q0 -2 -2 -4t-2 -4t-2 -3q-1 -3 -6 -5l-4 -1q-4 0 -7.5 -1t-4.5 -1q-4 0 -7.5 1t-5.5 1q-5 0 -5 6l-4 1q-4 4 -12 4h-5l-4 -2l-6 -2q0 -3 4 -3q0 -2 2 -4q0 -4 4 -4v-5h3q7 -7 16 -9t20 -2h8q4 0 12 2q4 2 8.5 4t6.5 5q12 5 13 15zM1572 592q7 7 7 16q0 20 -17 31q-6 4 -6 6
h-4q-1 0 -3 2h-4q-4 0 -5 4h-4q-2 0 -4 1q-2 2 -4 3t-7 3l-7 3q-2 1 -3 2l-2 2l-1 2q0 1 -1 3t-1 4q0 4 4 8q0 1 4 5q2 0 3 1t4 1q4 2 11 2l3 -1q2 -1 5 -1q3 -3 9 -4q6 -2 7 -2q7 0 8 4l6 2q0 2 -3 4t-5 4q0 1 -3 3.5t-5 4.5q-3 0 -5 2t-7 4h-6l-4 1q-6 0 -10 -0.5t-8 -0.5
l-14 -8l-6 -8l-5 -6q-1 -4 -3 -6.5t-2 -8.5q0 -4 2 -7.5t3 -8.5q2 -4 4.5 -6.5l4.5 -4.5q5 -2 7.5 -5t6.5 -3q8 -5 14 -5q4 -2 6.5 -2t5.5 -2q7 0 11 -4q2 -2 3.5 -3t1.5 -5q2 -2 2 -5v-9q0 -3 -2 -5q0 -5 -5 -7q-7 -4 -8 -5t-3 -1q-6 0 -7 -1t-5 -1q-2 0 -6 1t-6 1
q-3 1 -8 6l-2 1q-5 4 -10 4h-6q-2 0 -4 -2l-7 -2q2 -1 2 -2t3 -1q0 -2 1 -3l3 -3v-2q7 -5 8 -5q6 -7 14 -9t18 -2h11q2 0 12 2q2 2 5.5 4t7.5 5l6 7q3 3 4 8zM1714 297h-17v130h19q3 0 4 -4l72 -97q2 0 2 -4l3 -1v106h13v-130h-11l-81 106v4h-4v-110zM77 328q-5 4 -6 7.5
t-2 8.5q-2 6 -3 9.5t-1 9.5t4 15q1 4 2 9t6 9l4 6l5 7q2 2 6.5 4.5t6.5 4.5q5 5 9.5 6t9.5 3q3 0 8 1.5t10 1.5q15 0 28 -7q14 -5 21 -14q-2 -2 -4 -2v-4h-14q-3 2 -6.5 5t-7.5 3h-35l-21 -12q-11 -6 -12 -17q-2 -6 -3 -11.5t-1 -7.5q0 -9 4 -13q0 -4 0.5 -8.5t0.5 -7.5
l4 -4q4 -1 7 -6l7 -4q2 -1 7 -1q2 -4 5 -5t7 -3h32q2 2 7 3t9 5v27h-14v2q-2 0 -3 1l-3 3h-2q-1 1 -1 3v4h37v-48q-2 -5 -3.5 -6t-6.5 -6h-11q-4 -1 -7 -1.5t-6 -0.5h-33q-5 0 -9.5 2.5t-9.5 6.5q-2 0 -6.5 2.5t-6.5 6.5zM236 411v-41h55v-15h-55v-44h66v-14h-83v130h83v-16
h-66zM1153 411v-41h59v-15h-59v-44h67v-14h-83v130h83v-16h-67zM2337 711h-19q-4 0 -8 -4q-5 -5 -5 -9l-37 -44h-2q0 -2 -2 -2v2l-38 44q-1 6 -4 9q-4 4 -12 4h-17l57 -72v-2q0 -1 2 -1l2 -2v-68h21v66q2 0 2 2l3 3v2zM631 427v-79q0 -6 2 -9t5 -5q0 -6 3.5 -9t5.5 -4
q0 -2 4 -4t6 -4q6 -2 9 -2h15q2 0 6 2t7.5 4t6.5 4q5 2 9 13q4 3 4 14v79h14v-79q0 -12 -5 -22q-5 -11 -11 -15q-2 -5 -7 -8.5t-9 -3.5q-6 -1 -12 -1.5t-11 -0.5t-10.5 0.5t-13.5 1.5q-4 0 -16 12l-10 15q-1 6 -3.5 11t-2.5 11v79h14zM2218 586h-68v125h-21v-145h89v20z
M1251 586h-66v125h-20v-145h86v20zM1429 315q1 2 2 3.5t2 3.5q2 2 3 6t1 6q0 8 -2 10t-3 4t-3 4q-1 1 -7 3q-5 0 -7 2t-6 2q-3 0 -7 2l-6 4q-9 0 -13 7q-2 0 -3.5 3t-4.5 6v21q0 2 3 7q0 8 7 9l6 5l8 4q4 0 6.5 1.5t7.5 1.5l6 -2l5 -1q3 0 4 -1t5 -3q7 0 7 -7q4 0 6 -3l1 -2
l-2 -2q-6 -2 -10 -2h-6q-2 2 -2 4h-22q-9 0 -9 -2q-5 -7 -5 -8q-4 0 -4 -7q0 -5 4 -6q0 -5 3 -6q0 -2 3 -3l4 -1q4 -4 7 -4t7 -2q3 0 4 -1l3 -1q3 0 7 -5h4q2 0 4 -2h3q5 -4 7.5 -7t4.5 -4q1 -5 1.5 -9.5t0.5 -8.5v-10q0 -4 -4 -5q-4 -9 -10 -13q-3 -2 -7 -4.5t-6 -2.5
q-4 -2 -10 -2h-9q-9 0 -17 1t-13 8q-3 0 -4 2.5t-5 4.5v4l-2 2l4 2h7q1 0 3 -1t4 -1q4 -4 6.5 -5t4.5 -3h21q8 0 12 4zM1052 297l-58 130h6q6 0 8 -2t3 -2t3 -5l42 -97v-2l2 -6v6l2 2q6 13 13 25.5t12 23.5q4 14 9.5 25.5t12.5 22.5q0 5 1.5 5t1.5 2l6 2h11
q-8 -16 -15 -32.5t-16 -31.5q-4 -8 -7 -17l-6 -18l-15 -31h-16zM524 411v-46h59v-12h-59v-56h-16v130h84v-16h-68zM1928 411v-46h53v-12h-53v-56h-16v130h81v-16h-65zM865 427v-116h62v-14h-79v130h17zM365 297v114h-46v16h104v-16h-46v-114h-12zM772 427v-116h63v-14h-79
v130h16zM266 683q2 -1 3 -4t3 -5q3 -5 3 -9v-4q0 -3 -3 -7q-2 -2 -3 -4.5t-3 -2.5q-1 -3 -8 -8h-45v50h35q4 0 10 -2l4 -2zM1304 365q4 0 6 3q4 4 10 4l2 4q0 2 3 5q0 1 1 4t1 7q0 2 -1 3t-1 4q-3 2 -4 3t-1 5q-6 0 -10 4h-43v-46h37zM2068 368l4 3q1 1 4 1q5 7 5 9
q2 4 2 11q0 3 -2 7q0 1 -5 8q-3 0 -4 1l-4 3h-43v-46h35q3 0 8 3zM510 658l-4 -7q-2 0 -3 -2t-3 -2q-2 -2 -10 -2h-32v44h32q4 0 10 -2q2 0 3 -1l3 -3q1 -2 2 -3.5t2 -3.5q3 -2 3 -9q0 -6 -3 -9zM673 121l-26 64q0 2 -1 3l-1 2q0 4 -2 6v-6l-2 -2q-1 -1 -1 -3l-27 -64h60z
M1500 427v-130h-16v130h16zM1075 682v-4l27 -60h-57l28 60v5zM1727 77q7 0 7 -6q2 -2 2 -5v-4q0 -7 -2 -9q0 -5 -7 -9q-2 0 -5 -4h-18q-4 4 -9 4q0 3 -6 9q-2 2 -2 9v4q0 3 2 5l6 6q7 4 9 4q1 3 4 3h11q3 0 3 -3q4 0 5 -4z" />
    <glyph glyph-name="four" unicode="4" 
d="M2439 1024v-550h-2367v550h897q0 28 5.5 55t19.5 50q12 27 26 49t36 39q39 39 91 58q26 11 53 16t56 5q32 0 60.5 -6t52.5 -15q27 -13 50.5 -27.5t44.5 -34.5q34 -34 60 -88q18 -50 18 -101h897zM1014 1119q-20 -45 -20 -95q0 -54 20 -99q10 -20 24 -40.5t30 -39.5
q38 -35 85 -54q46 -21 103 -21q61 0 103 19q47 19 82 54q21 18 34.5 38t24.5 41q21 49 21 102q0 20 -3.5 42t-11.5 44q-13 36 -42 68q-14 18 -29 31t-34 24q-18 7 -37 16.5t-39 16.5q-15 3 -32 6t-37 3q-59 0 -105 -23q-48 -16 -83 -54q-18 -17 -31 -37t-23 -42zM1123 877
l310 298q61 -73 61 -151q0 -22 -3 -42t-12 -39q-7 -18 -17 -34.5t-22 -31.5h-317zM1077 870q-14 17 -24.5 34.5t-18.5 36.5q-8 17 -11 38t-3 45q0 18 3 37.5t11 39.5q4 18 14 33.5t25 30.5h314zM2161 194q3 -4 5.5 -10t4.5 -13q5 -8 5 -14v-29q0 -6 -5 -11q-2 -7 -4.5 -14
t-5.5 -13q-6 -9 -16 -19q-13 -11 -25 -18q-5 -5 -12 -7t-13 -4q-4 -1 -7 -1.5t-7 -0.5h-17q-20 0 -42 6l-16 12l-8 6t-8 7q-9 6 -14.5 13.5t-7.5 19.5q-7 9 -8.5 18.5t-1.5 21.5q0 8 1 13.5t1 13.5q7 16 14 23q2 8 5.5 12.5t10.5 10.5q3 4 10 8t12 9q4 2 11 4t13 6
q10 0 16 1t12 1q10 0 17 -1t14 -1q6 -4 13 -6t12 -4l13 -9l12 -8q2 -6 8 -10.5t8 -12.5zM1117 194q2 -4 4 -10t6 -13q2 -10 2 -14v-29q0 -5 -2 -11q-4 -7 -6 -14t-4 -13q-5 -4 -10 -9.5t-9 -9.5q-5 -5 -10 -9.5t-11 -8.5q-7 -5 -14 -7t-13 -4q-10 -2 -15 -2h-15q-10 0 -20 2
t-22 4q-12 6 -19 12t-16 13q-16 13 -22 33q-3 9 -5.5 18.5t-2.5 21.5v13q0 6 3 14q4 16 11 23q4 8 8 12.5t8 10.5q7 4 12 8t11 9l28 10q5 0 11.5 1t14.5 1t15.5 -1t14.5 -1q6 -5 13 -6l14 -4l11 -9l10 -8q4 -6 9 -10.5t10 -12.5zM2395 244l1 1q1 1 6 1h37v-206h-37v150
l-5 -9v-6q0 -2 -2 -4l-13 -33l-15 -30q-7 -18 -12.5 -33.5t-14.5 -34.5h-35l-55 131q-5 3 -5 10q0 4 -1 4l-2 2v-147h-41v206h39q5 0 6.5 -1t3.5 -1q2 -2 3 -2t3 -2l8 -4q0 -2 2 -3.5t2 -3.5q4 -16 11 -30t15 -32q7 -15 12.5 -30.5t11.5 -28.5v-12q2 0 5 -4q0 4 1 4v12l9 13
l44 108q0 1 2 3l2 4q0 1 3 3l3 1q2 2 4 2t4 2zM1308 246h38v-206h-36l-98 138l-5 3v2q-3 4 -3 5q-4 1 -4 4q0 4 -5 4v-156h-38v206h34q4 0 8.5 -1t4.5 -3q3 -2 5.5 -2t4.5 -2l22 -31l10 -16t10 -17q13 -13 23.5 -27.5t24.5 -27.5q0 -2 1 -4.5t1 -6.5l1 -2l1 -3v143zM661 246
l93 -206h-24q-9 0 -16 4q-2 2 -4 6.5t-7 8.5l-12 25h-99l-9 -25q0 -6 -4 -6q-3 -5 -5 -5l-3 -4q-2 0 -3.5 -1t-5.5 -1q0 -2 -2 -2h-28l95 206h34zM256 246h137v-37h-99v-46h81v-38h-81v-48h99v-37h-137v206zM72 246h157v-23q0 -3 -1 -5q0 -3 -2 -5l-4 -4l-104 -134h1l2 2
h107v-37h-163v13q0 9 2 11q0 2 5 7v4l3 4q2 2 4 3.5t2 5.5l92 121h-101v37zM825 618q1 6 2 10t1 9q0 12 -3 21q0 5 -3.5 8.5t-5.5 9.5q-3 4 -12 13l-7 6q-2 3 -8 8l-19 8q-5 0 -9.5 0.5t-10.5 0.5q-3 0 -8.5 -0.5t-11.5 -0.5q-11 -4 -18 -8q-4 -5 -8 -7.5t-8 -6.5
q-11 -8 -12 -13q-5 -6 -6 -9.5t-3 -8.5q-1 -5 -1.5 -10t-0.5 -11q0 -5 2 -13t4 -14q2 -7 7 -12.5t10 -11.5q11 -14 25 -14q12 -6 29 -6h20q6 2 10.5 4t8.5 4q10 4 15 12q7 6 12 15q2 4 5.5 8.5t3.5 8.5zM1935 618v40q-2 5 -3.5 9t-3.5 9q-4 5 -15 13q-1 4 -5.5 6.5t-9.5 7.5
l-4 2t-5 2l-7 4q-7 0 -11.5 0.5t-9.5 0.5q-7 0 -11.5 -0.5t-8.5 -0.5q-6 -2 -11 -4l-10 -4q-4 -5 -7 -7.5t-7 -6.5l-12 -13q-2 -6 -4.5 -9.5t-2.5 -8.5q-5 -10 -5 -21q0 -5 2.5 -13t5.5 -14q5 -15 16 -24q8 -14 25 -14q12 -6 30 -6h21q3 2 8 4t8 4q5 3 9.5 5.5t5.5 6.5
q10 6 15 15zM1810 190q-7 -7 -13 -23q-7 -9 -7 -23q0 -8 2 -13.5t5 -11.5q2 -7 5.5 -13.5t7.5 -9.5q9 -9 23 -15q8 -2 13.5 -3t14.5 -1q5 0 9.5 1t11.5 1q3 2 8 4.5t8 6.5q3 0 9 2h12q3 0 9 -2q2 -1 7 -6l6 -7q-3 -4 -6 -7.5t-7 -7.5q-7 -3 -11.5 -6t-11.5 -6
q-7 -4 -11.5 -5t-10.5 -3q-8 -2 -12 -2h-10q-12 0 -23.5 2t-21.5 4q-19 9 -34 25q-16 13 -22 33q-4 9 -7 18.5t-3 21.5q0 8 1 13.5t4 13.5q2 16 9 23q6 8 9 12.5t9 10.5q6 4 12.5 8t11.5 9q4 2 10 4t17 6q6 0 12.5 1t15.5 1h12q2 0 10 -2q6 -2 10.5 -3t11.5 -3l23 -13
q4 -4 7 -8l6 -8l-6 -7q-2 -1 -5 -4l-2 -4h-15q-6 0 -15 4q-3 2 -8 4.5t-8 4.5q-10 2 -12 2h-9q-16 0 -28 -6q-16 -2 -23 -13zM1663 141q4 -5 7.5 -9t3.5 -7q5 -8 5 -19q0 -14 -7 -27l-9 -12q-3 -5 -8 -8q-7 -6 -11.5 -9.5t-12.5 -5.5q-6 -2 -14 -3t-15 -1q-12 0 -32 4
q-10 4 -21 18q-3 1 -7 5l-4 8q-6 1 -6 9l6 4q2 2 4 2h5l2 2h9q4 0 4 -2q8 0 10 -2q5 -4 8.5 -5.5t6.5 -3.5q2 0 6 -1t9 -1h5q3 0 7 2q5 1 13 5q7 5 8 8q2 4 4 7t2 7q0 6 -6 9q-5 6 -8 6q-2 4 -6.5 5t-6.5 2q-5 0 -14 6q-5 0 -9 1t-10 6q-9 3 -13 6t-8 7q-11 4 -11 13
q-7 10 -7 23q0 18 7 25q1 4 5 10l8 9l10 4l12 6q7 0 11.5 1t13.5 1q4 0 8 -1t10 -1l16 -6q3 -4 6.5 -6.5t7.5 -6.5q3 -2 6.5 -5t3.5 -7l-7 -4l-6 -4q-3 -2 -3 -3h-18l-6 1q-3 1 -6 4q-2 0 -3.5 1t-3.5 1h-17q-2 0 -3 -1t-5 -3l-7 -5q-1 -3 -1 -10q0 -5 1 -5q2 -2 3.5 -4.5
t3.5 -6.5h6q1 0 5 -2l9 -3l10 -4l8 -2q6 -4 10 -5t9 -4q12 -5 17 -13zM1554 315q-12 7 -16 19q-6 13 -6 29v15l10 18l12 13q6 8 13 9q3 5 8.5 6t8.5 3q5 0 9 1.5t9 1.5q4 0 10.5 -1.5t10.5 -1.5q4 -2 8 -3t8 -6q2 -2 5.5 -4.5t6.5 -4.5l12 -13l9 -18q0 -4 1 -8.5t1 -6.5
q0 -6 -1 -13.5t-6 -15.5q-4 -12 -16 -19l-21 -16q-5 -1 -11.5 -1.5t-16.5 -0.5h-14q-5 0 -11 2q-16 4 -23 16zM2131 119q6 10 6 25t-6 23q-2 9 -6.5 14.5t-7.5 8.5q-10 10 -24 13q-5 4 -12 5t-17 1q-12 0 -25 -6q-11 -1 -23 -13q-4 -3 -8 -8.5t-8 -14.5q0 -4 -1 -9.5
t-1 -13.5t1 -13.5t1 -11.5q7 -14 16 -23q6 -4 11 -8t12 -7q7 -2 14 -3t11 -1q20 0 29 4q8 3 14 7t10 8q9 9 14 23zM2248 315q-6 -4 -12.5 -7.5t-11.5 -8.5q-8 -2 -12 -2h-30q-3 0 -6 0.5t-7 1.5q-10 4 -22 16q-7 7 -13 19q-7 19 -7 29q0 2 1 6.5t1 8.5q2 4 3.5 9t4.5 9
q2 3 5 6t5 7q5 4 17 9q3 5 8.5 6t7.5 3q5 0 8 1.5t11 1.5q2 0 7.5 -1.5t11.5 -1.5q4 -2 7.5 -3t5.5 -6l9 -5l8 -4q1 -2 2 -3.5t2 -3.5l4 -6q7 -8 8 -18q2 -4 3 -8.5t1 -6.5q0 -6 -1 -13.5t-5 -15.5q0 -6 -5 -10.5t-9 -8.5zM1087 119q4 11 4 25t-4 23q-4 16 -19 23q-2 6 -8 9
t-12 4q-12 6 -28 6q-14 0 -26 -6q-10 -1 -23 -13q-8 -5 -13 -23q-6 -5 -6 -10v-27q0 -5 6 -11q2 -7 5 -13.5t8 -9.5q7 -4 12 -8t11 -7q11 -4 26 -4q19 0 28 4q6 3 12 7t8 8q7 3 12 9.5t7 13.5zM762 246h137v-37h-99v-52h81v-36h-81v-81h-38v206zM562 209h-58v-169h-42v169
h-62v37h162v-37zM1367 246h163v-37h-64v-169h-39v169h-60v37zM1345 1233q17 -8 35.5 -19.5t34.5 -21.5h-319q35 28 74 41q39 17 86 17t89 -17zM1170 810q-19 7 -37 18t-35 24h317q-16 -13 -34.5 -24t-35.5 -18q-23 -6 -45 -10.5t-44 -4.5q-24 0 -44.5 4.5t-41.5 10.5z
M550 566l-46 64q3 0 4 1l8 3q7 3 8 9q8 6 8 11v24q0 1 -2 5q-4 9 -10 14q-5 8 -14 8q-4 6 -16 6h-55v-145h23v60h23l39 -52q1 -4 7 -6q2 -2 3 -2h20zM1151 566l-66 145h-21l-65 -145h11q6 0 10 2q0 2 6 6l10 25h76l11 -25q3 -5 6 -6q2 -2 8 -2h14zM1900 676q3 -2 7.5 -7.5
t5.5 -10.5q4 -7 4 -21q0 -12 -4 -21q-1 -4 -5.5 -8.5t-7.5 -6.5q-5 -4 -9 -6.5t-8 -6.5q-9 -4 -22 -4q-15 0 -22 4q-6 4 -10.5 6.5t-8.5 6.5q-4 2 -7 6.5t-3 8.5q-6 10 -6 21q0 10 6 21q0 5 3 10.5t7 7.5q6 6 19 11q9 4 22 4q11 0 22 -4zM789 676q6 -2 8.5 -7.5t4.5 -10.5
q4 -7 4 -21q0 -10 -4 -21q-2 -4 -4.5 -8.5t-8.5 -6.5q-5 -6 -17 -13q-4 -2 -10 -3t-12 -1q-11 0 -22 4q-5 4 -9.5 6.5t-8.5 6.5q-2 2 -6 6.5t-6 8.5q-4 11 -4 21q0 12 4 21q2 5 6 10.5t6 7.5q6 6 18 11q5 2 12 3t10 1q13 0 22 -4q11 -4 17 -11zM291 647q5 12 5 18q0 9 -5 18
q0 2 -4 6l-7 6q-2 3 -5 6.5t-9 3.5q-2 4 -8 5t-10 1h-52v-145h17v55h35q4 0 10 0.5t8 2.5q10 4 14 10q11 5 11 13zM2183 311h30q5 2 7 3t4 5q2 0 14 5l3 6q1 1 1.5 2t2.5 2q0 3 2.5 7.5t2.5 8.5v32q-2 6 -6 10t-6 7q-7 2 -10.5 5t-7.5 7h-42q-7 -4 -10.5 -7t-8.5 -5
q-8 -6 -12 -17q-2 -8 -2 -12v-20q0 -4 1 -8.5t4 -7.5q2 -2 4.5 -4t4.5 -6l6 -3q2 -2 4 -2q4 -4 7.5 -5t6.5 -3zM1554 382q-3 -6 -4 -11.5t-1 -7.5v-8q0 -3 2 -5q0 -8 5 -16q0 -2 2 -4t4 -6l6 -3q2 -2 9 -2q2 -4 6 -5t6 -3h27q5 2 8 3t7 5l6 2l4 3q2 4 4.5 6t2.5 4q3 3 4 7.5
t3 8.5q0 2 1 5.5t1 7.5q0 2 -1 7.5t-5 11.5q0 6 -4 10t-6 7q-3 1 -8 6l-10 6h-42q-7 -7 -19 -12q-2 -3 -5 -7t-3 -10zM2093 711h-21v-112l-3 5l-3 4l-73 97l-3 6h-24v-145h22v114l2 -2l86 -112h17v145zM982 711h-18v-112l-2 4q-2 6 -2 5l-73 97q-5 0 -6 6h-24v-145h20v117h2
l2 -1v-4l85 -112h16v145zM2081 357q-4 -1 -7 -2l-6 -2l45 -56h-12l-6 2q-4 0 -4 7l-38 47h-28v-56h-15v130h56q4 0 10 -2q2 -2 5.5 -4.5t4.5 -4.5q5 -2 6 -5.5t7 -7.5v-25q-4 -4 -5 -7.5t-3 -5.5zM1322 357q-3 -3 -12 -4l47 -56h-15q-3 0 -3 2q-7 0 -7 7l-37 47h-28v-56h-13
v130h55q1 0 7 -2q8 -1 16 -9q0 -2 3.5 -5.5t3.5 -7.5q2 -2 2 -6v-13q0 -2 -2 -6q0 -9 -4 -13l-6 -4q-3 -3 -7 -4zM405 711h-95v-145h95v20h-72v44h58v17h-58v42h72v22zM1695 711h-93v-145h93v20h-70v44h58v17h-58v42h70v22zM2421 425q6 2 5 2h13v-130h-11v106l-3 -2v-2
q-4 -7 -6.5 -16t-7.5 -13q-4 -7 -6.5 -12.5t-7.5 -13.5q-2 -8 -3 -14t-5 -9q-3 -8 -6.5 -12.5t-5.5 -11.5h-15q-9 12 -14 24.5t-11 26.5q-4 11 -11.5 24.5t-11.5 26.5v2h-4v-104h-14v130h14q4 0 6 -2l2 -2v-5l49 -99q0 -4 2 -4l1 2v4q0 1 7 5l40 92q2 5 3 5t1 2zM1456 711
h-21v-97q0 -3 -2 -7q-2 -8 -9 -12q0 -2 -4.5 -3.5t-6.5 -5.5l-8 -2h-9q-7 0 -13 2q-5 4 -8.5 5.5t-5.5 3.5l-10 12q0 3 -1 7t-1 10v87h-20v-87q0 -6 1 -10t1 -7q0 -8 6 -14q2 -6 9 -11l5 -6l8 -4q2 -2 6.5 -3t7.5 -3q4 0 7 -1t8 -1t8.5 1t10.5 1q2 2 5.5 3t6.5 3l13 10
q3 2 5 5t5 6q0 4 3 7t3 7v104zM653 592q2 5 3 8t1 8q0 10 -5 18t-12 13q-2 0 -3.5 2t-5.5 4l-4 2h-4q-1 0 -1 4q-8 0 -9 1q-7 2 -8.5 3t-6.5 3q-6 3 -8 3q-3 4 -3 6v15q0 1 1.5 2t1.5 3q2 0 4 1t4 1l6 2h9q2 -2 4 -2q7 0 8 -4q2 -2 4 -2h2q10 0 14 4l4 2q0 2 -2 4l-4 4
q-3 1 -5.5 3.5t-6.5 4.5q-2 0 -4 2t-5 4q-5 0 -7 0.5t-4 0.5q-6 0 -11.5 -0.5t-7.5 -0.5q-5 -2 -7 -4t-6 -4q-3 -5 -6.5 -7.5t-6.5 -6.5q0 -4 -2 -6.5t-2 -8.5q0 -7 4 -16l5 -7l5 -4q3 -2 7 -5t7 -3q8 -5 15 -5q1 -2 5.5 -2t6.5 -2l6 -2q2 0 4 -2t2 -3t2 -5q2 -2 2 -6v-9
q0 -2 -2 -4t-2 -4t-2 -3q-1 -3 -6 -5l-4 -1q-4 0 -7.5 -1t-4.5 -1q-4 0 -7.5 1t-5.5 1q-5 0 -5 6l-4 1q-4 4 -12 4h-5l-4 -2l-6 -2q0 -3 4 -3q0 -2 2 -4q0 -4 4 -4v-5h3q7 -7 16 -9t20 -2h8q4 0 12 2q4 2 8.5 4t6.5 5q12 5 13 15zM1572 592q7 7 7 16q0 20 -17 31q-6 4 -6 6
h-4q-1 0 -3 2h-4q-4 0 -5 4h-4q-2 0 -4 1q-2 2 -4 3t-7 3l-7 3q-2 1 -3 2l-2 2l-1 2q0 1 -1 3t-1 4q0 4 4 8q0 1 4 5q2 0 3 1t4 1q4 2 11 2l3 -1q2 -1 5 -1q3 -3 9 -4q6 -2 7 -2q7 0 8 4l6 2q0 2 -3 4t-5 4q0 1 -3 3.5t-5 4.5q-3 0 -5 2t-7 4h-6l-4 1q-6 0 -10 -0.5t-8 -0.5
l-14 -8l-6 -8l-5 -6q-1 -4 -3 -6.5t-2 -8.5q0 -4 2 -7.5t3 -8.5q2 -4 4.5 -6.5l4.5 -4.5q5 -2 7.5 -5t6.5 -3q8 -5 14 -5q4 -2 6.5 -2t5.5 -2q7 0 11 -4q2 -2 3.5 -3t1.5 -5q2 -2 2 -5v-9q0 -3 -2 -5q0 -5 -5 -7q-7 -4 -8 -5t-3 -1q-6 0 -7 -1t-5 -1q-2 0 -6 1t-6 1
q-3 1 -8 6l-2 1q-5 4 -10 4h-6q-2 0 -4 -2l-7 -2q2 -1 2 -2t3 -1q0 -2 1 -3l3 -3v-2q7 -5 8 -5q6 -7 14 -9t18 -2h11q2 0 12 2q2 2 5.5 4t7.5 5l6 7q3 3 4 8zM1714 297h-17v130h19q3 0 4 -4l72 -97q2 0 2 -4l3 -1v106h13v-130h-11l-81 106v4h-4v-110zM77 328q-5 4 -6 7.5
t-2 8.5q-2 6 -3 9.5t-1 9.5t4 15q1 4 2 9t6 9l4 6l5 7q2 2 6.5 4.5t6.5 4.5q5 5 9.5 6t9.5 3q3 0 8 1.5t10 1.5q15 0 28 -7q14 -5 21 -14q-2 -2 -4 -2v-4h-14q-3 2 -6.5 5t-7.5 3h-35l-21 -12q-11 -6 -12 -17q-2 -6 -3 -11.5t-1 -7.5q0 -9 4 -13q0 -4 0.5 -8.5t0.5 -7.5
l4 -4q4 -1 7 -6l7 -4q2 -1 7 -1q2 -4 5 -5t7 -3h32q2 2 7 3t9 5v27h-14v2q-2 0 -3 1l-3 3h-2q-1 1 -1 3v4h37v-48q-2 -5 -3.5 -6t-6.5 -6h-11q-4 -1 -7 -1.5t-6 -0.5h-33q-5 0 -9.5 2.5t-9.5 6.5q-2 0 -6.5 2.5t-6.5 6.5zM236 411v-41h55v-15h-55v-44h66v-14h-83v130h83v-16
h-66zM1153 411v-41h59v-15h-59v-44h67v-14h-83v130h83v-16h-67zM2337 711h-19q-4 0 -8 -4q-5 -5 -5 -9l-37 -44h-2q0 -2 -2 -2v2l-38 44q-1 6 -4 9q-4 4 -12 4h-17l57 -72v-2q0 -1 2 -1l2 -2v-68h21v66q2 0 2 2l3 3v2zM631 427v-79q0 -6 2 -9t5 -5q0 -6 3.5 -9t5.5 -4
q0 -2 4 -4t6 -4q6 -2 9 -2h15q2 0 6 2t7.5 4t6.5 4q5 2 9 13q4 3 4 14v79h14v-79q0 -12 -5 -22q-5 -11 -11 -15q-2 -5 -7 -8.5t-9 -3.5q-6 -1 -12 -1.5t-11 -0.5t-10.5 0.5t-13.5 1.5q-4 0 -16 12l-10 15q-1 6 -3.5 11t-2.5 11v79h14zM2218 586h-68v125h-21v-145h89v20z
M1251 586h-66v125h-20v-145h86v20zM1429 315q1 2 2 3.5t2 3.5q2 2 3 6t1 6q0 8 -2 10t-3 4t-3 4q-1 1 -7 3q-5 0 -7 2t-6 2q-3 0 -7 2l-6 4q-9 0 -13 7q-2 0 -3.5 3t-4.5 6v21q0 2 3 7q0 8 7 9l6 5l8 4q4 0 6.5 1.5t7.5 1.5l6 -2l5 -1q3 0 4 -1t5 -3q7 0 7 -7q4 0 6 -3l1 -2
l-2 -2q-6 -2 -10 -2h-6q-2 2 -2 4h-22q-9 0 -9 -2q-5 -7 -5 -8q-4 0 -4 -7q0 -5 4 -6q0 -5 3 -6q0 -2 3 -3l4 -1q4 -4 7 -4t7 -2q3 0 4 -1l3 -1q3 0 7 -5h4q2 0 4 -2h3q5 -4 7.5 -7t4.5 -4q1 -5 1.5 -9.5t0.5 -8.5v-10q0 -4 -4 -5q-4 -9 -10 -13q-3 -2 -7 -4.5t-6 -2.5
q-4 -2 -10 -2h-9q-9 0 -17 1t-13 8q-3 0 -4 2.5t-5 4.5v4l-2 2l4 2h7q1 0 3 -1t4 -1q4 -4 6.5 -5t4.5 -3h21q8 0 12 4zM1052 297l-58 130h6q6 0 8 -2t3 -2t3 -5l42 -97v-2l2 -6v6l2 2q6 13 13 25.5t12 23.5q4 14 9.5 25.5t12.5 22.5q0 5 1.5 5t1.5 2l6 2h11
q-8 -16 -15 -32.5t-16 -31.5q-4 -8 -7 -17l-6 -18l-15 -31h-16zM524 411v-46h59v-12h-59v-56h-16v130h84v-16h-68zM1928 411v-46h53v-12h-53v-56h-16v130h81v-16h-65zM865 427v-116h62v-14h-79v130h17zM365 297v114h-46v16h104v-16h-46v-114h-12zM772 427v-116h63v-14h-79
v130h16zM266 683q2 -1 3 -4t3 -5q3 -5 3 -9v-4q0 -3 -3 -7q-2 -2 -3 -4.5t-3 -2.5q-1 -3 -8 -8h-45v50h35q4 0 10 -2l4 -2zM1304 365q4 0 6 3q4 4 10 4l2 4q0 2 3 5q0 1 1 4t1 7q0 2 -1 3t-1 4q-3 2 -4 3t-1 5q-6 0 -10 4h-43v-46h37zM2068 368l4 3q1 1 4 1q5 7 5 9
q2 4 2 11q0 3 -2 7q0 1 -5 8q-3 0 -4 1l-4 3h-43v-46h35q3 0 8 3zM510 658l-4 -7q-2 0 -3 -2t-3 -2q-2 -2 -10 -2h-32v44h32q4 0 10 -2q2 0 3 -1l3 -3q1 -2 2 -3.5t2 -3.5q3 -2 3 -9q0 -6 -3 -9zM673 121l-26 64q0 2 -1 3l-1 2q0 4 -2 6v-6l-2 -2q-1 -1 -1 -3l-27 -64h60z
M1500 427v-130h-16v130h16zM1075 682v-4l27 -60h-57l28 60v5zM1727 77q7 0 7 -6q2 -2 2 -5v-4q0 -7 -2 -9q0 -5 -7 -9q-2 0 -5 -4h-18q-4 4 -9 4q0 3 -6 9q-2 2 -2 9v4q0 3 2 5l6 6q7 4 9 4q1 3 4 3h11q3 0 3 -3q4 0 5 -4z" />
    <glyph glyph-name="five" unicode="5" 
d="M2439 1024v-550h-2367v550h897q0 28 5.5 55t19.5 50q12 27 26 49t36 39q39 39 91 58q26 11 53 16t56 5q32 0 60.5 -6t52.5 -15q27 -13 50.5 -27.5t44.5 -34.5q34 -34 60 -88q18 -50 18 -101h897zM1014 1119q-20 -45 -20 -95q0 -54 20 -99q10 -20 24 -40.5t30 -39.5
q38 -35 85 -54q46 -21 103 -21q61 0 103 19q47 19 82 54q21 18 34.5 38t24.5 41q21 49 21 102q0 20 -3.5 42t-11.5 44q-13 36 -42 68q-14 18 -29 31t-34 24q-18 7 -37 16.5t-39 16.5q-15 3 -32 6t-37 3q-59 0 -105 -23q-48 -16 -83 -54q-18 -17 -31 -37t-23 -42zM1123 877
l310 298q61 -73 61 -151q0 -22 -3 -42t-12 -39q-7 -18 -17 -34.5t-22 -31.5h-317zM1077 870q-14 17 -24.5 34.5t-18.5 36.5q-8 17 -11 38t-3 45q0 18 3 37.5t11 39.5q4 18 14 33.5t25 30.5h314zM2161 194q3 -4 5.5 -10t4.5 -13q5 -8 5 -14v-29q0 -6 -5 -11q-2 -7 -4.5 -14
t-5.5 -13q-6 -9 -16 -19q-13 -11 -25 -18q-5 -5 -12 -7t-13 -4q-4 -1 -7 -1.5t-7 -0.5h-17q-20 0 -42 6l-16 12l-8 6t-8 7q-9 6 -14.5 13.5t-7.5 19.5q-7 9 -8.5 18.5t-1.5 21.5q0 8 1 13.5t1 13.5q7 16 14 23q2 8 5.5 12.5t10.5 10.5q3 4 10 8t12 9q4 2 11 4t13 6
q10 0 16 1t12 1q10 0 17 -1t14 -1q6 -4 13 -6t12 -4l13 -9l12 -8q2 -6 8 -10.5t8 -12.5zM1117 194q2 -4 4 -10t6 -13q2 -10 2 -14v-29q0 -5 -2 -11q-4 -7 -6 -14t-4 -13q-5 -4 -10 -9.5t-9 -9.5q-5 -5 -10 -9.5t-11 -8.5q-7 -5 -14 -7t-13 -4q-10 -2 -15 -2h-15q-10 0 -20 2
t-22 4q-12 6 -19 12t-16 13q-16 13 -22 33q-3 9 -5.5 18.5t-2.5 21.5v13q0 6 3 14q4 16 11 23q4 8 8 12.5t8 10.5q7 4 12 8t11 9l28 10q5 0 11.5 1t14.5 1t15.5 -1t14.5 -1q6 -5 13 -6l14 -4l11 -9l10 -8q4 -6 9 -10.5t10 -12.5zM2395 244l1 1q1 1 6 1h37v-206h-37v150
l-5 -9v-6q0 -2 -2 -4l-13 -33l-15 -30q-7 -18 -12.5 -33.5t-14.5 -34.5h-35l-55 131q-5 3 -5 10q0 4 -1 4l-2 2v-147h-41v206h39q5 0 6.5 -1t3.5 -1q2 -2 3 -2t3 -2l8 -4q0 -2 2 -3.5t2 -3.5q4 -16 11 -30t15 -32q7 -15 12.5 -30.5t11.5 -28.5v-12q2 0 5 -4q0 4 1 4v12l9 13
l44 108q0 1 2 3l2 4q0 1 3 3l3 1q2 2 4 2t4 2zM1308 246h38v-206h-36l-98 138l-5 3v2q-3 4 -3 5q-4 1 -4 4q0 4 -5 4v-156h-38v206h34q4 0 8.5 -1t4.5 -3q3 -2 5.5 -2t4.5 -2l22 -31l10 -16t10 -17q13 -13 23.5 -27.5t24.5 -27.5q0 -2 1 -4.5t1 -6.5l1 -2l1 -3v143zM661 246
l93 -206h-24q-9 0 -16 4q-2 2 -4 6.5t-7 8.5l-12 25h-99l-9 -25q0 -6 -4 -6q-3 -5 -5 -5l-3 -4q-2 0 -3.5 -1t-5.5 -1q0 -2 -2 -2h-28l95 206h34zM256 246h137v-37h-99v-46h81v-38h-81v-48h99v-37h-137v206zM72 246h157v-23q0 -3 -1 -5q0 -3 -2 -5l-4 -4l-104 -134h1l2 2
h107v-37h-163v13q0 9 2 11q0 2 5 7v4l3 4q2 2 4 3.5t2 5.5l92 121h-101v37zM825 618q1 6 2 10t1 9q0 12 -3 21q0 5 -3.5 8.5t-5.5 9.5q-3 4 -12 13l-7 6q-2 3 -8 8l-19 8q-5 0 -9.5 0.5t-10.5 0.5q-3 0 -8.5 -0.5t-11.5 -0.5q-11 -4 -18 -8q-4 -5 -8 -7.5t-8 -6.5
q-11 -8 -12 -13q-5 -6 -6 -9.5t-3 -8.5q-1 -5 -1.5 -10t-0.5 -11q0 -5 2 -13t4 -14q2 -7 7 -12.5t10 -11.5q11 -14 25 -14q12 -6 29 -6h20q6 2 10.5 4t8.5 4q10 4 15 12q7 6 12 15q2 4 5.5 8.5t3.5 8.5zM1935 618v40q-2 5 -3.5 9t-3.5 9q-4 5 -15 13q-1 4 -5.5 6.5t-9.5 7.5
l-4 2t-5 2l-7 4q-7 0 -11.5 0.5t-9.5 0.5q-7 0 -11.5 -0.5t-8.5 -0.5q-6 -2 -11 -4l-10 -4q-4 -5 -7 -7.5t-7 -6.5l-12 -13q-2 -6 -4.5 -9.5t-2.5 -8.5q-5 -10 -5 -21q0 -5 2.5 -13t5.5 -14q5 -15 16 -24q8 -14 25 -14q12 -6 30 -6h21q3 2 8 4t8 4q5 3 9.5 5.5t5.5 6.5
q10 6 15 15zM1810 190q-7 -7 -13 -23q-7 -9 -7 -23q0 -8 2 -13.5t5 -11.5q2 -7 5.5 -13.5t7.5 -9.5q9 -9 23 -15q8 -2 13.5 -3t14.5 -1q5 0 9.5 1t11.5 1q3 2 8 4.5t8 6.5q3 0 9 2h12q3 0 9 -2q2 -1 7 -6l6 -7q-3 -4 -6 -7.5t-7 -7.5q-7 -3 -11.5 -6t-11.5 -6
q-7 -4 -11.5 -5t-10.5 -3q-8 -2 -12 -2h-10q-12 0 -23.5 2t-21.5 4q-19 9 -34 25q-16 13 -22 33q-4 9 -7 18.5t-3 21.5q0 8 1 13.5t4 13.5q2 16 9 23q6 8 9 12.5t9 10.5q6 4 12.5 8t11.5 9q4 2 10 4t17 6q6 0 12.5 1t15.5 1h12q2 0 10 -2q6 -2 10.5 -3t11.5 -3l23 -13
q4 -4 7 -8l6 -8l-6 -7q-2 -1 -5 -4l-2 -4h-15q-6 0 -15 4q-3 2 -8 4.5t-8 4.5q-10 2 -12 2h-9q-16 0 -28 -6q-16 -2 -23 -13zM1663 141q4 -5 7.5 -9t3.5 -7q5 -8 5 -19q0 -14 -7 -27l-9 -12q-3 -5 -8 -8q-7 -6 -11.5 -9.5t-12.5 -5.5q-6 -2 -14 -3t-15 -1q-12 0 -32 4
q-10 4 -21 18q-3 1 -7 5l-4 8q-6 1 -6 9l6 4q2 2 4 2h5l2 2h9q4 0 4 -2q8 0 10 -2q5 -4 8.5 -5.5t6.5 -3.5q2 0 6 -1t9 -1h5q3 0 7 2q5 1 13 5q7 5 8 8q2 4 4 7t2 7q0 6 -6 9q-5 6 -8 6q-2 4 -6.5 5t-6.5 2q-5 0 -14 6q-5 0 -9 1t-10 6q-9 3 -13 6t-8 7q-11 4 -11 13
q-7 10 -7 23q0 18 7 25q1 4 5 10l8 9l10 4l12 6q7 0 11.5 1t13.5 1q4 0 8 -1t10 -1l16 -6q3 -4 6.5 -6.5t7.5 -6.5q3 -2 6.5 -5t3.5 -7l-7 -4l-6 -4q-3 -2 -3 -3h-18l-6 1q-3 1 -6 4q-2 0 -3.5 1t-3.5 1h-17q-2 0 -3 -1t-5 -3l-7 -5q-1 -3 -1 -10q0 -5 1 -5q2 -2 3.5 -4.5
t3.5 -6.5h6q1 0 5 -2l9 -3l10 -4l8 -2q6 -4 10 -5t9 -4q12 -5 17 -13zM1554 315q-12 7 -16 19q-6 13 -6 29v15l10 18l12 13q6 8 13 9q3 5 8.5 6t8.5 3q5 0 9 1.5t9 1.5q4 0 10.5 -1.5t10.5 -1.5q4 -2 8 -3t8 -6q2 -2 5.5 -4.5t6.5 -4.5l12 -13l9 -18q0 -4 1 -8.5t1 -6.5
q0 -6 -1 -13.5t-6 -15.5q-4 -12 -16 -19l-21 -16q-5 -1 -11.5 -1.5t-16.5 -0.5h-14q-5 0 -11 2q-16 4 -23 16zM2131 119q6 10 6 25t-6 23q-2 9 -6.5 14.5t-7.5 8.5q-10 10 -24 13q-5 4 -12 5t-17 1q-12 0 -25 -6q-11 -1 -23 -13q-4 -3 -8 -8.5t-8 -14.5q0 -4 -1 -9.5
t-1 -13.5t1 -13.5t1 -11.5q7 -14 16 -23q6 -4 11 -8t12 -7q7 -2 14 -3t11 -1q20 0 29 4q8 3 14 7t10 8q9 9 14 23zM2248 315q-6 -4 -12.5 -7.5t-11.5 -8.5q-8 -2 -12 -2h-30q-3 0 -6 0.5t-7 1.5q-10 4 -22 16q-7 7 -13 19q-7 19 -7 29q0 2 1 6.5t1 8.5q2 4 3.5 9t4.5 9
q2 3 5 6t5 7q5 4 17 9q3 5 8.5 6t7.5 3q5 0 8 1.5t11 1.5q2 0 7.5 -1.5t11.5 -1.5q4 -2 7.5 -3t5.5 -6l9 -5l8 -4q1 -2 2 -3.5t2 -3.5l4 -6q7 -8 8 -18q2 -4 3 -8.5t1 -6.5q0 -6 -1 -13.5t-5 -15.5q0 -6 -5 -10.5t-9 -8.5zM1087 119q4 11 4 25t-4 23q-4 16 -19 23q-2 6 -8 9
t-12 4q-12 6 -28 6q-14 0 -26 -6q-10 -1 -23 -13q-8 -5 -13 -23q-6 -5 -6 -10v-27q0 -5 6 -11q2 -7 5 -13.5t8 -9.5q7 -4 12 -8t11 -7q11 -4 26 -4q19 0 28 4q6 3 12 7t8 8q7 3 12 9.5t7 13.5zM762 246h137v-37h-99v-52h81v-36h-81v-81h-38v206zM562 209h-58v-169h-42v169
h-62v37h162v-37zM1367 246h163v-37h-64v-169h-39v169h-60v37zM1345 1233q17 -8 35.5 -19.5t34.5 -21.5h-319q35 28 74 41q39 17 86 17t89 -17zM1170 810q-19 7 -37 18t-35 24h317q-16 -13 -34.5 -24t-35.5 -18q-23 -6 -45 -10.5t-44 -4.5q-24 0 -44.5 4.5t-41.5 10.5z
M550 566l-46 64q3 0 4 1l8 3q7 3 8 9q8 6 8 11v24q0 1 -2 5q-4 9 -10 14q-5 8 -14 8q-4 6 -16 6h-55v-145h23v60h23l39 -52q1 -4 7 -6q2 -2 3 -2h20zM1151 566l-66 145h-21l-65 -145h11q6 0 10 2q0 2 6 6l10 25h76l11 -25q3 -5 6 -6q2 -2 8 -2h14zM1900 676q3 -2 7.5 -7.5
t5.5 -10.5q4 -7 4 -21q0 -12 -4 -21q-1 -4 -5.5 -8.5t-7.5 -6.5q-5 -4 -9 -6.5t-8 -6.5q-9 -4 -22 -4q-15 0 -22 4q-6 4 -10.5 6.5t-8.5 6.5q-4 2 -7 6.5t-3 8.5q-6 10 -6 21q0 10 6 21q0 5 3 10.5t7 7.5q6 6 19 11q9 4 22 4q11 0 22 -4zM789 676q6 -2 8.5 -7.5t4.5 -10.5
q4 -7 4 -21q0 -10 -4 -21q-2 -4 -4.5 -8.5t-8.5 -6.5q-5 -6 -17 -13q-4 -2 -10 -3t-12 -1q-11 0 -22 4q-5 4 -9.5 6.5t-8.5 6.5q-2 2 -6 6.5t-6 8.5q-4 11 -4 21q0 12 4 21q2 5 6 10.5t6 7.5q6 6 18 11q5 2 12 3t10 1q13 0 22 -4q11 -4 17 -11zM291 647q5 12 5 18q0 9 -5 18
q0 2 -4 6l-7 6q-2 3 -5 6.5t-9 3.5q-2 4 -8 5t-10 1h-52v-145h17v55h35q4 0 10 0.5t8 2.5q10 4 14 10q11 5 11 13zM2183 311h30q5 2 7 3t4 5q2 0 14 5l3 6q1 1 1.5 2t2.5 2q0 3 2.5 7.5t2.5 8.5v32q-2 6 -6 10t-6 7q-7 2 -10.5 5t-7.5 7h-42q-7 -4 -10.5 -7t-8.5 -5
q-8 -6 -12 -17q-2 -8 -2 -12v-20q0 -4 1 -8.5t4 -7.5q2 -2 4.5 -4t4.5 -6l6 -3q2 -2 4 -2q4 -4 7.5 -5t6.5 -3zM1554 382q-3 -6 -4 -11.5t-1 -7.5v-8q0 -3 2 -5q0 -8 5 -16q0 -2 2 -4t4 -6l6 -3q2 -2 9 -2q2 -4 6 -5t6 -3h27q5 2 8 3t7 5l6 2l4 3q2 4 4.5 6t2.5 4q3 3 4 7.5
t3 8.5q0 2 1 5.5t1 7.5q0 2 -1 7.5t-5 11.5q0 6 -4 10t-6 7q-3 1 -8 6l-10 6h-42q-7 -7 -19 -12q-2 -3 -5 -7t-3 -10zM2093 711h-21v-112l-3 5l-3 4l-73 97l-3 6h-24v-145h22v114l2 -2l86 -112h17v145zM982 711h-18v-112l-2 4q-2 6 -2 5l-73 97q-5 0 -6 6h-24v-145h20v117h2
l2 -1v-4l85 -112h16v145zM2081 357q-4 -1 -7 -2l-6 -2l45 -56h-12l-6 2q-4 0 -4 7l-38 47h-28v-56h-15v130h56q4 0 10 -2q2 -2 5.5 -4.5t4.5 -4.5q5 -2 6 -5.5t7 -7.5v-25q-4 -4 -5 -7.5t-3 -5.5zM1322 357q-3 -3 -12 -4l47 -56h-15q-3 0 -3 2q-7 0 -7 7l-37 47h-28v-56h-13
v130h55q1 0 7 -2q8 -1 16 -9q0 -2 3.5 -5.5t3.5 -7.5q2 -2 2 -6v-13q0 -2 -2 -6q0 -9 -4 -13l-6 -4q-3 -3 -7 -4zM405 711h-95v-145h95v20h-72v44h58v17h-58v42h72v22zM1695 711h-93v-145h93v20h-70v44h58v17h-58v42h70v22zM2421 425q6 2 5 2h13v-130h-11v106l-3 -2v-2
q-4 -7 -6.5 -16t-7.5 -13q-4 -7 -6.5 -12.5t-7.5 -13.5q-2 -8 -3 -14t-5 -9q-3 -8 -6.5 -12.5t-5.5 -11.5h-15q-9 12 -14 24.5t-11 26.5q-4 11 -11.5 24.5t-11.5 26.5v2h-4v-104h-14v130h14q4 0 6 -2l2 -2v-5l49 -99q0 -4 2 -4l1 2v4q0 1 7 5l40 92q2 5 3 5t1 2zM1456 711
h-21v-97q0 -3 -2 -7q-2 -8 -9 -12q0 -2 -4.5 -3.5t-6.5 -5.5l-8 -2h-9q-7 0 -13 2q-5 4 -8.5 5.5t-5.5 3.5l-10 12q0 3 -1 7t-1 10v87h-20v-87q0 -6 1 -10t1 -7q0 -8 6 -14q2 -6 9 -11l5 -6l8 -4q2 -2 6.5 -3t7.5 -3q4 0 7 -1t8 -1t8.5 1t10.5 1q2 2 5.5 3t6.5 3l13 10
q3 2 5 5t5 6q0 4 3 7t3 7v104zM653 592q2 5 3 8t1 8q0 10 -5 18t-12 13q-2 0 -3.5 2t-5.5 4l-4 2h-4q-1 0 -1 4q-8 0 -9 1q-7 2 -8.5 3t-6.5 3q-6 3 -8 3q-3 4 -3 6v15q0 1 1.5 2t1.5 3q2 0 4 1t4 1l6 2h9q2 -2 4 -2q7 0 8 -4q2 -2 4 -2h2q10 0 14 4l4 2q0 2 -2 4l-4 4
q-3 1 -5.5 3.5t-6.5 4.5q-2 0 -4 2t-5 4q-5 0 -7 0.5t-4 0.5q-6 0 -11.5 -0.5t-7.5 -0.5q-5 -2 -7 -4t-6 -4q-3 -5 -6.5 -7.5t-6.5 -6.5q0 -4 -2 -6.5t-2 -8.5q0 -7 4 -16l5 -7l5 -4q3 -2 7 -5t7 -3q8 -5 15 -5q1 -2 5.5 -2t6.5 -2l6 -2q2 0 4 -2t2 -3t2 -5q2 -2 2 -6v-9
q0 -2 -2 -4t-2 -4t-2 -3q-1 -3 -6 -5l-4 -1q-4 0 -7.5 -1t-4.5 -1q-4 0 -7.5 1t-5.5 1q-5 0 -5 6l-4 1q-4 4 -12 4h-5l-4 -2l-6 -2q0 -3 4 -3q0 -2 2 -4q0 -4 4 -4v-5h3q7 -7 16 -9t20 -2h8q4 0 12 2q4 2 8.5 4t6.5 5q12 5 13 15zM1572 592q7 7 7 16q0 20 -17 31q-6 4 -6 6
h-4q-1 0 -3 2h-4q-4 0 -5 4h-4q-2 0 -4 1q-2 2 -4 3t-7 3l-7 3q-2 1 -3 2l-2 2l-1 2q0 1 -1 3t-1 4q0 4 4 8q0 1 4 5q2 0 3 1t4 1q4 2 11 2l3 -1q2 -1 5 -1q3 -3 9 -4q6 -2 7 -2q7 0 8 4l6 2q0 2 -3 4t-5 4q0 1 -3 3.5t-5 4.5q-3 0 -5 2t-7 4h-6l-4 1q-6 0 -10 -0.5t-8 -0.5
l-14 -8l-6 -8l-5 -6q-1 -4 -3 -6.5t-2 -8.5q0 -4 2 -7.5t3 -8.5q2 -4 4.5 -6.5l4.5 -4.5q5 -2 7.5 -5t6.5 -3q8 -5 14 -5q4 -2 6.5 -2t5.5 -2q7 0 11 -4q2 -2 3.5 -3t1.5 -5q2 -2 2 -5v-9q0 -3 -2 -5q0 -5 -5 -7q-7 -4 -8 -5t-3 -1q-6 0 -7 -1t-5 -1q-2 0 -6 1t-6 1
q-3 1 -8 6l-2 1q-5 4 -10 4h-6q-2 0 -4 -2l-7 -2q2 -1 2 -2t3 -1q0 -2 1 -3l3 -3v-2q7 -5 8 -5q6 -7 14 -9t18 -2h11q2 0 12 2q2 2 5.5 4t7.5 5l6 7q3 3 4 8zM1714 297h-17v130h19q3 0 4 -4l72 -97q2 0 2 -4l3 -1v106h13v-130h-11l-81 106v4h-4v-110zM77 328q-5 4 -6 7.5
t-2 8.5q-2 6 -3 9.5t-1 9.5t4 15q1 4 2 9t6 9l4 6l5 7q2 2 6.5 4.5t6.5 4.5q5 5 9.5 6t9.5 3q3 0 8 1.5t10 1.5q15 0 28 -7q14 -5 21 -14q-2 -2 -4 -2v-4h-14q-3 2 -6.5 5t-7.5 3h-35l-21 -12q-11 -6 -12 -17q-2 -6 -3 -11.5t-1 -7.5q0 -9 4 -13q0 -4 0.5 -8.5t0.5 -7.5
l4 -4q4 -1 7 -6l7 -4q2 -1 7 -1q2 -4 5 -5t7 -3h32q2 2 7 3t9 5v27h-14v2q-2 0 -3 1l-3 3h-2q-1 1 -1 3v4h37v-48q-2 -5 -3.5 -6t-6.5 -6h-11q-4 -1 -7 -1.5t-6 -0.5h-33q-5 0 -9.5 2.5t-9.5 6.5q-2 0 -6.5 2.5t-6.5 6.5zM236 411v-41h55v-15h-55v-44h66v-14h-83v130h83v-16
h-66zM1153 411v-41h59v-15h-59v-44h67v-14h-83v130h83v-16h-67zM2337 711h-19q-4 0 -8 -4q-5 -5 -5 -9l-37 -44h-2q0 -2 -2 -2v2l-38 44q-1 6 -4 9q-4 4 -12 4h-17l57 -72v-2q0 -1 2 -1l2 -2v-68h21v66q2 0 2 2l3 3v2zM631 427v-79q0 -6 2 -9t5 -5q0 -6 3.5 -9t5.5 -4
q0 -2 4 -4t6 -4q6 -2 9 -2h15q2 0 6 2t7.5 4t6.5 4q5 2 9 13q4 3 4 14v79h14v-79q0 -12 -5 -22q-5 -11 -11 -15q-2 -5 -7 -8.5t-9 -3.5q-6 -1 -12 -1.5t-11 -0.5t-10.5 0.5t-13.5 1.5q-4 0 -16 12l-10 15q-1 6 -3.5 11t-2.5 11v79h14zM2218 586h-68v125h-21v-145h89v20z
M1251 586h-66v125h-20v-145h86v20zM1429 315q1 2 2 3.5t2 3.5q2 2 3 6t1 6q0 8 -2 10t-3 4t-3 4q-1 1 -7 3q-5 0 -7 2t-6 2q-3 0 -7 2l-6 4q-9 0 -13 7q-2 0 -3.5 3t-4.5 6v21q0 2 3 7q0 8 7 9l6 5l8 4q4 0 6.5 1.5t7.5 1.5l6 -2l5 -1q3 0 4 -1t5 -3q7 0 7 -7q4 0 6 -3l1 -2
l-2 -2q-6 -2 -10 -2h-6q-2 2 -2 4h-22q-9 0 -9 -2q-5 -7 -5 -8q-4 0 -4 -7q0 -5 4 -6q0 -5 3 -6q0 -2 3 -3l4 -1q4 -4 7 -4t7 -2q3 0 4 -1l3 -1q3 0 7 -5h4q2 0 4 -2h3q5 -4 7.5 -7t4.5 -4q1 -5 1.5 -9.5t0.5 -8.5v-10q0 -4 -4 -5q-4 -9 -10 -13q-3 -2 -7 -4.5t-6 -2.5
q-4 -2 -10 -2h-9q-9 0 -17 1t-13 8q-3 0 -4 2.5t-5 4.5v4l-2 2l4 2h7q1 0 3 -1t4 -1q4 -4 6.5 -5t4.5 -3h21q8 0 12 4zM1052 297l-58 130h6q6 0 8 -2t3 -2t3 -5l42 -97v-2l2 -6v6l2 2q6 13 13 25.5t12 23.5q4 14 9.5 25.5t12.5 22.5q0 5 1.5 5t1.5 2l6 2h11
q-8 -16 -15 -32.5t-16 -31.5q-4 -8 -7 -17l-6 -18l-15 -31h-16zM524 411v-46h59v-12h-59v-56h-16v130h84v-16h-68zM1928 411v-46h53v-12h-53v-56h-16v130h81v-16h-65zM865 427v-116h62v-14h-79v130h17zM365 297v114h-46v16h104v-16h-46v-114h-12zM772 427v-116h63v-14h-79
v130h16zM266 683q2 -1 3 -4t3 -5q3 -5 3 -9v-4q0 -3 -3 -7q-2 -2 -3 -4.5t-3 -2.5q-1 -3 -8 -8h-45v50h35q4 0 10 -2l4 -2zM1304 365q4 0 6 3q4 4 10 4l2 4q0 2 3 5q0 1 1 4t1 7q0 2 -1 3t-1 4q-3 2 -4 3t-1 5q-6 0 -10 4h-43v-46h37zM2068 368l4 3q1 1 4 1q5 7 5 9
q2 4 2 11q0 3 -2 7q0 1 -5 8q-3 0 -4 1l-4 3h-43v-46h35q3 0 8 3zM510 658l-4 -7q-2 0 -3 -2t-3 -2q-2 -2 -10 -2h-32v44h32q4 0 10 -2q2 0 3 -1l3 -3q1 -2 2 -3.5t2 -3.5q3 -2 3 -9q0 -6 -3 -9zM673 121l-26 64q0 2 -1 3l-1 2q0 4 -2 6v-6l-2 -2q-1 -1 -1 -3l-27 -64h60z
M1500 427v-130h-16v130h16zM1075 682v-4l27 -60h-57l28 60v5zM1727 77q7 0 7 -6q2 -2 2 -5v-4q0 -7 -2 -9q0 -5 -7 -9q-2 0 -5 -4h-18q-4 4 -9 4q0 3 -6 9q-2 2 -2 9v4q0 3 2 5l6 6q7 4 9 4q1 3 4 3h11q3 0 3 -3q4 0 5 -4z" />
    <glyph glyph-name="six" unicode="6" 
d="M2439 1024v-550h-2367v550h897q0 28 5.5 55t19.5 50q12 27 26 49t36 39q39 39 91 58q26 11 53 16t56 5q32 0 60.5 -6t52.5 -15q27 -13 50.5 -27.5t44.5 -34.5q34 -34 60 -88q18 -50 18 -101h897zM1014 1119q-20 -45 -20 -95q0 -54 20 -99q10 -20 24 -40.5t30 -39.5
q38 -35 85 -54q46 -21 103 -21q61 0 103 19q47 19 82 54q21 18 34.5 38t24.5 41q21 49 21 102q0 20 -3.5 42t-11.5 44q-13 36 -42 68q-14 18 -29 31t-34 24q-18 7 -37 16.5t-39 16.5q-15 3 -32 6t-37 3q-59 0 -105 -23q-48 -16 -83 -54q-18 -17 -31 -37t-23 -42zM1123 877
l310 298q61 -73 61 -151q0 -22 -3 -42t-12 -39q-7 -18 -17 -34.5t-22 -31.5h-317zM1077 870q-14 17 -24.5 34.5t-18.5 36.5q-8 17 -11 38t-3 45q0 18 3 37.5t11 39.5q4 18 14 33.5t25 30.5h314zM2161 194q3 -4 5.5 -10t4.5 -13q5 -8 5 -14v-29q0 -6 -5 -11q-2 -7 -4.5 -14
t-5.5 -13q-6 -9 -16 -19q-13 -11 -25 -18q-5 -5 -12 -7t-13 -4q-4 -1 -7 -1.5t-7 -0.5h-17q-20 0 -42 6l-16 12l-8 6t-8 7q-9 6 -14.5 13.5t-7.5 19.5q-7 9 -8.5 18.5t-1.5 21.5q0 8 1 13.5t1 13.5q7 16 14 23q2 8 5.5 12.5t10.5 10.5q3 4 10 8t12 9q4 2 11 4t13 6
q10 0 16 1t12 1q10 0 17 -1t14 -1q6 -4 13 -6t12 -4l13 -9l12 -8q2 -6 8 -10.5t8 -12.5zM1117 194q2 -4 4 -10t6 -13q2 -10 2 -14v-29q0 -5 -2 -11q-4 -7 -6 -14t-4 -13q-5 -4 -10 -9.5t-9 -9.5q-5 -5 -10 -9.5t-11 -8.5q-7 -5 -14 -7t-13 -4q-10 -2 -15 -2h-15q-10 0 -20 2
t-22 4q-12 6 -19 12t-16 13q-16 13 -22 33q-3 9 -5.5 18.5t-2.5 21.5v13q0 6 3 14q4 16 11 23q4 8 8 12.5t8 10.5q7 4 12 8t11 9l28 10q5 0 11.5 1t14.5 1t15.5 -1t14.5 -1q6 -5 13 -6l14 -4l11 -9l10 -8q4 -6 9 -10.5t10 -12.5zM2395 244l1 1q1 1 6 1h37v-206h-37v150
l-5 -9v-6q0 -2 -2 -4l-13 -33l-15 -30q-7 -18 -12.5 -33.5t-14.5 -34.5h-35l-55 131q-5 3 -5 10q0 4 -1 4l-2 2v-147h-41v206h39q5 0 6.5 -1t3.5 -1q2 -2 3 -2t3 -2l8 -4q0 -2 2 -3.5t2 -3.5q4 -16 11 -30t15 -32q7 -15 12.5 -30.5t11.5 -28.5v-12q2 0 5 -4q0 4 1 4v12l9 13
l44 108q0 1 2 3l2 4q0 1 3 3l3 1q2 2 4 2t4 2zM1308 246h38v-206h-36l-98 138l-5 3v2q-3 4 -3 5q-4 1 -4 4q0 4 -5 4v-156h-38v206h34q4 0 8.5 -1t4.5 -3q3 -2 5.5 -2t4.5 -2l22 -31l10 -16t10 -17q13 -13 23.5 -27.5t24.5 -27.5q0 -2 1 -4.5t1 -6.5l1 -2l1 -3v143zM661 246
l93 -206h-24q-9 0 -16 4q-2 2 -4 6.5t-7 8.5l-12 25h-99l-9 -25q0 -6 -4 -6q-3 -5 -5 -5l-3 -4q-2 0 -3.5 -1t-5.5 -1q0 -2 -2 -2h-28l95 206h34zM256 246h137v-37h-99v-46h81v-38h-81v-48h99v-37h-137v206zM72 246h157v-23q0 -3 -1 -5q0 -3 -2 -5l-4 -4l-104 -134h1l2 2
h107v-37h-163v13q0 9 2 11q0 2 5 7v4l3 4q2 2 4 3.5t2 5.5l92 121h-101v37zM825 618q1 6 2 10t1 9q0 12 -3 21q0 5 -3.5 8.5t-5.5 9.5q-3 4 -12 13l-7 6q-2 3 -8 8l-19 8q-5 0 -9.5 0.5t-10.5 0.5q-3 0 -8.5 -0.5t-11.5 -0.5q-11 -4 -18 -8q-4 -5 -8 -7.5t-8 -6.5
q-11 -8 -12 -13q-5 -6 -6 -9.5t-3 -8.5q-1 -5 -1.5 -10t-0.5 -11q0 -5 2 -13t4 -14q2 -7 7 -12.5t10 -11.5q11 -14 25 -14q12 -6 29 -6h20q6 2 10.5 4t8.5 4q10 4 15 12q7 6 12 15q2 4 5.5 8.5t3.5 8.5zM1935 618v40q-2 5 -3.5 9t-3.5 9q-4 5 -15 13q-1 4 -5.5 6.5t-9.5 7.5
l-4 2t-5 2l-7 4q-7 0 -11.5 0.5t-9.5 0.5q-7 0 -11.5 -0.5t-8.5 -0.5q-6 -2 -11 -4l-10 -4q-4 -5 -7 -7.5t-7 -6.5l-12 -13q-2 -6 -4.5 -9.5t-2.5 -8.5q-5 -10 -5 -21q0 -5 2.5 -13t5.5 -14q5 -15 16 -24q8 -14 25 -14q12 -6 30 -6h21q3 2 8 4t8 4q5 3 9.5 5.5t5.5 6.5
q10 6 15 15zM1810 190q-7 -7 -13 -23q-7 -9 -7 -23q0 -8 2 -13.5t5 -11.5q2 -7 5.5 -13.5t7.5 -9.5q9 -9 23 -15q8 -2 13.5 -3t14.5 -1q5 0 9.5 1t11.5 1q3 2 8 4.5t8 6.5q3 0 9 2h12q3 0 9 -2q2 -1 7 -6l6 -7q-3 -4 -6 -7.5t-7 -7.5q-7 -3 -11.5 -6t-11.5 -6
q-7 -4 -11.5 -5t-10.5 -3q-8 -2 -12 -2h-10q-12 0 -23.5 2t-21.5 4q-19 9 -34 25q-16 13 -22 33q-4 9 -7 18.5t-3 21.5q0 8 1 13.5t4 13.5q2 16 9 23q6 8 9 12.5t9 10.5q6 4 12.5 8t11.5 9q4 2 10 4t17 6q6 0 12.5 1t15.5 1h12q2 0 10 -2q6 -2 10.5 -3t11.5 -3l23 -13
q4 -4 7 -8l6 -8l-6 -7q-2 -1 -5 -4l-2 -4h-15q-6 0 -15 4q-3 2 -8 4.5t-8 4.5q-10 2 -12 2h-9q-16 0 -28 -6q-16 -2 -23 -13zM1663 141q4 -5 7.5 -9t3.5 -7q5 -8 5 -19q0 -14 -7 -27l-9 -12q-3 -5 -8 -8q-7 -6 -11.5 -9.5t-12.5 -5.5q-6 -2 -14 -3t-15 -1q-12 0 -32 4
q-10 4 -21 18q-3 1 -7 5l-4 8q-6 1 -6 9l6 4q2 2 4 2h5l2 2h9q4 0 4 -2q8 0 10 -2q5 -4 8.5 -5.5t6.5 -3.5q2 0 6 -1t9 -1h5q3 0 7 2q5 1 13 5q7 5 8 8q2 4 4 7t2 7q0 6 -6 9q-5 6 -8 6q-2 4 -6.5 5t-6.5 2q-5 0 -14 6q-5 0 -9 1t-10 6q-9 3 -13 6t-8 7q-11 4 -11 13
q-7 10 -7 23q0 18 7 25q1 4 5 10l8 9l10 4l12 6q7 0 11.5 1t13.5 1q4 0 8 -1t10 -1l16 -6q3 -4 6.5 -6.5t7.5 -6.5q3 -2 6.5 -5t3.5 -7l-7 -4l-6 -4q-3 -2 -3 -3h-18l-6 1q-3 1 -6 4q-2 0 -3.5 1t-3.5 1h-17q-2 0 -3 -1t-5 -3l-7 -5q-1 -3 -1 -10q0 -5 1 -5q2 -2 3.5 -4.5
t3.5 -6.5h6q1 0 5 -2l9 -3l10 -4l8 -2q6 -4 10 -5t9 -4q12 -5 17 -13zM1554 315q-12 7 -16 19q-6 13 -6 29v15l10 18l12 13q6 8 13 9q3 5 8.5 6t8.5 3q5 0 9 1.5t9 1.5q4 0 10.5 -1.5t10.5 -1.5q4 -2 8 -3t8 -6q2 -2 5.5 -4.5t6.5 -4.5l12 -13l9 -18q0 -4 1 -8.5t1 -6.5
q0 -6 -1 -13.5t-6 -15.5q-4 -12 -16 -19l-21 -16q-5 -1 -11.5 -1.5t-16.5 -0.5h-14q-5 0 -11 2q-16 4 -23 16zM2131 119q6 10 6 25t-6 23q-2 9 -6.5 14.5t-7.5 8.5q-10 10 -24 13q-5 4 -12 5t-17 1q-12 0 -25 -6q-11 -1 -23 -13q-4 -3 -8 -8.5t-8 -14.5q0 -4 -1 -9.5
t-1 -13.5t1 -13.5t1 -11.5q7 -14 16 -23q6 -4 11 -8t12 -7q7 -2 14 -3t11 -1q20 0 29 4q8 3 14 7t10 8q9 9 14 23zM2248 315q-6 -4 -12.5 -7.5t-11.5 -8.5q-8 -2 -12 -2h-30q-3 0 -6 0.5t-7 1.5q-10 4 -22 16q-7 7 -13 19q-7 19 -7 29q0 2 1 6.5t1 8.5q2 4 3.5 9t4.5 9
q2 3 5 6t5 7q5 4 17 9q3 5 8.5 6t7.5 3q5 0 8 1.5t11 1.5q2 0 7.5 -1.5t11.5 -1.5q4 -2 7.5 -3t5.5 -6l9 -5l8 -4q1 -2 2 -3.5t2 -3.5l4 -6q7 -8 8 -18q2 -4 3 -8.5t1 -6.5q0 -6 -1 -13.5t-5 -15.5q0 -6 -5 -10.5t-9 -8.5zM1087 119q4 11 4 25t-4 23q-4 16 -19 23q-2 6 -8 9
t-12 4q-12 6 -28 6q-14 0 -26 -6q-10 -1 -23 -13q-8 -5 -13 -23q-6 -5 -6 -10v-27q0 -5 6 -11q2 -7 5 -13.5t8 -9.5q7 -4 12 -8t11 -7q11 -4 26 -4q19 0 28 4q6 3 12 7t8 8q7 3 12 9.5t7 13.5zM762 246h137v-37h-99v-52h81v-36h-81v-81h-38v206zM562 209h-58v-169h-42v169
h-62v37h162v-37zM1367 246h163v-37h-64v-169h-39v169h-60v37zM1345 1233q17 -8 35.5 -19.5t34.5 -21.5h-319q35 28 74 41q39 17 86 17t89 -17zM1170 810q-19 7 -37 18t-35 24h317q-16 -13 -34.5 -24t-35.5 -18q-23 -6 -45 -10.5t-44 -4.5q-24 0 -44.5 4.5t-41.5 10.5z
M550 566l-46 64q3 0 4 1l8 3q7 3 8 9q8 6 8 11v24q0 1 -2 5q-4 9 -10 14q-5 8 -14 8q-4 6 -16 6h-55v-145h23v60h23l39 -52q1 -4 7 -6q2 -2 3 -2h20zM1151 566l-66 145h-21l-65 -145h11q6 0 10 2q0 2 6 6l10 25h76l11 -25q3 -5 6 -6q2 -2 8 -2h14zM1900 676q3 -2 7.5 -7.5
t5.5 -10.5q4 -7 4 -21q0 -12 -4 -21q-1 -4 -5.5 -8.5t-7.5 -6.5q-5 -4 -9 -6.5t-8 -6.5q-9 -4 -22 -4q-15 0 -22 4q-6 4 -10.5 6.5t-8.5 6.5q-4 2 -7 6.5t-3 8.5q-6 10 -6 21q0 10 6 21q0 5 3 10.5t7 7.5q6 6 19 11q9 4 22 4q11 0 22 -4zM789 676q6 -2 8.5 -7.5t4.5 -10.5
q4 -7 4 -21q0 -10 -4 -21q-2 -4 -4.5 -8.5t-8.5 -6.5q-5 -6 -17 -13q-4 -2 -10 -3t-12 -1q-11 0 -22 4q-5 4 -9.5 6.5t-8.5 6.5q-2 2 -6 6.5t-6 8.5q-4 11 -4 21q0 12 4 21q2 5 6 10.5t6 7.5q6 6 18 11q5 2 12 3t10 1q13 0 22 -4q11 -4 17 -11zM291 647q5 12 5 18q0 9 -5 18
q0 2 -4 6l-7 6q-2 3 -5 6.5t-9 3.5q-2 4 -8 5t-10 1h-52v-145h17v55h35q4 0 10 0.5t8 2.5q10 4 14 10q11 5 11 13zM2183 311h30q5 2 7 3t4 5q2 0 14 5l3 6q1 1 1.5 2t2.5 2q0 3 2.5 7.5t2.5 8.5v32q-2 6 -6 10t-6 7q-7 2 -10.5 5t-7.5 7h-42q-7 -4 -10.5 -7t-8.5 -5
q-8 -6 -12 -17q-2 -8 -2 -12v-20q0 -4 1 -8.5t4 -7.5q2 -2 4.5 -4t4.5 -6l6 -3q2 -2 4 -2q4 -4 7.5 -5t6.5 -3zM1554 382q-3 -6 -4 -11.5t-1 -7.5v-8q0 -3 2 -5q0 -8 5 -16q0 -2 2 -4t4 -6l6 -3q2 -2 9 -2q2 -4 6 -5t6 -3h27q5 2 8 3t7 5l6 2l4 3q2 4 4.5 6t2.5 4q3 3 4 7.5
t3 8.5q0 2 1 5.5t1 7.5q0 2 -1 7.5t-5 11.5q0 6 -4 10t-6 7q-3 1 -8 6l-10 6h-42q-7 -7 -19 -12q-2 -3 -5 -7t-3 -10zM2093 711h-21v-112l-3 5l-3 4l-73 97l-3 6h-24v-145h22v114l2 -2l86 -112h17v145zM982 711h-18v-112l-2 4q-2 6 -2 5l-73 97q-5 0 -6 6h-24v-145h20v117h2
l2 -1v-4l85 -112h16v145zM2081 357q-4 -1 -7 -2l-6 -2l45 -56h-12l-6 2q-4 0 -4 7l-38 47h-28v-56h-15v130h56q4 0 10 -2q2 -2 5.5 -4.5t4.5 -4.5q5 -2 6 -5.5t7 -7.5v-25q-4 -4 -5 -7.5t-3 -5.5zM1322 357q-3 -3 -12 -4l47 -56h-15q-3 0 -3 2q-7 0 -7 7l-37 47h-28v-56h-13
v130h55q1 0 7 -2q8 -1 16 -9q0 -2 3.5 -5.5t3.5 -7.5q2 -2 2 -6v-13q0 -2 -2 -6q0 -9 -4 -13l-6 -4q-3 -3 -7 -4zM405 711h-95v-145h95v20h-72v44h58v17h-58v42h72v22zM1695 711h-93v-145h93v20h-70v44h58v17h-58v42h70v22zM2421 425q6 2 5 2h13v-130h-11v106l-3 -2v-2
q-4 -7 -6.5 -16t-7.5 -13q-4 -7 -6.5 -12.5t-7.5 -13.5q-2 -8 -3 -14t-5 -9q-3 -8 -6.5 -12.5t-5.5 -11.5h-15q-9 12 -14 24.5t-11 26.5q-4 11 -11.5 24.5t-11.5 26.5v2h-4v-104h-14v130h14q4 0 6 -2l2 -2v-5l49 -99q0 -4 2 -4l1 2v4q0 1 7 5l40 92q2 5 3 5t1 2zM1456 711
h-21v-97q0 -3 -2 -7q-2 -8 -9 -12q0 -2 -4.5 -3.5t-6.5 -5.5l-8 -2h-9q-7 0 -13 2q-5 4 -8.5 5.5t-5.5 3.5l-10 12q0 3 -1 7t-1 10v87h-20v-87q0 -6 1 -10t1 -7q0 -8 6 -14q2 -6 9 -11l5 -6l8 -4q2 -2 6.5 -3t7.5 -3q4 0 7 -1t8 -1t8.5 1t10.5 1q2 2 5.5 3t6.5 3l13 10
q3 2 5 5t5 6q0 4 3 7t3 7v104zM653 592q2 5 3 8t1 8q0 10 -5 18t-12 13q-2 0 -3.5 2t-5.5 4l-4 2h-4q-1 0 -1 4q-8 0 -9 1q-7 2 -8.5 3t-6.5 3q-6 3 -8 3q-3 4 -3 6v15q0 1 1.5 2t1.5 3q2 0 4 1t4 1l6 2h9q2 -2 4 -2q7 0 8 -4q2 -2 4 -2h2q10 0 14 4l4 2q0 2 -2 4l-4 4
q-3 1 -5.5 3.5t-6.5 4.5q-2 0 -4 2t-5 4q-5 0 -7 0.5t-4 0.5q-6 0 -11.5 -0.5t-7.5 -0.5q-5 -2 -7 -4t-6 -4q-3 -5 -6.5 -7.5t-6.5 -6.5q0 -4 -2 -6.5t-2 -8.5q0 -7 4 -16l5 -7l5 -4q3 -2 7 -5t7 -3q8 -5 15 -5q1 -2 5.5 -2t6.5 -2l6 -2q2 0 4 -2t2 -3t2 -5q2 -2 2 -6v-9
q0 -2 -2 -4t-2 -4t-2 -3q-1 -3 -6 -5l-4 -1q-4 0 -7.5 -1t-4.5 -1q-4 0 -7.5 1t-5.5 1q-5 0 -5 6l-4 1q-4 4 -12 4h-5l-4 -2l-6 -2q0 -3 4 -3q0 -2 2 -4q0 -4 4 -4v-5h3q7 -7 16 -9t20 -2h8q4 0 12 2q4 2 8.5 4t6.5 5q12 5 13 15zM1572 592q7 7 7 16q0 20 -17 31q-6 4 -6 6
h-4q-1 0 -3 2h-4q-4 0 -5 4h-4q-2 0 -4 1q-2 2 -4 3t-7 3l-7 3q-2 1 -3 2l-2 2l-1 2q0 1 -1 3t-1 4q0 4 4 8q0 1 4 5q2 0 3 1t4 1q4 2 11 2l3 -1q2 -1 5 -1q3 -3 9 -4q6 -2 7 -2q7 0 8 4l6 2q0 2 -3 4t-5 4q0 1 -3 3.5t-5 4.5q-3 0 -5 2t-7 4h-6l-4 1q-6 0 -10 -0.5t-8 -0.5
l-14 -8l-6 -8l-5 -6q-1 -4 -3 -6.5t-2 -8.5q0 -4 2 -7.5t3 -8.5q2 -4 4.5 -6.5l4.5 -4.5q5 -2 7.5 -5t6.5 -3q8 -5 14 -5q4 -2 6.5 -2t5.5 -2q7 0 11 -4q2 -2 3.5 -3t1.5 -5q2 -2 2 -5v-9q0 -3 -2 -5q0 -5 -5 -7q-7 -4 -8 -5t-3 -1q-6 0 -7 -1t-5 -1q-2 0 -6 1t-6 1
q-3 1 -8 6l-2 1q-5 4 -10 4h-6q-2 0 -4 -2l-7 -2q2 -1 2 -2t3 -1q0 -2 1 -3l3 -3v-2q7 -5 8 -5q6 -7 14 -9t18 -2h11q2 0 12 2q2 2 5.5 4t7.5 5l6 7q3 3 4 8zM1714 297h-17v130h19q3 0 4 -4l72 -97q2 0 2 -4l3 -1v106h13v-130h-11l-81 106v4h-4v-110zM77 328q-5 4 -6 7.5
t-2 8.5q-2 6 -3 9.5t-1 9.5t4 15q1 4 2 9t6 9l4 6l5 7q2 2 6.5 4.5t6.5 4.5q5 5 9.5 6t9.5 3q3 0 8 1.5t10 1.5q15 0 28 -7q14 -5 21 -14q-2 -2 -4 -2v-4h-14q-3 2 -6.5 5t-7.5 3h-35l-21 -12q-11 -6 -12 -17q-2 -6 -3 -11.5t-1 -7.5q0 -9 4 -13q0 -4 0.5 -8.5t0.5 -7.5
l4 -4q4 -1 7 -6l7 -4q2 -1 7 -1q2 -4 5 -5t7 -3h32q2 2 7 3t9 5v27h-14v2q-2 0 -3 1l-3 3h-2q-1 1 -1 3v4h37v-48q-2 -5 -3.5 -6t-6.5 -6h-11q-4 -1 -7 -1.5t-6 -0.5h-33q-5 0 -9.5 2.5t-9.5 6.5q-2 0 -6.5 2.5t-6.5 6.5zM236 411v-41h55v-15h-55v-44h66v-14h-83v130h83v-16
h-66zM1153 411v-41h59v-15h-59v-44h67v-14h-83v130h83v-16h-67zM2337 711h-19q-4 0 -8 -4q-5 -5 -5 -9l-37 -44h-2q0 -2 -2 -2v2l-38 44q-1 6 -4 9q-4 4 -12 4h-17l57 -72v-2q0 -1 2 -1l2 -2v-68h21v66q2 0 2 2l3 3v2zM631 427v-79q0 -6 2 -9t5 -5q0 -6 3.5 -9t5.5 -4
q0 -2 4 -4t6 -4q6 -2 9 -2h15q2 0 6 2t7.5 4t6.5 4q5 2 9 13q4 3 4 14v79h14v-79q0 -12 -5 -22q-5 -11 -11 -15q-2 -5 -7 -8.5t-9 -3.5q-6 -1 -12 -1.5t-11 -0.5t-10.5 0.5t-13.5 1.5q-4 0 -16 12l-10 15q-1 6 -3.5 11t-2.5 11v79h14zM2218 586h-68v125h-21v-145h89v20z
M1251 586h-66v125h-20v-145h86v20zM1429 315q1 2 2 3.5t2 3.5q2 2 3 6t1 6q0 8 -2 10t-3 4t-3 4q-1 1 -7 3q-5 0 -7 2t-6 2q-3 0 -7 2l-6 4q-9 0 -13 7q-2 0 -3.5 3t-4.5 6v21q0 2 3 7q0 8 7 9l6 5l8 4q4 0 6.5 1.5t7.5 1.5l6 -2l5 -1q3 0 4 -1t5 -3q7 0 7 -7q4 0 6 -3l1 -2
l-2 -2q-6 -2 -10 -2h-6q-2 2 -2 4h-22q-9 0 -9 -2q-5 -7 -5 -8q-4 0 -4 -7q0 -5 4 -6q0 -5 3 -6q0 -2 3 -3l4 -1q4 -4 7 -4t7 -2q3 0 4 -1l3 -1q3 0 7 -5h4q2 0 4 -2h3q5 -4 7.5 -7t4.5 -4q1 -5 1.5 -9.5t0.5 -8.5v-10q0 -4 -4 -5q-4 -9 -10 -13q-3 -2 -7 -4.5t-6 -2.5
q-4 -2 -10 -2h-9q-9 0 -17 1t-13 8q-3 0 -4 2.5t-5 4.5v4l-2 2l4 2h7q1 0 3 -1t4 -1q4 -4 6.5 -5t4.5 -3h21q8 0 12 4zM1052 297l-58 130h6q6 0 8 -2t3 -2t3 -5l42 -97v-2l2 -6v6l2 2q6 13 13 25.5t12 23.5q4 14 9.5 25.5t12.5 22.5q0 5 1.5 5t1.5 2l6 2h11
q-8 -16 -15 -32.5t-16 -31.5q-4 -8 -7 -17l-6 -18l-15 -31h-16zM524 411v-46h59v-12h-59v-56h-16v130h84v-16h-68zM1928 411v-46h53v-12h-53v-56h-16v130h81v-16h-65zM865 427v-116h62v-14h-79v130h17zM365 297v114h-46v16h104v-16h-46v-114h-12zM772 427v-116h63v-14h-79
v130h16zM266 683q2 -1 3 -4t3 -5q3 -5 3 -9v-4q0 -3 -3 -7q-2 -2 -3 -4.5t-3 -2.5q-1 -3 -8 -8h-45v50h35q4 0 10 -2l4 -2zM1304 365q4 0 6 3q4 4 10 4l2 4q0 2 3 5q0 1 1 4t1 7q0 2 -1 3t-1 4q-3 2 -4 3t-1 5q-6 0 -10 4h-43v-46h37zM2068 368l4 3q1 1 4 1q5 7 5 9
q2 4 2 11q0 3 -2 7q0 1 -5 8q-3 0 -4 1l-4 3h-43v-46h35q3 0 8 3zM510 658l-4 -7q-2 0 -3 -2t-3 -2q-2 -2 -10 -2h-32v44h32q4 0 10 -2q2 0 3 -1l3 -3q1 -2 2 -3.5t2 -3.5q3 -2 3 -9q0 -6 -3 -9zM673 121l-26 64q0 2 -1 3l-1 2q0 4 -2 6v-6l-2 -2q-1 -1 -1 -3l-27 -64h60z
M1500 427v-130h-16v130h16zM1075 682v-4l27 -60h-57l28 60v5zM1727 77q7 0 7 -6q2 -2 2 -5v-4q0 -7 -2 -9q0 -5 -7 -9q-2 0 -5 -4h-18q-4 4 -9 4q0 3 -6 9q-2 2 -2 9v4q0 3 2 5l6 6q7 4 9 4q1 3 4 3h11q3 0 3 -3q4 0 5 -4z" />
    <glyph glyph-name="seven" unicode="7" 
d="M2439 1024v-550h-2367v550h897q0 28 5.5 55t19.5 50q12 27 26 49t36 39q39 39 91 58q26 11 53 16t56 5q32 0 60.5 -6t52.5 -15q27 -13 50.5 -27.5t44.5 -34.5q34 -34 60 -88q18 -50 18 -101h897zM1014 1119q-20 -45 -20 -95q0 -54 20 -99q10 -20 24 -40.5t30 -39.5
q38 -35 85 -54q46 -21 103 -21q61 0 103 19q47 19 82 54q21 18 34.5 38t24.5 41q21 49 21 102q0 20 -3.5 42t-11.5 44q-13 36 -42 68q-14 18 -29 31t-34 24q-18 7 -37 16.5t-39 16.5q-15 3 -32 6t-37 3q-59 0 -105 -23q-48 -16 -83 -54q-18 -17 -31 -37t-23 -42zM1123 877
l310 298q61 -73 61 -151q0 -22 -3 -42t-12 -39q-7 -18 -17 -34.5t-22 -31.5h-317zM1077 870q-14 17 -24.5 34.5t-18.5 36.5q-8 17 -11 38t-3 45q0 18 3 37.5t11 39.5q4 18 14 33.5t25 30.5h314zM2161 194q3 -4 5.5 -10t4.5 -13q5 -8 5 -14v-29q0 -6 -5 -11q-2 -7 -4.5 -14
t-5.5 -13q-6 -9 -16 -19q-13 -11 -25 -18q-5 -5 -12 -7t-13 -4q-4 -1 -7 -1.5t-7 -0.5h-17q-20 0 -42 6l-16 12l-8 6t-8 7q-9 6 -14.5 13.5t-7.5 19.5q-7 9 -8.5 18.5t-1.5 21.5q0 8 1 13.5t1 13.5q7 16 14 23q2 8 5.5 12.5t10.5 10.5q3 4 10 8t12 9q4 2 11 4t13 6
q10 0 16 1t12 1q10 0 17 -1t14 -1q6 -4 13 -6t12 -4l13 -9l12 -8q2 -6 8 -10.5t8 -12.5zM1117 194q2 -4 4 -10t6 -13q2 -10 2 -14v-29q0 -5 -2 -11q-4 -7 -6 -14t-4 -13q-5 -4 -10 -9.5t-9 -9.5q-5 -5 -10 -9.5t-11 -8.5q-7 -5 -14 -7t-13 -4q-10 -2 -15 -2h-15q-10 0 -20 2
t-22 4q-12 6 -19 12t-16 13q-16 13 -22 33q-3 9 -5.5 18.5t-2.5 21.5v13q0 6 3 14q4 16 11 23q4 8 8 12.5t8 10.5q7 4 12 8t11 9l28 10q5 0 11.5 1t14.5 1t15.5 -1t14.5 -1q6 -5 13 -6l14 -4l11 -9l10 -8q4 -6 9 -10.5t10 -12.5zM2395 244l1 1q1 1 6 1h37v-206h-37v150
l-5 -9v-6q0 -2 -2 -4l-13 -33l-15 -30q-7 -18 -12.5 -33.5t-14.5 -34.5h-35l-55 131q-5 3 -5 10q0 4 -1 4l-2 2v-147h-41v206h39q5 0 6.5 -1t3.5 -1q2 -2 3 -2t3 -2l8 -4q0 -2 2 -3.5t2 -3.5q4 -16 11 -30t15 -32q7 -15 12.5 -30.5t11.5 -28.5v-12q2 0 5 -4q0 4 1 4v12l9 13
l44 108q0 1 2 3l2 4q0 1 3 3l3 1q2 2 4 2t4 2zM1308 246h38v-206h-36l-98 138l-5 3v2q-3 4 -3 5q-4 1 -4 4q0 4 -5 4v-156h-38v206h34q4 0 8.5 -1t4.5 -3q3 -2 5.5 -2t4.5 -2l22 -31l10 -16t10 -17q13 -13 23.5 -27.5t24.5 -27.5q0 -2 1 -4.5t1 -6.5l1 -2l1 -3v143zM661 246
l93 -206h-24q-9 0 -16 4q-2 2 -4 6.5t-7 8.5l-12 25h-99l-9 -25q0 -6 -4 -6q-3 -5 -5 -5l-3 -4q-2 0 -3.5 -1t-5.5 -1q0 -2 -2 -2h-28l95 206h34zM256 246h137v-37h-99v-46h81v-38h-81v-48h99v-37h-137v206zM72 246h157v-23q0 -3 -1 -5q0 -3 -2 -5l-4 -4l-104 -134h1l2 2
h107v-37h-163v13q0 9 2 11q0 2 5 7v4l3 4q2 2 4 3.5t2 5.5l92 121h-101v37zM825 618q1 6 2 10t1 9q0 12 -3 21q0 5 -3.5 8.5t-5.5 9.5q-3 4 -12 13l-7 6q-2 3 -8 8l-19 8q-5 0 -9.5 0.5t-10.5 0.5q-3 0 -8.5 -0.5t-11.5 -0.5q-11 -4 -18 -8q-4 -5 -8 -7.5t-8 -6.5
q-11 -8 -12 -13q-5 -6 -6 -9.5t-3 -8.5q-1 -5 -1.5 -10t-0.5 -11q0 -5 2 -13t4 -14q2 -7 7 -12.5t10 -11.5q11 -14 25 -14q12 -6 29 -6h20q6 2 10.5 4t8.5 4q10 4 15 12q7 6 12 15q2 4 5.5 8.5t3.5 8.5zM1935 618v40q-2 5 -3.5 9t-3.5 9q-4 5 -15 13q-1 4 -5.5 6.5t-9.5 7.5
l-4 2t-5 2l-7 4q-7 0 -11.5 0.5t-9.5 0.5q-7 0 -11.5 -0.5t-8.5 -0.5q-6 -2 -11 -4l-10 -4q-4 -5 -7 -7.5t-7 -6.5l-12 -13q-2 -6 -4.5 -9.5t-2.5 -8.5q-5 -10 -5 -21q0 -5 2.5 -13t5.5 -14q5 -15 16 -24q8 -14 25 -14q12 -6 30 -6h21q3 2 8 4t8 4q5 3 9.5 5.5t5.5 6.5
q10 6 15 15zM1810 190q-7 -7 -13 -23q-7 -9 -7 -23q0 -8 2 -13.5t5 -11.5q2 -7 5.5 -13.5t7.5 -9.5q9 -9 23 -15q8 -2 13.5 -3t14.5 -1q5 0 9.5 1t11.5 1q3 2 8 4.5t8 6.5q3 0 9 2h12q3 0 9 -2q2 -1 7 -6l6 -7q-3 -4 -6 -7.5t-7 -7.5q-7 -3 -11.5 -6t-11.5 -6
q-7 -4 -11.5 -5t-10.5 -3q-8 -2 -12 -2h-10q-12 0 -23.5 2t-21.5 4q-19 9 -34 25q-16 13 -22 33q-4 9 -7 18.5t-3 21.5q0 8 1 13.5t4 13.5q2 16 9 23q6 8 9 12.5t9 10.5q6 4 12.5 8t11.5 9q4 2 10 4t17 6q6 0 12.5 1t15.5 1h12q2 0 10 -2q6 -2 10.5 -3t11.5 -3l23 -13
q4 -4 7 -8l6 -8l-6 -7q-2 -1 -5 -4l-2 -4h-15q-6 0 -15 4q-3 2 -8 4.5t-8 4.5q-10 2 -12 2h-9q-16 0 -28 -6q-16 -2 -23 -13zM1663 141q4 -5 7.5 -9t3.5 -7q5 -8 5 -19q0 -14 -7 -27l-9 -12q-3 -5 -8 -8q-7 -6 -11.5 -9.5t-12.5 -5.5q-6 -2 -14 -3t-15 -1q-12 0 -32 4
q-10 4 -21 18q-3 1 -7 5l-4 8q-6 1 -6 9l6 4q2 2 4 2h5l2 2h9q4 0 4 -2q8 0 10 -2q5 -4 8.5 -5.5t6.5 -3.5q2 0 6 -1t9 -1h5q3 0 7 2q5 1 13 5q7 5 8 8q2 4 4 7t2 7q0 6 -6 9q-5 6 -8 6q-2 4 -6.5 5t-6.5 2q-5 0 -14 6q-5 0 -9 1t-10 6q-9 3 -13 6t-8 7q-11 4 -11 13
q-7 10 -7 23q0 18 7 25q1 4 5 10l8 9l10 4l12 6q7 0 11.5 1t13.5 1q4 0 8 -1t10 -1l16 -6q3 -4 6.5 -6.5t7.5 -6.5q3 -2 6.5 -5t3.5 -7l-7 -4l-6 -4q-3 -2 -3 -3h-18l-6 1q-3 1 -6 4q-2 0 -3.5 1t-3.5 1h-17q-2 0 -3 -1t-5 -3l-7 -5q-1 -3 -1 -10q0 -5 1 -5q2 -2 3.5 -4.5
t3.5 -6.5h6q1 0 5 -2l9 -3l10 -4l8 -2q6 -4 10 -5t9 -4q12 -5 17 -13zM1554 315q-12 7 -16 19q-6 13 -6 29v15l10 18l12 13q6 8 13 9q3 5 8.5 6t8.5 3q5 0 9 1.5t9 1.5q4 0 10.5 -1.5t10.5 -1.5q4 -2 8 -3t8 -6q2 -2 5.5 -4.5t6.5 -4.5l12 -13l9 -18q0 -4 1 -8.5t1 -6.5
q0 -6 -1 -13.5t-6 -15.5q-4 -12 -16 -19l-21 -16q-5 -1 -11.5 -1.5t-16.5 -0.5h-14q-5 0 -11 2q-16 4 -23 16zM2131 119q6 10 6 25t-6 23q-2 9 -6.5 14.5t-7.5 8.5q-10 10 -24 13q-5 4 -12 5t-17 1q-12 0 -25 -6q-11 -1 -23 -13q-4 -3 -8 -8.5t-8 -14.5q0 -4 -1 -9.5
t-1 -13.5t1 -13.5t1 -11.5q7 -14 16 -23q6 -4 11 -8t12 -7q7 -2 14 -3t11 -1q20 0 29 4q8 3 14 7t10 8q9 9 14 23zM2248 315q-6 -4 -12.5 -7.5t-11.5 -8.5q-8 -2 -12 -2h-30q-3 0 -6 0.5t-7 1.5q-10 4 -22 16q-7 7 -13 19q-7 19 -7 29q0 2 1 6.5t1 8.5q2 4 3.5 9t4.5 9
q2 3 5 6t5 7q5 4 17 9q3 5 8.5 6t7.5 3q5 0 8 1.5t11 1.5q2 0 7.5 -1.5t11.5 -1.5q4 -2 7.5 -3t5.5 -6l9 -5l8 -4q1 -2 2 -3.5t2 -3.5l4 -6q7 -8 8 -18q2 -4 3 -8.5t1 -6.5q0 -6 -1 -13.5t-5 -15.5q0 -6 -5 -10.5t-9 -8.5zM1087 119q4 11 4 25t-4 23q-4 16 -19 23q-2 6 -8 9
t-12 4q-12 6 -28 6q-14 0 -26 -6q-10 -1 -23 -13q-8 -5 -13 -23q-6 -5 -6 -10v-27q0 -5 6 -11q2 -7 5 -13.5t8 -9.5q7 -4 12 -8t11 -7q11 -4 26 -4q19 0 28 4q6 3 12 7t8 8q7 3 12 9.5t7 13.5zM762 246h137v-37h-99v-52h81v-36h-81v-81h-38v206zM562 209h-58v-169h-42v169
h-62v37h162v-37zM1367 246h163v-37h-64v-169h-39v169h-60v37zM1345 1233q17 -8 35.5 -19.5t34.5 -21.5h-319q35 28 74 41q39 17 86 17t89 -17zM1170 810q-19 7 -37 18t-35 24h317q-16 -13 -34.5 -24t-35.5 -18q-23 -6 -45 -10.5t-44 -4.5q-24 0 -44.5 4.5t-41.5 10.5z
M550 566l-46 64q3 0 4 1l8 3q7 3 8 9q8 6 8 11v24q0 1 -2 5q-4 9 -10 14q-5 8 -14 8q-4 6 -16 6h-55v-145h23v60h23l39 -52q1 -4 7 -6q2 -2 3 -2h20zM1151 566l-66 145h-21l-65 -145h11q6 0 10 2q0 2 6 6l10 25h76l11 -25q3 -5 6 -6q2 -2 8 -2h14zM1900 676q3 -2 7.5 -7.5
t5.5 -10.5q4 -7 4 -21q0 -12 -4 -21q-1 -4 -5.5 -8.5t-7.5 -6.5q-5 -4 -9 -6.5t-8 -6.5q-9 -4 -22 -4q-15 0 -22 4q-6 4 -10.5 6.5t-8.5 6.5q-4 2 -7 6.5t-3 8.5q-6 10 -6 21q0 10 6 21q0 5 3 10.5t7 7.5q6 6 19 11q9 4 22 4q11 0 22 -4zM789 676q6 -2 8.5 -7.5t4.5 -10.5
q4 -7 4 -21q0 -10 -4 -21q-2 -4 -4.5 -8.5t-8.5 -6.5q-5 -6 -17 -13q-4 -2 -10 -3t-12 -1q-11 0 -22 4q-5 4 -9.5 6.5t-8.5 6.5q-2 2 -6 6.5t-6 8.5q-4 11 -4 21q0 12 4 21q2 5 6 10.5t6 7.5q6 6 18 11q5 2 12 3t10 1q13 0 22 -4q11 -4 17 -11zM291 647q5 12 5 18q0 9 -5 18
q0 2 -4 6l-7 6q-2 3 -5 6.5t-9 3.5q-2 4 -8 5t-10 1h-52v-145h17v55h35q4 0 10 0.5t8 2.5q10 4 14 10q11 5 11 13zM2183 311h30q5 2 7 3t4 5q2 0 14 5l3 6q1 1 1.5 2t2.5 2q0 3 2.5 7.5t2.5 8.5v32q-2 6 -6 10t-6 7q-7 2 -10.5 5t-7.5 7h-42q-7 -4 -10.5 -7t-8.5 -5
q-8 -6 -12 -17q-2 -8 -2 -12v-20q0 -4 1 -8.5t4 -7.5q2 -2 4.5 -4t4.5 -6l6 -3q2 -2 4 -2q4 -4 7.5 -5t6.5 -3zM1554 382q-3 -6 -4 -11.5t-1 -7.5v-8q0 -3 2 -5q0 -8 5 -16q0 -2 2 -4t4 -6l6 -3q2 -2 9 -2q2 -4 6 -5t6 -3h27q5 2 8 3t7 5l6 2l4 3q2 4 4.5 6t2.5 4q3 3 4 7.5
t3 8.5q0 2 1 5.5t1 7.5q0 2 -1 7.5t-5 11.5q0 6 -4 10t-6 7q-3 1 -8 6l-10 6h-42q-7 -7 -19 -12q-2 -3 -5 -7t-3 -10zM2093 711h-21v-112l-3 5l-3 4l-73 97l-3 6h-24v-145h22v114l2 -2l86 -112h17v145zM982 711h-18v-112l-2 4q-2 6 -2 5l-73 97q-5 0 -6 6h-24v-145h20v117h2
l2 -1v-4l85 -112h16v145zM2081 357q-4 -1 -7 -2l-6 -2l45 -56h-12l-6 2q-4 0 -4 7l-38 47h-28v-56h-15v130h56q4 0 10 -2q2 -2 5.5 -4.5t4.5 -4.5q5 -2 6 -5.5t7 -7.5v-25q-4 -4 -5 -7.5t-3 -5.5zM1322 357q-3 -3 -12 -4l47 -56h-15q-3 0 -3 2q-7 0 -7 7l-37 47h-28v-56h-13
v130h55q1 0 7 -2q8 -1 16 -9q0 -2 3.5 -5.5t3.5 -7.5q2 -2 2 -6v-13q0 -2 -2 -6q0 -9 -4 -13l-6 -4q-3 -3 -7 -4zM405 711h-95v-145h95v20h-72v44h58v17h-58v42h72v22zM1695 711h-93v-145h93v20h-70v44h58v17h-58v42h70v22zM2421 425q6 2 5 2h13v-130h-11v106l-3 -2v-2
q-4 -7 -6.5 -16t-7.5 -13q-4 -7 -6.5 -12.5t-7.5 -13.5q-2 -8 -3 -14t-5 -9q-3 -8 -6.5 -12.5t-5.5 -11.5h-15q-9 12 -14 24.5t-11 26.5q-4 11 -11.5 24.5t-11.5 26.5v2h-4v-104h-14v130h14q4 0 6 -2l2 -2v-5l49 -99q0 -4 2 -4l1 2v4q0 1 7 5l40 92q2 5 3 5t1 2zM1456 711
h-21v-97q0 -3 -2 -7q-2 -8 -9 -12q0 -2 -4.5 -3.5t-6.5 -5.5l-8 -2h-9q-7 0 -13 2q-5 4 -8.5 5.5t-5.5 3.5l-10 12q0 3 -1 7t-1 10v87h-20v-87q0 -6 1 -10t1 -7q0 -8 6 -14q2 -6 9 -11l5 -6l8 -4q2 -2 6.5 -3t7.5 -3q4 0 7 -1t8 -1t8.5 1t10.5 1q2 2 5.5 3t6.5 3l13 10
q3 2 5 5t5 6q0 4 3 7t3 7v104zM653 592q2 5 3 8t1 8q0 10 -5 18t-12 13q-2 0 -3.5 2t-5.5 4l-4 2h-4q-1 0 -1 4q-8 0 -9 1q-7 2 -8.5 3t-6.5 3q-6 3 -8 3q-3 4 -3 6v15q0 1 1.5 2t1.5 3q2 0 4 1t4 1l6 2h9q2 -2 4 -2q7 0 8 -4q2 -2 4 -2h2q10 0 14 4l4 2q0 2 -2 4l-4 4
q-3 1 -5.5 3.5t-6.5 4.5q-2 0 -4 2t-5 4q-5 0 -7 0.5t-4 0.5q-6 0 -11.5 -0.5t-7.5 -0.5q-5 -2 -7 -4t-6 -4q-3 -5 -6.5 -7.5t-6.5 -6.5q0 -4 -2 -6.5t-2 -8.5q0 -7 4 -16l5 -7l5 -4q3 -2 7 -5t7 -3q8 -5 15 -5q1 -2 5.5 -2t6.5 -2l6 -2q2 0 4 -2t2 -3t2 -5q2 -2 2 -6v-9
q0 -2 -2 -4t-2 -4t-2 -3q-1 -3 -6 -5l-4 -1q-4 0 -7.5 -1t-4.5 -1q-4 0 -7.5 1t-5.5 1q-5 0 -5 6l-4 1q-4 4 -12 4h-5l-4 -2l-6 -2q0 -3 4 -3q0 -2 2 -4q0 -4 4 -4v-5h3q7 -7 16 -9t20 -2h8q4 0 12 2q4 2 8.5 4t6.5 5q12 5 13 15zM1572 592q7 7 7 16q0 20 -17 31q-6 4 -6 6
h-4q-1 0 -3 2h-4q-4 0 -5 4h-4q-2 0 -4 1q-2 2 -4 3t-7 3l-7 3q-2 1 -3 2l-2 2l-1 2q0 1 -1 3t-1 4q0 4 4 8q0 1 4 5q2 0 3 1t4 1q4 2 11 2l3 -1q2 -1 5 -1q3 -3 9 -4q6 -2 7 -2q7 0 8 4l6 2q0 2 -3 4t-5 4q0 1 -3 3.5t-5 4.5q-3 0 -5 2t-7 4h-6l-4 1q-6 0 -10 -0.5t-8 -0.5
l-14 -8l-6 -8l-5 -6q-1 -4 -3 -6.5t-2 -8.5q0 -4 2 -7.5t3 -8.5q2 -4 4.5 -6.5l4.5 -4.5q5 -2 7.5 -5t6.5 -3q8 -5 14 -5q4 -2 6.5 -2t5.5 -2q7 0 11 -4q2 -2 3.5 -3t1.5 -5q2 -2 2 -5v-9q0 -3 -2 -5q0 -5 -5 -7q-7 -4 -8 -5t-3 -1q-6 0 -7 -1t-5 -1q-2 0 -6 1t-6 1
q-3 1 -8 6l-2 1q-5 4 -10 4h-6q-2 0 -4 -2l-7 -2q2 -1 2 -2t3 -1q0 -2 1 -3l3 -3v-2q7 -5 8 -5q6 -7 14 -9t18 -2h11q2 0 12 2q2 2 5.5 4t7.5 5l6 7q3 3 4 8zM1714 297h-17v130h19q3 0 4 -4l72 -97q2 0 2 -4l3 -1v106h13v-130h-11l-81 106v4h-4v-110zM77 328q-5 4 -6 7.5
t-2 8.5q-2 6 -3 9.5t-1 9.5t4 15q1 4 2 9t6 9l4 6l5 7q2 2 6.5 4.5t6.5 4.5q5 5 9.5 6t9.5 3q3 0 8 1.5t10 1.5q15 0 28 -7q14 -5 21 -14q-2 -2 -4 -2v-4h-14q-3 2 -6.5 5t-7.5 3h-35l-21 -12q-11 -6 -12 -17q-2 -6 -3 -11.5t-1 -7.5q0 -9 4 -13q0 -4 0.5 -8.5t0.5 -7.5
l4 -4q4 -1 7 -6l7 -4q2 -1 7 -1q2 -4 5 -5t7 -3h32q2 2 7 3t9 5v27h-14v2q-2 0 -3 1l-3 3h-2q-1 1 -1 3v4h37v-48q-2 -5 -3.5 -6t-6.5 -6h-11q-4 -1 -7 -1.5t-6 -0.5h-33q-5 0 -9.5 2.5t-9.5 6.5q-2 0 -6.5 2.5t-6.5 6.5zM236 411v-41h55v-15h-55v-44h66v-14h-83v130h83v-16
h-66zM1153 411v-41h59v-15h-59v-44h67v-14h-83v130h83v-16h-67zM2337 711h-19q-4 0 -8 -4q-5 -5 -5 -9l-37 -44h-2q0 -2 -2 -2v2l-38 44q-1 6 -4 9q-4 4 -12 4h-17l57 -72v-2q0 -1 2 -1l2 -2v-68h21v66q2 0 2 2l3 3v2zM631 427v-79q0 -6 2 -9t5 -5q0 -6 3.5 -9t5.5 -4
q0 -2 4 -4t6 -4q6 -2 9 -2h15q2 0 6 2t7.5 4t6.5 4q5 2 9 13q4 3 4 14v79h14v-79q0 -12 -5 -22q-5 -11 -11 -15q-2 -5 -7 -8.5t-9 -3.5q-6 -1 -12 -1.5t-11 -0.5t-10.5 0.5t-13.5 1.5q-4 0 -16 12l-10 15q-1 6 -3.5 11t-2.5 11v79h14zM2218 586h-68v125h-21v-145h89v20z
M1251 586h-66v125h-20v-145h86v20zM1429 315q1 2 2 3.5t2 3.5q2 2 3 6t1 6q0 8 -2 10t-3 4t-3 4q-1 1 -7 3q-5 0 -7 2t-6 2q-3 0 -7 2l-6 4q-9 0 -13 7q-2 0 -3.5 3t-4.5 6v21q0 2 3 7q0 8 7 9l6 5l8 4q4 0 6.5 1.5t7.5 1.5l6 -2l5 -1q3 0 4 -1t5 -3q7 0 7 -7q4 0 6 -3l1 -2
l-2 -2q-6 -2 -10 -2h-6q-2 2 -2 4h-22q-9 0 -9 -2q-5 -7 -5 -8q-4 0 -4 -7q0 -5 4 -6q0 -5 3 -6q0 -2 3 -3l4 -1q4 -4 7 -4t7 -2q3 0 4 -1l3 -1q3 0 7 -5h4q2 0 4 -2h3q5 -4 7.5 -7t4.5 -4q1 -5 1.5 -9.5t0.5 -8.5v-10q0 -4 -4 -5q-4 -9 -10 -13q-3 -2 -7 -4.5t-6 -2.5
q-4 -2 -10 -2h-9q-9 0 -17 1t-13 8q-3 0 -4 2.5t-5 4.5v4l-2 2l4 2h7q1 0 3 -1t4 -1q4 -4 6.5 -5t4.5 -3h21q8 0 12 4zM1052 297l-58 130h6q6 0 8 -2t3 -2t3 -5l42 -97v-2l2 -6v6l2 2q6 13 13 25.5t12 23.5q4 14 9.5 25.5t12.5 22.5q0 5 1.5 5t1.5 2l6 2h11
q-8 -16 -15 -32.5t-16 -31.5q-4 -8 -7 -17l-6 -18l-15 -31h-16zM524 411v-46h59v-12h-59v-56h-16v130h84v-16h-68zM1928 411v-46h53v-12h-53v-56h-16v130h81v-16h-65zM865 427v-116h62v-14h-79v130h17zM365 297v114h-46v16h104v-16h-46v-114h-12zM772 427v-116h63v-14h-79
v130h16zM266 683q2 -1 3 -4t3 -5q3 -5 3 -9v-4q0 -3 -3 -7q-2 -2 -3 -4.5t-3 -2.5q-1 -3 -8 -8h-45v50h35q4 0 10 -2l4 -2zM1304 365q4 0 6 3q4 4 10 4l2 4q0 2 3 5q0 1 1 4t1 7q0 2 -1 3t-1 4q-3 2 -4 3t-1 5q-6 0 -10 4h-43v-46h37zM2068 368l4 3q1 1 4 1q5 7 5 9
q2 4 2 11q0 3 -2 7q0 1 -5 8q-3 0 -4 1l-4 3h-43v-46h35q3 0 8 3zM510 658l-4 -7q-2 0 -3 -2t-3 -2q-2 -2 -10 -2h-32v44h32q4 0 10 -2q2 0 3 -1l3 -3q1 -2 2 -3.5t2 -3.5q3 -2 3 -9q0 -6 -3 -9zM673 121l-26 64q0 2 -1 3l-1 2q0 4 -2 6v-6l-2 -2q-1 -1 -1 -3l-27 -64h60z
M1500 427v-130h-16v130h16zM1075 682v-4l27 -60h-57l28 60v5zM1727 77q7 0 7 -6q2 -2 2 -5v-4q0 -7 -2 -9q0 -5 -7 -9q-2 0 -5 -4h-18q-4 4 -9 4q0 3 -6 9q-2 2 -2 9v4q0 3 2 5l6 6q7 4 9 4q1 3 4 3h11q3 0 3 -3q4 0 5 -4z" />
    <glyph glyph-name="eight" unicode="8" 
d="M2439 1024v-550h-2367v550h897q0 28 5.5 55t19.5 50q12 27 26 49t36 39q39 39 91 58q26 11 53 16t56 5q32 0 60.5 -6t52.5 -15q27 -13 50.5 -27.5t44.5 -34.5q34 -34 60 -88q18 -50 18 -101h897zM1014 1119q-20 -45 -20 -95q0 -54 20 -99q10 -20 24 -40.5t30 -39.5
q38 -35 85 -54q46 -21 103 -21q61 0 103 19q47 19 82 54q21 18 34.5 38t24.5 41q21 49 21 102q0 20 -3.5 42t-11.5 44q-13 36 -42 68q-14 18 -29 31t-34 24q-18 7 -37 16.5t-39 16.5q-15 3 -32 6t-37 3q-59 0 -105 -23q-48 -16 -83 -54q-18 -17 -31 -37t-23 -42zM1123 877
l310 298q61 -73 61 -151q0 -22 -3 -42t-12 -39q-7 -18 -17 -34.5t-22 -31.5h-317zM1077 870q-14 17 -24.5 34.5t-18.5 36.5q-8 17 -11 38t-3 45q0 18 3 37.5t11 39.5q4 18 14 33.5t25 30.5h314zM2161 194q3 -4 5.5 -10t4.5 -13q5 -8 5 -14v-29q0 -6 -5 -11q-2 -7 -4.5 -14
t-5.5 -13q-6 -9 -16 -19q-13 -11 -25 -18q-5 -5 -12 -7t-13 -4q-4 -1 -7 -1.5t-7 -0.5h-17q-20 0 -42 6l-16 12l-8 6t-8 7q-9 6 -14.5 13.5t-7.5 19.5q-7 9 -8.5 18.5t-1.5 21.5q0 8 1 13.5t1 13.5q7 16 14 23q2 8 5.5 12.5t10.5 10.5q3 4 10 8t12 9q4 2 11 4t13 6
q10 0 16 1t12 1q10 0 17 -1t14 -1q6 -4 13 -6t12 -4l13 -9l12 -8q2 -6 8 -10.5t8 -12.5zM1117 194q2 -4 4 -10t6 -13q2 -10 2 -14v-29q0 -5 -2 -11q-4 -7 -6 -14t-4 -13q-5 -4 -10 -9.5t-9 -9.5q-5 -5 -10 -9.5t-11 -8.5q-7 -5 -14 -7t-13 -4q-10 -2 -15 -2h-15q-10 0 -20 2
t-22 4q-12 6 -19 12t-16 13q-16 13 -22 33q-3 9 -5.5 18.5t-2.5 21.5v13q0 6 3 14q4 16 11 23q4 8 8 12.5t8 10.5q7 4 12 8t11 9l28 10q5 0 11.5 1t14.5 1t15.5 -1t14.5 -1q6 -5 13 -6l14 -4l11 -9l10 -8q4 -6 9 -10.5t10 -12.5zM2395 244l1 1q1 1 6 1h37v-206h-37v150
l-5 -9v-6q0 -2 -2 -4l-13 -33l-15 -30q-7 -18 -12.5 -33.5t-14.5 -34.5h-35l-55 131q-5 3 -5 10q0 4 -1 4l-2 2v-147h-41v206h39q5 0 6.5 -1t3.5 -1q2 -2 3 -2t3 -2l8 -4q0 -2 2 -3.5t2 -3.5q4 -16 11 -30t15 -32q7 -15 12.5 -30.5t11.5 -28.5v-12q2 0 5 -4q0 4 1 4v12l9 13
l44 108q0 1 2 3l2 4q0 1 3 3l3 1q2 2 4 2t4 2zM1308 246h38v-206h-36l-98 138l-5 3v2q-3 4 -3 5q-4 1 -4 4q0 4 -5 4v-156h-38v206h34q4 0 8.5 -1t4.5 -3q3 -2 5.5 -2t4.5 -2l22 -31l10 -16t10 -17q13 -13 23.5 -27.5t24.5 -27.5q0 -2 1 -4.5t1 -6.5l1 -2l1 -3v143zM661 246
l93 -206h-24q-9 0 -16 4q-2 2 -4 6.5t-7 8.5l-12 25h-99l-9 -25q0 -6 -4 -6q-3 -5 -5 -5l-3 -4q-2 0 -3.5 -1t-5.5 -1q0 -2 -2 -2h-28l95 206h34zM256 246h137v-37h-99v-46h81v-38h-81v-48h99v-37h-137v206zM72 246h157v-23q0 -3 -1 -5q0 -3 -2 -5l-4 -4l-104 -134h1l2 2
h107v-37h-163v13q0 9 2 11q0 2 5 7v4l3 4q2 2 4 3.5t2 5.5l92 121h-101v37zM825 618q1 6 2 10t1 9q0 12 -3 21q0 5 -3.5 8.5t-5.5 9.5q-3 4 -12 13l-7 6q-2 3 -8 8l-19 8q-5 0 -9.5 0.5t-10.5 0.5q-3 0 -8.5 -0.5t-11.5 -0.5q-11 -4 -18 -8q-4 -5 -8 -7.5t-8 -6.5
q-11 -8 -12 -13q-5 -6 -6 -9.5t-3 -8.5q-1 -5 -1.5 -10t-0.5 -11q0 -5 2 -13t4 -14q2 -7 7 -12.5t10 -11.5q11 -14 25 -14q12 -6 29 -6h20q6 2 10.5 4t8.5 4q10 4 15 12q7 6 12 15q2 4 5.5 8.5t3.5 8.5zM1935 618v40q-2 5 -3.5 9t-3.5 9q-4 5 -15 13q-1 4 -5.5 6.5t-9.5 7.5
l-4 2t-5 2l-7 4q-7 0 -11.5 0.5t-9.5 0.5q-7 0 -11.5 -0.5t-8.5 -0.5q-6 -2 -11 -4l-10 -4q-4 -5 -7 -7.5t-7 -6.5l-12 -13q-2 -6 -4.5 -9.5t-2.5 -8.5q-5 -10 -5 -21q0 -5 2.5 -13t5.5 -14q5 -15 16 -24q8 -14 25 -14q12 -6 30 -6h21q3 2 8 4t8 4q5 3 9.5 5.5t5.5 6.5
q10 6 15 15zM1810 190q-7 -7 -13 -23q-7 -9 -7 -23q0 -8 2 -13.5t5 -11.5q2 -7 5.5 -13.5t7.5 -9.5q9 -9 23 -15q8 -2 13.5 -3t14.5 -1q5 0 9.5 1t11.5 1q3 2 8 4.5t8 6.5q3 0 9 2h12q3 0 9 -2q2 -1 7 -6l6 -7q-3 -4 -6 -7.5t-7 -7.5q-7 -3 -11.5 -6t-11.5 -6
q-7 -4 -11.5 -5t-10.5 -3q-8 -2 -12 -2h-10q-12 0 -23.5 2t-21.5 4q-19 9 -34 25q-16 13 -22 33q-4 9 -7 18.5t-3 21.5q0 8 1 13.5t4 13.5q2 16 9 23q6 8 9 12.5t9 10.5q6 4 12.5 8t11.5 9q4 2 10 4t17 6q6 0 12.5 1t15.5 1h12q2 0 10 -2q6 -2 10.5 -3t11.5 -3l23 -13
q4 -4 7 -8l6 -8l-6 -7q-2 -1 -5 -4l-2 -4h-15q-6 0 -15 4q-3 2 -8 4.5t-8 4.5q-10 2 -12 2h-9q-16 0 -28 -6q-16 -2 -23 -13zM1663 141q4 -5 7.5 -9t3.5 -7q5 -8 5 -19q0 -14 -7 -27l-9 -12q-3 -5 -8 -8q-7 -6 -11.5 -9.5t-12.5 -5.5q-6 -2 -14 -3t-15 -1q-12 0 -32 4
q-10 4 -21 18q-3 1 -7 5l-4 8q-6 1 -6 9l6 4q2 2 4 2h5l2 2h9q4 0 4 -2q8 0 10 -2q5 -4 8.5 -5.5t6.5 -3.5q2 0 6 -1t9 -1h5q3 0 7 2q5 1 13 5q7 5 8 8q2 4 4 7t2 7q0 6 -6 9q-5 6 -8 6q-2 4 -6.5 5t-6.5 2q-5 0 -14 6q-5 0 -9 1t-10 6q-9 3 -13 6t-8 7q-11 4 -11 13
q-7 10 -7 23q0 18 7 25q1 4 5 10l8 9l10 4l12 6q7 0 11.5 1t13.5 1q4 0 8 -1t10 -1l16 -6q3 -4 6.5 -6.5t7.5 -6.5q3 -2 6.5 -5t3.5 -7l-7 -4l-6 -4q-3 -2 -3 -3h-18l-6 1q-3 1 -6 4q-2 0 -3.5 1t-3.5 1h-17q-2 0 -3 -1t-5 -3l-7 -5q-1 -3 -1 -10q0 -5 1 -5q2 -2 3.5 -4.5
t3.5 -6.5h6q1 0 5 -2l9 -3l10 -4l8 -2q6 -4 10 -5t9 -4q12 -5 17 -13zM1554 315q-12 7 -16 19q-6 13 -6 29v15l10 18l12 13q6 8 13 9q3 5 8.5 6t8.5 3q5 0 9 1.5t9 1.5q4 0 10.5 -1.5t10.5 -1.5q4 -2 8 -3t8 -6q2 -2 5.5 -4.5t6.5 -4.5l12 -13l9 -18q0 -4 1 -8.5t1 -6.5
q0 -6 -1 -13.5t-6 -15.5q-4 -12 -16 -19l-21 -16q-5 -1 -11.5 -1.5t-16.5 -0.5h-14q-5 0 -11 2q-16 4 -23 16zM2131 119q6 10 6 25t-6 23q-2 9 -6.5 14.5t-7.5 8.5q-10 10 -24 13q-5 4 -12 5t-17 1q-12 0 -25 -6q-11 -1 -23 -13q-4 -3 -8 -8.5t-8 -14.5q0 -4 -1 -9.5
t-1 -13.5t1 -13.5t1 -11.5q7 -14 16 -23q6 -4 11 -8t12 -7q7 -2 14 -3t11 -1q20 0 29 4q8 3 14 7t10 8q9 9 14 23zM2248 315q-6 -4 -12.5 -7.5t-11.5 -8.5q-8 -2 -12 -2h-30q-3 0 -6 0.5t-7 1.5q-10 4 -22 16q-7 7 -13 19q-7 19 -7 29q0 2 1 6.5t1 8.5q2 4 3.5 9t4.5 9
q2 3 5 6t5 7q5 4 17 9q3 5 8.5 6t7.5 3q5 0 8 1.5t11 1.5q2 0 7.5 -1.5t11.5 -1.5q4 -2 7.5 -3t5.5 -6l9 -5l8 -4q1 -2 2 -3.5t2 -3.5l4 -6q7 -8 8 -18q2 -4 3 -8.5t1 -6.5q0 -6 -1 -13.5t-5 -15.5q0 -6 -5 -10.5t-9 -8.5zM1087 119q4 11 4 25t-4 23q-4 16 -19 23q-2 6 -8 9
t-12 4q-12 6 -28 6q-14 0 -26 -6q-10 -1 -23 -13q-8 -5 -13 -23q-6 -5 -6 -10v-27q0 -5 6 -11q2 -7 5 -13.5t8 -9.5q7 -4 12 -8t11 -7q11 -4 26 -4q19 0 28 4q6 3 12 7t8 8q7 3 12 9.5t7 13.5zM762 246h137v-37h-99v-52h81v-36h-81v-81h-38v206zM562 209h-58v-169h-42v169
h-62v37h162v-37zM1367 246h163v-37h-64v-169h-39v169h-60v37zM1345 1233q17 -8 35.5 -19.5t34.5 -21.5h-319q35 28 74 41q39 17 86 17t89 -17zM1170 810q-19 7 -37 18t-35 24h317q-16 -13 -34.5 -24t-35.5 -18q-23 -6 -45 -10.5t-44 -4.5q-24 0 -44.5 4.5t-41.5 10.5z
M550 566l-46 64q3 0 4 1l8 3q7 3 8 9q8 6 8 11v24q0 1 -2 5q-4 9 -10 14q-5 8 -14 8q-4 6 -16 6h-55v-145h23v60h23l39 -52q1 -4 7 -6q2 -2 3 -2h20zM1151 566l-66 145h-21l-65 -145h11q6 0 10 2q0 2 6 6l10 25h76l11 -25q3 -5 6 -6q2 -2 8 -2h14zM1900 676q3 -2 7.5 -7.5
t5.5 -10.5q4 -7 4 -21q0 -12 -4 -21q-1 -4 -5.5 -8.5t-7.5 -6.5q-5 -4 -9 -6.5t-8 -6.5q-9 -4 -22 -4q-15 0 -22 4q-6 4 -10.5 6.5t-8.5 6.5q-4 2 -7 6.5t-3 8.5q-6 10 -6 21q0 10 6 21q0 5 3 10.5t7 7.5q6 6 19 11q9 4 22 4q11 0 22 -4zM789 676q6 -2 8.5 -7.5t4.5 -10.5
q4 -7 4 -21q0 -10 -4 -21q-2 -4 -4.5 -8.5t-8.5 -6.5q-5 -6 -17 -13q-4 -2 -10 -3t-12 -1q-11 0 -22 4q-5 4 -9.5 6.5t-8.5 6.5q-2 2 -6 6.5t-6 8.5q-4 11 -4 21q0 12 4 21q2 5 6 10.5t6 7.5q6 6 18 11q5 2 12 3t10 1q13 0 22 -4q11 -4 17 -11zM291 647q5 12 5 18q0 9 -5 18
q0 2 -4 6l-7 6q-2 3 -5 6.5t-9 3.5q-2 4 -8 5t-10 1h-52v-145h17v55h35q4 0 10 0.5t8 2.5q10 4 14 10q11 5 11 13zM2183 311h30q5 2 7 3t4 5q2 0 14 5l3 6q1 1 1.5 2t2.5 2q0 3 2.5 7.5t2.5 8.5v32q-2 6 -6 10t-6 7q-7 2 -10.5 5t-7.5 7h-42q-7 -4 -10.5 -7t-8.5 -5
q-8 -6 -12 -17q-2 -8 -2 -12v-20q0 -4 1 -8.5t4 -7.5q2 -2 4.5 -4t4.5 -6l6 -3q2 -2 4 -2q4 -4 7.5 -5t6.5 -3zM1554 382q-3 -6 -4 -11.5t-1 -7.5v-8q0 -3 2 -5q0 -8 5 -16q0 -2 2 -4t4 -6l6 -3q2 -2 9 -2q2 -4 6 -5t6 -3h27q5 2 8 3t7 5l6 2l4 3q2 4 4.5 6t2.5 4q3 3 4 7.5
t3 8.5q0 2 1 5.5t1 7.5q0 2 -1 7.5t-5 11.5q0 6 -4 10t-6 7q-3 1 -8 6l-10 6h-42q-7 -7 -19 -12q-2 -3 -5 -7t-3 -10zM2093 711h-21v-112l-3 5l-3 4l-73 97l-3 6h-24v-145h22v114l2 -2l86 -112h17v145zM982 711h-18v-112l-2 4q-2 6 -2 5l-73 97q-5 0 -6 6h-24v-145h20v117h2
l2 -1v-4l85 -112h16v145zM2081 357q-4 -1 -7 -2l-6 -2l45 -56h-12l-6 2q-4 0 -4 7l-38 47h-28v-56h-15v130h56q4 0 10 -2q2 -2 5.5 -4.5t4.5 -4.5q5 -2 6 -5.5t7 -7.5v-25q-4 -4 -5 -7.5t-3 -5.5zM1322 357q-3 -3 -12 -4l47 -56h-15q-3 0 -3 2q-7 0 -7 7l-37 47h-28v-56h-13
v130h55q1 0 7 -2q8 -1 16 -9q0 -2 3.5 -5.5t3.5 -7.5q2 -2 2 -6v-13q0 -2 -2 -6q0 -9 -4 -13l-6 -4q-3 -3 -7 -4zM405 711h-95v-145h95v20h-72v44h58v17h-58v42h72v22zM1695 711h-93v-145h93v20h-70v44h58v17h-58v42h70v22zM2421 425q6 2 5 2h13v-130h-11v106l-3 -2v-2
q-4 -7 -6.5 -16t-7.5 -13q-4 -7 -6.5 -12.5t-7.5 -13.5q-2 -8 -3 -14t-5 -9q-3 -8 -6.5 -12.5t-5.5 -11.5h-15q-9 12 -14 24.5t-11 26.5q-4 11 -11.5 24.5t-11.5 26.5v2h-4v-104h-14v130h14q4 0 6 -2l2 -2v-5l49 -99q0 -4 2 -4l1 2v4q0 1 7 5l40 92q2 5 3 5t1 2zM1456 711
h-21v-97q0 -3 -2 -7q-2 -8 -9 -12q0 -2 -4.5 -3.5t-6.5 -5.5l-8 -2h-9q-7 0 -13 2q-5 4 -8.5 5.5t-5.5 3.5l-10 12q0 3 -1 7t-1 10v87h-20v-87q0 -6 1 -10t1 -7q0 -8 6 -14q2 -6 9 -11l5 -6l8 -4q2 -2 6.5 -3t7.5 -3q4 0 7 -1t8 -1t8.5 1t10.5 1q2 2 5.5 3t6.5 3l13 10
q3 2 5 5t5 6q0 4 3 7t3 7v104zM653 592q2 5 3 8t1 8q0 10 -5 18t-12 13q-2 0 -3.5 2t-5.5 4l-4 2h-4q-1 0 -1 4q-8 0 -9 1q-7 2 -8.5 3t-6.5 3q-6 3 -8 3q-3 4 -3 6v15q0 1 1.5 2t1.5 3q2 0 4 1t4 1l6 2h9q2 -2 4 -2q7 0 8 -4q2 -2 4 -2h2q10 0 14 4l4 2q0 2 -2 4l-4 4
q-3 1 -5.5 3.5t-6.5 4.5q-2 0 -4 2t-5 4q-5 0 -7 0.5t-4 0.5q-6 0 -11.5 -0.5t-7.5 -0.5q-5 -2 -7 -4t-6 -4q-3 -5 -6.5 -7.5t-6.5 -6.5q0 -4 -2 -6.5t-2 -8.5q0 -7 4 -16l5 -7l5 -4q3 -2 7 -5t7 -3q8 -5 15 -5q1 -2 5.5 -2t6.5 -2l6 -2q2 0 4 -2t2 -3t2 -5q2 -2 2 -6v-9
q0 -2 -2 -4t-2 -4t-2 -3q-1 -3 -6 -5l-4 -1q-4 0 -7.5 -1t-4.5 -1q-4 0 -7.5 1t-5.5 1q-5 0 -5 6l-4 1q-4 4 -12 4h-5l-4 -2l-6 -2q0 -3 4 -3q0 -2 2 -4q0 -4 4 -4v-5h3q7 -7 16 -9t20 -2h8q4 0 12 2q4 2 8.5 4t6.5 5q12 5 13 15zM1572 592q7 7 7 16q0 20 -17 31q-6 4 -6 6
h-4q-1 0 -3 2h-4q-4 0 -5 4h-4q-2 0 -4 1q-2 2 -4 3t-7 3l-7 3q-2 1 -3 2l-2 2l-1 2q0 1 -1 3t-1 4q0 4 4 8q0 1 4 5q2 0 3 1t4 1q4 2 11 2l3 -1q2 -1 5 -1q3 -3 9 -4q6 -2 7 -2q7 0 8 4l6 2q0 2 -3 4t-5 4q0 1 -3 3.5t-5 4.5q-3 0 -5 2t-7 4h-6l-4 1q-6 0 -10 -0.5t-8 -0.5
l-14 -8l-6 -8l-5 -6q-1 -4 -3 -6.5t-2 -8.5q0 -4 2 -7.5t3 -8.5q2 -4 4.5 -6.5l4.5 -4.5q5 -2 7.5 -5t6.5 -3q8 -5 14 -5q4 -2 6.5 -2t5.5 -2q7 0 11 -4q2 -2 3.5 -3t1.5 -5q2 -2 2 -5v-9q0 -3 -2 -5q0 -5 -5 -7q-7 -4 -8 -5t-3 -1q-6 0 -7 -1t-5 -1q-2 0 -6 1t-6 1
q-3 1 -8 6l-2 1q-5 4 -10 4h-6q-2 0 -4 -2l-7 -2q2 -1 2 -2t3 -1q0 -2 1 -3l3 -3v-2q7 -5 8 -5q6 -7 14 -9t18 -2h11q2 0 12 2q2 2 5.5 4t7.5 5l6 7q3 3 4 8zM1714 297h-17v130h19q3 0 4 -4l72 -97q2 0 2 -4l3 -1v106h13v-130h-11l-81 106v4h-4v-110zM77 328q-5 4 -6 7.5
t-2 8.5q-2 6 -3 9.5t-1 9.5t4 15q1 4 2 9t6 9l4 6l5 7q2 2 6.5 4.5t6.5 4.5q5 5 9.5 6t9.5 3q3 0 8 1.5t10 1.5q15 0 28 -7q14 -5 21 -14q-2 -2 -4 -2v-4h-14q-3 2 -6.5 5t-7.5 3h-35l-21 -12q-11 -6 -12 -17q-2 -6 -3 -11.5t-1 -7.5q0 -9 4 -13q0 -4 0.5 -8.5t0.5 -7.5
l4 -4q4 -1 7 -6l7 -4q2 -1 7 -1q2 -4 5 -5t7 -3h32q2 2 7 3t9 5v27h-14v2q-2 0 -3 1l-3 3h-2q-1 1 -1 3v4h37v-48q-2 -5 -3.5 -6t-6.5 -6h-11q-4 -1 -7 -1.5t-6 -0.5h-33q-5 0 -9.5 2.5t-9.5 6.5q-2 0 -6.5 2.5t-6.5 6.5zM236 411v-41h55v-15h-55v-44h66v-14h-83v130h83v-16
h-66zM1153 411v-41h59v-15h-59v-44h67v-14h-83v130h83v-16h-67zM2337 711h-19q-4 0 -8 -4q-5 -5 -5 -9l-37 -44h-2q0 -2 -2 -2v2l-38 44q-1 6 -4 9q-4 4 -12 4h-17l57 -72v-2q0 -1 2 -1l2 -2v-68h21v66q2 0 2 2l3 3v2zM631 427v-79q0 -6 2 -9t5 -5q0 -6 3.5 -9t5.5 -4
q0 -2 4 -4t6 -4q6 -2 9 -2h15q2 0 6 2t7.5 4t6.5 4q5 2 9 13q4 3 4 14v79h14v-79q0 -12 -5 -22q-5 -11 -11 -15q-2 -5 -7 -8.5t-9 -3.5q-6 -1 -12 -1.5t-11 -0.5t-10.5 0.5t-13.5 1.5q-4 0 -16 12l-10 15q-1 6 -3.5 11t-2.5 11v79h14zM2218 586h-68v125h-21v-145h89v20z
M1251 586h-66v125h-20v-145h86v20zM1429 315q1 2 2 3.5t2 3.5q2 2 3 6t1 6q0 8 -2 10t-3 4t-3 4q-1 1 -7 3q-5 0 -7 2t-6 2q-3 0 -7 2l-6 4q-9 0 -13 7q-2 0 -3.5 3t-4.5 6v21q0 2 3 7q0 8 7 9l6 5l8 4q4 0 6.5 1.5t7.5 1.5l6 -2l5 -1q3 0 4 -1t5 -3q7 0 7 -7q4 0 6 -3l1 -2
l-2 -2q-6 -2 -10 -2h-6q-2 2 -2 4h-22q-9 0 -9 -2q-5 -7 -5 -8q-4 0 -4 -7q0 -5 4 -6q0 -5 3 -6q0 -2 3 -3l4 -1q4 -4 7 -4t7 -2q3 0 4 -1l3 -1q3 0 7 -5h4q2 0 4 -2h3q5 -4 7.5 -7t4.5 -4q1 -5 1.5 -9.5t0.5 -8.5v-10q0 -4 -4 -5q-4 -9 -10 -13q-3 -2 -7 -4.5t-6 -2.5
q-4 -2 -10 -2h-9q-9 0 -17 1t-13 8q-3 0 -4 2.5t-5 4.5v4l-2 2l4 2h7q1 0 3 -1t4 -1q4 -4 6.5 -5t4.5 -3h21q8 0 12 4zM1052 297l-58 130h6q6 0 8 -2t3 -2t3 -5l42 -97v-2l2 -6v6l2 2q6 13 13 25.5t12 23.5q4 14 9.5 25.5t12.5 22.5q0 5 1.5 5t1.5 2l6 2h11
q-8 -16 -15 -32.5t-16 -31.5q-4 -8 -7 -17l-6 -18l-15 -31h-16zM524 411v-46h59v-12h-59v-56h-16v130h84v-16h-68zM1928 411v-46h53v-12h-53v-56h-16v130h81v-16h-65zM865 427v-116h62v-14h-79v130h17zM365 297v114h-46v16h104v-16h-46v-114h-12zM772 427v-116h63v-14h-79
v130h16zM266 683q2 -1 3 -4t3 -5q3 -5 3 -9v-4q0 -3 -3 -7q-2 -2 -3 -4.5t-3 -2.5q-1 -3 -8 -8h-45v50h35q4 0 10 -2l4 -2zM1304 365q4 0 6 3q4 4 10 4l2 4q0 2 3 5q0 1 1 4t1 7q0 2 -1 3t-1 4q-3 2 -4 3t-1 5q-6 0 -10 4h-43v-46h37zM2068 368l4 3q1 1 4 1q5 7 5 9
q2 4 2 11q0 3 -2 7q0 1 -5 8q-3 0 -4 1l-4 3h-43v-46h35q3 0 8 3zM510 658l-4 -7q-2 0 -3 -2t-3 -2q-2 -2 -10 -2h-32v44h32q4 0 10 -2q2 0 3 -1l3 -3q1 -2 2 -3.5t2 -3.5q3 -2 3 -9q0 -6 -3 -9zM673 121l-26 64q0 2 -1 3l-1 2q0 4 -2 6v-6l-2 -2q-1 -1 -1 -3l-27 -64h60z
M1500 427v-130h-16v130h16zM1075 682v-4l27 -60h-57l28 60v5zM1727 77q7 0 7 -6q2 -2 2 -5v-4q0 -7 -2 -9q0 -5 -7 -9q-2 0 -5 -4h-18q-4 4 -9 4q0 3 -6 9q-2 2 -2 9v4q0 3 2 5l6 6q7 4 9 4q1 3 4 3h11q3 0 3 -3q4 0 5 -4z" />
    <glyph glyph-name="nine" unicode="9" 
d="M2439 1024v-550h-2367v550h897q0 28 5.5 55t19.5 50q12 27 26 49t36 39q39 39 91 58q26 11 53 16t56 5q32 0 60.5 -6t52.5 -15q27 -13 50.5 -27.5t44.5 -34.5q34 -34 60 -88q18 -50 18 -101h897zM1014 1119q-20 -45 -20 -95q0 -54 20 -99q10 -20 24 -40.5t30 -39.5
q38 -35 85 -54q46 -21 103 -21q61 0 103 19q47 19 82 54q21 18 34.5 38t24.5 41q21 49 21 102q0 20 -3.5 42t-11.5 44q-13 36 -42 68q-14 18 -29 31t-34 24q-18 7 -37 16.5t-39 16.5q-15 3 -32 6t-37 3q-59 0 -105 -23q-48 -16 -83 -54q-18 -17 -31 -37t-23 -42zM1123 877
l310 298q61 -73 61 -151q0 -22 -3 -42t-12 -39q-7 -18 -17 -34.5t-22 -31.5h-317zM1077 870q-14 17 -24.5 34.5t-18.5 36.5q-8 17 -11 38t-3 45q0 18 3 37.5t11 39.5q4 18 14 33.5t25 30.5h314zM2161 194q3 -4 5.5 -10t4.5 -13q5 -8 5 -14v-29q0 -6 -5 -11q-2 -7 -4.5 -14
t-5.5 -13q-6 -9 -16 -19q-13 -11 -25 -18q-5 -5 -12 -7t-13 -4q-4 -1 -7 -1.5t-7 -0.5h-17q-20 0 -42 6l-16 12l-8 6t-8 7q-9 6 -14.5 13.5t-7.5 19.5q-7 9 -8.5 18.5t-1.5 21.5q0 8 1 13.5t1 13.5q7 16 14 23q2 8 5.5 12.5t10.5 10.5q3 4 10 8t12 9q4 2 11 4t13 6
q10 0 16 1t12 1q10 0 17 -1t14 -1q6 -4 13 -6t12 -4l13 -9l12 -8q2 -6 8 -10.5t8 -12.5zM1117 194q2 -4 4 -10t6 -13q2 -10 2 -14v-29q0 -5 -2 -11q-4 -7 -6 -14t-4 -13q-5 -4 -10 -9.5t-9 -9.5q-5 -5 -10 -9.5t-11 -8.5q-7 -5 -14 -7t-13 -4q-10 -2 -15 -2h-15q-10 0 -20 2
t-22 4q-12 6 -19 12t-16 13q-16 13 -22 33q-3 9 -5.5 18.5t-2.5 21.5v13q0 6 3 14q4 16 11 23q4 8 8 12.5t8 10.5q7 4 12 8t11 9l28 10q5 0 11.5 1t14.5 1t15.5 -1t14.5 -1q6 -5 13 -6l14 -4l11 -9l10 -8q4 -6 9 -10.5t10 -12.5zM2395 244l1 1q1 1 6 1h37v-206h-37v150
l-5 -9v-6q0 -2 -2 -4l-13 -33l-15 -30q-7 -18 -12.5 -33.5t-14.5 -34.5h-35l-55 131q-5 3 -5 10q0 4 -1 4l-2 2v-147h-41v206h39q5 0 6.5 -1t3.5 -1q2 -2 3 -2t3 -2l8 -4q0 -2 2 -3.5t2 -3.5q4 -16 11 -30t15 -32q7 -15 12.5 -30.5t11.5 -28.5v-12q2 0 5 -4q0 4 1 4v12l9 13
l44 108q0 1 2 3l2 4q0 1 3 3l3 1q2 2 4 2t4 2zM1308 246h38v-206h-36l-98 138l-5 3v2q-3 4 -3 5q-4 1 -4 4q0 4 -5 4v-156h-38v206h34q4 0 8.5 -1t4.5 -3q3 -2 5.5 -2t4.5 -2l22 -31l10 -16t10 -17q13 -13 23.5 -27.5t24.5 -27.5q0 -2 1 -4.5t1 -6.5l1 -2l1 -3v143zM661 246
l93 -206h-24q-9 0 -16 4q-2 2 -4 6.5t-7 8.5l-12 25h-99l-9 -25q0 -6 -4 -6q-3 -5 -5 -5l-3 -4q-2 0 -3.5 -1t-5.5 -1q0 -2 -2 -2h-28l95 206h34zM256 246h137v-37h-99v-46h81v-38h-81v-48h99v-37h-137v206zM72 246h157v-23q0 -3 -1 -5q0 -3 -2 -5l-4 -4l-104 -134h1l2 2
h107v-37h-163v13q0 9 2 11q0 2 5 7v4l3 4q2 2 4 3.5t2 5.5l92 121h-101v37zM825 618q1 6 2 10t1 9q0 12 -3 21q0 5 -3.5 8.5t-5.5 9.5q-3 4 -12 13l-7 6q-2 3 -8 8l-19 8q-5 0 -9.5 0.5t-10.5 0.5q-3 0 -8.5 -0.5t-11.5 -0.5q-11 -4 -18 -8q-4 -5 -8 -7.5t-8 -6.5
q-11 -8 -12 -13q-5 -6 -6 -9.5t-3 -8.5q-1 -5 -1.5 -10t-0.5 -11q0 -5 2 -13t4 -14q2 -7 7 -12.5t10 -11.5q11 -14 25 -14q12 -6 29 -6h20q6 2 10.5 4t8.5 4q10 4 15 12q7 6 12 15q2 4 5.5 8.5t3.5 8.5zM1935 618v40q-2 5 -3.5 9t-3.5 9q-4 5 -15 13q-1 4 -5.5 6.5t-9.5 7.5
l-4 2t-5 2l-7 4q-7 0 -11.5 0.5t-9.5 0.5q-7 0 -11.5 -0.5t-8.5 -0.5q-6 -2 -11 -4l-10 -4q-4 -5 -7 -7.5t-7 -6.5l-12 -13q-2 -6 -4.5 -9.5t-2.5 -8.5q-5 -10 -5 -21q0 -5 2.5 -13t5.5 -14q5 -15 16 -24q8 -14 25 -14q12 -6 30 -6h21q3 2 8 4t8 4q5 3 9.5 5.5t5.5 6.5
q10 6 15 15zM1810 190q-7 -7 -13 -23q-7 -9 -7 -23q0 -8 2 -13.5t5 -11.5q2 -7 5.5 -13.5t7.5 -9.5q9 -9 23 -15q8 -2 13.5 -3t14.5 -1q5 0 9.5 1t11.5 1q3 2 8 4.5t8 6.5q3 0 9 2h12q3 0 9 -2q2 -1 7 -6l6 -7q-3 -4 -6 -7.5t-7 -7.5q-7 -3 -11.5 -6t-11.5 -6
q-7 -4 -11.5 -5t-10.5 -3q-8 -2 -12 -2h-10q-12 0 -23.5 2t-21.5 4q-19 9 -34 25q-16 13 -22 33q-4 9 -7 18.5t-3 21.5q0 8 1 13.5t4 13.5q2 16 9 23q6 8 9 12.5t9 10.5q6 4 12.5 8t11.5 9q4 2 10 4t17 6q6 0 12.5 1t15.5 1h12q2 0 10 -2q6 -2 10.5 -3t11.5 -3l23 -13
q4 -4 7 -8l6 -8l-6 -7q-2 -1 -5 -4l-2 -4h-15q-6 0 -15 4q-3 2 -8 4.5t-8 4.5q-10 2 -12 2h-9q-16 0 -28 -6q-16 -2 -23 -13zM1663 141q4 -5 7.5 -9t3.5 -7q5 -8 5 -19q0 -14 -7 -27l-9 -12q-3 -5 -8 -8q-7 -6 -11.5 -9.5t-12.5 -5.5q-6 -2 -14 -3t-15 -1q-12 0 -32 4
q-10 4 -21 18q-3 1 -7 5l-4 8q-6 1 -6 9l6 4q2 2 4 2h5l2 2h9q4 0 4 -2q8 0 10 -2q5 -4 8.5 -5.5t6.5 -3.5q2 0 6 -1t9 -1h5q3 0 7 2q5 1 13 5q7 5 8 8q2 4 4 7t2 7q0 6 -6 9q-5 6 -8 6q-2 4 -6.5 5t-6.5 2q-5 0 -14 6q-5 0 -9 1t-10 6q-9 3 -13 6t-8 7q-11 4 -11 13
q-7 10 -7 23q0 18 7 25q1 4 5 10l8 9l10 4l12 6q7 0 11.5 1t13.5 1q4 0 8 -1t10 -1l16 -6q3 -4 6.5 -6.5t7.5 -6.5q3 -2 6.5 -5t3.5 -7l-7 -4l-6 -4q-3 -2 -3 -3h-18l-6 1q-3 1 -6 4q-2 0 -3.5 1t-3.5 1h-17q-2 0 -3 -1t-5 -3l-7 -5q-1 -3 -1 -10q0 -5 1 -5q2 -2 3.5 -4.5
t3.5 -6.5h6q1 0 5 -2l9 -3l10 -4l8 -2q6 -4 10 -5t9 -4q12 -5 17 -13zM1554 315q-12 7 -16 19q-6 13 -6 29v15l10 18l12 13q6 8 13 9q3 5 8.5 6t8.5 3q5 0 9 1.5t9 1.5q4 0 10.5 -1.5t10.5 -1.5q4 -2 8 -3t8 -6q2 -2 5.5 -4.5t6.5 -4.5l12 -13l9 -18q0 -4 1 -8.5t1 -6.5
q0 -6 -1 -13.5t-6 -15.5q-4 -12 -16 -19l-21 -16q-5 -1 -11.5 -1.5t-16.5 -0.5h-14q-5 0 -11 2q-16 4 -23 16zM2131 119q6 10 6 25t-6 23q-2 9 -6.5 14.5t-7.5 8.5q-10 10 -24 13q-5 4 -12 5t-17 1q-12 0 -25 -6q-11 -1 -23 -13q-4 -3 -8 -8.5t-8 -14.5q0 -4 -1 -9.5
t-1 -13.5t1 -13.5t1 -11.5q7 -14 16 -23q6 -4 11 -8t12 -7q7 -2 14 -3t11 -1q20 0 29 4q8 3 14 7t10 8q9 9 14 23zM2248 315q-6 -4 -12.5 -7.5t-11.5 -8.5q-8 -2 -12 -2h-30q-3 0 -6 0.5t-7 1.5q-10 4 -22 16q-7 7 -13 19q-7 19 -7 29q0 2 1 6.5t1 8.5q2 4 3.5 9t4.5 9
q2 3 5 6t5 7q5 4 17 9q3 5 8.5 6t7.5 3q5 0 8 1.5t11 1.5q2 0 7.5 -1.5t11.5 -1.5q4 -2 7.5 -3t5.5 -6l9 -5l8 -4q1 -2 2 -3.5t2 -3.5l4 -6q7 -8 8 -18q2 -4 3 -8.5t1 -6.5q0 -6 -1 -13.5t-5 -15.5q0 -6 -5 -10.5t-9 -8.5zM1087 119q4 11 4 25t-4 23q-4 16 -19 23q-2 6 -8 9
t-12 4q-12 6 -28 6q-14 0 -26 -6q-10 -1 -23 -13q-8 -5 -13 -23q-6 -5 -6 -10v-27q0 -5 6 -11q2 -7 5 -13.5t8 -9.5q7 -4 12 -8t11 -7q11 -4 26 -4q19 0 28 4q6 3 12 7t8 8q7 3 12 9.5t7 13.5zM762 246h137v-37h-99v-52h81v-36h-81v-81h-38v206zM562 209h-58v-169h-42v169
h-62v37h162v-37zM1367 246h163v-37h-64v-169h-39v169h-60v37zM1345 1233q17 -8 35.5 -19.5t34.5 -21.5h-319q35 28 74 41q39 17 86 17t89 -17zM1170 810q-19 7 -37 18t-35 24h317q-16 -13 -34.5 -24t-35.5 -18q-23 -6 -45 -10.5t-44 -4.5q-24 0 -44.5 4.5t-41.5 10.5z
M550 566l-46 64q3 0 4 1l8 3q7 3 8 9q8 6 8 11v24q0 1 -2 5q-4 9 -10 14q-5 8 -14 8q-4 6 -16 6h-55v-145h23v60h23l39 -52q1 -4 7 -6q2 -2 3 -2h20zM1151 566l-66 145h-21l-65 -145h11q6 0 10 2q0 2 6 6l10 25h76l11 -25q3 -5 6 -6q2 -2 8 -2h14zM1900 676q3 -2 7.5 -7.5
t5.5 -10.5q4 -7 4 -21q0 -12 -4 -21q-1 -4 -5.5 -8.5t-7.5 -6.5q-5 -4 -9 -6.5t-8 -6.5q-9 -4 -22 -4q-15 0 -22 4q-6 4 -10.5 6.5t-8.5 6.5q-4 2 -7 6.5t-3 8.5q-6 10 -6 21q0 10 6 21q0 5 3 10.5t7 7.5q6 6 19 11q9 4 22 4q11 0 22 -4zM789 676q6 -2 8.5 -7.5t4.5 -10.5
q4 -7 4 -21q0 -10 -4 -21q-2 -4 -4.5 -8.5t-8.5 -6.5q-5 -6 -17 -13q-4 -2 -10 -3t-12 -1q-11 0 -22 4q-5 4 -9.5 6.5t-8.5 6.5q-2 2 -6 6.5t-6 8.5q-4 11 -4 21q0 12 4 21q2 5 6 10.5t6 7.5q6 6 18 11q5 2 12 3t10 1q13 0 22 -4q11 -4 17 -11zM291 647q5 12 5 18q0 9 -5 18
q0 2 -4 6l-7 6q-2 3 -5 6.5t-9 3.5q-2 4 -8 5t-10 1h-52v-145h17v55h35q4 0 10 0.5t8 2.5q10 4 14 10q11 5 11 13zM2183 311h30q5 2 7 3t4 5q2 0 14 5l3 6q1 1 1.5 2t2.5 2q0 3 2.5 7.5t2.5 8.5v32q-2 6 -6 10t-6 7q-7 2 -10.5 5t-7.5 7h-42q-7 -4 -10.5 -7t-8.5 -5
q-8 -6 -12 -17q-2 -8 -2 -12v-20q0 -4 1 -8.5t4 -7.5q2 -2 4.5 -4t4.5 -6l6 -3q2 -2 4 -2q4 -4 7.5 -5t6.5 -3zM1554 382q-3 -6 -4 -11.5t-1 -7.5v-8q0 -3 2 -5q0 -8 5 -16q0 -2 2 -4t4 -6l6 -3q2 -2 9 -2q2 -4 6 -5t6 -3h27q5 2 8 3t7 5l6 2l4 3q2 4 4.5 6t2.5 4q3 3 4 7.5
t3 8.5q0 2 1 5.5t1 7.5q0 2 -1 7.5t-5 11.5q0 6 -4 10t-6 7q-3 1 -8 6l-10 6h-42q-7 -7 -19 -12q-2 -3 -5 -7t-3 -10zM2093 711h-21v-112l-3 5l-3 4l-73 97l-3 6h-24v-145h22v114l2 -2l86 -112h17v145zM982 711h-18v-112l-2 4q-2 6 -2 5l-73 97q-5 0 -6 6h-24v-145h20v117h2
l2 -1v-4l85 -112h16v145zM2081 357q-4 -1 -7 -2l-6 -2l45 -56h-12l-6 2q-4 0 -4 7l-38 47h-28v-56h-15v130h56q4 0 10 -2q2 -2 5.5 -4.5t4.5 -4.5q5 -2 6 -5.5t7 -7.5v-25q-4 -4 -5 -7.5t-3 -5.5zM1322 357q-3 -3 -12 -4l47 -56h-15q-3 0 -3 2q-7 0 -7 7l-37 47h-28v-56h-13
v130h55q1 0 7 -2q8 -1 16 -9q0 -2 3.5 -5.5t3.5 -7.5q2 -2 2 -6v-13q0 -2 -2 -6q0 -9 -4 -13l-6 -4q-3 -3 -7 -4zM405 711h-95v-145h95v20h-72v44h58v17h-58v42h72v22zM1695 711h-93v-145h93v20h-70v44h58v17h-58v42h70v22zM2421 425q6 2 5 2h13v-130h-11v106l-3 -2v-2
q-4 -7 -6.5 -16t-7.5 -13q-4 -7 -6.5 -12.5t-7.5 -13.5q-2 -8 -3 -14t-5 -9q-3 -8 -6.5 -12.5t-5.5 -11.5h-15q-9 12 -14 24.5t-11 26.5q-4 11 -11.5 24.5t-11.5 26.5v2h-4v-104h-14v130h14q4 0 6 -2l2 -2v-5l49 -99q0 -4 2 -4l1 2v4q0 1 7 5l40 92q2 5 3 5t1 2zM1456 711
h-21v-97q0 -3 -2 -7q-2 -8 -9 -12q0 -2 -4.5 -3.5t-6.5 -5.5l-8 -2h-9q-7 0 -13 2q-5 4 -8.5 5.5t-5.5 3.5l-10 12q0 3 -1 7t-1 10v87h-20v-87q0 -6 1 -10t1 -7q0 -8 6 -14q2 -6 9 -11l5 -6l8 -4q2 -2 6.5 -3t7.5 -3q4 0 7 -1t8 -1t8.5 1t10.5 1q2 2 5.5 3t6.5 3l13 10
q3 2 5 5t5 6q0 4 3 7t3 7v104zM653 592q2 5 3 8t1 8q0 10 -5 18t-12 13q-2 0 -3.5 2t-5.5 4l-4 2h-4q-1 0 -1 4q-8 0 -9 1q-7 2 -8.5 3t-6.5 3q-6 3 -8 3q-3 4 -3 6v15q0 1 1.5 2t1.5 3q2 0 4 1t4 1l6 2h9q2 -2 4 -2q7 0 8 -4q2 -2 4 -2h2q10 0 14 4l4 2q0 2 -2 4l-4 4
q-3 1 -5.5 3.5t-6.5 4.5q-2 0 -4 2t-5 4q-5 0 -7 0.5t-4 0.5q-6 0 -11.5 -0.5t-7.5 -0.5q-5 -2 -7 -4t-6 -4q-3 -5 -6.5 -7.5t-6.5 -6.5q0 -4 -2 -6.5t-2 -8.5q0 -7 4 -16l5 -7l5 -4q3 -2 7 -5t7 -3q8 -5 15 -5q1 -2 5.5 -2t6.5 -2l6 -2q2 0 4 -2t2 -3t2 -5q2 -2 2 -6v-9
q0 -2 -2 -4t-2 -4t-2 -3q-1 -3 -6 -5l-4 -1q-4 0 -7.5 -1t-4.5 -1q-4 0 -7.5 1t-5.5 1q-5 0 -5 6l-4 1q-4 4 -12 4h-5l-4 -2l-6 -2q0 -3 4 -3q0 -2 2 -4q0 -4 4 -4v-5h3q7 -7 16 -9t20 -2h8q4 0 12 2q4 2 8.5 4t6.5 5q12 5 13 15zM1572 592q7 7 7 16q0 20 -17 31q-6 4 -6 6
h-4q-1 0 -3 2h-4q-4 0 -5 4h-4q-2 0 -4 1q-2 2 -4 3t-7 3l-7 3q-2 1 -3 2l-2 2l-1 2q0 1 -1 3t-1 4q0 4 4 8q0 1 4 5q2 0 3 1t4 1q4 2 11 2l3 -1q2 -1 5 -1q3 -3 9 -4q6 -2 7 -2q7 0 8 4l6 2q0 2 -3 4t-5 4q0 1 -3 3.5t-5 4.5q-3 0 -5 2t-7 4h-6l-4 1q-6 0 -10 -0.5t-8 -0.5
l-14 -8l-6 -8l-5 -6q-1 -4 -3 -6.5t-2 -8.5q0 -4 2 -7.5t3 -8.5q2 -4 4.5 -6.5l4.5 -4.5q5 -2 7.5 -5t6.5 -3q8 -5 14 -5q4 -2 6.5 -2t5.5 -2q7 0 11 -4q2 -2 3.5 -3t1.5 -5q2 -2 2 -5v-9q0 -3 -2 -5q0 -5 -5 -7q-7 -4 -8 -5t-3 -1q-6 0 -7 -1t-5 -1q-2 0 -6 1t-6 1
q-3 1 -8 6l-2 1q-5 4 -10 4h-6q-2 0 -4 -2l-7 -2q2 -1 2 -2t3 -1q0 -2 1 -3l3 -3v-2q7 -5 8 -5q6 -7 14 -9t18 -2h11q2 0 12 2q2 2 5.5 4t7.5 5l6 7q3 3 4 8zM1714 297h-17v130h19q3 0 4 -4l72 -97q2 0 2 -4l3 -1v106h13v-130h-11l-81 106v4h-4v-110zM77 328q-5 4 -6 7.5
t-2 8.5q-2 6 -3 9.5t-1 9.5t4 15q1 4 2 9t6 9l4 6l5 7q2 2 6.5 4.5t6.5 4.5q5 5 9.5 6t9.5 3q3 0 8 1.5t10 1.5q15 0 28 -7q14 -5 21 -14q-2 -2 -4 -2v-4h-14q-3 2 -6.5 5t-7.5 3h-35l-21 -12q-11 -6 -12 -17q-2 -6 -3 -11.5t-1 -7.5q0 -9 4 -13q0 -4 0.5 -8.5t0.5 -7.5
l4 -4q4 -1 7 -6l7 -4q2 -1 7 -1q2 -4 5 -5t7 -3h32q2 2 7 3t9 5v27h-14v2q-2 0 -3 1l-3 3h-2q-1 1 -1 3v4h37v-48q-2 -5 -3.5 -6t-6.5 -6h-11q-4 -1 -7 -1.5t-6 -0.5h-33q-5 0 -9.5 2.5t-9.5 6.5q-2 0 -6.5 2.5t-6.5 6.5zM236 411v-41h55v-15h-55v-44h66v-14h-83v130h83v-16
h-66zM1153 411v-41h59v-15h-59v-44h67v-14h-83v130h83v-16h-67zM2337 711h-19q-4 0 -8 -4q-5 -5 -5 -9l-37 -44h-2q0 -2 -2 -2v2l-38 44q-1 6 -4 9q-4 4 -12 4h-17l57 -72v-2q0 -1 2 -1l2 -2v-68h21v66q2 0 2 2l3 3v2zM631 427v-79q0 -6 2 -9t5 -5q0 -6 3.5 -9t5.5 -4
q0 -2 4 -4t6 -4q6 -2 9 -2h15q2 0 6 2t7.5 4t6.5 4q5 2 9 13q4 3 4 14v79h14v-79q0 -12 -5 -22q-5 -11 -11 -15q-2 -5 -7 -8.5t-9 -3.5q-6 -1 -12 -1.5t-11 -0.5t-10.5 0.5t-13.5 1.5q-4 0 -16 12l-10 15q-1 6 -3.5 11t-2.5 11v79h14zM2218 586h-68v125h-21v-145h89v20z
M1251 586h-66v125h-20v-145h86v20zM1429 315q1 2 2 3.5t2 3.5q2 2 3 6t1 6q0 8 -2 10t-3 4t-3 4q-1 1 -7 3q-5 0 -7 2t-6 2q-3 0 -7 2l-6 4q-9 0 -13 7q-2 0 -3.5 3t-4.5 6v21q0 2 3 7q0 8 7 9l6 5l8 4q4 0 6.5 1.5t7.5 1.5l6 -2l5 -1q3 0 4 -1t5 -3q7 0 7 -7q4 0 6 -3l1 -2
l-2 -2q-6 -2 -10 -2h-6q-2 2 -2 4h-22q-9 0 -9 -2q-5 -7 -5 -8q-4 0 -4 -7q0 -5 4 -6q0 -5 3 -6q0 -2 3 -3l4 -1q4 -4 7 -4t7 -2q3 0 4 -1l3 -1q3 0 7 -5h4q2 0 4 -2h3q5 -4 7.5 -7t4.5 -4q1 -5 1.5 -9.5t0.5 -8.5v-10q0 -4 -4 -5q-4 -9 -10 -13q-3 -2 -7 -4.5t-6 -2.5
q-4 -2 -10 -2h-9q-9 0 -17 1t-13 8q-3 0 -4 2.5t-5 4.5v4l-2 2l4 2h7q1 0 3 -1t4 -1q4 -4 6.5 -5t4.5 -3h21q8 0 12 4zM1052 297l-58 130h6q6 0 8 -2t3 -2t3 -5l42 -97v-2l2 -6v6l2 2q6 13 13 25.5t12 23.5q4 14 9.5 25.5t12.5 22.5q0 5 1.5 5t1.5 2l6 2h11
q-8 -16 -15 -32.5t-16 -31.5q-4 -8 -7 -17l-6 -18l-15 -31h-16zM524 411v-46h59v-12h-59v-56h-16v130h84v-16h-68zM1928 411v-46h53v-12h-53v-56h-16v130h81v-16h-65zM865 427v-116h62v-14h-79v130h17zM365 297v114h-46v16h104v-16h-46v-114h-12zM772 427v-116h63v-14h-79
v130h16zM266 683q2 -1 3 -4t3 -5q3 -5 3 -9v-4q0 -3 -3 -7q-2 -2 -3 -4.5t-3 -2.5q-1 -3 -8 -8h-45v50h35q4 0 10 -2l4 -2zM1304 365q4 0 6 3q4 4 10 4l2 4q0 2 3 5q0 1 1 4t1 7q0 2 -1 3t-1 4q-3 2 -4 3t-1 5q-6 0 -10 4h-43v-46h37zM2068 368l4 3q1 1 4 1q5 7 5 9
q2 4 2 11q0 3 -2 7q0 1 -5 8q-3 0 -4 1l-4 3h-43v-46h35q3 0 8 3zM510 658l-4 -7q-2 0 -3 -2t-3 -2q-2 -2 -10 -2h-32v44h32q4 0 10 -2q2 0 3 -1l3 -3q1 -2 2 -3.5t2 -3.5q3 -2 3 -9q0 -6 -3 -9zM673 121l-26 64q0 2 -1 3l-1 2q0 4 -2 6v-6l-2 -2q-1 -1 -1 -3l-27 -64h60z
M1500 427v-130h-16v130h16zM1075 682v-4l27 -60h-57l28 60v5zM1727 77q7 0 7 -6q2 -2 2 -5v-4q0 -7 -2 -9q0 -5 -7 -9q-2 0 -5 -4h-18q-4 4 -9 4q0 3 -6 9q-2 2 -2 9v4q0 3 2 5l6 6q7 4 9 4q1 3 4 3h11q3 0 3 -3q4 0 5 -4z" />
    <glyph glyph-name="colon" unicode=":" horiz-adv-x="519" 
d="M72 1177q0 21 11.5 30.5t22.5 9.5h289q12 0 19 -4.5t11 -11t5.5 -13t1.5 -10.5v-238q0 -12 -5.5 -19.5t-12 -11.5t-13 -5.5t-7.5 -1.5h-285q-2 0 -8 1.5t-12.5 5.5t-11.5 11.5t-5 19.5v237zM72 275q0 21 11.5 30.5t22.5 9.5h289q12 0 19 -4.5t11 -11t5.5 -13t1.5 -10.5
v-238q0 -12 -5.5 -19.5t-12 -11.5t-13 -5.5t-7.5 -1.5h-285q-2 0 -8 1.5t-12.5 5.5t-11.5 11.5t-5 19.5v237z" />
    <glyph glyph-name="semicolon" unicode=";" horiz-adv-x="521" 
d="M72 1177q0 21 11.5 30.5t22.5 9.5h289q12 0 19 -4.5t11 -11t5.5 -13t1.5 -10.5v-238q0 -12 -5.5 -19.5t-12 -11.5t-13 -5.5t-7.5 -1.5h-285q-2 0 -8 1.5t-12.5 5.5t-11.5 11.5t-5 19.5v237zM73 256q0 35 16.5 47t35.5 12h252q30 0 43 -14t13 -42v-172q0 -79 -15 -133.5
t-37.5 -90.5t-47.5 -57.5t-44 -34.5q-11 -8 -26.5 -11t-35.5 12l-52 43q-13 10 -15.5 19.5t0.5 18t9 14.5l10 10q31 26 44.5 55t13.5 46q0 4 -1.5 13t-10.5 9h-105q-17 0 -32 12.5t-15 38.5v205z" />
    <glyph glyph-name="less" unicode="&#x3c;" horiz-adv-x="606" 
d="M24 558q0 9 3.5 13t9.5 12l301 388q3 5 11 8.5t21 -6.5l195 -147q8 -7 6.5 -18.5t-7.5 -19.5l-196 -232l197 -233q16 -20 -1 -34l-194 -145q-14 -11 -21.5 -7t-10.5 9l-302 388l-9 12t-3 12z" />
    <glyph glyph-name="equal" unicode="=" horiz-adv-x="709" 
d="M42 534q0 14 11 23t20 9h562q12 0 22 -8t10 -22v-199q0 -14 -12 -22t-22 -8h-562q-2 0 -6.5 1.5t-9.5 5.5t-9 9.5t-4 13.5v197zM42 934q0 14 11 23t20 9h562q12 0 22 -8t10 -22v-199q0 -14 -12 -22t-22 -8h-562q-2 0 -6.5 1.5t-9.5 5.5t-9 9.5t-4 13.5v197z" />
    <glyph glyph-name="greater" unicode="&#x3e;" horiz-adv-x="686" 
d="M638 558q0 -8 -3 -12t-8 -12l-303 -388q-3 -5 -10 -9t-21 7l-194 145q-19 15 -1 34l195 233l-194 232q-7 8 -8.5 19.5t7.5 18.5l195 147q13 10 20.5 6.5t10.5 -8.5l302 -388q5 -8 8.5 -12t3.5 -13z" />
    <glyph glyph-name="question" unicode="?" horiz-adv-x="1009" 
d="M665 450q0 -29 -6.5 -43.5t-39.5 -15.5l-261 -2q-15 0 -22.5 5t-10 13t-2.5 18.5v22.5v111q0 35 6.5 66.5t23 63t44 64.5t70.5 71q38 33 65.5 94.5t27.5 138.5v5q0 20 -16 34.5t-39 14.5t-39.5 -14t-16.5 -34v-82q0 -37 -8.5 -46t-33.5 -9h-314q-17 0 -24 11t-7 28v98
q0 80 34.5 150.5t94 123t139.5 83t172 30.5q93 0 174.5 -30t141.5 -82.5t94.5 -123t34.5 -151.5v-19q0 -50 -14.5 -96.5t-37 -89t-50.5 -81t-54.5 -71.5t-49.5 -60.5t-35 -48.5q-6 -11 -13.5 -22.5t-13.5 -26.5t-10 -34.5t-4 -45.5v-18zM315 275q0 21 11.5 30.5t22.5 9.5
h288q12 0 19.5 -4.5t11 -11t5 -13t1.5 -10.5v-238q0 -12 -5.5 -19.5t-12 -11.5t-13 -5.5t-7.5 -1.5h-284q-3 0 -9 1.5t-12 5.5t-11 11.5t-5 19.5v237z" />
    <glyph glyph-name="at" unicode="@" 
d="M2439 1024v-550h-2367v550h897q0 28 5.5 55t19.5 50q12 27 26 49t36 39q39 39 91 58q26 11 53 16t56 5q32 0 60.5 -6t52.5 -15q27 -13 50.5 -27.5t44.5 -34.5q34 -34 60 -88q18 -50 18 -101h897zM1014 1119q-20 -45 -20 -95q0 -54 20 -99q10 -20 24 -40.5t30 -39.5
q38 -35 85 -54q46 -21 103 -21q61 0 103 19q47 19 82 54q21 18 34.5 38t24.5 41q21 49 21 102q0 20 -3.5 42t-11.5 44q-13 36 -42 68q-14 18 -29 31t-34 24q-18 7 -37 16.5t-39 16.5q-15 3 -32 6t-37 3q-59 0 -105 -23q-48 -16 -83 -54q-18 -17 -31 -37t-23 -42zM1123 877
l310 298q61 -73 61 -151q0 -22 -3 -42t-12 -39q-7 -18 -17 -34.5t-22 -31.5h-317zM1077 870q-14 17 -24.5 34.5t-18.5 36.5q-8 17 -11 38t-3 45q0 18 3 37.5t11 39.5q4 18 14 33.5t25 30.5h314zM2161 194q3 -4 5.5 -10t4.5 -13q5 -8 5 -14v-29q0 -6 -5 -11q-2 -7 -4.5 -14
t-5.5 -13q-6 -9 -16 -19q-13 -11 -25 -18q-5 -5 -12 -7t-13 -4q-4 -1 -7 -1.5t-7 -0.5h-17q-20 0 -42 6l-16 12l-8 6t-8 7q-9 6 -14.5 13.5t-7.5 19.5q-7 9 -8.5 18.5t-1.5 21.5q0 8 1 13.5t1 13.5q7 16 14 23q2 8 5.5 12.5t10.5 10.5q3 4 10 8t12 9q4 2 11 4t13 6
q10 0 16 1t12 1q10 0 17 -1t14 -1q6 -4 13 -6t12 -4l13 -9l12 -8q2 -6 8 -10.5t8 -12.5zM1117 194q2 -4 4 -10t6 -13q2 -10 2 -14v-29q0 -5 -2 -11q-4 -7 -6 -14t-4 -13q-5 -4 -10 -9.5t-9 -9.5q-5 -5 -10 -9.5t-11 -8.5q-7 -5 -14 -7t-13 -4q-10 -2 -15 -2h-15q-10 0 -20 2
t-22 4q-12 6 -19 12t-16 13q-16 13 -22 33q-3 9 -5.5 18.5t-2.5 21.5v13q0 6 3 14q4 16 11 23q4 8 8 12.5t8 10.5q7 4 12 8t11 9l28 10q5 0 11.5 1t14.5 1t15.5 -1t14.5 -1q6 -5 13 -6l14 -4l11 -9l10 -8q4 -6 9 -10.5t10 -12.5zM2395 244l1 1q1 1 6 1h37v-206h-37v150
l-5 -9v-6q0 -2 -2 -4l-13 -33l-15 -30q-7 -18 -12.5 -33.5t-14.5 -34.5h-35l-55 131q-5 3 -5 10q0 4 -1 4l-2 2v-147h-41v206h39q5 0 6.5 -1t3.5 -1q2 -2 3 -2t3 -2l8 -4q0 -2 2 -3.5t2 -3.5q4 -16 11 -30t15 -32q7 -15 12.5 -30.5t11.5 -28.5v-12q2 0 5 -4q0 4 1 4v12l9 13
l44 108q0 1 2 3l2 4q0 1 3 3l3 1q2 2 4 2t4 2zM1308 246h38v-206h-36l-98 138l-5 3v2q-3 4 -3 5q-4 1 -4 4q0 4 -5 4v-156h-38v206h34q4 0 8.5 -1t4.5 -3q3 -2 5.5 -2t4.5 -2l22 -31l10 -16t10 -17q13 -13 23.5 -27.5t24.5 -27.5q0 -2 1 -4.5t1 -6.5l1 -2l1 -3v143zM661 246
l93 -206h-24q-9 0 -16 4q-2 2 -4 6.5t-7 8.5l-12 25h-99l-9 -25q0 -6 -4 -6q-3 -5 -5 -5l-3 -4q-2 0 -3.5 -1t-5.5 -1q0 -2 -2 -2h-28l95 206h34zM256 246h137v-37h-99v-46h81v-38h-81v-48h99v-37h-137v206zM72 246h157v-23q0 -3 -1 -5q0 -3 -2 -5l-4 -4l-104 -134h1l2 2
h107v-37h-163v13q0 9 2 11q0 2 5 7v4l3 4q2 2 4 3.5t2 5.5l92 121h-101v37zM825 618q1 6 2 10t1 9q0 12 -3 21q0 5 -3.5 8.5t-5.5 9.5q-3 4 -12 13l-7 6q-2 3 -8 8l-19 8q-5 0 -9.5 0.5t-10.5 0.5q-3 0 -8.5 -0.5t-11.5 -0.5q-11 -4 -18 -8q-4 -5 -8 -7.5t-8 -6.5
q-11 -8 -12 -13q-5 -6 -6 -9.5t-3 -8.5q-1 -5 -1.5 -10t-0.5 -11q0 -5 2 -13t4 -14q2 -7 7 -12.5t10 -11.5q11 -14 25 -14q12 -6 29 -6h20q6 2 10.5 4t8.5 4q10 4 15 12q7 6 12 15q2 4 5.5 8.5t3.5 8.5zM1935 618v40q-2 5 -3.5 9t-3.5 9q-4 5 -15 13q-1 4 -5.5 6.5t-9.5 7.5
l-4 2t-5 2l-7 4q-7 0 -11.5 0.5t-9.5 0.5q-7 0 -11.5 -0.5t-8.5 -0.5q-6 -2 -11 -4l-10 -4q-4 -5 -7 -7.5t-7 -6.5l-12 -13q-2 -6 -4.5 -9.5t-2.5 -8.5q-5 -10 -5 -21q0 -5 2.5 -13t5.5 -14q5 -15 16 -24q8 -14 25 -14q12 -6 30 -6h21q3 2 8 4t8 4q5 3 9.5 5.5t5.5 6.5
q10 6 15 15zM1810 190q-7 -7 -13 -23q-7 -9 -7 -23q0 -8 2 -13.5t5 -11.5q2 -7 5.5 -13.5t7.5 -9.5q9 -9 23 -15q8 -2 13.5 -3t14.5 -1q5 0 9.5 1t11.5 1q3 2 8 4.5t8 6.5q3 0 9 2h12q3 0 9 -2q2 -1 7 -6l6 -7q-3 -4 -6 -7.5t-7 -7.5q-7 -3 -11.5 -6t-11.5 -6
q-7 -4 -11.5 -5t-10.5 -3q-8 -2 -12 -2h-10q-12 0 -23.5 2t-21.5 4q-19 9 -34 25q-16 13 -22 33q-4 9 -7 18.5t-3 21.5q0 8 1 13.5t4 13.5q2 16 9 23q6 8 9 12.5t9 10.5q6 4 12.5 8t11.5 9q4 2 10 4t17 6q6 0 12.5 1t15.5 1h12q2 0 10 -2q6 -2 10.5 -3t11.5 -3l23 -13
q4 -4 7 -8l6 -8l-6 -7q-2 -1 -5 -4l-2 -4h-15q-6 0 -15 4q-3 2 -8 4.5t-8 4.5q-10 2 -12 2h-9q-16 0 -28 -6q-16 -2 -23 -13zM1663 141q4 -5 7.5 -9t3.5 -7q5 -8 5 -19q0 -14 -7 -27l-9 -12q-3 -5 -8 -8q-7 -6 -11.5 -9.5t-12.5 -5.5q-6 -2 -14 -3t-15 -1q-12 0 -32 4
q-10 4 -21 18q-3 1 -7 5l-4 8q-6 1 -6 9l6 4q2 2 4 2h5l2 2h9q4 0 4 -2q8 0 10 -2q5 -4 8.5 -5.5t6.5 -3.5q2 0 6 -1t9 -1h5q3 0 7 2q5 1 13 5q7 5 8 8q2 4 4 7t2 7q0 6 -6 9q-5 6 -8 6q-2 4 -6.5 5t-6.5 2q-5 0 -14 6q-5 0 -9 1t-10 6q-9 3 -13 6t-8 7q-11 4 -11 13
q-7 10 -7 23q0 18 7 25q1 4 5 10l8 9l10 4l12 6q7 0 11.5 1t13.5 1q4 0 8 -1t10 -1l16 -6q3 -4 6.5 -6.5t7.5 -6.5q3 -2 6.5 -5t3.5 -7l-7 -4l-6 -4q-3 -2 -3 -3h-18l-6 1q-3 1 -6 4q-2 0 -3.5 1t-3.5 1h-17q-2 0 -3 -1t-5 -3l-7 -5q-1 -3 -1 -10q0 -5 1 -5q2 -2 3.5 -4.5
t3.5 -6.5h6q1 0 5 -2l9 -3l10 -4l8 -2q6 -4 10 -5t9 -4q12 -5 17 -13zM1554 315q-12 7 -16 19q-6 13 -6 29v15l10 18l12 13q6 8 13 9q3 5 8.5 6t8.5 3q5 0 9 1.5t9 1.5q4 0 10.5 -1.5t10.5 -1.5q4 -2 8 -3t8 -6q2 -2 5.5 -4.5t6.5 -4.5l12 -13l9 -18q0 -4 1 -8.5t1 -6.5
q0 -6 -1 -13.5t-6 -15.5q-4 -12 -16 -19l-21 -16q-5 -1 -11.5 -1.5t-16.5 -0.5h-14q-5 0 -11 2q-16 4 -23 16zM2131 119q6 10 6 25t-6 23q-2 9 -6.5 14.5t-7.5 8.5q-10 10 -24 13q-5 4 -12 5t-17 1q-12 0 -25 -6q-11 -1 -23 -13q-4 -3 -8 -8.5t-8 -14.5q0 -4 -1 -9.5
t-1 -13.5t1 -13.5t1 -11.5q7 -14 16 -23q6 -4 11 -8t12 -7q7 -2 14 -3t11 -1q20 0 29 4q8 3 14 7t10 8q9 9 14 23zM2248 315q-6 -4 -12.5 -7.5t-11.5 -8.5q-8 -2 -12 -2h-30q-3 0 -6 0.5t-7 1.5q-10 4 -22 16q-7 7 -13 19q-7 19 -7 29q0 2 1 6.5t1 8.5q2 4 3.5 9t4.5 9
q2 3 5 6t5 7q5 4 17 9q3 5 8.5 6t7.5 3q5 0 8 1.5t11 1.5q2 0 7.5 -1.5t11.5 -1.5q4 -2 7.5 -3t5.5 -6l9 -5l8 -4q1 -2 2 -3.5t2 -3.5l4 -6q7 -8 8 -18q2 -4 3 -8.5t1 -6.5q0 -6 -1 -13.5t-5 -15.5q0 -6 -5 -10.5t-9 -8.5zM1087 119q4 11 4 25t-4 23q-4 16 -19 23q-2 6 -8 9
t-12 4q-12 6 -28 6q-14 0 -26 -6q-10 -1 -23 -13q-8 -5 -13 -23q-6 -5 -6 -10v-27q0 -5 6 -11q2 -7 5 -13.5t8 -9.5q7 -4 12 -8t11 -7q11 -4 26 -4q19 0 28 4q6 3 12 7t8 8q7 3 12 9.5t7 13.5zM762 246h137v-37h-99v-52h81v-36h-81v-81h-38v206zM562 209h-58v-169h-42v169
h-62v37h162v-37zM1367 246h163v-37h-64v-169h-39v169h-60v37zM1345 1233q17 -8 35.5 -19.5t34.5 -21.5h-319q35 28 74 41q39 17 86 17t89 -17zM1170 810q-19 7 -37 18t-35 24h317q-16 -13 -34.5 -24t-35.5 -18q-23 -6 -45 -10.5t-44 -4.5q-24 0 -44.5 4.5t-41.5 10.5z
M550 566l-46 64q3 0 4 1l8 3q7 3 8 9q8 6 8 11v24q0 1 -2 5q-4 9 -10 14q-5 8 -14 8q-4 6 -16 6h-55v-145h23v60h23l39 -52q1 -4 7 -6q2 -2 3 -2h20zM1151 566l-66 145h-21l-65 -145h11q6 0 10 2q0 2 6 6l10 25h76l11 -25q3 -5 6 -6q2 -2 8 -2h14zM1900 676q3 -2 7.5 -7.5
t5.5 -10.5q4 -7 4 -21q0 -12 -4 -21q-1 -4 -5.5 -8.5t-7.5 -6.5q-5 -4 -9 -6.5t-8 -6.5q-9 -4 -22 -4q-15 0 -22 4q-6 4 -10.5 6.5t-8.5 6.5q-4 2 -7 6.5t-3 8.5q-6 10 -6 21q0 10 6 21q0 5 3 10.5t7 7.5q6 6 19 11q9 4 22 4q11 0 22 -4zM789 676q6 -2 8.5 -7.5t4.5 -10.5
q4 -7 4 -21q0 -10 -4 -21q-2 -4 -4.5 -8.5t-8.5 -6.5q-5 -6 -17 -13q-4 -2 -10 -3t-12 -1q-11 0 -22 4q-5 4 -9.5 6.5t-8.5 6.5q-2 2 -6 6.5t-6 8.5q-4 11 -4 21q0 12 4 21q2 5 6 10.5t6 7.5q6 6 18 11q5 2 12 3t10 1q13 0 22 -4q11 -4 17 -11zM291 647q5 12 5 18q0 9 -5 18
q0 2 -4 6l-7 6q-2 3 -5 6.5t-9 3.5q-2 4 -8 5t-10 1h-52v-145h17v55h35q4 0 10 0.5t8 2.5q10 4 14 10q11 5 11 13zM2183 311h30q5 2 7 3t4 5q2 0 14 5l3 6q1 1 1.5 2t2.5 2q0 3 2.5 7.5t2.5 8.5v32q-2 6 -6 10t-6 7q-7 2 -10.5 5t-7.5 7h-42q-7 -4 -10.5 -7t-8.5 -5
q-8 -6 -12 -17q-2 -8 -2 -12v-20q0 -4 1 -8.5t4 -7.5q2 -2 4.5 -4t4.5 -6l6 -3q2 -2 4 -2q4 -4 7.5 -5t6.5 -3zM1554 382q-3 -6 -4 -11.5t-1 -7.5v-8q0 -3 2 -5q0 -8 5 -16q0 -2 2 -4t4 -6l6 -3q2 -2 9 -2q2 -4 6 -5t6 -3h27q5 2 8 3t7 5l6 2l4 3q2 4 4.5 6t2.5 4q3 3 4 7.5
t3 8.5q0 2 1 5.5t1 7.5q0 2 -1 7.5t-5 11.5q0 6 -4 10t-6 7q-3 1 -8 6l-10 6h-42q-7 -7 -19 -12q-2 -3 -5 -7t-3 -10zM2093 711h-21v-112l-3 5l-3 4l-73 97l-3 6h-24v-145h22v114l2 -2l86 -112h17v145zM982 711h-18v-112l-2 4q-2 6 -2 5l-73 97q-5 0 -6 6h-24v-145h20v117h2
l2 -1v-4l85 -112h16v145zM2081 357q-4 -1 -7 -2l-6 -2l45 -56h-12l-6 2q-4 0 -4 7l-38 47h-28v-56h-15v130h56q4 0 10 -2q2 -2 5.5 -4.5t4.5 -4.5q5 -2 6 -5.5t7 -7.5v-25q-4 -4 -5 -7.5t-3 -5.5zM1322 357q-3 -3 -12 -4l47 -56h-15q-3 0 -3 2q-7 0 -7 7l-37 47h-28v-56h-13
v130h55q1 0 7 -2q8 -1 16 -9q0 -2 3.5 -5.5t3.5 -7.5q2 -2 2 -6v-13q0 -2 -2 -6q0 -9 -4 -13l-6 -4q-3 -3 -7 -4zM405 711h-95v-145h95v20h-72v44h58v17h-58v42h72v22zM1695 711h-93v-145h93v20h-70v44h58v17h-58v42h70v22zM2421 425q6 2 5 2h13v-130h-11v106l-3 -2v-2
q-4 -7 -6.5 -16t-7.5 -13q-4 -7 -6.5 -12.5t-7.5 -13.5q-2 -8 -3 -14t-5 -9q-3 -8 -6.5 -12.5t-5.5 -11.5h-15q-9 12 -14 24.5t-11 26.5q-4 11 -11.5 24.5t-11.5 26.5v2h-4v-104h-14v130h14q4 0 6 -2l2 -2v-5l49 -99q0 -4 2 -4l1 2v4q0 1 7 5l40 92q2 5 3 5t1 2zM1456 711
h-21v-97q0 -3 -2 -7q-2 -8 -9 -12q0 -2 -4.5 -3.5t-6.5 -5.5l-8 -2h-9q-7 0 -13 2q-5 4 -8.5 5.5t-5.5 3.5l-10 12q0 3 -1 7t-1 10v87h-20v-87q0 -6 1 -10t1 -7q0 -8 6 -14q2 -6 9 -11l5 -6l8 -4q2 -2 6.5 -3t7.5 -3q4 0 7 -1t8 -1t8.5 1t10.5 1q2 2 5.5 3t6.5 3l13 10
q3 2 5 5t5 6q0 4 3 7t3 7v104zM653 592q2 5 3 8t1 8q0 10 -5 18t-12 13q-2 0 -3.5 2t-5.5 4l-4 2h-4q-1 0 -1 4q-8 0 -9 1q-7 2 -8.5 3t-6.5 3q-6 3 -8 3q-3 4 -3 6v15q0 1 1.5 2t1.5 3q2 0 4 1t4 1l6 2h9q2 -2 4 -2q7 0 8 -4q2 -2 4 -2h2q10 0 14 4l4 2q0 2 -2 4l-4 4
q-3 1 -5.5 3.5t-6.5 4.5q-2 0 -4 2t-5 4q-5 0 -7 0.5t-4 0.5q-6 0 -11.5 -0.5t-7.5 -0.5q-5 -2 -7 -4t-6 -4q-3 -5 -6.5 -7.5t-6.5 -6.5q0 -4 -2 -6.5t-2 -8.5q0 -7 4 -16l5 -7l5 -4q3 -2 7 -5t7 -3q8 -5 15 -5q1 -2 5.5 -2t6.5 -2l6 -2q2 0 4 -2t2 -3t2 -5q2 -2 2 -6v-9
q0 -2 -2 -4t-2 -4t-2 -3q-1 -3 -6 -5l-4 -1q-4 0 -7.5 -1t-4.5 -1q-4 0 -7.5 1t-5.5 1q-5 0 -5 6l-4 1q-4 4 -12 4h-5l-4 -2l-6 -2q0 -3 4 -3q0 -2 2 -4q0 -4 4 -4v-5h3q7 -7 16 -9t20 -2h8q4 0 12 2q4 2 8.5 4t6.5 5q12 5 13 15zM1572 592q7 7 7 16q0 20 -17 31q-6 4 -6 6
h-4q-1 0 -3 2h-4q-4 0 -5 4h-4q-2 0 -4 1q-2 2 -4 3t-7 3l-7 3q-2 1 -3 2l-2 2l-1 2q0 1 -1 3t-1 4q0 4 4 8q0 1 4 5q2 0 3 1t4 1q4 2 11 2l3 -1q2 -1 5 -1q3 -3 9 -4q6 -2 7 -2q7 0 8 4l6 2q0 2 -3 4t-5 4q0 1 -3 3.5t-5 4.5q-3 0 -5 2t-7 4h-6l-4 1q-6 0 -10 -0.5t-8 -0.5
l-14 -8l-6 -8l-5 -6q-1 -4 -3 -6.5t-2 -8.5q0 -4 2 -7.5t3 -8.5q2 -4 4.5 -6.5l4.5 -4.5q5 -2 7.5 -5t6.5 -3q8 -5 14 -5q4 -2 6.5 -2t5.5 -2q7 0 11 -4q2 -2 3.5 -3t1.5 -5q2 -2 2 -5v-9q0 -3 -2 -5q0 -5 -5 -7q-7 -4 -8 -5t-3 -1q-6 0 -7 -1t-5 -1q-2 0 -6 1t-6 1
q-3 1 -8 6l-2 1q-5 4 -10 4h-6q-2 0 -4 -2l-7 -2q2 -1 2 -2t3 -1q0 -2 1 -3l3 -3v-2q7 -5 8 -5q6 -7 14 -9t18 -2h11q2 0 12 2q2 2 5.5 4t7.5 5l6 7q3 3 4 8zM1714 297h-17v130h19q3 0 4 -4l72 -97q2 0 2 -4l3 -1v106h13v-130h-11l-81 106v4h-4v-110zM77 328q-5 4 -6 7.5
t-2 8.5q-2 6 -3 9.5t-1 9.5t4 15q1 4 2 9t6 9l4 6l5 7q2 2 6.5 4.5t6.5 4.5q5 5 9.5 6t9.5 3q3 0 8 1.5t10 1.5q15 0 28 -7q14 -5 21 -14q-2 -2 -4 -2v-4h-14q-3 2 -6.5 5t-7.5 3h-35l-21 -12q-11 -6 -12 -17q-2 -6 -3 -11.5t-1 -7.5q0 -9 4 -13q0 -4 0.5 -8.5t0.5 -7.5
l4 -4q4 -1 7 -6l7 -4q2 -1 7 -1q2 -4 5 -5t7 -3h32q2 2 7 3t9 5v27h-14v2q-2 0 -3 1l-3 3h-2q-1 1 -1 3v4h37v-48q-2 -5 -3.5 -6t-6.5 -6h-11q-4 -1 -7 -1.5t-6 -0.5h-33q-5 0 -9.5 2.5t-9.5 6.5q-2 0 -6.5 2.5t-6.5 6.5zM236 411v-41h55v-15h-55v-44h66v-14h-83v130h83v-16
h-66zM1153 411v-41h59v-15h-59v-44h67v-14h-83v130h83v-16h-67zM2337 711h-19q-4 0 -8 -4q-5 -5 -5 -9l-37 -44h-2q0 -2 -2 -2v2l-38 44q-1 6 -4 9q-4 4 -12 4h-17l57 -72v-2q0 -1 2 -1l2 -2v-68h21v66q2 0 2 2l3 3v2zM631 427v-79q0 -6 2 -9t5 -5q0 -6 3.5 -9t5.5 -4
q0 -2 4 -4t6 -4q6 -2 9 -2h15q2 0 6 2t7.5 4t6.5 4q5 2 9 13q4 3 4 14v79h14v-79q0 -12 -5 -22q-5 -11 -11 -15q-2 -5 -7 -8.5t-9 -3.5q-6 -1 -12 -1.5t-11 -0.5t-10.5 0.5t-13.5 1.5q-4 0 -16 12l-10 15q-1 6 -3.5 11t-2.5 11v79h14zM2218 586h-68v125h-21v-145h89v20z
M1251 586h-66v125h-20v-145h86v20zM1429 315q1 2 2 3.5t2 3.5q2 2 3 6t1 6q0 8 -2 10t-3 4t-3 4q-1 1 -7 3q-5 0 -7 2t-6 2q-3 0 -7 2l-6 4q-9 0 -13 7q-2 0 -3.5 3t-4.5 6v21q0 2 3 7q0 8 7 9l6 5l8 4q4 0 6.5 1.5t7.5 1.5l6 -2l5 -1q3 0 4 -1t5 -3q7 0 7 -7q4 0 6 -3l1 -2
l-2 -2q-6 -2 -10 -2h-6q-2 2 -2 4h-22q-9 0 -9 -2q-5 -7 -5 -8q-4 0 -4 -7q0 -5 4 -6q0 -5 3 -6q0 -2 3 -3l4 -1q4 -4 7 -4t7 -2q3 0 4 -1l3 -1q3 0 7 -5h4q2 0 4 -2h3q5 -4 7.5 -7t4.5 -4q1 -5 1.5 -9.5t0.5 -8.5v-10q0 -4 -4 -5q-4 -9 -10 -13q-3 -2 -7 -4.5t-6 -2.5
q-4 -2 -10 -2h-9q-9 0 -17 1t-13 8q-3 0 -4 2.5t-5 4.5v4l-2 2l4 2h7q1 0 3 -1t4 -1q4 -4 6.5 -5t4.5 -3h21q8 0 12 4zM1052 297l-58 130h6q6 0 8 -2t3 -2t3 -5l42 -97v-2l2 -6v6l2 2q6 13 13 25.5t12 23.5q4 14 9.5 25.5t12.5 22.5q0 5 1.5 5t1.5 2l6 2h11
q-8 -16 -15 -32.5t-16 -31.5q-4 -8 -7 -17l-6 -18l-15 -31h-16zM524 411v-46h59v-12h-59v-56h-16v130h84v-16h-68zM1928 411v-46h53v-12h-53v-56h-16v130h81v-16h-65zM865 427v-116h62v-14h-79v130h17zM365 297v114h-46v16h104v-16h-46v-114h-12zM772 427v-116h63v-14h-79
v130h16zM266 683q2 -1 3 -4t3 -5q3 -5 3 -9v-4q0 -3 -3 -7q-2 -2 -3 -4.5t-3 -2.5q-1 -3 -8 -8h-45v50h35q4 0 10 -2l4 -2zM1304 365q4 0 6 3q4 4 10 4l2 4q0 2 3 5q0 1 1 4t1 7q0 2 -1 3t-1 4q-3 2 -4 3t-1 5q-6 0 -10 4h-43v-46h37zM2068 368l4 3q1 1 4 1q5 7 5 9
q2 4 2 11q0 3 -2 7q0 1 -5 8q-3 0 -4 1l-4 3h-43v-46h35q3 0 8 3zM510 658l-4 -7q-2 0 -3 -2t-3 -2q-2 -2 -10 -2h-32v44h32q4 0 10 -2q2 0 3 -1l3 -3q1 -2 2 -3.5t2 -3.5q3 -2 3 -9q0 -6 -3 -9zM673 121l-26 64q0 2 -1 3l-1 2q0 4 -2 6v-6l-2 -2q-1 -1 -1 -3l-27 -64h60z
M1500 427v-130h-16v130h16zM1075 682v-4l27 -60h-57l28 60v5zM1727 77q7 0 7 -6q2 -2 2 -5v-4q0 -7 -2 -9q0 -5 -7 -9q-2 0 -5 -4h-18q-4 4 -9 4q0 3 -6 9q-2 2 -2 9v4q0 3 2 5l6 6q7 4 9 4q1 3 4 3h11q3 0 3 -3q4 0 5 -4z" />
    <glyph glyph-name="A" unicode="A" horiz-adv-x="983" 
d="M1001 42q5 -21 1 -31.5t-21 -10.5h-328q-21 0 -36 10t-19 32l-13 115h-188l-13 -115q-3 -22 -18 -32t-36 -10h-328q-17 0 -21 10.5t1 31.5l311 1341q11 43 52 43h292q23 0 35 -11t18 -32zM435 486h112l-40 348l-16 182l-15 -182z" />
    <glyph glyph-name="B" unicode="B" horiz-adv-x="1001" 
d="M63 1383q0 43 43 43h407q99 0 179 -31t137 -84t87.5 -123t30.5 -147v-79q0 -42 -15 -79.5t-37.5 -67t-48 -49t-45.5 -26.5q19 -7 48 -27.5t55.5 -52.5t45.5 -75.5t19 -96.5v-133q0 -76 -36.5 -141t-96.5 -112.5t-135.5 -74.5t-153.5 -27h-441q-43 0 -43 42v1341zM434 575
v-223h92q20 0 37.5 12.5t17.5 34.5v128q0 17 -13.5 32.5t-42.5 15.5h-91zM434 1074v-190h80q26 0 40.5 11.5t14.5 45.5v77q0 32 -17 44t-38 12h-80z" />
    <glyph glyph-name="C" unicode="C" horiz-adv-x="970" 
d="M42 1063q0 84 32 155t91 122.5t143 80.5t188 29q120 0 203.5 -35t135 -91.5t75 -127t23.5 -141.5v-120q0 -26 -8.5 -37t-32.5 -11h-304q-22 0 -30 10t-7 32v113q0 8 -3.5 17.5t-10.5 18t-19 14.5t-28 6q-33 0 -46.5 -16t-13.5 -36v-660q0 -20 15.5 -39t50.5 -19
q17 0 28.5 5.5t18 13.5t9.5 18.5t3 20.5v151q0 23 7.5 32.5t28.5 9.5h307q24 0 32.5 -8t8.5 -31v-177q0 -95 -35 -167.5t-95 -121.5t-140.5 -73.5t-172.5 -24.5q-93 0 -175.5 25t-144.5 73.5t-98 121t-36 167.5v700v0z" />
    <glyph glyph-name="D" unicode="D" horiz-adv-x="1012" 
d="M63 1383q0 43 44 43h418q93 0 174 -23t141.5 -71t95 -121t34.5 -172v-652q0 -99 -34.5 -172t-94.5 -121t-141 -71t-173 -23h-420q-44 0 -44 42v1341zM531 352q22 2 36.5 15t14.5 33v622q0 17 -4.5 27t-11.5 15.5t-16 7.5t-19 2h-80v-722h80z" />
    <glyph glyph-name="E" unicode="E" horiz-adv-x="852" 
d="M63 1383q0 43 44 43h665q32 0 32 -43v-267q0 -42 -32 -42h-321v-186h239q38 0 38 -44v-265q0 -42 -38 -42h-239v-185h329q35 0 35 -42v-268q0 -42 -35 -42h-673q-44 0 -44 42v1341z" />
    <glyph glyph-name="F" unicode="F" horiz-adv-x="831" 
d="M63 1383q0 43 44 43h654q33 0 33 -43v-267q0 -42 -33 -42h-310v-206h228q38 0 38 -44v-265q0 -42 -38 -42h-228v-475q0 -42 -44 -42h-300q-44 0 -44 42v1341z" />
    <glyph glyph-name="G" unicode="G" horiz-adv-x="981" 
d="M42 1063q0 95 36 167.5t98 121t144.5 73.5t175.5 25q96 0 165.5 -21.5t118 -56t78.5 -78t46.5 -87.5t22.5 -84t6 -68v-110q0 -26 -8.5 -37t-32.5 -11h-306q-23 0 -30 10t-7 32v105q0 17 -14.5 35.5t-43.5 18.5q-23 0 -42 -14t-19 -34v-666q0 -13 6 -23.5t15.5 -17.5
t21 -11t23.5 -4q23 0 41 14t18 34v87h-44q-18 0 -25 11t-7 31v236q0 21 7 31.5t25 10.5h384q44 0 44 -42v-378q0 -96 -35 -168t-95 -121t-140.5 -73.5t-172.5 -24.5q-93 0 -175.5 24.5t-144.5 73.5t-98 121t-36 168v700v0z" />
    <glyph glyph-name="H" unicode="H" horiz-adv-x="1044" 
d="M63 1383q0 43 43 43h301q44 0 44 -43v-471h141v471q0 17 11 30t33 13h303q12 0 27 -7.5t15 -33.5v-1343q0 -42 -49 -42h-296q-44 0 -44 42v518h-141v-518q0 -42 -44 -42h-301q-43 0 -43 42v1341z" />
    <glyph glyph-name="I" unicode="I" horiz-adv-x="514" 
d="M63 1383q0 43 44 43h300q44 0 44 -43v-1341q0 -42 -44 -42h-300q-44 0 -44 42v1341z" />
    <glyph glyph-name="J" unicode="J" horiz-adv-x="831" 
d="M390 1385q0 14 4.5 22.5t10.5 12.5t11.5 5t7.5 1h307q23 0 35 -10.5t12 -39.5v-1014q0 -93 -33 -164.5t-91 -121t-137.5 -75t-171.5 -25.5q-44 0 -89 7.5t-88.5 24.5t-84 45t-76.5 69q-4 5 -9.5 14t-9 19.5t-3 22t8.5 20.5l155 181q18 21 38 19.5t37 -19.5q47 -51 99 -51
q42 0 54.5 17.5t12.5 42.5v997z" />
    <glyph glyph-name="K" unicode="K" horiz-adv-x="1038" 
d="M730 815l306 -770q9 -21 0 -33t-25 -12h-337q-41 0 -53 42l-121 369l-49 -88v-281q0 -42 -44 -42h-300q-44 0 -44 42v1341q0 43 44 43h300q44 0 44 -43v-332l159 342q10 25 24 29t39 4h354q9 0 12 -4.5t2 -11t-4.5 -14.5t-6.5 -15z" />
    <glyph glyph-name="L" unicode="L" horiz-adv-x="812" 
d="M63 1383q0 43 43 43h301q44 0 44 -43v-1031h291q18 0 25.5 -11t7.5 -31v-268q0 -21 -7.5 -31.5t-25.5 -10.5h-636q-43 0 -43 42v1341z" />
    <glyph glyph-name="M" unicode="M" horiz-adv-x="1349" 
d="M1286 42q0 -42 -34 -42h-294q-37 0 -35 42l5 602l10 86l-135 -497q-3 -13 -5.5 -21.5t-6.5 -13.5t-10.5 -7t-18.5 -2h-175q-12 0 -18.5 2t-10.5 7t-6.5 13.5t-5.5 21.5l-135 497l10 -86l5 -602q0 -42 -34 -42h-294q-35 0 -35 42v1341q2 21 9 32t25 11h379q22 0 26 -11
t10 -32l149 -576l13 -93l13 93l150 576q3 10 5 18.5t5.5 13.5t9.5 8t17 3h379q17 0 24 -11t9 -32v-1341z" />
    <glyph glyph-name="N" unicode="N" horiz-adv-x="1067" 
d="M63 1383q0 43 44 43h280q10 0 18 -3q31 -8 42 -40l183 -558l32 -138l-8 123l-19 573q-1 17 10.5 30t33.5 13h283q13 0 27.5 -7.5t14.5 -33.5v-1343q0 -42 -49 -42h-283q-21 0 -38 10t-24 32l-166 494l-38 133l10 -134l16 -493q1 -42 -45 -42h-280q-44 0 -44 42v1341z" />
    <glyph glyph-name="O" unicode="O" horiz-adv-x="991" 
d="M42 1063q0 95 36 167.5t98 121t144.5 73.5t174.5 25t174.5 -24.5t144.5 -73.5t98.5 -121t36.5 -168v-700q0 -96 -36.5 -168t-98.5 -121t-144 -73.5t-174 -24.5q-93 0 -175.5 26t-144.5 75.5t-98 121.5t-36 164v700zM430 386q0 -20 14.5 -39t51.5 -19q36 0 50.5 19
t14.5 39v654q0 20 -16.5 39t-48.5 19t-49 -19t-17 -39v-654z" />
    <glyph glyph-name="P" unicode="P" horiz-adv-x="991" 
d="M63 1383q0 43 44 43h410q92 0 172.5 -30t140.5 -82.5t95 -123t35 -151.5v-216q0 -81 -35 -153t-95 -126t-140.5 -86t-172.5 -32h-66v-384q0 -42 -43 -42h-301q-44 0 -44 42v1341zM517 778q23 0 38.5 12t15.5 32v207q0 23 -17 34t-38 11h-65v-296h66z" />
    <glyph glyph-name="Q" unicode="Q" horiz-adv-x="991" 
d="M42 1063q0 95 36 167.5t98 121t144.5 73.5t174.5 25t174.5 -24.5t144.5 -73.5t98.5 -121t36.5 -168v-700q0 -71 -20.5 -129t-56.5 -103t-85.5 -77t-108.5 -51v-186q0 -40 -34 -40h-300q-32 0 -32 40v188q-59 20 -108.5 53t-85.5 78t-56 102t-20 125v700zM430 386
q0 -20 14.5 -39t51.5 -19q36 0 50.5 19t14.5 39v654q0 20 -16.5 39t-48.5 19t-49 -19t-17 -39v-654z" />
    <glyph glyph-name="R" unicode="R" horiz-adv-x="1000" 
d="M63 1383q0 43 44 43h410q92 0 172.5 -32t140.5 -86t95 -126t35 -153v-176q0 -98 -36.5 -169.5t-93.5 -120.5l145 -521q5 -14 -0.5 -28t-22.5 -14h-330q-21 0 -28.5 8t-10.5 32l-82 406h-50v-404q0 -42 -43 -42h-301q-44 0 -44 42v1341zM451 1074v-276h66q23 0 38.5 12
t15.5 32v187q0 23 -17 34t-38 11h-65z" />
    <glyph glyph-name="S" unicode="S" horiz-adv-x="993" 
d="M56 429q0 35 7 47.5t35 12.5h296q30 0 37.5 -10t7.5 -39v-44q0 -20 5.5 -33.5t14.5 -21t21 -10.5t25 -3q21 0 40 13.5t19 43.5q0 20 -7 37.5t-21.5 35.5t-37.5 37.5t-54 42.5q-71 53 -127.5 94.5t-99.5 77.5t-73.5 71.5t-50 75.5t-28.5 89.5t-9 114.5q0 94 38.5 166.5
t100 122t138.5 75t155 25.5q94 0 174.5 -27.5t139 -80.5t91.5 -130t33 -177v-56q0 -26 -8.5 -34t-42.5 -8h-290q-24 0 -30.5 8.5t-6.5 34.5v53q0 65 -52 65q-28 0 -40 -15t-12 -33q0 -21 2 -36t12 -30.5t31.5 -33.5t61.5 -44q76 -49 148 -102.5t128.5 -118t90.5 -143.5
t34 -179q0 -80 -31.5 -150.5t-90.5 -123t-143 -83t-188 -30.5q-83 0 -148.5 17t-114.5 46.5t-83.5 68.5t-56 83t-31 90.5t-9.5 91.5v56z" />
    <glyph glyph-name="T" unicode="T" horiz-adv-x="895" 
d="M16 1383q0 43 34 43h793q17 0 26.5 -11t9.5 -32v-266q0 -21 -9.5 -32t-26.5 -11h-201v-1032q0 -42 -36 -42h-318q-35 0 -35 42v1032h-203q-34 0 -34 43v266z" />
    <glyph glyph-name="U" unicode="U" horiz-adv-x="1012" 
d="M441 386q0 -21 15 -39.5t51 -18.5t50 19t14 39v997q0 17 10.5 30t27.5 13h310q20 0 30.5 -13t10.5 -30v-1020q0 -81 -36.5 -151.5t-98.5 -123t-144.5 -82.5t-174.5 -30q-93 0 -175.5 30t-144.5 82.5t-98 123t-36 151.5v1020q0 17 9 30t22 13h323q23 0 29 -12.5t6 -30.5
v-997z" />
    <glyph glyph-name="V" unicode="V" horiz-adv-x="1039" 
d="M711 43q-6 -21 -18 -32t-35 -11h-271q-41 0 -52 43l-321 1341q-6 21 3.5 31.5t26.5 10.5h307q21 0 36 -10t18 -32l108 -752l10 -143l11 143l106 752q4 22 19 32t36 10h307q17 0 26 -10.5t4 -31.5z" />
    <glyph glyph-name="W" unicode="W" horiz-adv-x="1532" 
d="M711 43q-8 -43 -53 -43h-271q-41 0 -52 43l-321 1341q-6 21 -2 31.5t22 10.5h317q21 0 36 -10t18 -32l107 -720l10 -137l11 135l103 722q3 22 18.5 32t36.5 10h317q17 0 21 -10.5t-1 -31.5l-81 -327l61 -393l9 -128l11 128l105 720q3 22 18 32t37 10h317q17 0 21 -10.5
t-1 -31.5l-322 -1341q-11 -43 -52 -43h-270q-41 0 -53 43l-60 263l-9 118l-6 -118z" />
    <glyph glyph-name="X" unicode="X" horiz-adv-x="1077" 
d="M39 1383q-8 16 0 29.5t28 13.5h336q23 0 36 -11.5t19 -32.5l71 -295l9 -86l10 86l71 295q13 44 55 44h336q20 0 28 -13.5t0 -29.5l-287 -643l-8 -13l9 -16l295 -669q8 -20 -0.5 -31t-26.5 -11h-335q-23 0 -34.5 7t-20.5 36l-80 285l-13 78l-10 -79l-80 -284
q-8 -29 -20 -36t-34 -7h-335q-18 0 -27 11t-1 31l295 669l9 17l-7 12z" />
    <glyph glyph-name="Y" unicode="Y" horiz-adv-x="1045" 
d="M329 535l-306 848q-14 43 22 43h333q44 0 51 -43l76 -451l18 -190l18 190l77 451q9 43 52 43h337q36 0 20 -42l-310 -850v-492q0 -42 -36 -42h-317q-35 0 -35 42v493z" />
    <glyph glyph-name="Z" unicode="Z" horiz-adv-x="894" 
d="M815 1426q31 0 31 -38v-211v-2q-1 -7 -2.5 -12.5t-3.5 -8.5l-372 -751l-29 -40h403q28 0 28 -37v-289q0 -37 -28 -37h-780q-31 0 -31 37v210q0 16 4 24.5t7 15.5l353 762l25 38h-343q-29 0 -29 38v263q0 38 29 38h738z" />
    <glyph glyph-name="bracketleft" unicode="[" horiz-adv-x="674" 
d="M73 1547q0 14 9 23t26 9h488q11 0 21 -8t10 -22v-260q0 -14 -12 -22t-22 -8h-142v-1301h145q11 0 21 -8t10 -22v-260q0 -14 -12 -22t-22 -8h-487q-14 0 -23.5 7t-9.5 23v1879z" />
    <glyph glyph-name="backslash" unicode="\" horiz-adv-x="859" 
d="M20 1383q-8 21 -6 32t22 11h305q45 0 58 -43l444 -1341q7 -18 6.5 -30t-20.5 -12h-309q-46 0 -59 42z" />
    <glyph glyph-name="bracketright" unicode="]" horiz-adv-x="674" 
d="M627 -332q0 -16 -9.5 -23t-23.5 -7h-487q-10 0 -22 8t-12 22v260q0 14 10 22t21 8h145v1301h-142q-10 0 -22 8t-12 22v260q0 14 10 22t21 8h488q17 0 26 -9t9 -23v-1879v0z" />
    <glyph glyph-name="asciicircum" unicode="^" horiz-adv-x="764" 
d="M139.36 1076.56v323.427q0 6.52051 1.30469 7.82422q2.6084 1.30469 4.56445 1.95605q1.95605 0.652344 4.56348 0.652344h87.373q20.8652 0 36.5146 -7.8252q16.9531 -5.21582 29.9941 -18.2578q15.6484 -15.6494 20.8652 -28.6904q6.52051 -16.9541 6.52051 -35.2119
v-41.7324q0 -24.7783 -9.12891 -41.7324q-9.12891 -19.5625 -26.082 -29.9951l40.4268 -130.414v-1.30371q0 -3.91309 -2.6084 -5.2168q-2.60742 -2.6084 -5.21582 -2.6084h-50.8594q-2.6084 0 -5.21582 2.6084l-2.6084 6.52051l-27.3857 110.852h-37.8184v-110.852
q0 -9.12891 -10.4326 -9.12891h-44.3389q-10.4326 0 -10.4326 9.12891zM457.556 1072.65v3.91211l76.9404 324.73q2.6084 9.12891 10.4326 9.12891h44.3389q7.82422 0 10.4326 -9.12891l75.6357 -324.73q1.30469 -1.30371 1.30469 -3.91211q0 -5.2168 -5.2168 -5.2168
h-50.8584q-3.91211 0 -6.52051 2.6084q-3.91211 1.30371 -3.91211 6.52051l-9.12891 48.2529h-67.8115l-9.12891 -48.2529q-1.30371 -3.91211 -3.91211 -6.52051t-6.52051 -2.6084h-50.8594q-5.21582 0 -5.21582 5.2168zM-9.30371 1070.04
q-1.30469 1.30371 -1.30469 6.52051v275.173h-53.4668q-3.91211 0 -3.91211 1.30469q-2.6084 2.6084 -2.6084 6.52051v41.7324q0 5.2168 2.6084 6.52051q0 2.6084 3.91211 2.6084h169.53q2.60742 0 5.21582 -2.6084t2.6084 -6.52051v-41.7324q0 -1.30371 -2.6084 -6.52051
q-1.30371 -1.30469 -5.21582 -1.30469h-52.1631v-275.173q0 -9.12891 -7.8252 -9.12891h-49.5547q-2.6084 0 -5.21582 2.6084zM697.506 1076.56v323.427q0 5.21582 2.6084 7.82422q2.60742 2.6084 6.52051 2.6084h46.9463q3.91211 0 6.52051 -2.6084t2.6084 -7.82422
v-273.869h79.5479q7.8252 0 7.8252 -7.8252v-41.7324q0 -9.12891 -7.8252 -9.12891h-135.623q-9.12891 0 -9.12891 9.12891zM371.486 1076.56v323.427q0 6.52051 2.6084 7.82422q2.6084 2.6084 6.52051 2.6084h45.6426q3.91211 0 6.52051 -2.6084t2.6084 -7.82422v-323.427
q0 -9.12891 -9.12891 -9.12891h-45.6426q-9.12891 0 -9.12891 9.12891zM237.166 1246.1q14.3457 0 22.1699 7.8252q7.82422 9.12891 7.82422 22.1699v45.6445q0 13.042 -7.82422 20.8662q-10.4326 9.12891 -23.4736 9.12891h-31.2979v-105.635h32.6016zM590.571 1179.59
l-20.8652 125.197l-2.6084 32.6035l-2.60742 -32.6035l-22.1699 -125.197h48.251z" />
    <glyph glyph-name="underscore" unicode="_" horiz-adv-x="897" 
d="M72 -30q0 14 8.5 23t23.5 9h689q11 0 20.5 -8t9.5 -22v-202q0 -14 -10 -22t-22 -8h-689q-30 0 -30 30v200z" />
    <glyph glyph-name="grave" unicode="`" horiz-adv-x="337" 
d="M19 1271v248q0 5 1 6q4 2 6 2h67q15 0 29 -6q13 -5 23 -14q5 -5 9 -10.5t7 -11.5q5 -13 5 -27v-32q0 -19 -7 -32q-9 -15 -20 -23l30 -100v-1q0 -3 -1 -4q-2 -2 -4 -2h-39q-2 0 -4 2l-2 5l-21 85h-30v-85q0 -7 -7 -7h-35q-7 0 -7 7zM262 1268v3l59 249q2 7 9 7h33
q7 0 9 -7l57 -249q1 -1 1 -3q0 -4 -4 -4h-39q-3 0 -5 2q-3 1 -3 5l-6 37h-53l-6 -37q-1 -3 -3 -5t-5 -2h-39q-5 0 -5 4zM-96 1266q-1 1 -1 5v211h-41q-3 0 -3 1q-2 2 -2 5v32q0 4 2 5q0 2 3 2h131q2 0 4 -2t2 -5v-32q0 -1 -2 -5q-1 -1 -4 -1h-40v-211q0 -7 -7 -7h-37
q-3 0 -5 2zM446 1271v248q0 4 2 6t6 2h35q2 0 6 -2q2 -2 2 -6v-210h61q6 0 6 -6v-32q0 -7 -6 -7h-104q-8 0 -8 7zM196 1271v248q0 5 2 6q2 2 6 2h34q4 0 6 -2t2 -6v-248q0 -7 -8 -7h-34q-8 0 -8 7zM93 1401q11 0 17 6q7 9 7 17v35q0 9 -7 16t-18 7h-24v-81h25zM364 1350
l-15 96l-3 25l-2 -25l-16 -96h36z" />
    <glyph glyph-name="a" unicode="a" horiz-adv-x="996" 
d="M932 45q0 -23 -11 -34t-30 -11h-206q-19 0 -27.5 11.5t-15.5 33.5l-20 62q-34 -58 -83.5 -94.5t-117.5 -36.5q-101 0 -172.5 33t-117 88.5t-67 128t-21.5 150.5v461q0 91 23.5 166.5t70 130t116.5 85t162 30.5q72 0 122 -37t85 -94l20 63q8 27 19.5 35.5t37.5 8.5h192
q19 0 30 -11t11 -34v-1135zM545 829q0 12 -2.5 26t-10 26t-20.5 20.5t-33 8.5q-26 0 -37.5 -17t-11.5 -40v-481q0 -24 11.5 -40t37.5 -17q19 -1 31 6.5t19.5 19t11 25.5t4.5 26v437z" />
    <glyph glyph-name="b" unicode="b" horiz-adv-x="996" 
d="M64 1540q0 43 44 43h300q23 0 32.5 -11t9.5 -32v-393q39 47 87 74.5t107 27.5q72 0 129.5 -30t97.5 -83t61 -125.5t21 -156.5v-460q0 -90 -19 -166.5t-61 -132.5t-109 -87.5t-163 -31.5q-39 0 -72.5 11.5t-61 31t-49.5 46.5t-40 59l-23 -71q-12 -35 -22.5 -44t-32.5 -9
h-192q-44 0 -44 42v1498zM451 410q0 -12 2.5 -28.5t10 -31.5t20.5 -25.5t34 -9.5q25 1 36 17t11 40v481q0 23 -11 40t-36 17q-21 0 -34 -8.5t-20.5 -20.5t-10 -26t-2.5 -26v-419z" />
    <glyph glyph-name="c" unicode="c" horiz-adv-x="949" 
d="M43 860q0 81 34.5 151.5t94.5 123.5t140.5 83.5t172.5 30.5q93 0 171.5 -30.5t135 -83.5t88 -123.5t31.5 -151.5v-108q0 -22 -6.5 -31t-29.5 -9h-281q-32 0 -41 9.5t-9 33.5v103q0 20 -15 36t-41 16q-23 0 -40.5 -15t-17.5 -35v-495q0 -20 17.5 -35t40.5 -15q26 0 41 16
t15 36v74q0 23 7 32.5t32 9.5h293q23 0 29 -9t6 -28v-81q0 -81 -31.5 -151.5t-88 -123.5t-135 -83.5t-171.5 -30.5q-92 0 -172.5 27.5t-140.5 78.5t-94.5 123t-34.5 160v495v0z" />
    <glyph glyph-name="d" unicode="d" horiz-adv-x="995" 
d="M931 42q0 -42 -45 -42h-180h-21t-17 5t-15 16.5t-14 34.5l-20 62q-45 -73 -102 -107.5t-109 -34.5q-75 0 -131 18t-97 48.5t-67 72t-42 88.5t-22 97t-6 99v444q0 81 20 154.5t61.5 129.5t105 89t150.5 33q48 0 89 -24t76 -65v380q0 43 42 43h299q45 0 45 -43v-1498z
M544 829q0 12 -2.5 26t-10 26t-20.5 20.5t-33 8.5q-26 0 -37 -17t-11 -40v-481q0 -24 11 -40t37 -17q20 -1 33 9.5t20.5 25.5t10 31.5t2.5 28.5v419z" />
    <glyph glyph-name="e" unicode="e" horiz-adv-x="947" 
d="M43 860q0 81 34.5 151.5t94.5 123.5t140.5 83.5t172.5 30.5q93 0 170.5 -30.5t132.5 -83.5t85.5 -123.5t30.5 -151.5v-290q0 -24 -14.5 -37.5t-40.5 -13.5h-419v-164q0 -20 17.5 -35t40.5 -15q26 0 41 16t15 36v38q0 7 6.5 17.5t25.5 10.5h293q32 0 32 -31v-27
q0 -81 -30 -151.5t-84.5 -123.5t-131.5 -83.5t-170 -30.5q-92 0 -172.5 30.5t-140.5 83.5t-94.5 123.5t-34.5 151.5v495zM430 773h114v96q0 21 -16 36t-40 15q-23 0 -40.5 -15t-17.5 -35v-97z" />
    <glyph glyph-name="f" unicode="f" horiz-adv-x="678" 
d="M121 886h-69q-14 0 -29 10t-15 29v262q0 17 15 27.5t29 10.5h69v60q0 119 39.5 190.5t106.5 108t156.5 44.5t189.5 2q31 -2 45 -12.5t14 -43.5v-212q0 -32 -16.5 -42.5t-48.5 -10.5q-21 0 -39 -0.5t-31.5 -6.5t-21 -19.5t-7.5 -38.5v-19h114q15 0 29 -12t14 -26v-262
q0 -19 -14 -29t-29 -10h-114v-845q0 -41 -34 -41h-318q-35 0 -35 41v845z" />
    <glyph glyph-name="g" unicode="g" horiz-adv-x="995" 
d="M931 132q0 -113 -19 -199t-52.5 -148t-80 -103.5t-101 -65.5t-116 -33.5t-124.5 -7.5q-51 1 -104.5 10.5t-104 27.5t-95 45t-78.5 63q-15 16 -10 30t17 31l112 154q14 20 34 19t35 -12q31 -23 70.5 -36t99.5 -13q28 0 55 9t47 28.5t32.5 51t12.5 76.5v22q-35 -39 -77 -62
t-91 -23q-86 0 -151.5 36t-109.5 93t-66.5 127.5t-22.5 140.5v431q0 88 21.5 165.5t66.5 135t115 91t167 33.5q69 0 120.5 -38t87.5 -100l24 74q8 23 21 31.5t40 8.5h185q40 0 40 -45v-1048zM544 829q0 12 -2.5 26t-10 26t-20.5 20.5t-33 8.5q-26 0 -37 -17t-11 -40v-461
q0 -24 11 -40.5t37 -16.5q23 0 36.5 10.5t20 25t8 31t1.5 28.5v399z" />
    <glyph glyph-name="h" unicode="h" horiz-adv-x="1010" 
d="M569 859q-2 20 -11.5 35.5t-35.5 15.5q-19 0 -32 -7.5t-21.5 -18.5t-12.5 -24.5t-5 -25.5v-785q0 -17 -13.5 -33t-50.5 -16h-279q-44 0 -44 42v1498q0 43 44 43h299q44 0 44 -43v-387q39 45 92.5 70.5t124.5 25.5t125 -27t90.5 -78t55 -124.5t18.5 -165.5v-810
q0 -22 -11 -33t-29 -11h-309q-18 0 -28.5 11t-10.5 33v815z" />
    <glyph glyph-name="i" unicode="i" horiz-adv-x="516" 
d="M64 1183q0 21 14 31.5t30 10.5h299q20 0 32 -11.5t12 -30.5v-1141q0 -42 -44 -42h-299q-44 0 -44 42v1141zM54 1525q0 34 18 57t64 23h250q42 0 59 -21.5t17 -58.5v-162q0 -42 -19.5 -56.5t-56.5 -14.5h-250q-36 0 -59 14.5t-23 55.5v163z" />
    <glyph glyph-name="j" unicode="j" horiz-adv-x="516" 
d="M64 1183q0 23 15 32.5t29 9.5h299q19 0 31.5 -11t12.5 -31v-1187q0 -92 -33.5 -168.5t-98.5 -132t-160.5 -86t-219.5 -30.5q-23 0 -40 12.5t-17 33.5v244q0 24 10 38t39 14q37 0 62 8t41 25.5t23 45t7 67.5v1116zM54 1525q0 34 18 57t64 23h250q42 0 59 -21.5t17 -58.5
v-163q0 -41 -19.5 -55.5t-56.5 -14.5h-250q-36 0 -59 14t-23 55v164z" />
    <glyph glyph-name="k" unicode="k" horiz-adv-x="1032" 
d="M715 678l308 -604q15 -29 5 -51.5t-35 -22.5h-333q-22 0 -33 10t-19 33l-154 375v-376q0 -42 -45 -42h-301q-42 0 -42 42v1498q0 43 42 43h301q45 0 45 -43v-639l22 78l92 213q11 25 27 29t39 4h316q18 0 29.5 -7.5t16 -19.5t2 -27t-10.5 -29z" />
    <glyph glyph-name="l" unicode="l" horiz-adv-x="516" 
d="M64 1540q0 43 44 43h299q44 0 44 -43v-1498q0 -42 -44 -42h-299q-44 0 -44 42v1498z" />
    <glyph glyph-name="m" unicode="m" horiz-adv-x="1503" 
d="M1062 829q0 44 -13.5 62.5t-33.5 18.5q-31 0 -47 -23t-18 -52v-791q0 -44 -38 -44h-312q-37 0 -37 44v793q-2 39 -14 56t-29 17q-31 0 -49 -23t-20 -52v-790q0 -11 -6 -19.5t-15.5 -14t-20 -8.5t-19.5 -3h-286q-18 0 -29 11t-11 34v1135q0 23 11 34t29 11h189q27 0 40 -9
t21 -34l39 -123q20 40 46 75t57.5 60.5t70 40t84.5 14.5q29 0 64.5 -5t70.5 -24t67.5 -55t55.5 -99q36 84 94.5 133.5t145.5 49.5q16 0 44.5 -2.5t62 -14.5t68 -38t62.5 -73t45.5 -119t17.5 -177v-781q0 -22 -10.5 -33t-27.5 -11h-313q-36 0 -36 44v785z" />
    <glyph glyph-name="n" unicode="n" horiz-adv-x="1010" 
d="M569 859q-2 20 -13 35.5t-36 15.5q-18 0 -31 -7.5t-21 -18.5t-12 -24.5t-5 -25.5v-789q0 -11 -6 -19.5t-14.5 -14t-19 -8.5t-19.5 -3h-288q-18 0 -29 11t-11 34v1135q0 23 11 34t29 11h189q27 0 39 -7t21 -33l40 -125q21 40 46.5 74.5t57 60t69.5 40t82 14.5
q78 0 136 -26.5t96.5 -77t57.5 -123.5t19 -166v-812q0 -22 -11 -33t-29 -11h-309q-18 0 -28.5 11t-10.5 33v815z" />
    <glyph glyph-name="o" unicode="o" horiz-adv-x="975" 
d="M43 860q0 81 34.5 152t94.5 123.5t140.5 83t172.5 30.5q93 0 174.5 -27.5t142 -78.5t95.5 -123t35 -160v-495q0 -88 -35 -160t-95 -123t-141 -78.5t-174 -27.5t-174 27.5t-141 78.5t-94.5 123t-34.5 160v495zM430 365q0 -20 16.5 -35t41.5 -15q26 0 41.5 15t15.5 35v494
q0 21 -16.5 36t-40.5 15q-23 0 -40.5 -15t-17.5 -35v-495z" />
    <glyph glyph-name="p" unicode="p" horiz-adv-x="996" 
d="M64 1183q0 42 44 42h192q22 0 34 -8.5t23 -43.5l22 -72q18 31 40.5 58t50.5 47t61 31.5t72 11.5q96 0 163 -34.5t108.5 -92t60 -133.5t18.5 -158v-460q0 -77 -21 -148.5t-61 -126t-97.5 -87.5t-129.5 -33q-59 0 -107 27.5t-87 73.5v-407q0 -21 -9.5 -32.5t-32.5 -11.5
h-300q-44 0 -44 44v1513zM451 396q0 -12 2.5 -26t10 -26t20.5 -20.5t34 -8.5q25 0 36.5 17t11.5 40v481q0 24 -11.5 40t-36.5 17q-21 1 -34 -9.5t-20.5 -25.5t-10 -31.5t-2.5 -28.5v-419z" />
    <glyph glyph-name="q" unicode="q" horiz-adv-x="996" 
d="M932 -319q0 -44 -45 -44h-299q-42 0 -42 44v395q-39 -46 -87 -73t-106 -27q-72 0 -129.5 33t-97.5 87.5t-61.5 126t-21.5 148.5v460q0 82 18.5 158t60 133.5t108.5 92t164 34.5q39 0 71.5 -11.5t60.5 -31t50.5 -46t40.5 -57.5l22 70q6 18 11 28t11.5 15.5t15 7t19.5 1.5
h191q45 0 45 -42v-1502zM545 815q0 12 -2.5 28.5t-10 31.5t-20.5 25.5t-33 9.5q-26 -1 -37.5 -17t-11.5 -40v-481q0 -23 11.5 -40t37.5 -17q20 0 33 8.5t20.5 20.5t10 26t2.5 26v419z" />
    <glyph glyph-name="r" unicode="r" horiz-adv-x="806" 
d="M64 1180q0 23 11 34t29 11h188q27 0 40 -8t21 -33l37 -117q20 39 45.5 72.5t57 58t69 38t82.5 13.5q17 0 48 -1.5t65 -10.5q17 -5 22.5 -17t5.5 -32v-268q0 -43 -15.5 -59t-52.5 -16q-38 0 -64 10t-47 22.5t-41 22.5t-46 10q-41 0 -54.5 -30t-13.5 -93v-742
q0 -11 -6 -19.5t-15.5 -14t-20 -8.5t-19.5 -3h-286q-18 0 -29 11t-11 34v1135z" />
    <glyph glyph-name="s" unicode="s" horiz-adv-x="936" 
d="M33 371q0 20 17 28t50 8h269q33 0 33 -38v-16q0 -25 14.5 -36.5t38.5 -11.5q25 0 41.5 11t16.5 40q0 27 -28.5 48.5t-70 41t-88 38t-82.5 39.5q-99 58 -149.5 142.5t-50.5 204.5q0 81 31.5 150t87.5 120t133 80t169 29q106 0 184.5 -28t130.5 -79t77.5 -123t25.5 -159v-7
q0 -22 -11.5 -25.5t-40.5 -3.5h-261q-23 0 -31.5 10t-8.5 29v6q0 24 -11 37.5t-35 13.5q-29 0 -39.5 -17.5t-10.5 -42.5q0 -21 10.5 -34t34.5 -26t63 -30t96 -45q138 -68 202.5 -164t64.5 -206q0 -84 -30.5 -154t-87.5 -120t-137 -77.5t-179 -27.5q-142 0 -228 33.5
t-132.5 88t-62 124.5t-15.5 143v6z" />
    <glyph glyph-name="t" unicode="t" horiz-adv-x="667" 
d="M504 886v-844q0 -42 -37 -42h-315q-35 0 -35 42v844h-57q-15 0 -29.5 10t-14.5 29v262q0 17 14.5 27.5t29.5 10.5h57v172q0 22 7.5 35t34.5 21l274 85q27 8 49 -5.5t22 -51.5v-256h103q15 0 29.5 -12t14.5 -26v-262q0 -19 -14.5 -29t-29.5 -10h-103z" />
    <glyph glyph-name="u" unicode="u" horiz-adv-x="1010" 
d="M559 1180q0 11 6 19.5t14.5 14t19 8.5t19.5 3h287q18 0 29.5 -11t11.5 -34v-1135q0 -23 -11.5 -34t-29.5 -11h-188q-27 0 -39 7t-21 33l-40 125q-21 -41 -47 -75.5t-57.5 -59.5t-69 -39.5t-81.5 -14.5q-78 0 -135.5 26.5t-96 77t-57.5 123.5t-19 166v812q0 44 38 44h310
q18 0 28.5 -11t10.5 -33v-809q0 -23 12 -40t39 -17q19 0 31.5 8t20.5 20.5t11.5 26.5t3.5 26v784z" />
    <glyph glyph-name="v" unicode="v" horiz-adv-x="1021" 
d="M716 42q-11 -42 -52 -42h-309q-23 0 -35 10.5t-18 31.5l-289 1108q-10 38 -2.5 56.5t36.5 18.5h313q43 0 51 -45l79 -637l18 -230l20 230l83 640q3 22 17 32t35 10h309q34 0 39.5 -21.5t-3.5 -54.5z" />
    <glyph glyph-name="w" unicode="w" horiz-adv-x="1551" 
d="M918 978l84 -426l29 -218l18 219l86 630q3 22 17 32t34 10h310q26 0 38 -15.5t3 -47.5l-284 -1120q-6 -21 -18 -31.5t-35 -10.5h-313q-45 0 -52 42l-43 208l-21 138l-17 -143l-40 -203q-9 -42 -51 -42h-313q-43 0 -53 42l-281 1109q-20 74 34 74h313q43 0 51 -45l88 -627
l16 -218l16 217l77 631q2 22 16.5 32t35.5 10h257q26 0 32 -16t-4 -49z" />
    <glyph glyph-name="x" unicode="x" horiz-adv-x="1002" 
d="M249 628l-226 541q-11 24 -8 40t28 16h331q26 0 37 -12.5t16 -30.5l61 -241l13 -123l11 124l62 240q5 18 16 30.5t38 12.5h331q24 0 27 -16t-7 -40l-226 -540l222 -540q6 -16 10.5 -32t3 -28.5t-10.5 -20.5t-29 -8h-302q-21 0 -34.5 12t-20.5 31l-73 246l-18 115
l-17 -116l-75 -245q-6 -19 -20 -31t-34 -12h-303q-20 0 -28.5 8t-10 20.5t2.5 28.5t10 32z" />
    <glyph glyph-name="y" unicode="y" horiz-adv-x="1020" 
d="M595 -438q-11 -42 -54 -42h-264q-28 0 -41.5 9t-18 22t-3 27t4.5 25l107 370l-314 1178q-10 37 -2.5 55.5t36.5 18.5h313q44 0 50 -45l84 -575l15 -220l14 219l90 579q3 22 17 32t35 10h307q26 0 37.5 -16t1.5 -50z" />
    <glyph glyph-name="z" unicode="z" horiz-adv-x="869" 
d="M789 1225q25 0 25 -36l1 -217q0 -8 -0.5 -19t-8.5 -25l-3 -5l-320 -549l-29 -39h347q14 0 25.5 -12t11.5 -23v-265q0 -13 -10 -24.5t-27 -11.5h-742q-25 0 -25 36l-4 186q0 5 2.5 15t8.5 25q2 5 4.5 9.5t5.5 9.5l312 570l29 36h-317q-14 0 -20 12t-6 23v268q0 13 4 24.5
t22 11.5h714z" />
    <glyph glyph-name="braceleft" unicode="{" horiz-adv-x="629" 
d="M26 761q0 14 6.5 23t14.5 9q28 0 43.5 1.5t23 6t9.5 12t2 19.5v278q0 124 31.5 208t79.5 138t104 82.5t105.5 41.5t84 14.5t38.5 1.5q11 0 20.5 -8t9.5 -22v-313q0 -14 -12 -22t-20 -8q-4 0 -14.5 -2t-22 -12.5t-20 -33.5t-8.5 -65v-374q0 -39 -19 -67t-50 -48
q31 -20 50 -47.5t19 -66.5v-394q0 -42 8.5 -65t20 -33.5t22 -12.5t14.5 -2q8 0 20 -8t12 -22v-313q0 -14 -9.5 -22t-20.5 -8q-4 0 -38.5 1.5t-84 14.5t-105.5 41.5t-104 82.5t-79.5 138t-31.5 208v298q0 12 -2 19.5t-9.5 12t-23 6t-43.5 1.5q-8 0 -14.5 9t-6.5 23v279v0z
" />
    <glyph glyph-name="bar" unicode="|" horiz-adv-x="528" 
d="M81 1539q0 43 44 43h300q44 0 44 -43v-1860q0 -42 -44 -42h-300q-44 0 -44 42v1860z" />
    <glyph glyph-name="braceright" unicode="}" horiz-adv-x="645" 
d="M612 482q0 -14 -6 -23t-15 -9q-27 0 -43 -1.5t-23.5 -6t-9.5 -12t-2 -19.5v-298q0 -124 -31.5 -208t-79.5 -138t-104 -82.5t-105.5 -41.5t-84 -14.5t-38.5 -1.5q-11 0 -20.5 8t-9.5 22v313q0 14 12 22t20 8q4 0 15 2t22 12.5t20 33.5t9 65v394q0 39 18.5 66.5t50.5 47.5
q-32 20 -50.5 48t-18.5 67v374q0 42 -9 65t-20 33.5t-22 12.5t-15 2q-8 0 -20 8t-12 22v313q0 14 9.5 22t20.5 8q4 0 38.5 -1.5t84 -14.5t105.5 -41.5t104 -82.5t79.5 -138t31.5 -208v-278q0 -12 2 -19.5t9.5 -12t23.5 -6t43 -1.5q9 0 15 -9t6 -23v-279z" />
    <glyph glyph-name="asciitilde" unicode="~" horiz-adv-x="875" 
d="M157.611 468.062v331.524q0 6.68457 1.33496 8.02051q5.34277 2.67383 8.01367 2.67383h89.4834q20.0332 0 38.7314 -8.02051q17.3623 -6.68457 30.7178 -18.7148q6.67773 -6.68457 12.0205 -14.0371q5.3418 -7.35156 9.34863 -15.373q6.67773 -17.3779 6.67773 -36.0928
v-42.7773q0 -25.3994 -9.34863 -42.7773q-12.0205 -20.0518 -26.7119 -30.7461l40.0674 -133.68v-1.33691q0 -4.00977 -1.33496 -5.34668q-2.67188 -2.67383 -5.34277 -2.67383h-52.0869q-2.67188 0 -5.34277 2.67383l-2.6709 6.68359l-28.0469 113.627h-40.0674v-113.627
q0 -9.35742 -9.34863 -9.35742h-46.7451q-9.34863 0 -9.34863 9.35742zM482.154 464.053v4.00977l78.7988 332.861q2.67188 9.35742 12.0205 9.35742h44.0732q9.34961 0 12.0205 -9.35742l76.1279 -332.861q1.33496 -1.33691 1.33496 -4.00977q0 -5.34766 -5.3418 -5.34766
h-52.0869q-4.00684 0 -6.67871 2.67383q-4.00684 1.33691 -4.00684 6.68359l-8.0127 49.4609h-70.7852l-8.01367 -49.4609q-1.33594 -4.00977 -4.00684 -6.68359t-6.67773 -2.67383h-52.0879q-6.67773 0 -6.67773 5.34766zM4.02051 461.379
q-1.33594 1.33691 -1.33594 6.68359v282.063h-54.7588q-4.00586 0 -4.00586 1.33691q-2.67188 2.67285 -2.67188 6.68359v42.7773q0 5.34766 2.67188 6.68359q0 2.67383 4.00586 2.67383h174.96q2.6709 0 5.34277 -2.67383q2.6709 -2.67285 2.6709 -6.68359v-42.7773
q0 -1.33691 -2.6709 -6.68359q-1.33594 -1.33691 -5.34277 -1.33691h-53.4229v-282.063q0 -9.35742 -9.34863 -9.35742h-49.416q-4.00684 0 -6.67773 2.67383zM727.899 468.062v331.524q0 5.34766 2.67188 8.02051q2.6709 2.67383 8.0127 2.67383h46.7451
q2.6709 0 8.01367 -2.67383q2.6709 -2.67285 2.6709 -8.02051v-280.727h81.4697q8.01367 0 8.01367 -8.02051v-42.7773q0 -9.35742 -8.01367 -9.35742h-138.899q-10.6846 0 -10.6846 9.35742zM394.007 468.062v331.524q0 6.68457 2.6709 8.02051
q2.67188 2.67383 8.01367 2.67383h45.4092q5.34277 0 8.01367 -2.67383q2.6709 -2.67285 2.6709 -8.02051v-331.524q0 -9.35742 -10.6846 -9.35742h-45.4092q-10.6846 0 -10.6846 9.35742zM256.443 641.846q14.6914 0 22.7041 8.02051q9.34961 12.0312 9.34961 22.7256
v46.7881q0 12.0303 -9.34961 21.3887q-9.34863 9.35742 -24.04 9.35742h-32.0537v-108.28h33.3896zM618.383 573.669l-20.0332 128.332l-4.00684 33.4199l-2.6709 -33.4199l-21.3691 -128.332h48.0801z" />
    <glyph glyph-name="exclamdown" unicode="&#xa1;" horiz-adv-x="504" 
d="M73 1179q0 12 5 19.5t11.5 11.5t12.5 5.5t8 1.5h285q1 0 7.5 -1.5t13 -5.5t12 -11.5t5.5 -19.5v-238q0 -4 -1.5 -10.5t-5.5 -13t-11 -11t-19 -4.5h-289q-11 0 -22.5 9.5t-11.5 30.5v237zM73 731q0 42 45 42h268q44 0 44 -42v-897q0 -43 -44 -43h-268q-45 0 -45 43v897z
" />
    <glyph glyph-name="cent" unicode="&#xa2;" horiz-adv-x="949" 
d="M43 860q0 57 17.5 109.5t49.5 97t77 80.5t99 60v188q0 29 22 29h345q12 0 17 -9t5 -22v-182q54 -24 97.5 -60t74.5 -81t47.5 -98.5t16.5 -111.5v-108q0 -22 -6.5 -31t-29.5 -9h-281q-32 0 -41 9.5t-9 33.5v103q0 20 -15 36t-41 16q-23 0 -40.5 -15t-17.5 -35v-495
q0 -20 17.5 -35t40.5 -15q26 0 41 16t15 36v74q0 23 7 32.5t32 9.5h293q23 0 29 -9t6 -28v-81q0 -58 -16.5 -111.5t-47.5 -99t-74.5 -81.5t-97.5 -59v-189q0 -8 -5.5 -18.5t-16.5 -10.5h-343q-9 0 -16.5 8.5t-7.5 22.5v187q-54 22 -99 56.5t-77 79t-49.5 99t-17.5 116.5v495
v0z" />
    <glyph glyph-name="sterling" unicode="&#xa3;" horiz-adv-x="845" 
d="M476 837h176q11 0 20.5 -8t9.5 -22v-255q0 -14 -11 -22t-21 -8h-174v-183h325q18 0 25.5 -11t7.5 -31v-255q0 -21 -7.5 -31.5t-25.5 -10.5h-679q-35 0 -35 42v480h-88q-2 0 -6.5 1.5t-9.5 5.5t-9 9.5t-4 13.5v253q0 14 10.5 23t20.5 9h86v220q0 80 35 150.5t93 123
t134 83t159 30.5q86 0 153.5 -29t127.5 -79q4 -4 12 -11.5t14.5 -18t8.5 -22t-5 -23.5l-158 -173q-14 -17 -26 -24t-22 -7t-17 5.5t-12 13.5q-12 19 -28.5 24t-20.5 5q-18 0 -29.5 -5t-18 -12.5t-9 -16.5t-2.5 -16v-218z" />
    <glyph glyph-name="currency" unicode="&#xa4;" horiz-adv-x="896" 
d="M445 185q-36 0 -69.5 6.5t-63.5 17.5l-100 -87q-6 -6 -20.5 -8t-25.5 8l-156 162q-10 10 -8.5 22t10.5 20l133 115v369l-133 116q-9 8 -10.5 20t8.5 22l156 162q11 10 25.5 8t20.5 -8l98 -85q62 25 135 25q38 0 72.5 -7t65.5 -20l99 87q7 6 21.5 8t25.5 -8l155 -162
q11 -10 9.5 -22t-10.5 -20l-136 -119v-363l136 -118q9 -8 10.5 -20t-9.5 -22l-155 -162q-11 -10 -25.5 -8t-21.5 8l-101 88q-64 -25 -136 -25zM407 442q0 -14 11 -21t27 -7q17 0 28 7t11 21v371q0 18 -11 23.5t-28 5.5q-16 0 -27 -5.5t-11 -23.5v-371z" />
    <glyph glyph-name="yen" unicode="&#xa5;" horiz-adv-x="965" 
d="M287 191h-131q-3 0 -8.5 2t-11.5 6t-10 10.5t-4 14.5v121q0 18 13.5 27.5t20.5 9.5h131v82h-131q-3 0 -8.5 2t-11.5 6t-10 10.5t-4 14.5v121q0 18 13.5 27.5t20.5 9.5h88l-263 728q-14 43 22 43h333q44 0 51 -43l76 -451l18 -190l18 190l77 451q9 43 52 43h337
q36 0 20 -42l-266 -729h87q13 0 24.5 -8.5t11.5 -25.5v-124q0 -17 -13.5 -25t-26.5 -8h-127v-82h131q13 0 24.5 -8.5t11.5 -25.5v-124q0 -17 -13.5 -25t-26.5 -8h-127v-149q0 -42 -36 -42h-317q-35 0 -35 42v149z" />
    <glyph glyph-name="brokenbar" unicode="&#xa6;" horiz-adv-x="550" 
d="M79 1627q0 52 42 52h302q42 0 42 -52v-837q0 -49 -42 -49h-302q-42 0 -42 49v837zM79 454q0 50 42 50h302q42 0 42 -50v-842q0 -50 -42 -50h-302q-42 0 -42 50v842z" />
    <glyph glyph-name="section" unicode="&#xa7;" horiz-adv-x="889" 
d="M629 1131q-21 32 -41.5 50t-39.5 26.5t-35.5 10t-29.5 1.5q-49 0 -75 -27t-26 -68v-4q0 -20 6.5 -35t22 -29t43 -27t69.5 -28q70 -25 122 -54.5t87 -66.5t53.5 -82t20.5 -100v-16q0 -26 -7 -53t-18.5 -52t-27 -45.5t-31.5 -33.5q15 -11 36 -29.5t40 -46t32.5 -64.5
t13.5 -83v-9q0 -56 -18 -101.5t-47.5 -80.5t-69 -60t-82 -41.5t-86.5 -24t-83 -7.5q-49 0 -104.5 9t-108.5 31.5t-101 60.5t-82 97q-12 20 -8.5 30.5t7.5 13.5l159 113q4 2 9 5t11 3t12.5 -4.5t12.5 -17.5q10 -20 26 -39t36 -33.5t44.5 -23.5t52.5 -9q17 0 35 4.5t32.5 15.5
t24 30.5t9.5 49.5v3q0 40 -34.5 65.5t-89.5 43.5q-72 24 -128 51.5t-94.5 62.5t-58 79t-19.5 101v12q0 32 7.5 63.5t19 58t25.5 47t28 31.5q-23 19 -44.5 42.5t-37.5 51.5t-25.5 61.5t-9.5 73.5v9q0 70 33 128t88 98.5t126.5 63t148.5 22.5q125 0 221 -45t156 -136
q18 -27 15.5 -38t-16.5 -19l-161 -101q-8 -5 -21.5 -3.5t-24.5 18.5zM489 608q7 6 20.5 29t13.5 64v4q-1 19 -8.5 32.5t-19 23t-25.5 16.5t-29 13q-17 -9 -33 -25.5t-16 -52.5v-4q0 -9 3 -23t13 -28.5t29 -28t52 -20.5z" />
    <glyph glyph-name="dieresis" unicode="&#xa8;" horiz-adv-x="626" 
d="M124 1271v248q0 5 1 6q4 2 6 2h67q15 0 29 -6q13 -5 23 -14q5 -5 9 -10.5t7 -11.5q5 -13 5 -27v-32q0 -19 -7 -32q-9 -15 -20 -23l30 -100v-1q0 -3 -1 -4q-2 -2 -4 -2h-39q-2 0 -4 2l-2 5l-21 85h-30v-85q0 -7 -7 -7h-35q-7 0 -7 7zM367 1268v3l59 249q2 7 9 7h33
q7 0 9 -7l57 -249q1 -1 1 -3q0 -4 -4 -4h-39q-3 0 -5 2q-3 1 -3 5l-6 37h-53l-6 -37q-1 -3 -3 -5t-5 -2h-39q-5 0 -5 4zM9 1266q-1 1 -1 5v211h-41q-3 0 -3 1q-2 2 -2 5v32q0 4 2 5q0 2 3 2h131q2 0 4 -2t2 -5v-32q0 -1 -2 -5q-1 -1 -4 -1h-40v-211q0 -7 -7 -7h-37
q-3 0 -5 2zM551 1271v248q0 4 2 6t6 2h35q2 0 6 -2q2 -2 2 -6v-210h61q6 0 6 -6v-32q0 -7 -6 -7h-104q-8 0 -8 7zM301 1271v248q0 5 2 6q2 2 6 2h34q4 0 6 -2t2 -6v-248q0 -7 -8 -7h-34q-8 0 -8 7zM198 1401q11 0 17 6q7 9 7 17v35q0 9 -7 16t-18 7h-24v-81h25zM469 1350
l-15 96l-3 25l-2 -25l-16 -96h36z" />
    <glyph glyph-name="copyright" unicode="&#xa9;" horiz-adv-x="1026" 
d="M50 1063q0 80 38 150.5t101.5 123t147.5 83t176 30.5q93 0 177 -30t148.5 -82.5t102.5 -123t38 -151.5v-700q0 -81 -38 -151.5t-102 -123t-148.5 -82.5t-176.5 -30t-176 30t-148 82.5t-102 123t-38 151.5v700zM250 396q0 -52 19.5 -92.5t55 -68.5t84 -42.5t105.5 -14.5
q58 0 106.5 13t83.5 39t55 66t20 94v648q0 39 -17 77t-50.5 67.5t-83 47.5t-114.5 18t-114 -17t-82.5 -46t-50.5 -66.5t-17 -78.5v-644zM541 594q0 12 1.5 16t6.5 4h171q7 0 8.5 -4t1.5 -16v-167q-1 -29 -13.5 -62.5t-38 -62t-65 -47.5t-94.5 -19q-56 0 -98 17.5t-70 45.5
t-41.5 63.5t-13.5 72.5v574q0 47 20.5 82.5t52 59t68 35t68.5 11.5q60 0 103 -17.5t70 -43.5t39.5 -58t12.5 -60v-139q0 -13 -1.5 -17t-8.5 -4h-171q-5 0 -6.5 4t-1.5 16v139q0 11 -5.5 19t-15.5 8q-15 0 -19.5 -8.5t-4.5 -17.5v-584q0 -3 0.5 -9t2.5 -12t6.5 -10t12.5 -4
q13 0 18 10t5 18v167z" />
    <glyph glyph-name="ordfeminine" unicode="&#xaa;" horiz-adv-x="715" 
d="M651 850q0 -30 -28 -30h-224q-15 0 -19.5 7.5t-14.5 19.5l-6 7q-14 -22 -33.5 -35t-44.5 -13q-75 0 -124.5 22.5t-79.5 60t-42.5 85t-12.5 97.5v102q0 126 63 199.5t189 73.5q31 0 53 -15t38 -39l4 8q5 11 8.5 17.5t8 9.5t11.5 4t19 1h208q14 0 20.5 -7.5t6.5 -25.5v-549
zM56 688q0 14 11 23t20 9h564q11 0 20.5 -8t9.5 -22v-151q0 -14 -11.5 -22t-20.5 -8h-564q-2 0 -6.5 1.5t-9.5 5.5t-9 9.5t-4 13.5v149zM371 1156q-2 32 -16 54t-31 22q-31 0 -40.5 -24.5t-9.5 -72.5v-15q0 -28 4 -44.5t10.5 -24.5t14.5 -10.5t16 -2.5q29 0 40.5 24t11.5 53
v41z" />
    <glyph glyph-name="guillemotleft" unicode="&#xab;" horiz-adv-x="1121" 
d="M24 558q0 9 3.5 13t9.5 12l301 388q3 5 11 8.5t21 -6.5l195 -147q8 -7 6.5 -18.5t-7.5 -19.5l-196 -232l197 -233q16 -20 -1 -34l-194 -145q-14 -11 -21.5 -7t-10.5 9l-302 388l-9 12t-3 12zM509 558q0 9 3 13t10 12l301 388q3 5 11 8.5t21 -6.5l195 -147q9 -7 7 -18.5
t-8 -19.5l-196 -232l197 -233q15 -20 -2 -34l-193 -145q-14 -10 -21.5 -6.5t-11.5 8.5l-301 388l-9 12t-3 12z" />
    <glyph glyph-name="logicalnot" unicode="&#xac;" horiz-adv-x="798" 
d="M69 524q-14 0 -23.5 8t-9.5 25v149v17.5t3 17.5t10 13.5t20 5.5h644q37 0 37 -42v-463q0 -16 -8 -28.5t-22 -12.5l-166 -1q-17 0 -31.5 12t-14.5 30v269h-439z" />
    <glyph glyph-name="uni00AD" unicode="&#xad;" horiz-adv-x="697" 
d="M100 764q0 27 14 41t28 14h416q44 0 44 -51v-186q0 -25 -14.5 -37t-36.5 -12h-409q-13 0 -27.5 12t-14.5 37v182z" />
    <glyph glyph-name="registered" unicode="&#xae;" horiz-adv-x="1038" 
d="M50 1063q0 80 38 150.5t101.5 123t147.5 83t176 30.5q93 0 177 -30t148.5 -82.5t102.5 -123t38 -151.5v-700q0 -81 -38 -151.5t-102 -123t-148.5 -82.5t-176.5 -30t-176 30t-148 82.5t-102 123t-38 151.5v700zM250 396q0 -52 19.5 -92.5t55 -68.5t84 -42.5t105.5 -14.5
q58 0 106.5 13t83.5 39t55 66t20 94v648q0 39 -17 77t-50.5 67.5t-83 47.5t-114.5 18t-114 -17t-82.5 -46t-50.5 -66.5t-17 -78.5v-644zM322 346q-25 0 -25 32v714q0 25 20 25h248q33 0 63 -14t52 -35t35 -46.5t13 -48.5v-325q0 -20 -11.5 -42t-31.5 -41l70 -197
q2 -7 -3 -14.5t-14 -7.5h-174q-10 0 -12 5.5t-6 13.5l-45 157h-8v-147q0 -15 -7 -22t-16 -7h-148zM533 926q0 17 -9 22.5t-17 5.5h-14v-265h14q8 0 17 5.5t9 18.5v213z" />
    <glyph glyph-name="macron" unicode="&#xaf;" horiz-adv-x="647" 
d="M134 1271v248q0 5 1 6q2 1 3.5 1.5t3.5 0.5h67q16 0 28 -6q13 -4 23 -14q12 -12 16 -22q5 -13 5 -27v-32q0 -19 -7 -32q-7 -15 -20 -23l31 -100v-1q0 -3 -2 -4q-2 -2 -4 -2h-39q-2 0 -4 2l-2 5l-21 85h-29v-85q0 -7 -8 -7h-34q-8 0 -8 7zM378 1268v3l59 249q2 7 8 7h34
q6 0 8 -7l58 -249q1 -1 1 -3q0 -4 -4 -4h-39q-3 0 -5 2q-3 1 -3 5l-7 37h-52l-7 -37q-1 -3 -3 -5t-5 -2h-39q-4 0 -4 4zM20 1266q-1 1 -1 5v211h-41q-3 0 -3 1q-2 2 -2 5v32q0 4 2 5q0 2 3 2h130q2 0 4 -2t2 -5v-32q0 -1 -2 -5q-1 -1 -4 -1h-40v-211q0 -7 -6 -7h-38
q-2 0 -4 2zM562 1271v248q0 4 2 6t5 2h36q3 0 5 -2t2 -6v-210h61q6 0 6 -6v-32q0 -7 -6 -7h-104q-7 0 -7 7zM312 1271v248q0 5 2 6q2 2 5 2h35q3 0 5 -2t2 -6v-248q0 -7 -7 -7h-35q-7 0 -7 7zM209 1401q11 0 17 6q6 7 6 17v35q0 10 -6 16q-8 7 -18 7h-24v-81h25zM480 1350
l-16 96l-2 25l-2 -25l-17 -96h37z" />
    </font>
</defs>
</svg>
