<?xml version="1.0" standalone="no"?>
<!DOCTYPE svg PUBLIC "-//W3C//DTD SVG 1.1//EN" "http://www.w3.org/Graphics/SVG/1.1/DTD/svg11.dtd" >
<svg xmlns="http://www.w3.org/2000/svg" xmlns:xlink="http://www.w3.org/1999/xlink" version="1.1">
<metadata>
Created by FontForge 20170910 at Tue Oct  3 23:06:54 2006
 By Jimmy Wärting
TS Series(c) Steve Ferrera (Freeware) NOT FOR COMMERIAL USE. All Rights Reserved
</metadata>
<defs>
<font id="TSBlock-Bold" horiz-adv-x="150" >
  <font-face 
    font-family="TS Block Bold"
    font-weight="400"
    font-stretch="normal"
    units-per-em="2048"
    panose-1="2 0 0 0 0 0 0 0 0 0"
    ascent="1638"
    descent="-410"
    x-height="1407"
    cap-height="1410"
    bbox="75 -379 2506 1698"
    underline-thickness="150"
    underline-position="-292"
    unicode-range="U+0020-F005"
  />
<missing-glyph horiz-adv-x="1224" 
d="M100 0v1280h1024v-1280h-1024zM132 32h960v1216h-960v-1216z" />
    <glyph glyph-name=".notdef" horiz-adv-x="1224" 
d="M100 0v1280h1024v-1280h-1024zM132 32h960v1216h-960v-1216z" />
    <glyph glyph-name=".null" horiz-adv-x="200" 
 />
    <glyph glyph-name="nonmarkingreturn" horiz-adv-x="200" 
 />
    <glyph glyph-name="space" unicode=" " horiz-adv-x="1200" 
 />
    <glyph glyph-name="space" unicode="&#xa0;" horiz-adv-x="1200" 
 />
    <glyph glyph-name="exclam" unicode="!" horiz-adv-x="664" 
d="M75 1636l43 -1152h446l25 1152h-514zM341 337q56 0 109 -15.5t83.5 -44t30.5 -59.5t-29.5 -59t-82.5 -43.5t-111 -15.5t-111 15.5t-82.5 43.5t-29.5 59t30 59.5t83 44t110 15.5z" />
    <glyph glyph-name="quotedbl" unicode="&#x22;" horiz-adv-x="1176" 
d="M298 1675q56 0 109 -15.5t83.5 -44t30.5 -59.5t-44 -82.5t-103 -99t-188 -145.5l-63 26q117 183 64 198.5t-82.5 43.5t-29.5 59t30 59.5t83 44t110 15.5zM878 1675q56 0 109 -15.5t83.5 -44t30.5 -59.5t-44 -82.5t-103 -99t-188 -145.5l-63 26q117 183 64 198.5
t-82.5 43.5t-29.5 59t30 59.5t83 44t110 15.5z" />
    <glyph glyph-name="numbersign" unicode="#" horiz-adv-x="1298" 
d="M1223 843h-147v-158h147v-311h-147v-255h-313v255h-228v-255h-314v255h-146v311h146v158h-146v314h146v254h314v-254h228v254h313v-254h147v0v-314zM763 704v139h-228v-158h228v19z" />
    <glyph glyph-name="dollar" unicode="$" horiz-adv-x="1922" 
d="M1316 1045h531q-20 98 -96 173.5t-174.5 122.5t-470.5 77v204h-268v-204q-403 -30 -534.5 -103t-180 -155.5t-48.5 -180.5t90.5 -184t254.5 -122t590 -49q51 2 98 -14.5t74 -47t27 -62.5q0 -31 -26.5 -61.5t-74 -46t-146.5 -32.5q-74 2 -125 8t-89 27t-70 61.5t-39 78.5
h-564q0 -70 38.5 -123.5t112.5 -114t153.5 -94t191 -53.5t267.5 -36v-204h268v204q175 16 269 40.5t216.5 98t171.5 146.5t62.5 146.5t-13.5 146t-73 119t-129.5 87t-135.5 49t-147 17t-296 15.5q-98 0 -151.5 -0.5t-101 16t-73 46t-26.5 61.5q1 32 27 62.5t74 46t168 23.5
q125 -9 184 -25t97.5 -48t86.5 -116z" />
    <glyph glyph-name="percent" unicode="%" horiz-adv-x="1706" 
d="M1292 1586l-765 -1606l-98 47l765 1605zM912 460q0 187 91 262t274 75q88 0 145 -16.5t93 -42.5t57 -55t34 -68q25 -73 25 -153q0 -178 -82 -260.5t-278 -82.5q-110 0 -178.5 26t-112.5 77q-32 36 -50 99t-18 139zM1165 460q0 -118 27 -159.5t78 -41.5q35 0 59.5 17.5
t36 55.5t11.5 123q0 123 -26.5 163.5t-81.5 40.5t-79.5 -41t-24.5 -158zM75 1102q0 187 91 262t274 75q88 0 145 -16.5t93 -42.5t57 -55t34 -68q25 -73 25 -153q0 -178 -82 -261t-278 -83q-110 0 -178.5 26.5t-112.5 77.5q-32 36 -50 99t-18 139zM328 1102q0 -118 27 -159.5
t78 -41.5q35 0 59.5 17.5t36 55.5t11.5 123q0 123 -26.5 163.5t-81.5 40.5t-79.5 -41t-24.5 -158z" />
    <glyph glyph-name="ampersand" unicode="&#x26;" horiz-adv-x="1575" 
d="M941 711l88 66h483l-368 -271l354 -352h-484l-129 122q-140 -80 -235 -116.5t-194 -36.5q-69 0 -122 18.5t-107 59t-88 106.5t-34 161q0 31 29 92t75.5 101.5t194.5 101.5q-97 72 -142.5 136t-45.5 171q0 108 50.5 174t125.5 100.5t161 45.5t176 11q42 0 94.5 -1.5
t106.5 -11t105.5 -26.5t91.5 -48t64.5 -78.5t24.5 -115.5q0 -76 -30 -125.5t-128.5 -112.5t-191.5 -96zM536 625q-51 -30 -73 -41t-42 -24.5t-32 -30.5t-12 -32q0 -41 40.5 -67t96.5 -26q50 0 96.5 21t79.5 44zM560 1122q0 -46 34.5 -79.5t114.5 -98.5q115 67 155.5 102
t40.5 76q0 54 -46 74.5t-126 20.5q-89 0 -131 -23t-42 -72z" />
    <glyph glyph-name="quotesingle" unicode="'" horiz-adv-x="596" 
d="M298 1675q56 0 109 -15.5t83.5 -44t30.5 -59.5t-44 -82.5t-103 -99t-188 -145.5l-63 26q117 183 64 198.5t-82.5 43.5t-29.5 59t30 59.5t83 44t110 15.5z" />
    <glyph glyph-name="parenleft" unicode="(" horiz-adv-x="530" 
d="M455 1547q-165 -373 -165 -759q0 -366 155 -750q-20 -33 -112 -33h-37q-221 367 -221 751v83q0 354 245 747z" />
    <glyph glyph-name="parenright" unicode=")" horiz-adv-x="530" 
d="M209 1586q246 -393 246 -747v-83q0 -384 -221 -751h-37q-92 0 -113 33q156 384 156 750q0 386 -165 759z" />
    <glyph glyph-name="asterisk" unicode="*" horiz-adv-x="947" 
d="M354 1634l227 5l-17 -233l227 105l81 -227l-233 -58l181 -239l-198 -65l-128 216l-140 -249l-180 122l180 221l-279 52l81 233l233 -111z" />
    <glyph glyph-name="plus" unicode="+" horiz-adv-x="1032" 
d="M75 577h220v-236h442v236h220v411h-220v232h-442v-232h-220v-411z" />
    <glyph glyph-name="comma" unicode="," horiz-adv-x="596" 
d="M298 365q56 0 109 -15.5t83.5 -44t30.5 -59.5t-44 -82.5t-103 -99t-188 -145.5l-63 26q117 183 64 198.5t-82.5 43.5t-29.5 59t30 59.5t83 44t110 15.5z" />
    <glyph glyph-name="hyphen" unicode="-" horiz-adv-x="1032" 
d="M75 577h882v411h-882v-411z" />
    <glyph glyph-name="hyphen" unicode="&#xad;" horiz-adv-x="1032" 
d="M75 577h882v411h-882v-411z" />
    <glyph glyph-name="period" unicode="." horiz-adv-x="596" 
d="M298 380q56 0 109 -15.5t83.5 -44t30.5 -59.5t-29.5 -59t-82.5 -43.5t-111 -15.5t-111 15.5t-82.5 43.5t-29.5 59t30 59.5t83 44t110 15.5z" />
    <glyph glyph-name="slash" unicode="/" horiz-adv-x="1354" 
d="M1279 1472l-964 -1732l-240 133l964 1733z" />
    <glyph glyph-name="zero" unicode="0" horiz-adv-x="1866" 
d="M75 774q0 379 217.5 531t654.5 152q209 0 344.5 -33t222.5 -86t137 -112.5t81 -138.5q59 -148 59 -309q0 -361 -195.5 -529.5t-664.5 -168.5q-261 0 -424.5 53t-268.5 157q-77 74 -120 202t-43 282zM678 773q0 -240 64.5 -324t188.5 -84q81 0 139.5 35.5t87 113
t28.5 249.5q0 250 -64 332.5t-194 82.5q-133 0 -191.5 -84t-58.5 -321z" />
    <glyph glyph-name="one" unicode="1" horiz-adv-x="1156" 
d="M1081 1408v-1276h-615v801q-217 -83 -391 -122v315q412 163 506 282h500z" />
    <glyph glyph-name="two" unicode="2" horiz-adv-x="1890" 
d="M1815 132h-1740q35 179 188 314.5t566 317.5q249 109 314.5 163t65.5 96q0 45 -63 80.5t-162 35.5q-105 0 -168.5 -37.5t-88.5 -148.5h-611q41 201 134 284t260 127t458 44q304 0 474.5 -41.5t271.5 -130t101 -201.5q0 -119 -114 -224.5t-408 -228.5q-171 -70 -229 -98
t-75 -38h826v-314z" />
    <glyph glyph-name="three" unicode="3" horiz-adv-x="1822" 
d="M618 1005h-543q43 245 239 328.5t588 83.5q368 0 554.5 -92t186.5 -239q0 -87 -77.5 -155t-151.5 -92q41 -7 106 -30q106 -39 166.5 -104t60.5 -157q0 -114 -97.5 -216t-277.5 -155.5t-470 -53.5q-282 0 -446.5 39.5t-272 117t-108.5 268.5h542q36 -90 101.5 -126
t183.5 -36q172 0 241.5 45t69.5 99q0 64 -66.5 106t-244.5 42q-85 0 -192 -4v264q65 -6 192 4q123 10 171 48.5t48 75.5q0 36 -49.5 65t-169.5 29q-145 0 -202 -33t-82 -122z" />
    <glyph glyph-name="four" unicode="4" horiz-adv-x="1872" 
d="M1100 361l-1025 1v306l989 740h501v-747h232v-299h-232v-228h-465v227zM1100 660v366l-489 -365z" />
    <glyph glyph-name="five" unicode="5" horiz-adv-x="1834" 
d="M275 1404h1385v-307h-960l-37 -137q104 18 198.5 31.5t186.5 13.5q313 0 512 -114.5t199 -292.5q0 -125 -103 -238t-288 -171.5t-436 -58.5q-169 0 -315.5 23t-250.5 69t-197 132.5t-94 186.5h550q23 -69 94.5 -108.5t212.5 -39.5q153 0 229 49.5t76 124.5
q0 79 -76.5 125t-228.5 46q-133 0 -197.5 -19.5t-109.5 -47.5h-541z" />
    <glyph glyph-name="six" unicode="6" horiz-adv-x="1834" 
d="M1759 998h-458q-12 111 -325 111q-342 0 -342 -248q191 67 342 67q390 0 586.5 -100t196.5 -288q0 -129 -101 -223t-274 -146t-408 -52q-291 0 -480.5 64t-305 205t-115.5 372q0 339 240.5 496t660.5 157q737 0 783 -415zM634 545q0 -48 100.5 -76.5t241.5 -28.5
q147 0 236 30t89 80q0 51 -92.5 72.5t-232.5 21.5q-152 0 -247 -26t-95 -73z" />
    <glyph glyph-name="seven" unicode="7" horiz-adv-x="1810" 
d="M75 1418h1660v-264q-221 -123 -362 -259q-171 -165 -269 -368q-79 -158 -108 -389h-556q71 331 214 539.5t368 410.5h-947v330z" />
    <glyph glyph-name="eight" unicode="8" horiz-adv-x="1864" 
d="M365 822q-72 23 -137 78q-90 78 -90 180q0 167 254 270q192 77 506 77q416 0 620 -97.5t204 -252.5q0 -91 -85 -169q-61 -56 -139 -86q118 -34 204.5 -117.5t86.5 -186.5q0 -99 -74.5 -183.5t-180.5 -129t-261.5 -65.5t-329.5 -21q-328 0 -504 47t-270 141t-94 213
q0 117 89 196t201 106zM647 1060q0 -48 77.5 -79t214.5 -31q120 0 193.5 30.5t73.5 76.5q0 48 -76.5 80t-202.5 32q-128 0 -204 -31t-76 -78zM565 531q0 -57 111 -96t259 -39q141 0 250.5 39.5t109.5 96.5q0 58 -110.5 97t-260.5 39q-147 0 -253 -38t-106 -99z" />
    <glyph glyph-name="nine" unicode="9" horiz-adv-x="1834" 
d="M75 534h458q12 -111 325 -111q342 0 342 248q-191 -67 -342 -67q-390 0 -586.5 100t-196.5 288q0 129 101 223t274 146t408 52q291 0 480.5 -64t305 -205t115.5 -372q0 -339 -240.5 -496t-660.5 -157q-737 0 -783 415zM1200 987q0 48 -100.5 76.5t-241.5 28.5
q-147 0 -236 -30t-89 -80q0 -51 92.5 -72.5t232.5 -21.5q152 0 247 26t95 73z" />
    <glyph glyph-name="colon" unicode=":" horiz-adv-x="602" 
d="M298 1075q56 0 109 -15.5t83.5 -44t30.5 -59.5t-29.5 -59t-82.5 -43.5t-111 -15.5t-111 15.5t-82.5 43.5t-29.5 59t30 59.5t83 44t110 15.5zM304 380q56 0 109 -15.5t83.5 -44t30.5 -59.5t-29.5 -59t-82.5 -43.5t-111 -15.5t-111 15.5t-82.5 43.5t-29.5 59t30 59.5t83 44
t110 15.5z" />
    <glyph glyph-name="semicolon" unicode=";" horiz-adv-x="596" 
d="M298 1075q56 0 109 -15.5t83.5 -44t30.5 -59.5t-29.5 -59t-82.5 -43.5t-111 -15.5t-111 15.5t-82.5 43.5t-29.5 59t30 59.5t83 44t110 15.5zM298 365q56 0 109 -15.5t83.5 -44t30.5 -59.5t-44 -82.5t-103 -99t-188 -145.5l-63 26q117 183 64 198.5t-82.5 43.5t-29.5 59
t30 59.5t83 44t110 15.5z" />
    <glyph glyph-name="semicolon" unicode="&#x37e;" horiz-adv-x="596" 
d="M298 1075q56 0 109 -15.5t83.5 -44t30.5 -59.5t-29.5 -59t-82.5 -43.5t-111 -15.5t-111 15.5t-82.5 43.5t-29.5 59t30 59.5t83 44t110 15.5zM298 365q56 0 109 -15.5t83.5 -44t30.5 -59.5t-44 -82.5t-103 -99t-188 -145.5l-63 26q117 183 64 198.5t-82.5 43.5t-29.5 59
t30 59.5t83 44t110 15.5z" />
    <glyph glyph-name="less" unicode="&#x3c;" horiz-adv-x="1134" 
d="M1059 247l-984 367v289l984 367v-299l-674 -210v-5l674 -210v-299z" />
    <glyph glyph-name="equal" unicode="=" horiz-adv-x="1032" 
d="M75 916h882v263h-882v-263zM75 386h882v263h-882v-263z" />
    <glyph glyph-name="greater" unicode="&#x3e;" horiz-adv-x="1134" 
d="M75 546l673 210v5l-673 210v299l984 -367v-289l-984 -367v299z" />
    <glyph glyph-name="question" unicode="?" horiz-adv-x="2023" 
d="M901 337q56 0 109 -15.5t83.5 -44t30.5 -59.5t-29.5 -59t-82.5 -43.5t-111 -15.5t-111 15.5t-82.5 43.5t-29.5 59t30 59.5t83 44t110 15.5zM672 1380q37 29 94 43t278 22q176 -7 222 -21t71.5 -41.5t26.5 -55.5q-1 -29 -25.5 -55.5t-70.5 -41.5t-105 -14q-43 -6 -80 -14
t-87 -15.5t-131 -44t-125.5 -78t-70.5 -107t9 -473.5h446l18 301q0 29 26 56.5t56.5 42.5t79.5 13q152 11 310.5 43.5t246 110t87.5 165.5t-47 162.5t-174 140t-312 95t-390 22.5q-187 0 -390 -26t-296.5 -69.5t-169 -110t-94.5 -155.5h514q46 76 83 105z" />
    <glyph glyph-name="at" unicode="@" horiz-adv-x="1445" 
d="M516 755q-3 -40 40 -75.5t120 -40.5q89 -5 152 27t66 90q3 44 -42 77t-119 38q-52 3 -93 -6.5t-67.5 -27t-41 -41.5t-15.5 -41zM1281 398q-83 -119 -223.5 -186.5t-357.5 -67.5q-118 0 -231.5 40.5t-200.5 118t-140 188t-53 251.5q0 156 53 278t144.5 207t215 130
t264.5 45t255 -39t194 -109.5t124.5 -167t44.5 -210.5q0 -91 -26.5 -158.5t-68 -117t-92.5 -82t-101.5 -51.5t-93 -26.5t-67.5 -7.5q-44 0 -66 17t-26 47h-19q-32 -33 -79 -48.5t-95 -15.5q-47 0 -94.5 23.5t-86.5 65.5t-63.5 97.5t-24.5 119.5q0 66 25.5 133t69.5 116
t103 77t124 28q142 0 223 -98l9 59h148l-40 -269q-3 -19 -8.5 -41t-9.5 -48t-7.5 -49.5t-3.5 -32.5q0 -19 7 -33t29 -14q28 0 58 16.5t54 50t38 86t14 124.5q0 103 -33.5 180.5t-94.5 129t-144.5 75.5t-180.5 24q-108 0 -200.5 -38t-159 -103.5t-104.5 -154.5t-38 -193
q0 -116 35.5 -204.5t98.5 -148t150 -89t192 -29.5q72 0 128.5 7.5t101.5 21.5t81.5 34t67.5 42h181z" />
    <glyph glyph-name="A" unicode="A" horiz-adv-x="2302" 
d="M898 619h519l-263 461zM766 1410h766l695 -1273h-550l-126 228h-794l-126 -228h-556z" />
    <glyph glyph-name="B" unicode="B" horiz-adv-x="2134" 
d="M75 1410v-1273h1497q487 12 487 318q0 319 -444 319v0q444 0 444 318t-487 318h-1497zM1350 1141q170 -2 170 -111t-170 -111h-730v222h730zM1350 654q170 -2 170 -111t-170 -111h-730v222h730z" />
    <glyph glyph-name="C" unicode="C" horiz-adv-x="2432" 
d="M75 752q47 -630 1133 -630q998 0 1146 555h-576q-49 -139 -218.5 -201.5t-351.5 -62.5q-174 0 -341.5 79t-168.5 264q16 206 176 280t334 74q182 0 351.5 -48.5t197.5 -167.5h600q-163 535 -1149 535q-1086 0 -1133 -677z" />
    <glyph glyph-name="D" unicode="D" horiz-adv-x="2288" 
d="M75 1410v-1273h1035q1096 -15 1103 692q-35 545 -849 581h-1289zM1094 1087q535 -9 533 -277q-3 -341 -490 -338h-484l1 615h440z" />
    <glyph glyph-name="E" unicode="E" horiz-adv-x="1872" 
d="M75 1410v-1273h1722v319l-1172 -1v199l1041 -2v268h-1041v0v1v189h1172v300h-1722z" />
    <glyph glyph-name="F" unicode="F" horiz-adv-x="1940" 
d="M75 1410h1790v-287h-1189v-268h1016v-315h-1016v-403h-601v1273z" />
    <glyph glyph-name="G" unicode="G" horiz-adv-x="2471" 
d="M2092 127l-99 179q-64 -45 -156.5 -81.5t-196 -63t-211.5 -41.5t-202 -15q-241 0 -444.5 33.5t-356 102.5t-243.5 173t-104 244q0 12 -1 27t-1 29q-2 14 -2 27.5v28.5q0 16 1 34t1 35v34q9 122 93.5 224.5t237.5 177t372.5 116.5t500.5 42q206 0 386.5 -25t321.5 -80.5
t235 -143t126 -213.5v2q3 -5 4 -16t3 -20h-704q-5 12 -7 21t-6 16v-3q-33 79 -126 123t-248 44q-198 0 -347.5 -65.5t-175.5 -169.5t-26 -129q0 -27 1 -69t24.5 -79.5t63 -77t124.5 -80.5t162 -44t175 -3q341 -9 422 182h-132v101h830q2 -46 2 -102v-94q2 -48 3.5 -101
t2.5 -104t1 -97v-79h-304z" />
    <glyph glyph-name="H" unicode="H" horiz-adv-x="2152" 
d="M1507 1410v-442h-862v442h-570v-1273h570v505l862 -2v-503h570v1273h-570z" />
    <glyph glyph-name="I" unicode="I" horiz-adv-x="744" 
d="M75 1410v-1273h594v1273h-594z" />
    <glyph glyph-name="J" unicode="J" horiz-adv-x="2057" 
d="M708 600q-7 -146 283 -146q220 0 298 58.5t78 167.5v730h615v-725q0 -141 -61 -244.5t-178.5 -171t-288 -100t-391.5 -32.5q-229 0 -410.5 31t-307.5 93.5t-192.5 157.5t-77.5 181h633z" />
    <glyph glyph-name="K" unicode="K" horiz-adv-x="1956" 
d="M1226 1410l-570 -443v443h-581v-1273h581v499l570 -499h655l-712 639l674 634h-617z" />
    <glyph glyph-name="L" unicode="L" horiz-adv-x="1715" 
d="M75 137h1565v370h-940v903h-625v-1273z" />
    <glyph glyph-name="M" unicode="M" horiz-adv-x="2574" 
d="M75 1410h763l455 -665l457 665h749v-1273h-476v804l-515 -804h-439l-512 804v-804h-482v1273z" />
    <glyph glyph-name="N" unicode="N" horiz-adv-x="2213" 
d="M75 1410v-1273h488v794l859 -794h716v1273h-481v-769l-890 769h-692z" />
    <glyph glyph-name="O" unicode="O" horiz-adv-x="2466" 
d="M1232 1436q293 0 569 -86t433 -245t157 -333q0 -173 -152.5 -330.5t-429 -245.5t-577.5 -88q-299 0 -575 88t-429 245.5t-153 330.5q0 174 155.5 333t432.5 245t569 86zM980 1064.5q-129 -45.5 -202 -127.5t-73 -173q0 -90 71.5 -171.5t201.5 -127.5t269 -46t269 46
t201 127.5t71 171.5q0 91 -73.5 173t-202.5 127.5t-265 45.5q-138 0 -267 -45.5z" />
    <glyph glyph-name="P" unicode="P" horiz-adv-x="2192" 
d="M1404 1130q149 -2 190.5 -71t0 -138.5t-205.5 -71.5h-714v141v140h729zM75 1410v-1273h600v405h921q167 11 259.5 47.5t165 107t84.5 176.5t4 194t-72.5 152t-160.5 108t-179.5 55.5t-213.5 27.5h-1408z" />
    <glyph glyph-name="Q" unicode="Q" horiz-adv-x="2446" 
d="M1222 1433q290 0 563.5 -85t429.5 -242.5t156 -330.5q0 -185 -151.5 -337.5t-304.5 -202.5l148 -125l-221 -136l-163 185q-161 -45 -457 -55q-298 1 -571 87.5t-424.5 242.5t-151.5 341q0 173 154 330.5t428.5 242.5t564.5 85zM980 1064.5q-129 -45.5 -202 -127.5
t-73 -173q0 -90 71.5 -171.5t201.5 -127.5t269 -46t204 23l-84 99l143 49l104 -91q32 12 103 93q71 82 71 172q0 91 -73.5 173t-202.5 127.5t-265 45.5q-138 0 -267 -45.5z" />
    <glyph glyph-name="R" unicode="R" horiz-adv-x="2191" 
d="M75 1411v-1274h544v445h607q127 -3 134 -98.5t23 -194.5t178 -152h538q-49 44 -50 101q67 462 -434 477v4q434 36 467 338q-28 311 -510 354h-1497zM1350 1137q136 0 170 -144q-17 -130 -164 -130h-737v274h731z" />
    <glyph glyph-name="S" unicode="S" horiz-adv-x="2201" 
d="M1511 1045h615q-23 98 -113 172t-202 122.5t-355 77.5t-348 29q-138 8 -377 -25t-391.5 -106t-208.5 -155.5t-56 -180.5t104.5 -184t294.5 -122t683 -49q59 2 113.5 -14.5t85.5 -47t31 -62.5q0 -31 -30.5 -61.5t-85.5 -46t-169 -32.5q-86 2 -145 8t-103 27t-81 61.5
t-45 78.5h-653q0 -70 44.5 -123.5t129 -115t177.5 -94t222 -52.5t380 -36q226 0 334.5 8t217.5 32.5t250.5 98t198.5 146.5t72.5 146.5t-16 146t-84.5 119t-150 87t-157 49t-170 17t-342 15.5q-114 0 -176 -0.5t-117 16t-84.5 46t-30.5 61.5q1 32 31.5 62.5t86 46
t193.5 23.5q145 -9 213.5 -25t113 -48t99.5 -116z" />
    <glyph glyph-name="T" unicode="T" horiz-adv-x="2156" 
d="M75 1410h2006v-379h-711v-894h-603v894h-692v379z" />
    <glyph glyph-name="U" unicode="U" horiz-adv-x="2180" 
d="M75 1410h551v-727q0 -228 419 -229q342 1 425.5 60t83.5 169v727h551v-723q0 -141 -65 -246t-191 -172.5t-308.5 -100.5t-419.5 -33q-245 0 -439.5 31.5t-329.5 94.5t-206 159t-71 227v763z" />
    <glyph glyph-name="V" unicode="V" horiz-adv-x="2307" 
d="M1539 137h-769l-695 1273h550l530 -921l527 921h550z" />
    <glyph glyph-name="W" unicode="W" horiz-adv-x="2581" 
d="M75 1410h494l215 -836l286 836h439l288 -836l215 836h494l-336 -1273h-661l-218 639l-219 -639h-661z" />
    <glyph glyph-name="X" unicode="X" horiz-adv-x="2030" 
d="M1345 137l-330 313l-329 -313h-611l630 635l-630 635h611l329 -327l330 327h610l-631 -635l631 -635h-610z" />
    <glyph glyph-name="Y" unicode="Y" horiz-adv-x="1907" 
d="M1255 568v-431h-611v431l-569 842h576l332 -500l319 500h530z" />
    <glyph glyph-name="Z" unicode="Z" horiz-adv-x="2170" 
d="M75 137v303l1135 683h-1080v288h1925l1 -324l-1127 -662h1166v-288h-2020z" />
    <glyph glyph-name="bracketleft" unicode="[" horiz-adv-x="648" 
d="M75 -379v1879h498v-211h-251v-1457h251v-211h-498z" />
    <glyph glyph-name="backslash" unicode="\" horiz-adv-x="1354" 
d="M315 1606l964 -1733l-240 -133l-964 1732z" />
    <glyph glyph-name="bracketright" unicode="]" horiz-adv-x="648" 
d="M75 -379v211h251v1457h-251v211h498v-1879h-498z" />
    <glyph glyph-name="asciicircum" unicode="^" horiz-adv-x="1072" 
d="M582 1698l415 -669h-190l-270 432l-270 -432h-192l420 669h87z" />
    <glyph glyph-name="underscore" unicode="_" horiz-adv-x="2236" 
d="M2161 -107h-2086v174h2086v-174z" />
    <glyph glyph-name="grave" unicode="`" horiz-adv-x="557" 
d="M236 1581l246 -295l-71 -89l-336 281z" />
    <glyph glyph-name="a" unicode="a" horiz-adv-x="2302" 
d="M898 619h519l-263 461zM766 1410h766l695 -1273h-550l-126 228h-794l-126 -228h-556z" />
    <glyph glyph-name="b" unicode="b" horiz-adv-x="2134" 
d="M75 1410l2 -1273h1495q487 12 487 318q0 319 -444 319v0q444 0 444 318t-487 318h-1497zM1350 1141q170 -2 170 -111t-170 -111h-730v222h730zM1350 654q170 -2 170 -111t-170 -111h-730v222h730z" />
    <glyph glyph-name="c" unicode="c" horiz-adv-x="2432" 
d="M75 752q47 -630 1133 -630q998 0 1146 555h-576q-78 -139 -233 -201.5t-337 -62.5q-174 0 -341.5 79t-168.5 264q16 206 176 280t334 74q182 0 351.5 -48.5t197.5 -167.5h600q-163 535 -1149 535q-1086 0 -1133 -677z" />
    <glyph glyph-name="d" unicode="d" horiz-adv-x="2288" 
d="M75 1410v-1273h1035q1096 -15 1103 692q-35 545 -849 581h-1289zM1094 1087q535 -9 533 -277q-3 -341 -490 -338h-484l1 615h440z" />
    <glyph glyph-name="e" unicode="e" horiz-adv-x="1872" 
d="M75 1410v-1273h1722v319l-1172 -1v199l1038 -2l3 268h-1041v0v1v189h1172v300h-1722z" />
    <glyph glyph-name="f" unicode="f" horiz-adv-x="1940" 
d="M75 1410h1790v-287h-1189v-268h1016v-315h-1016v-403h-601v1273z" />
    <glyph glyph-name="g" unicode="g" horiz-adv-x="2471" 
d="M2092 127l-99 179q-64 -45 -156.5 -81.5t-196 -63t-211.5 -41.5t-202 -15q-241 0 -444.5 33.5t-356 102.5t-243.5 173t-104 244q0 12 -1 27t-1 29q-2 14 -2 27.5v28.5q0 16 1 34t1 35v34q9 122 93.5 224.5t237.5 177t372.5 116.5t500.5 42q206 0 386.5 -25t321.5 -80.5
t235 -143t126 -213.5v2q3 -5 4 -16t3 -20h-704q-5 12 -7 21t-6 16v-3q-33 79 -126 123t-248 44q-198 0 -347.5 -65.5t-175.5 -169.5t-26 -129q0 -27 1 -69t24.5 -79.5t63 -77t124.5 -80.5t162 -44t175 -3q341 -9 422 182h-132v101h830q2 -46 2 -102v-94q2 -48 3.5 -101
t2.5 -104t1 -97v-79h-304z" />
    <glyph glyph-name="h" unicode="h" horiz-adv-x="2152" 
d="M1507 1410v-442h-862v442h-570v-1273h570v505l862 -2v-503h570v1273h-570z" />
    <glyph glyph-name="i" unicode="i" horiz-adv-x="744" 
d="M75 1410v-1273h594v1273h-594z" />
    <glyph glyph-name="j" unicode="j" horiz-adv-x="2057" 
d="M708 600q-7 -146 283 -146q220 0 298 58.5t78 167.5v730h615v-725q0 -141 -61 -244.5t-178.5 -171t-288 -100t-391.5 -32.5q-229 0 -410.5 31t-307.5 93.5t-192.5 157.5t-77.5 181h633z" />
    <glyph glyph-name="k" unicode="k" horiz-adv-x="1956" 
d="M1226 1410l-570 -443v443h-581v-1273h581v499l570 -499h655l-712 639l674 634h-617z" />
    <glyph glyph-name="l" unicode="l" horiz-adv-x="1715" 
d="M75 137h1565v370h-940v903h-625v-1273z" />
    <glyph glyph-name="m" unicode="m" horiz-adv-x="2574" 
d="M75 1410h763l455 -665l457 665h749v-1273h-476v804l-515 -804h-439l-512 804v-804h-482v1273z" />
    <glyph glyph-name="n" unicode="n" horiz-adv-x="2213" 
d="M75 1410v-1273h488v794l859 -794h716v1273h-481v-769l-890 769h-692z" />
    <glyph glyph-name="o" unicode="o" horiz-adv-x="2466" 
d="M1232 1436q293 0 569 -86t433 -245t157 -333q0 -173 -152.5 -330.5t-429 -245.5t-577.5 -88q-299 0 -575 88t-429 245.5t-153 330.5q0 174 155.5 333t432.5 245t569 86zM980 1064.5q-129 -45.5 -202 -127.5t-73 -173q0 -90 71.5 -171.5t201.5 -127.5t269 -46t269 46
t201 127.5t71 171.5q0 91 -73.5 173t-202.5 127.5t-265 45.5q-138 0 -267 -45.5z" />
    <glyph glyph-name="p" unicode="p" horiz-adv-x="2192" 
d="M1404 1130q149 -2 190.5 -71t0 -138.5t-205.5 -71.5h-714v141v140h729zM75 1410v-1273h600v405h921q167 11 259.5 47.5t165 107t84.5 176.5t4 194t-72.5 152t-160.5 108t-179.5 55.5t-213.5 27.5h-1408z" />
    <glyph glyph-name="q" unicode="q" horiz-adv-x="2446" 
d="M1222 1433q290 0 563.5 -85t429.5 -242.5t156 -330.5q0 -185 -151.5 -337.5t-304.5 -202.5l148 -125l-221 -136l-163 185q-161 -45 -457 -55q-298 1 -571 87.5t-424.5 242.5t-151.5 341q0 173 154 330.5t428.5 242.5t564.5 85zM980 1064.5q-129 -45.5 -202 -127.5
t-73 -173q0 -90 71.5 -171.5t201.5 -127.5t269 -46t204 23l-84 99l143 49l104 -91q32 12 103 93q71 82 71 172q0 91 -73.5 173t-202.5 127.5t-265 45.5q-138 0 -267 -45.5z" />
    <glyph glyph-name="r" unicode="r" horiz-adv-x="2191" 
d="M75 1411v-1274h544v445h607q127 -3 134 -98.5t23 -194.5t178 -152h538q-49 44 -50 101q67 462 -434 477v4q434 36 467 338q-28 311 -510 354h-1497zM1350 1137q136 0 170 -144q-17 -130 -164 -130h-737v274h731z" />
    <glyph glyph-name="s" unicode="s" horiz-adv-x="2201" 
d="M1511 1045h615q-23 98 -113 172t-202 122.5t-355 77.5t-348 29q-138 8 -377 -25t-391.5 -106t-208.5 -155.5t-56 -180.5t104.5 -184t294.5 -122t683 -49q59 2 113.5 -14.5t85.5 -47t31 -62.5q0 -31 -30.5 -61.5t-85.5 -46t-169 -32.5q-86 2 -145 8t-103 27t-81 61.5
t-45 78.5h-653q0 -70 44.5 -123.5t129 -115t177.5 -94t222 -52.5t380 -36q226 0 334.5 8t217.5 32.5t250.5 98t198.5 146.5t72.5 146.5t-16 146t-84.5 119t-150 87t-157 49t-170 17t-342 15.5q-114 0 -176 -0.5t-117 16t-84.5 46t-30.5 61.5q1 32 31.5 62.5t86 46
t193.5 23.5q145 -9 213.5 -25t113 -48t99.5 -116z" />
    <glyph glyph-name="t" unicode="t" horiz-adv-x="2156" 
d="M75 1410h2006v-379h-711v-894h-603v894h-692v379z" />
    <glyph glyph-name="u" unicode="u" horiz-adv-x="2180" 
d="M75 1410h551v-727q0 -228 419 -229q342 1 425.5 60t83.5 169v727h551v-723q0 -141 -65 -246t-191 -172.5t-308.5 -100.5t-419.5 -33q-245 0 -439.5 31.5t-329.5 94.5t-206 159t-71 227v763z" />
    <glyph glyph-name="v" unicode="v" horiz-adv-x="2307" 
d="M1539 137h-769l-695 1273h550l530 -921l527 921h550z" />
    <glyph glyph-name="w" unicode="w" horiz-adv-x="2581" 
d="M75 1410h494l215 -836l286 836h439l288 -836l215 836h494l-336 -1273h-661l-218 639l-219 -639h-661z" />
    <glyph glyph-name="x" unicode="x" horiz-adv-x="2030" 
d="M1345 137l-330 313l-329 -313h-611l630 635l-630 635h611l329 -327l330 327h610l-631 -635l631 -635h-610z" />
    <glyph glyph-name="y" unicode="y" horiz-adv-x="1907" 
d="M1255 568v-431h-611v431l-569 842h576l332 -500l319 500h530z" />
    <glyph glyph-name="z" unicode="z" horiz-adv-x="2170" 
d="M75 137v303l1135 683h-1080v288h1925l1 -324l-1127 -662h1166v-288h-2020z" />
    <glyph glyph-name="braceleft" unicode="{" horiz-adv-x="2042" 
d="M394 1372q19 0 30 7t17.5 15.5t10.5 14.5h8q-6 -39 -8 -54.5t0 -49.5q20 2 33.5 6t24.5 8t26 14l6 2q-4 -26 -2 -55q-39 -2 -51.5 -4t-36.5 -4q-4 -60 0 -150q0 -10 3 -21t9 -17.5t11.5 -11.5t13.5 -6t17 4t14.5 11t8.5 11.5t5 11.5t1 14t-3 14.5t-7.5 9.5t-13.5 4
t-15 -2t-9 -9.5t-1 -13.5t4 -11t7 -7t9 -3t9 5t4 11t-4 8t-7 0t-1 -10q-4 -6 -12 0q-2 10 0 15.5t5 7.5t9 2t9 -4.5t5.5 -10.5t2.5 -13t-4.5 -13t-12.5 -8.5t-14 0t-12.5 7.5t-10.5 12t-4 18.5t4 18.5t11.5 14t13.5 9t17.5 1t20.5 -8t15 -19.5t6 -34t-6 -32.5t-16 -21.5
t-22.5 -17.5t-26 -7t-26.5 4t-22.5 13.5t-16.5 19.5t-11 18.5t-5 17.5t0 29.5t3 50t4 83.5q-37 -2 -52.5 -4t-43.5 -11q-9 19 -15 28t-24 24q37 -3 54 -5t32.5 -2h40.5q2 27 0 38.5t-9 37.5zM710 1366q-27 -6 -38 -10t-21.5 -12.5t-15.5 -21.5t-5 -25.5t3 -21.5t9 -17.5
t15.5 -12.5t19.5 -9t25.5 -7t28 -3t27.5 -4t29.5 -8.5t25 -12.5t16.5 -16t10 -19.5t6 -26t0 -27.5t-7 -23.5t-12.5 -19.5t-17.5 -16.5t-25.5 -15.5t-27.5 -10t-25.5 -5t-28 0t-27.5 5t-22.5 7t-18.5 8.5t-16 10.5t-13.5 17t-8.5 18.5t-2 16.5t2 17t7 16.5t13.5 18.5
t18.5 13.5t23.5 4.5t24.5 -3.5t22.5 -12.5t14.5 -18.5t3 -19.5t-4 -18t-13 -16.5t-20.5 -9.5t-20.5 -1t-15.5 4t-10.5 10.5t-5 16.5t3 16t11.5 11.5t16.5 5.5t21 -3l4 -15q-6 -4 -8 -2t-7 3t-10 0t-8 -4t-3 -8t2 -10t7 -8t8 -3t9 4t8 8t5.5 10t5.5 12t2 10.5t-3.5 7.5
t-6.5 6t-10 5t-15 1t-16.5 -4t-13.5 -7t-10 -10.5t-7 -11.5t-2 -11v-14.5t5 -14.5t11 -12t14.5 -11t14.5 -7t18 -4.5t24.5 -1t24 2.5t23.5 7t22.5 12t15.5 15.5t7 17.5t0 18t-5 19.5t-10.5 15.5t-19.5 10t-26.5 5t-30 5.5t-31.5 7.5t-28.5 8t-26 13t-21.5 19.5t-14 23.5
t-6 25.5t1 23t8 25.5t17.5 26.5t23.5 17.5t26.5 12t26.5 9.5t27.5 3t28 -2.5t26.5 -7t21.5 -16t17.5 -23.5t10 -27t-4 -26.5t-12 -21.5t-16.5 -15.5t-20.5 -7t-22.5 1t-19.5 8t-16.5 16.5t-10.5 17.5t-1 18.5t8.5 17.5t17.5 13t20.5 6t18.5 -2t14 -8t8 -13t-2 -18.5
t-12 -17.5t-17.5 -5t-15.5 6t-7 10t2 12.5t9 13.5q9 2 13 -8q-4 -13 -4 -17t4 -5t6 1l4 4t4 7.5t0 9.5t-4 9t-9 6t-12.5 1t-10.5 -4t-9 -8t-5 -6t-1 -8.5t2 -10.5l4 -8t5 -7t8 -7t9.5 -6.5t14.5 -2.5t17 3.5t12.5 11.5t9.5 16t4 16.5t-3 19.5t-14.5 21.5t-22.5 13.5t-21.5 4
t-22.5 3zM1062 1290l4 -67l-41 -2q-51 4 -90 12q23 -29 37 -59q45 6 94 8q4 -99 4 -183l62 -8q-8 17 -15 43q-6 72 -12 119v29q37 2 74 0q0 16 6 39h-82v57q0 14 2 29.5t5 25.5t8.5 17.5t10.5 12.5t13 9t17.5 4h16.5t14 -3t12.5 -7t7.5 -9t4 -10.5t3 -12.5t-1 -12t-7.5 -11
t-8.5 -10.5t-6 -6.5t-8 -4t-9 -1t-10.5 6t-8.5 9.5t-3 9.5t0 10t5.5 10t9.5 6t9 0t5 -4t0 -7t-4 -5t-10.5 -2t-6 -5t6.5 -6t11 -1t11 4t6 9t1 13t-5 12.5t-12 6.5t-16.5 0t-16.5 -8.5t-10 -12.5t-4 -11t1 -13t6 -14.5t12 -11.5t16.5 -6t15.5 -2t14.5 2t14.5 12t10 19.5
t3 21.5t-4 24.5t-14.5 19.5t-21.5 14.5t-21.5 7.5h-21.5t-18.5 -2t-17.5 -7.5t-17 -12.5t-12.5 -15t-9.5 -15.5t-6 -17.5t-3 -18.5t1 -18.5zM1350.5 1374q-18.5 -6 -32.5 -13t-26.5 -17.5t-23.5 -25.5t-19.5 -31.5t-14.5 -35t-9 -38t-2 -39t6 -38t10 -36t24.5 -40t40 -34.5
t35 -18.5t30 -7.5t27.5 1.5t21.5 6.5t17.5 11t17 18.5t15.5 23.5t8.5 23.5t0 23.5t-9.5 21.5t-13.5 16.5t-17 12t-18.5 7t-11.5 2t-5 -5t1 -8t9 -4t13.5 -6t13.5 -9.5t12 -12.5t5 -14v-15.5t-2 -17.5t-7 -15t-9 -12.5t-11.5 -10.5t-12.5 -8t-14 -3h-17.5t-15.5 1t-15 6
t-13.5 10.5t-12.5 13.5t-13 16t-14.5 25.5t-12.5 48.5t0 52.5t5.5 37.5t7.5 29.5t14 28t18.5 26.5t19.5 18.5t19.5 11.5t21.5 7t19 2t16.5 -4t16.5 -9.5t13 -14.5t10.5 -16t5.5 -18.5t-1 -19.5t-6.5 -16.5t-11.5 -11.5t-13 -4t-15.5 0t-15.5 7.5t-14 14.5t-6 19t5 16.5
t12 9.5t14.5 2t12.5 -7t5 -12.5t-4 -12.5t-9.5 -3t-10.5 5t-8 4t-5 -2t2 -9t9 -9t12.5 -4t13.5 2t10 8t4 13t0 15.5t-6 12.5t-14 8t-19.5 3t-19.5 -5t-16.5 -14.5t-8.5 -20.5t2 -19t9.5 -16.5t15.5 -13.5t19.5 -9t21.5 -4t21.5 5t16.5 16t10 22.5t5 25t-1 22.5t-7 19.5
t-16.5 20.5t-20.5 15t-25.5 7t-33 2t-35 -6zM415 911h119v-51h-64v-98h60v-55h-60v-172h-55v376zM628 911q70 0 70 -65v-256q0 -47 -68 -55h-4q-70 6 -70 59v246q0 71 72 71zM720 911h72l35 -166h2v166h49l6 -6v-364l-6 -6h-62l-41 190h-2v-190h-53v376zM904 911h146l4 -6
v-43h-39l-4 -2h-2l-2 2l-2 -2v-325h-51l-7 6v321h-43v49zM1146 911q62 0 76 -51v-86h-51v51q0 31 -15 35h-10q-18 0 -18 -18v-35q0 -14 47 -70q47 -43 47 -78v-67q0 -51 -74 -57h-2q-72 0 -72 67v76h54v-76q0 -14 10 -18h18q11 0 15 32h-4l4 2v23l-4 2l4 2v2q-4 17 -52 72
q-45 43 -45 82v41q0 69 72 69zM607 842v-242q0 -22 21 -22q14 0 20 14v250q0 18 -18 18h-4q-19 0 -19 -18zM1339 715h43q30 0 30 -35v-16q0 -17 -14 -31q10 0 14 -31v-20q0 -47 -32 -47h-41v180zM1423 715h20q6 0 14 -60h2l13 60h22l-22 -115v-65h-29v63q0 16 -20 117z
M1365 694l-2 -4v-47h2q15 0 17 8v35q0 4 -17 8zM1363 618v-59q0 -4 8 -4l11 8v53l-13 2h-6zM259 356q56 0 56 -34v-9q0 -22 -27 -94h-55q24 66 24 78l-8 8h-10q-25 0 -37 -59q0 -13 51 -113v-6q0 -35 -39 -113q-33 -32 -82 -32q-57 0 -57 38l29 103h55v-4l-25 -80v-8l13 -2
h6q26 0 41 71l-51 109v10q24 103 38 103q13 26 78 34zM405 356v-4l-105 -311q4 -12 19 -12q30 0 43 71l86 256h53q-102 -317 -117 -342q-33 -32 -82 -32q-57 0 -57 38q0 15 109 336h51zM601 356q43 0 43 -24v-8q-49 -187 -80 -187l-22 -4h-49q-41 -143 -53 -151h-43l127 374
h77zM798 356l-14 -51h-70l-33 -102h53l5 2h2v-4q-13 -49 -19 -49h-59l-41 -123h67v-4q-12 -43 -18 -43h-119l127 374h119zM898 356q49 0 49 -30q-45 -166 -67 -166h-8v-6q12 0 12 -9v-10l-49 -153h-45v2l45 143l-6 6h-31q-45 -145 -55 -151h-45l61 186l66 188h73zM1058 356
q53 0 53 -34v-9q0 -18 -24 -92h-54v2l21 74l-8 8h-10q-27 0 -43 -78q-62 -176 -62 -188v-8l14 -2h4q27 0 44 80q10 24 14 24h47v-4q-39 -135 -72 -135q-18 -12 -53 -12q-57 0 -57 38q6 27 92 281q33 55 94 55zM1224 356q59 0 59 -41q0 -18 -110 -333h-54l46 141h-35
q-6 0 -47 -139l-4 -2h-54q107 325 119 340q35 34 80 34zM1396 356q47 0 47 -30q-45 -166 -65 -166h-9v-6q11 0 11 -9v-4q0 -16 -50 -157v-2h-45v2l45 143l-4 6h-32q-45 -147 -54 -151h-45l125 374h76zM1554 356q53 0 53 -34v-9q0 -18 -23 -92h-55v2l23 74l-9 8h-10
q-26 0 -43 -78q-61 -176 -61 -188v-8l12 -2h6q25 0 43 80h-22v2l16 55h78v-4q-53 -170 -64 -180h-32l-2 14q-19 -14 -56 -14q-39 4 -39 34q0 21 95 291q32 49 90 49zM1699 356v-4l-104 -315l16 -8q33 0 43 63l88 264h53q-102 -317 -118 -342q-31 -32 -84 -32q-56 0 -56 41
q6 26 111 333h51zM1869 356l-20 -127v-2h4l65 129h49v-4q-123 -215 -133 -243q-41 -127 -47 -127h-51q61 168 61 245l21 129h51zM513 186h23q24 0 35 62q16 37 16 51l-4 6h-27q-6 -2 -43 -119zM816 186h21q29 0 39 60q14 37 14 51v2l-4 6h-27q-6 -2 -43 -119zM1144 168h35
q4 2 45 123q-6 12 -10 14h-9q-26 0 -43 -82q-4 0 -18 -55zM1312 186h23q26 0 36 60q17 37 17 51v2l-6 6h-27q-4 -2 -43 -119zM1650 -67q18 0 22 -12q5 -9 5 -17v-6q0 -22 -7 -35l-24 -55h31v-18h-58v16q0 4 27 63q10 17 10 23v10v2q0 8 -8 8v0q-8 0 -8 -8v-24h-21v26
q0 21 21 27h10zM1713 -67q29 0 29 -29v-88q0 -26 -25 -26h-8q-20 0 -24 20v96q0 27 28 27zM1779 -67q27 0 27 -29v-88q0 -26 -25 -26h-6q-21 0 -25 20v96q0 27 29 27zM1844 -67q19 0 25 -14q2 -7 2 -15v-12h-20v14q0 6 -9 6v0q-8 0 -8 -6v-24q6 4 15 4h4q18 -4 18 -19v-55
q0 -20 -27 -22h-6q-18 0 -24 16v6v94q0 21 20 27h10zM1707 -92v-96q0 -6 6 -6h2q7 0 7 6v96q0 4 -9 4q-6 0 -6 -4zM1771 -92v-96q0 -6 6 -6h2q8 0 8 6v96q0 4 -10 4q-6 0 -6 -4zM1834 -143v-43q0 -6 8 -6v0q9 0 9 6v43q0 6 -7 6h-4q-4 0 -6 -6z" />
    <glyph glyph-name="bar" unicode="|" horiz-adv-x="296" 
d="M221 1647v-1864h-146v1864h146z" />
    <glyph glyph-name="braceright" unicode="}" 
 />
    <glyph glyph-name="asciitilde" unicode="~" horiz-adv-x="1149" 
d="M276 1085l-201 98q44 69 86 107q98 89 245 89q36 0 64 -4.5t161 -31.5q104 -21 127 -21q32 0 51.5 11.5t53.5 49.5l201 -98q-41 -61 -70 -91.5t-71 -56.5q-81 -50 -189 -50q-31 0 -63 5.5t-161 31.5q-105 22 -131 22q-51 0 -103 -61z" />
    <glyph glyph-name="Adieresis" unicode="&#xc4;" 
 />
    <glyph glyph-name="Aring" unicode="&#xc5;" 
 />
    <glyph glyph-name="Ccedilla" unicode="&#xc7;" 
 />
    <glyph glyph-name="Eacute" unicode="&#xc9;" 
 />
    <glyph glyph-name="Ntilde" unicode="&#xd1;" 
 />
    <glyph glyph-name="Odieresis" unicode="&#xd6;" 
 />
    <glyph glyph-name="Udieresis" unicode="&#xdc;" 
 />
    <glyph glyph-name="aacute" unicode="&#xe1;" 
 />
    <glyph glyph-name="agrave" unicode="&#xe0;" 
 />
    <glyph glyph-name="acircumflex" unicode="&#xe2;" 
 />
    <glyph glyph-name="adieresis" unicode="&#xe4;" 
 />
    <glyph glyph-name="atilde" unicode="&#xe3;" 
 />
    <glyph glyph-name="aring" unicode="&#xe5;" 
 />
    <glyph glyph-name="ccedilla" unicode="&#xe7;" 
 />
    <glyph glyph-name="eacute" unicode="&#xe9;" 
 />
    <glyph glyph-name="egrave" unicode="&#xe8;" 
 />
    <glyph glyph-name="ecircumflex" unicode="&#xea;" 
 />
    <glyph glyph-name="edieresis" unicode="&#xeb;" 
 />
    <glyph glyph-name="iacute" unicode="&#xed;" 
 />
    <glyph glyph-name="igrave" unicode="&#xec;" 
 />
    <glyph glyph-name="icircumflex" unicode="&#xee;" 
 />
    <glyph glyph-name="idieresis" unicode="&#xef;" 
 />
    <glyph glyph-name="ntilde" unicode="&#xf1;" 
 />
    <glyph glyph-name="oacute" unicode="&#xf3;" 
 />
    <glyph glyph-name="ograve" unicode="&#xf2;" 
 />
    <glyph glyph-name="ocircumflex" unicode="&#xf4;" 
 />
    <glyph glyph-name="odieresis" unicode="&#xf6;" 
 />
    <glyph glyph-name="otilde" unicode="&#xf5;" 
 />
    <glyph glyph-name="uacute" unicode="&#xfa;" 
 />
    <glyph glyph-name="ugrave" unicode="&#xf9;" 
 />
    <glyph glyph-name="ucircumflex" unicode="&#xfb;" 
 />
    <glyph glyph-name="udieresis" unicode="&#xfc;" 
 />
    <glyph glyph-name="dagger" unicode="&#x2020;" 
 />
    <glyph glyph-name="degree" unicode="&#xb0;" 
 />
    <glyph glyph-name="cent" unicode="&#xa2;" 
 />
    <glyph glyph-name="sterling" unicode="&#xa3;" 
 />
    <glyph glyph-name="section" unicode="&#xa7;" 
 />
    <glyph glyph-name="bullet" unicode="&#x2022;" horiz-adv-x="596" 
d="M298 905q56 0 109 -15.5t83.5 -44t30.5 -59.5t-29.5 -59t-82.5 -43.5t-111 -15.5t-111 15.5t-82.5 43.5t-29.5 59t30 59.5t83 44t110 15.5z" />
    <glyph glyph-name="paragraph" unicode="&#xb6;" 
 />
    <glyph glyph-name="germandbls" unicode="&#xdf;" 
 />
    <glyph glyph-name="registered" unicode="&#xae;" 
 />
    <glyph glyph-name="copyright" unicode="&#xa9;" 
 />
    <glyph glyph-name="trademark" unicode="&#x2122;" 
 />
    <glyph glyph-name="acute" unicode="&#xb4;" 
 />
    <glyph glyph-name="dieresis" unicode="&#xa8;" 
 />
    <glyph glyph-name="notequal" unicode="&#x2260;" 
 />
    <glyph glyph-name="AE" unicode="&#xc6;" 
 />
    <glyph glyph-name="Oslash" unicode="&#xd8;" 
 />
    <glyph glyph-name="infinity" unicode="&#x221e;" 
 />
    <glyph glyph-name="plusminus" unicode="&#xb1;" 
 />
    <glyph glyph-name="lessequal" unicode="&#x2264;" 
 />
    <glyph glyph-name="greaterequal" unicode="&#x2265;" 
 />
    <glyph glyph-name="yen" unicode="&#xa5;" 
 />
    <glyph glyph-name="mu" unicode="&#xb5;" 
 />
    <glyph glyph-name="partialdiff" unicode="&#x2202;" 
 />
    <glyph glyph-name="summation" unicode="&#x2211;" 
 />
    <glyph glyph-name="product" unicode="&#x220f;" 
 />
    <glyph glyph-name="glyph155" 
 />
    <glyph glyph-name="integral" unicode="&#x222b;" 
 />
    <glyph glyph-name="ordfeminine" unicode="&#xaa;" 
 />
    <glyph glyph-name="ordmasculine" unicode="&#xba;" 
 />
    <glyph glyph-name="Omega" unicode="&#x2126;" 
 />
    <glyph glyph-name="ae" unicode="&#xe6;" 
 />
    <glyph glyph-name="oslash" unicode="&#xf8;" 
 />
    <glyph glyph-name="questiondown" unicode="&#xbf;" 
 />
    <glyph glyph-name="exclamdown" unicode="&#xa1;" 
 />
    <glyph glyph-name="logicalnot" unicode="&#xac;" 
 />
    <glyph glyph-name="radical" unicode="&#x221a;" 
 />
    <glyph glyph-name="florin" unicode="&#x192;" 
 />
    <glyph glyph-name="approxequal" unicode="&#x2248;" 
 />
    <glyph glyph-name="Delta" unicode="&#x2206;" 
 />
    <glyph glyph-name="guillemotleft" unicode="&#xab;" 
 />
    <glyph glyph-name="guillemotright" unicode="&#xbb;" 
 />
    <glyph glyph-name="ellipsis" unicode="&#x2026;" 
 />
    <glyph glyph-name="Agrave" unicode="&#xc0;" 
 />
    <glyph glyph-name="Atilde" unicode="&#xc3;" 
 />
    <glyph glyph-name="Otilde" unicode="&#xd5;" 
 />
    <glyph glyph-name="OE" unicode="&#x152;" 
 />
    <glyph glyph-name="oe" unicode="&#x153;" 
 />
    <glyph glyph-name="endash" unicode="&#x2013;" 
 />
    <glyph glyph-name="emdash" unicode="&#x2014;" 
 />
    <glyph glyph-name="quotedblleft" unicode="&#x201c;" horiz-adv-x="1176" 
d="M298 1675q56 0 109 -15.5t83.5 -44t30.5 -59.5t-44 -82.5t-103 -99t-188 -145.5l-63 26q117 183 64 198.5t-82.5 43.5t-29.5 59t30 59.5t83 44t110 15.5zM878 1675q56 0 109 -15.5t83.5 -44t30.5 -59.5t-44 -82.5t-103 -99t-188 -145.5l-63 26q117 183 64 198.5
t-82.5 43.5t-29.5 59t30 59.5t83 44t110 15.5z" />
    <glyph glyph-name="quotedblright" unicode="&#x201d;" horiz-adv-x="1176" 
d="M298 1675q56 0 109 -15.5t83.5 -44t30.5 -59.5t-44 -82.5t-103 -99t-188 -145.5l-63 26q117 183 64 198.5t-82.5 43.5t-29.5 59t30 59.5t83 44t110 15.5zM878 1675q56 0 109 -15.5t83.5 -44t30.5 -59.5t-44 -82.5t-103 -99t-188 -145.5l-63 26q117 183 64 198.5
t-82.5 43.5t-29.5 59t30 59.5t83 44t110 15.5z" />
    <glyph glyph-name="quoteleft" unicode="&#x2018;" horiz-adv-x="596" 
d="M298 1229q-56 0 -109 15.5t-83.5 44t-30.5 59.5t44 82.5t103 99t188 145.5l63 -25q-117 -184 -64 -199.5t82.5 -43.5t29.5 -59t-30 -59.5t-83 -44t-110 -15.5z" />
    <glyph glyph-name="quoteright" unicode="&#x2019;" horiz-adv-x="596" 
d="M298 1675q56 0 109 -15.5t83.5 -44t30.5 -59.5t-44 -82.5t-103 -99t-188 -145.5l-63 26q117 183 64 198.5t-82.5 43.5t-29.5 59t30 59.5t83 44t110 15.5z" />
    <glyph glyph-name="divide" unicode="&#xf7;" 
 />
    <glyph glyph-name="lozenge" unicode="&#x25ca;" 
 />
    <glyph glyph-name="ydieresis" unicode="&#xff;" 
 />
    <glyph glyph-name="Ydieresis" unicode="&#x178;" 
 />
    <glyph glyph-name="fraction" unicode="&#x2044;" 
 />
    <glyph glyph-name="fraction" unicode="&#x2215;" 
 />
    <glyph glyph-name="Euro" unicode="&#x20ac;" 
 />
    <glyph glyph-name="guilsinglleft" unicode="&#x2039;" 
 />
    <glyph glyph-name="guilsinglright" unicode="&#x203a;" 
 />
    <glyph glyph-name="uniF001" unicode="&#xf001;" 
 />
    <glyph glyph-name="uniF001" unicode="&#xfb01;" 
 />
    <glyph glyph-name="uniF002" unicode="&#xf002;" 
 />
    <glyph glyph-name="uniF002" unicode="&#xfb02;" 
 />
    <glyph glyph-name="daggerdbl" unicode="&#x2021;" 
 />
    <glyph glyph-name="periodcentered" unicode="&#xb7;" 
 />
    <glyph glyph-name="periodcentered" unicode="&#x2219;" 
 />
    <glyph glyph-name="quotesinglbase" unicode="&#x201a;" 
 />
    <glyph glyph-name="quotedblbase" unicode="&#x201e;" 
 />
    <glyph glyph-name="perthousand" unicode="&#x2030;" 
 />
    <glyph glyph-name="Acircumflex" unicode="&#xc2;" 
 />
    <glyph glyph-name="Ecircumflex" unicode="&#xca;" 
 />
    <glyph glyph-name="Aacute" unicode="&#xc1;" 
 />
    <glyph glyph-name="Edieresis" unicode="&#xcb;" 
 />
    <glyph glyph-name="Egrave" unicode="&#xc8;" 
 />
    <glyph glyph-name="Iacute" unicode="&#xcd;" 
 />
    <glyph glyph-name="Icircumflex" unicode="&#xce;" 
 />
    <glyph glyph-name="Idieresis" unicode="&#xcf;" 
 />
    <glyph glyph-name="Igrave" unicode="&#xcc;" 
 />
    <glyph glyph-name="Oacute" unicode="&#xd3;" 
 />
    <glyph glyph-name="Ocircumflex" unicode="&#xd4;" 
 />
    <glyph glyph-name="Ograve" unicode="&#xd2;" 
 />
    <glyph glyph-name="Uacute" unicode="&#xda;" 
 />
    <glyph glyph-name="Ucircumflex" unicode="&#xdb;" 
 />
    <glyph glyph-name="Ugrave" unicode="&#xd9;" 
 />
    <glyph glyph-name="dotlessi" unicode="&#x131;" 
 />
    <glyph glyph-name="circumflex" unicode="&#x2c6;" 
 />
    <glyph glyph-name="tilde" unicode="&#x2dc;" 
 />
    <glyph glyph-name="uni02C9" unicode="&#x2c9;" 
 />
    <glyph glyph-name="breve" unicode="&#x2d8;" 
 />
    <glyph glyph-name="dotaccent" unicode="&#x2d9;" 
 />
    <glyph glyph-name="ring" unicode="&#x2da;" 
 />
    <glyph glyph-name="cedilla" unicode="&#xb8;" 
 />
    <glyph glyph-name="hungarumlaut" unicode="&#x2dd;" 
 />
    <glyph glyph-name="ogonek" unicode="&#x2db;" 
 />
    <glyph glyph-name="caron" unicode="&#x2c7;" 
 />
    <glyph glyph-name="Lslash" unicode="&#x141;" 
 />
    <glyph glyph-name="lslash" unicode="&#x142;" 
 />
    <glyph glyph-name="Scaron" unicode="&#x160;" 
 />
    <glyph glyph-name="scaron" unicode="&#x161;" 
 />
    <glyph glyph-name="Zcaron" unicode="&#x17d;" 
 />
    <glyph glyph-name="zcaron" unicode="&#x17e;" 
 />
    <glyph glyph-name="brokenbar" unicode="&#xa6;" 
 />
    <glyph glyph-name="Eth" unicode="&#xd0;" 
 />
    <glyph glyph-name="eth" unicode="&#xf0;" 
 />
    <glyph glyph-name="Yacute" unicode="&#xdd;" 
 />
    <glyph glyph-name="yacute" unicode="&#xfd;" 
 />
    <glyph glyph-name="Thorn" unicode="&#xde;" 
 />
    <glyph glyph-name="thorn" unicode="&#xfe;" 
 />
    <glyph glyph-name="minus" unicode="&#x2212;" 
 />
    <glyph glyph-name="multiply" unicode="&#xd7;" 
 />
    <glyph glyph-name="uni00B9" unicode="&#xb9;" 
 />
    <glyph glyph-name="uni00B2" unicode="&#xb2;" 
 />
    <glyph glyph-name="uni00B3" unicode="&#xb3;" 
 />
    <glyph glyph-name="onehalf" unicode="&#xbd;" 
 />
    <glyph glyph-name="onequarter" unicode="&#xbc;" 
 />
    <glyph glyph-name="threequarters" unicode="&#xbe;" 
 />
    <glyph glyph-name="franc" unicode="&#x20a3;" 
 />
    <glyph glyph-name="Gbreve" unicode="&#x11e;" 
 />
    <glyph glyph-name="gbreve" unicode="&#x11f;" 
 />
    <glyph glyph-name="Idotaccent" unicode="&#x130;" 
 />
    <glyph glyph-name="Scedilla" unicode="&#x15e;" 
 />
    <glyph glyph-name="scedilla" unicode="&#x15f;" 
 />
    <glyph glyph-name="Cacute" unicode="&#x106;" 
 />
    <glyph glyph-name="cacute" unicode="&#x107;" 
 />
    <glyph glyph-name="Ccaron" unicode="&#x10c;" 
 />
    <glyph glyph-name="ccaron" unicode="&#x10d;" 
 />
    <glyph glyph-name="dcroat" unicode="&#x111;" 
 />
    <glyph glyph-name="currency" unicode="&#xa4;" 
 />
    <glyph glyph-name="macron" unicode="&#xaf;" 
 />
    <glyph glyph-name="Amacron" unicode="&#x100;" 
 />
    <glyph glyph-name="amacron" unicode="&#x101;" 
 />
    <glyph glyph-name="Abreve" unicode="&#x102;" 
 />
    <glyph glyph-name="abreve" unicode="&#x103;" 
 />
    <glyph glyph-name="Aogonek" unicode="&#x104;" 
 />
    <glyph glyph-name="aogonek" unicode="&#x105;" 
 />
    <glyph glyph-name="Ccircumflex" unicode="&#x108;" 
 />
    <glyph glyph-name="ccircumflex" unicode="&#x109;" 
 />
    <glyph glyph-name="Cdotaccent" unicode="&#x10a;" 
 />
    <glyph glyph-name="cdotaccent" unicode="&#x10b;" 
 />
    <glyph glyph-name="Dcaron" unicode="&#x10e;" 
 />
    <glyph glyph-name="dcaron" unicode="&#x10f;" 
 />
    <glyph glyph-name="Dcroat" unicode="&#x110;" 
 />
    <glyph glyph-name="Emacron" unicode="&#x112;" 
 />
    <glyph glyph-name="emacron" unicode="&#x113;" 
 />
    <glyph glyph-name="Ebreve" unicode="&#x114;" 
 />
    <glyph glyph-name="ebreve" unicode="&#x115;" 
 />
    <glyph glyph-name="Edotaccent" unicode="&#x116;" 
 />
    <glyph glyph-name="edotaccent" unicode="&#x117;" 
 />
    <glyph glyph-name="Eogonek" unicode="&#x118;" 
 />
    <glyph glyph-name="eogonek" unicode="&#x119;" 
 />
    <glyph glyph-name="Ecaron" unicode="&#x11a;" 
 />
    <glyph glyph-name="ecaron" unicode="&#x11b;" 
 />
    <glyph glyph-name="Gcircumflex" unicode="&#x11c;" 
 />
    <glyph glyph-name="gcircumflex" unicode="&#x11d;" 
 />
    <glyph glyph-name="Gdotaccent" unicode="&#x120;" 
 />
    <glyph glyph-name="gdotaccent" unicode="&#x121;" 
 />
    <glyph glyph-name="Gcommaaccent" unicode="&#x122;" 
 />
    <glyph glyph-name="gcommaaccent" unicode="&#x123;" 
 />
    <glyph glyph-name="Hcircumflex" unicode="&#x124;" 
 />
    <glyph glyph-name="hcircumflex" unicode="&#x125;" 
 />
    <glyph glyph-name="Hbar" unicode="&#x126;" 
 />
    <glyph glyph-name="hbar" unicode="&#x127;" 
 />
    <glyph glyph-name="Itilde" unicode="&#x128;" 
 />
    <glyph glyph-name="itilde" unicode="&#x129;" 
 />
    <glyph glyph-name="Imacron" unicode="&#x12a;" 
 />
    <glyph glyph-name="imacron" unicode="&#x12b;" 
 />
    <glyph glyph-name="Ibreve" unicode="&#x12c;" 
 />
    <glyph glyph-name="ibreve" unicode="&#x12d;" 
 />
    <glyph glyph-name="Iogonek" unicode="&#x12e;" 
 />
    <glyph glyph-name="iogonek" unicode="&#x12f;" 
 />
    <glyph glyph-name="IJ" unicode="&#x132;" 
 />
    <glyph glyph-name="ij" unicode="&#x133;" 
 />
    <glyph glyph-name="Jcircumflex" unicode="&#x134;" 
 />
    <glyph glyph-name="jcircumflex" unicode="&#x135;" 
 />
    <glyph glyph-name="Kcommaaccent" unicode="&#x136;" 
 />
    <glyph glyph-name="kcommaaccent" unicode="&#x137;" 
 />
    <glyph glyph-name="kgreenlandic" unicode="&#x138;" 
 />
    <glyph glyph-name="Lacute" unicode="&#x139;" 
 />
    <glyph glyph-name="lacute" unicode="&#x13a;" 
 />
    <glyph glyph-name="Lcommaaccent" unicode="&#x13b;" 
 />
    <glyph glyph-name="lcommaaccent" unicode="&#x13c;" 
 />
    <glyph glyph-name="Lcaron" unicode="&#x13d;" 
 />
    <glyph glyph-name="lcaron" unicode="&#x13e;" 
 />
    <glyph glyph-name="Ldot" unicode="&#x13f;" 
 />
    <glyph glyph-name="ldot" unicode="&#x140;" 
 />
    <glyph glyph-name="Nacute" unicode="&#x143;" 
 />
    <glyph glyph-name="nacute" unicode="&#x144;" 
 />
    <glyph glyph-name="Ncommaaccent" unicode="&#x145;" 
 />
    <glyph glyph-name="ncommaaccent" unicode="&#x146;" 
 />
    <glyph glyph-name="Ncaron" unicode="&#x147;" 
 />
    <glyph glyph-name="ncaron" unicode="&#x148;" 
 />
    <glyph glyph-name="napostrophe" unicode="&#x149;" 
 />
    <glyph glyph-name="Eng" unicode="&#x14a;" 
 />
    <glyph glyph-name="eng" unicode="&#x14b;" 
 />
    <glyph glyph-name="Omacron" unicode="&#x14c;" 
 />
    <glyph glyph-name="omacron" unicode="&#x14d;" 
 />
    <glyph glyph-name="Obreve" unicode="&#x14e;" 
 />
    <glyph glyph-name="obreve" unicode="&#x14f;" 
 />
    <glyph glyph-name="Ohungarumlaut" unicode="&#x150;" 
 />
    <glyph glyph-name="ohungarumlaut" unicode="&#x151;" 
 />
    <glyph glyph-name="Racute" unicode="&#x154;" 
 />
    <glyph glyph-name="racute" unicode="&#x155;" 
 />
    <glyph glyph-name="Rcommaaccent" unicode="&#x156;" 
 />
    <glyph glyph-name="rcommaaccent" unicode="&#x157;" 
 />
    <glyph glyph-name="Rcaron" unicode="&#x158;" 
 />
    <glyph glyph-name="rcaron" unicode="&#x159;" 
 />
    <glyph glyph-name="Sacute" unicode="&#x15a;" 
 />
    <glyph glyph-name="sacute" unicode="&#x15b;" 
 />
    <glyph glyph-name="Scircumflex" unicode="&#x15c;" 
 />
    <glyph glyph-name="scircumflex" unicode="&#x15d;" 
 />
    <glyph glyph-name="Tcommaaccent" unicode="&#x162;" 
 />
    <glyph glyph-name="tcommaaccent" unicode="&#x163;" 
 />
    <glyph glyph-name="Tcaron" unicode="&#x164;" 
 />
    <glyph glyph-name="tcaron" unicode="&#x165;" 
 />
    <glyph glyph-name="Tbar" unicode="&#x166;" 
 />
    <glyph glyph-name="tbar" unicode="&#x167;" 
 />
    <glyph glyph-name="Utilde" unicode="&#x168;" 
 />
    <glyph glyph-name="utilde" unicode="&#x169;" 
 />
    <glyph glyph-name="Umacron" unicode="&#x16a;" 
 />
    <glyph glyph-name="umacron" unicode="&#x16b;" 
 />
    <glyph glyph-name="Ubreve" unicode="&#x16c;" 
 />
    <glyph glyph-name="ubreve" unicode="&#x16d;" 
 />
    <glyph glyph-name="Uring" unicode="&#x16e;" 
 />
    <glyph glyph-name="uring" unicode="&#x16f;" 
 />
    <glyph glyph-name="Uhungarumlaut" unicode="&#x170;" 
 />
    <glyph glyph-name="uhungarumlaut" unicode="&#x171;" 
 />
    <glyph glyph-name="Uogonek" unicode="&#x172;" 
 />
    <glyph glyph-name="uogonek" unicode="&#x173;" 
 />
    <glyph glyph-name="Wcircumflex" unicode="&#x174;" 
 />
    <glyph glyph-name="wcircumflex" unicode="&#x175;" 
 />
    <glyph glyph-name="Ycircumflex" unicode="&#x176;" 
 />
    <glyph glyph-name="ycircumflex" unicode="&#x177;" 
 />
    <glyph glyph-name="Zacute" unicode="&#x179;" 
 />
    <glyph glyph-name="zacute" unicode="&#x17a;" 
 />
    <glyph glyph-name="Zdotaccent" unicode="&#x17b;" 
 />
    <glyph glyph-name="zdotaccent" unicode="&#x17c;" 
 />
    <glyph glyph-name="longs" unicode="&#x17f;" 
 />
    <glyph glyph-name="Aringacute" unicode="&#x1fa;" 
 />
    <glyph glyph-name="aringacute" unicode="&#x1fb;" 
 />
    <glyph glyph-name="AEacute" unicode="&#x1fc;" 
 />
    <glyph glyph-name="aeacute" unicode="&#x1fd;" 
 />
    <glyph glyph-name="Oslashacute" unicode="&#x1fe;" 
 />
    <glyph glyph-name="oslashacute" unicode="&#x1ff;" 
 />
    <glyph glyph-name="tonos" unicode="&#x384;" 
 />
    <glyph glyph-name="dieresistonos" unicode="&#x385;" 
 />
    <glyph glyph-name="Alphatonos" unicode="&#x386;" 
 />
    <glyph glyph-name="anoteleia" unicode="&#x387;" 
 />
    <glyph glyph-name="Epsilontonos" unicode="&#x388;" 
 />
    <glyph glyph-name="Etatonos" unicode="&#x389;" 
 />
    <glyph glyph-name="Iotatonos" unicode="&#x38a;" 
 />
    <glyph glyph-name="Omicrontonos" unicode="&#x38c;" 
 />
    <glyph glyph-name="Upsilontonos" unicode="&#x38e;" 
 />
    <glyph glyph-name="Omegatonos" unicode="&#x38f;" 
 />
    <glyph glyph-name="iotadieresistonos" unicode="&#x390;" 
 />
    <glyph glyph-name="Alpha" unicode="&#x391;" 
 />
    <glyph glyph-name="Beta" unicode="&#x392;" 
 />
    <glyph glyph-name="Gamma" unicode="&#x393;" 
 />
    <glyph glyph-name="uni0394" unicode="&#x394;" 
 />
    <glyph glyph-name="Epsilon" unicode="&#x395;" 
 />
    <glyph glyph-name="Zeta" unicode="&#x396;" 
 />
    <glyph glyph-name="Eta" unicode="&#x397;" 
 />
    <glyph glyph-name="Theta" unicode="&#x398;" 
 />
    <glyph glyph-name="Iota" unicode="&#x399;" 
 />
    <glyph glyph-name="Kappa" unicode="&#x39a;" 
 />
    <glyph glyph-name="Lambda" unicode="&#x39b;" 
 />
    <glyph glyph-name="Mu" unicode="&#x39c;" 
 />
    <glyph glyph-name="Nu" unicode="&#x39d;" 
 />
    <glyph glyph-name="Xi" unicode="&#x39e;" 
 />
    <glyph glyph-name="Omicron" unicode="&#x39f;" 
 />
    <glyph glyph-name="Pi" unicode="&#x3a0;" 
 />
    <glyph glyph-name="Rho" unicode="&#x3a1;" 
 />
    <glyph glyph-name="Sigma" unicode="&#x3a3;" 
 />
    <glyph glyph-name="Tau" unicode="&#x3a4;" 
 />
    <glyph glyph-name="Upsilon" unicode="&#x3a5;" 
 />
    <glyph glyph-name="Phi" unicode="&#x3a6;" 
 />
    <glyph glyph-name="Chi" unicode="&#x3a7;" 
 />
    <glyph glyph-name="Psi" unicode="&#x3a8;" 
 />
    <glyph glyph-name="uni03A9" unicode="&#x3a9;" 
 />
    <glyph glyph-name="Iotadieresis" unicode="&#x3aa;" 
 />
    <glyph glyph-name="Upsilondieresis" unicode="&#x3ab;" 
 />
    <glyph glyph-name="alphatonos" unicode="&#x3ac;" 
 />
    <glyph glyph-name="epsilontonos" unicode="&#x3ad;" 
 />
    <glyph glyph-name="etatonos" unicode="&#x3ae;" 
 />
    <glyph glyph-name="iotatonos" unicode="&#x3af;" 
 />
    <glyph glyph-name="upsilondieresistonos" unicode="&#x3b0;" 
 />
    <glyph glyph-name="alpha" unicode="&#x3b1;" 
 />
    <glyph glyph-name="beta" unicode="&#x3b2;" 
 />
    <glyph glyph-name="gamma" unicode="&#x3b3;" 
 />
    <glyph glyph-name="delta" unicode="&#x3b4;" 
 />
    <glyph glyph-name="epsilon" unicode="&#x3b5;" 
 />
    <glyph glyph-name="zeta" unicode="&#x3b6;" 
 />
    <glyph glyph-name="eta" unicode="&#x3b7;" 
 />
    <glyph glyph-name="theta" unicode="&#x3b8;" 
 />
    <glyph glyph-name="iota" unicode="&#x3b9;" 
 />
    <glyph glyph-name="kappa" unicode="&#x3ba;" 
 />
    <glyph glyph-name="lambda" unicode="&#x3bb;" 
 />
    <glyph glyph-name="uni03BC" unicode="&#x3bc;" 
 />
    <glyph glyph-name="nu" unicode="&#x3bd;" 
 />
    <glyph glyph-name="xi" unicode="&#x3be;" 
 />
    <glyph glyph-name="omicron" unicode="&#x3bf;" 
 />
    <glyph glyph-name="pi" unicode="&#x3c0;" 
 />
    <glyph glyph-name="rho" unicode="&#x3c1;" 
 />
    <glyph glyph-name="sigma1" unicode="&#x3c2;" 
 />
    <glyph glyph-name="sigma" unicode="&#x3c3;" 
 />
    <glyph glyph-name="tau" unicode="&#x3c4;" 
 />
    <glyph glyph-name="upsilon" unicode="&#x3c5;" 
 />
    <glyph glyph-name="phi" unicode="&#x3c6;" 
 />
    <glyph glyph-name="chi" unicode="&#x3c7;" 
 />
    <glyph glyph-name="psi" unicode="&#x3c8;" 
 />
    <glyph glyph-name="omega" unicode="&#x3c9;" 
 />
    <glyph glyph-name="iotadieresis" unicode="&#x3ca;" 
 />
    <glyph glyph-name="upsilondieresis" unicode="&#x3cb;" 
 />
    <glyph glyph-name="omicrontonos" unicode="&#x3cc;" 
 />
    <glyph glyph-name="upsilontonos" unicode="&#x3cd;" 
 />
    <glyph glyph-name="omegatonos" unicode="&#x3ce;" 
 />
    <glyph glyph-name="afii10023" unicode="&#x401;" 
 />
    <glyph glyph-name="afii10051" unicode="&#x402;" 
 />
    <glyph glyph-name="afii10052" unicode="&#x403;" 
 />
    <glyph glyph-name="afii10053" unicode="&#x404;" 
 />
    <glyph glyph-name="afii10054" unicode="&#x405;" 
 />
    <glyph glyph-name="afii10055" unicode="&#x406;" 
 />
    <glyph glyph-name="afii10056" unicode="&#x407;" 
 />
    <glyph glyph-name="afii10057" unicode="&#x408;" 
 />
    <glyph glyph-name="afii10058" unicode="&#x409;" 
 />
    <glyph glyph-name="afii10059" unicode="&#x40a;" 
 />
    <glyph glyph-name="afii10060" unicode="&#x40b;" 
 />
    <glyph glyph-name="afii10061" unicode="&#x40c;" 
 />
    <glyph glyph-name="afii10062" unicode="&#x40e;" 
 />
    <glyph glyph-name="afii10145" unicode="&#x40f;" 
 />
    <glyph glyph-name="afii10017" unicode="&#x410;" 
 />
    <glyph glyph-name="afii10018" unicode="&#x411;" 
 />
    <glyph glyph-name="afii10019" unicode="&#x412;" 
 />
    <glyph glyph-name="afii10020" unicode="&#x413;" 
 />
    <glyph glyph-name="afii10021" unicode="&#x414;" 
 />
    <glyph glyph-name="afii10022" unicode="&#x415;" 
 />
    <glyph glyph-name="afii10024" unicode="&#x416;" 
 />
    <glyph glyph-name="afii10025" unicode="&#x417;" 
 />
    <glyph glyph-name="afii10026" unicode="&#x418;" 
 />
    <glyph glyph-name="afii10027" unicode="&#x419;" 
 />
    <glyph glyph-name="afii10028" unicode="&#x41a;" 
 />
    <glyph glyph-name="afii10029" unicode="&#x41b;" 
 />
    <glyph glyph-name="afii10030" unicode="&#x41c;" 
 />
    <glyph glyph-name="afii10031" unicode="&#x41d;" 
 />
    <glyph glyph-name="afii10032" unicode="&#x41e;" 
 />
    <glyph glyph-name="afii10033" unicode="&#x41f;" 
 />
    <glyph glyph-name="afii10034" unicode="&#x420;" 
 />
    <glyph glyph-name="afii10035" unicode="&#x421;" 
 />
    <glyph glyph-name="afii10036" unicode="&#x422;" 
 />
    <glyph glyph-name="afii10037" unicode="&#x423;" 
 />
    <glyph glyph-name="afii10038" unicode="&#x424;" 
 />
    <glyph glyph-name="afii10039" unicode="&#x425;" 
 />
    <glyph glyph-name="afii10040" unicode="&#x426;" 
 />
    <glyph glyph-name="afii10041" unicode="&#x427;" 
 />
    <glyph glyph-name="afii10042" unicode="&#x428;" 
 />
    <glyph glyph-name="afii10043" unicode="&#x429;" 
 />
    <glyph glyph-name="afii10044" unicode="&#x42a;" 
 />
    <glyph glyph-name="afii10045" unicode="&#x42b;" 
 />
    <glyph glyph-name="afii10046" unicode="&#x42c;" 
 />
    <glyph glyph-name="afii10047" unicode="&#x42d;" 
 />
    <glyph glyph-name="afii10048" unicode="&#x42e;" 
 />
    <glyph glyph-name="afii10049" unicode="&#x42f;" 
 />
    <glyph glyph-name="afii10065" unicode="&#x430;" 
 />
    <glyph glyph-name="afii10066" unicode="&#x431;" 
 />
    <glyph glyph-name="afii10067" unicode="&#x432;" 
 />
    <glyph glyph-name="afii10068" unicode="&#x433;" 
 />
    <glyph glyph-name="afii10069" unicode="&#x434;" 
 />
    <glyph glyph-name="afii10070" unicode="&#x435;" 
 />
    <glyph glyph-name="afii10072" unicode="&#x436;" 
 />
    <glyph glyph-name="afii10073" unicode="&#x437;" 
 />
    <glyph glyph-name="afii10074" unicode="&#x438;" 
 />
    <glyph glyph-name="afii10075" unicode="&#x439;" 
 />
    <glyph glyph-name="afii10076" unicode="&#x43a;" 
 />
    <glyph glyph-name="afii10077" unicode="&#x43b;" 
 />
    <glyph glyph-name="afii10078" unicode="&#x43c;" 
 />
    <glyph glyph-name="afii10079" unicode="&#x43d;" 
 />
    <glyph glyph-name="afii10080" unicode="&#x43e;" 
 />
    <glyph glyph-name="afii10081" unicode="&#x43f;" 
 />
    <glyph glyph-name="afii10082" unicode="&#x440;" 
 />
    <glyph glyph-name="afii10083" unicode="&#x441;" 
 />
    <glyph glyph-name="afii10084" unicode="&#x442;" 
 />
    <glyph glyph-name="afii10085" unicode="&#x443;" 
 />
    <glyph glyph-name="afii10086" unicode="&#x444;" 
 />
    <glyph glyph-name="afii10087" unicode="&#x445;" 
 />
    <glyph glyph-name="afii10088" unicode="&#x446;" 
 />
    <glyph glyph-name="afii10089" unicode="&#x447;" 
 />
    <glyph glyph-name="afii10090" unicode="&#x448;" 
 />
    <glyph glyph-name="afii10091" unicode="&#x449;" 
 />
    <glyph glyph-name="afii10092" unicode="&#x44a;" 
 />
    <glyph glyph-name="afii10093" unicode="&#x44b;" 
 />
    <glyph glyph-name="afii10094" unicode="&#x44c;" 
 />
    <glyph glyph-name="afii10095" unicode="&#x44d;" 
 />
    <glyph glyph-name="afii10096" unicode="&#x44e;" 
 />
    <glyph glyph-name="afii10097" unicode="&#x44f;" 
 />
    <glyph glyph-name="afii10071" unicode="&#x451;" 
 />
    <glyph glyph-name="afii10099" unicode="&#x452;" 
 />
    <glyph glyph-name="afii10100" unicode="&#x453;" 
 />
    <glyph glyph-name="afii10101" unicode="&#x454;" 
 />
    <glyph glyph-name="afii10102" unicode="&#x455;" 
 />
    <glyph glyph-name="afii10103" unicode="&#x456;" 
 />
    <glyph glyph-name="afii10104" unicode="&#x457;" 
 />
    <glyph glyph-name="afii10105" unicode="&#x458;" 
 />
    <glyph glyph-name="afii10106" unicode="&#x459;" 
 />
    <glyph glyph-name="afii10107" unicode="&#x45a;" 
 />
    <glyph glyph-name="afii10108" unicode="&#x45b;" 
 />
    <glyph glyph-name="afii10109" unicode="&#x45c;" 
 />
    <glyph glyph-name="afii10110" unicode="&#x45e;" 
 />
    <glyph glyph-name="afii10193" unicode="&#x45f;" 
 />
    <glyph glyph-name="afii10050" unicode="&#x490;" 
 />
    <glyph glyph-name="afii10098" unicode="&#x491;" 
 />
    <glyph glyph-name="Wgrave" unicode="&#x1e80;" 
 />
    <glyph glyph-name="wgrave" unicode="&#x1e81;" 
 />
    <glyph glyph-name="Wacute" unicode="&#x1e82;" 
 />
    <glyph glyph-name="wacute" unicode="&#x1e83;" 
 />
    <glyph glyph-name="Wdieresis" unicode="&#x1e84;" 
 />
    <glyph glyph-name="wdieresis" unicode="&#x1e85;" 
 />
    <glyph glyph-name="Ygrave" unicode="&#x1ef2;" 
 />
    <glyph glyph-name="ygrave" unicode="&#x1ef3;" 
 />
    <glyph glyph-name="afii00208" unicode="&#x2015;" 
 />
    <glyph glyph-name="underscoredbl" unicode="&#x2017;" 
 />
    <glyph glyph-name="quotereversed" unicode="&#x201b;" 
 />
    <glyph glyph-name="minute" unicode="&#x2032;" 
 />
    <glyph glyph-name="second" unicode="&#x2033;" 
 />
    <glyph glyph-name="exclamdbl" unicode="&#x203c;" 
 />
    <glyph glyph-name="uni203E" unicode="&#x203e;" 
 />
    <glyph glyph-name="uni207F" unicode="&#x207f;" 
 />
    <glyph glyph-name="lira" unicode="&#x20a4;" 
 />
    <glyph glyph-name="peseta" unicode="&#x20a7;" 
 />
    <glyph glyph-name="afii61248" unicode="&#x2105;" 
 />
    <glyph glyph-name="afii61289" unicode="&#x2113;" 
 />
    <glyph glyph-name="afii61352" unicode="&#x2116;" 
 />
    <glyph glyph-name="estimated" unicode="&#x212e;" 
 />
    <glyph glyph-name="oneeighth" unicode="&#x215b;" 
 />
    <glyph glyph-name="threeeighths" unicode="&#x215c;" 
 />
    <glyph glyph-name="fiveeighths" unicode="&#x215d;" 
 />
    <glyph glyph-name="seveneighths" unicode="&#x215e;" 
 />
    <glyph glyph-name="arrowleft" unicode="&#x2190;" 
 />
    <glyph glyph-name="arrowup" unicode="&#x2191;" 
 />
    <glyph glyph-name="arrowright" unicode="&#x2192;" 
 />
    <glyph glyph-name="arrowdown" unicode="&#x2193;" 
 />
    <glyph glyph-name="arrowboth" unicode="&#x2194;" 
 />
    <glyph glyph-name="arrowupdn" unicode="&#x2195;" 
 />
    <glyph glyph-name="arrowupdnbse" unicode="&#x21a8;" 
 />
    <glyph glyph-name="orthogonal" unicode="&#x221f;" 
 />
    <glyph glyph-name="intersection" unicode="&#x2229;" 
 />
    <glyph glyph-name="equivalence" unicode="&#x2261;" 
 />
    <glyph glyph-name="house" unicode="&#x2302;" 
 />
    <glyph glyph-name="revlogicalnot" unicode="&#x2310;" 
 />
    <glyph glyph-name="integraltp" unicode="&#x2320;" 
 />
    <glyph glyph-name="integralbt" unicode="&#x2321;" 
 />
    <glyph glyph-name="SF100000" unicode="&#x2500;" 
 />
    <glyph glyph-name="SF110000" unicode="&#x2502;" 
 />
    <glyph glyph-name="SF010000" unicode="&#x250c;" 
 />
    <glyph glyph-name="SF030000" unicode="&#x2510;" 
 />
    <glyph glyph-name="SF020000" unicode="&#x2514;" 
 />
    <glyph glyph-name="SF040000" unicode="&#x2518;" 
 />
    <glyph glyph-name="SF080000" unicode="&#x251c;" 
 />
    <glyph glyph-name="SF090000" unicode="&#x2524;" 
 />
    <glyph glyph-name="SF060000" unicode="&#x252c;" 
 />
    <glyph glyph-name="SF070000" unicode="&#x2534;" 
 />
    <glyph glyph-name="SF050000" unicode="&#x253c;" 
 />
    <glyph glyph-name="SF430000" unicode="&#x2550;" 
 />
    <glyph glyph-name="SF240000" unicode="&#x2551;" 
 />
    <glyph glyph-name="SF510000" unicode="&#x2552;" 
 />
    <glyph glyph-name="SF520000" unicode="&#x2553;" 
 />
    <glyph glyph-name="SF390000" unicode="&#x2554;" 
 />
    <glyph glyph-name="SF220000" unicode="&#x2555;" 
 />
    <glyph glyph-name="SF210000" unicode="&#x2556;" 
 />
    <glyph glyph-name="SF250000" unicode="&#x2557;" 
 />
    <glyph glyph-name="SF500000" unicode="&#x2558;" 
 />
    <glyph glyph-name="SF490000" unicode="&#x2559;" 
 />
    <glyph glyph-name="SF380000" unicode="&#x255a;" 
 />
    <glyph glyph-name="SF280000" unicode="&#x255b;" 
 />
    <glyph glyph-name="SF270000" unicode="&#x255c;" 
 />
    <glyph glyph-name="SF260000" unicode="&#x255d;" 
 />
    <glyph glyph-name="SF360000" unicode="&#x255e;" 
 />
    <glyph glyph-name="SF370000" unicode="&#x255f;" 
 />
    <glyph glyph-name="SF420000" unicode="&#x2560;" 
 />
    <glyph glyph-name="SF190000" unicode="&#x2561;" 
 />
    <glyph glyph-name="SF200000" unicode="&#x2562;" 
 />
    <glyph glyph-name="SF230000" unicode="&#x2563;" 
 />
    <glyph glyph-name="SF470000" unicode="&#x2564;" 
 />
    <glyph glyph-name="SF480000" unicode="&#x2565;" 
 />
    <glyph glyph-name="SF410000" unicode="&#x2566;" 
 />
    <glyph glyph-name="SF450000" unicode="&#x2567;" 
 />
    <glyph glyph-name="SF460000" unicode="&#x2568;" 
 />
    <glyph glyph-name="SF400000" unicode="&#x2569;" 
 />
    <glyph glyph-name="SF540000" unicode="&#x256a;" 
 />
    <glyph glyph-name="SF530000" unicode="&#x256b;" 
 />
    <glyph glyph-name="SF440000" unicode="&#x256c;" 
 />
    <glyph glyph-name="upblock" unicode="&#x2580;" 
 />
    <glyph glyph-name="dnblock" unicode="&#x2584;" 
 />
    <glyph glyph-name="block" unicode="&#x2588;" 
 />
    <glyph glyph-name="lfblock" unicode="&#x258c;" 
 />
    <glyph glyph-name="rtblock" unicode="&#x2590;" 
 />
    <glyph glyph-name="ltshade" unicode="&#x2591;" 
 />
    <glyph glyph-name="shade" unicode="&#x2592;" 
 />
    <glyph glyph-name="dkshade" unicode="&#x2593;" 
 />
    <glyph glyph-name="filledbox" unicode="&#x25a0;" 
 />
    <glyph glyph-name="H22073" unicode="&#x25a1;" 
 />
    <glyph glyph-name="H18543" unicode="&#x25aa;" 
 />
    <glyph glyph-name="H18551" unicode="&#x25ab;" 
 />
    <glyph glyph-name="filledrect" unicode="&#x25ac;" 
 />
    <glyph glyph-name="triagup" unicode="&#x25b2;" 
 />
    <glyph glyph-name="triagrt" unicode="&#x25ba;" 
 />
    <glyph glyph-name="triagdn" unicode="&#x25bc;" 
 />
    <glyph glyph-name="triaglf" unicode="&#x25c4;" 
 />
    <glyph glyph-name="circle" unicode="&#x25cb;" 
 />
    <glyph glyph-name="H18533" unicode="&#x25cf;" 
 />
    <glyph glyph-name="invbullet" unicode="&#x25d8;" 
 />
    <glyph glyph-name="invcircle" unicode="&#x25d9;" 
 />
    <glyph glyph-name="openbullet" unicode="&#x25e6;" 
 />
    <glyph glyph-name="smileface" unicode="&#x263a;" 
 />
    <glyph glyph-name="invsmileface" unicode="&#x263b;" 
 />
    <glyph glyph-name="sun" unicode="&#x263c;" 
 />
    <glyph glyph-name="female" unicode="&#x2640;" 
 />
    <glyph glyph-name="male" unicode="&#x2642;" 
 />
    <glyph glyph-name="spade" unicode="&#x2660;" 
 />
    <glyph glyph-name="club" unicode="&#x2663;" 
 />
    <glyph glyph-name="heart" unicode="&#x2665;" 
 />
    <glyph glyph-name="diamond" unicode="&#x2666;" 
 />
    <glyph glyph-name="musicalnote" unicode="&#x266a;" 
 />
    <glyph glyph-name="musicalnotedbl" unicode="&#x266b;" 
 />
    <glyph glyph-name="uniF004" unicode="&#xf004;" 
 />
    <glyph glyph-name="uniF005" unicode="&#xf005;" 
 />
    <glyph glyph-name="glyph653" horiz-adv-x="2042" 
d="M394 1372q19 0 30 7t17.5 15.5t10.5 14.5h8q-6 -39 -8 -54.5t0 -49.5q20 2 33.5 6t24.5 8t26 14l6 2q-4 -26 -2 -55q-39 -2 -51.5 -4t-36.5 -4q-4 -60 0 -150q0 -10 3 -21t9 -17.5t11.5 -11.5t13.5 -6t17 4t14.5 11t8.5 11.5t5 11.5t1 14t-3 14.5t-7.5 9.5t-13.5 4
t-15 -2t-9 -9.5t-1 -13.5t4 -11t7 -7t9 -3t9 5t4 11t-4 8t-7 0t-1 -10q-4 -6 -12 0q-2 10 0 15.5t5 7.5t9 2t9 -4.5t5.5 -10.5t2.5 -13t-4.5 -13t-12.5 -8.5t-14 0t-12.5 7.5t-10.5 12t-4 18.5t4 18.5t11.5 14t13.5 9t17.5 1t20.5 -8t15 -19.5t6 -34t-6 -32.5t-16 -21.5
t-22.5 -17.5t-26 -7t-26.5 4t-22.5 13.5t-16.5 19.5t-11 18.5t-5 17.5t0 29.5t3 50t4 83.5q-37 -2 -52.5 -4t-43.5 -11q-9 19 -15 28t-24 24q37 -3 54 -5t32.5 -2h40.5q2 27 0 38.5t-9 37.5zM710 1366q-27 -6 -38 -10t-21.5 -12.5t-15.5 -21.5t-5 -25.5t3 -21.5t9 -17.5
t15.5 -12.5t19.5 -9t25.5 -7t28 -3t27.5 -4t29.5 -8.5t25 -12.5t16.5 -16t10 -19.5t6 -26t0 -27.5t-7 -23.5t-12.5 -19.5t-17.5 -16.5t-25.5 -15.5t-27.5 -10t-25.5 -5t-28 0t-27.5 5t-22.5 7t-18.5 8.5t-16 10.5t-13.5 17t-8.5 18.5t-2 16.5t2 17t7 16.5t13.5 18.5
t18.5 13.5t23.5 4.5t24.5 -3.5t22.5 -12.5t14.5 -18.5t3 -19.5t-4 -18t-13 -16.5t-20.5 -9.5t-20.5 -1t-15.5 4t-10.5 10.5t-5 16.5t3 16t11.5 11.5t16.5 5.5t21 -3l4 -15q-6 -4 -8 -2t-7 3t-10 0t-8 -4t-3 -8t2 -10t7 -8t8 -3t9 4t8 8t5.5 10t5.5 12t2 10.5t-3.5 7.5
t-6.5 6t-10 5t-15 1t-16.5 -4t-13.5 -7t-10 -10.5t-7 -11.5t-2 -11v-14.5t5 -14.5t11 -12t14.5 -11t14.5 -7t18 -4.5t24.5 -1t24 2.5t23.5 7t22.5 12t15.5 15.5t7 17.5t0 18t-5 19.5t-10.5 15.5t-19.5 10t-26.5 5t-30 5.5t-31.5 7.5t-28.5 8t-26 13t-21.5 19.5t-14 23.5
t-6 25.5t1 23t8 25.5t17.5 26.5t23.5 17.5t26.5 12t26.5 9.5t27.5 3t28 -2.5t26.5 -7t21.5 -16t17.5 -23.5t10 -27t-4 -26.5t-12 -21.5t-16.5 -15.5t-20.5 -7t-22.5 1t-19.5 8t-16.5 16.5t-10.5 17.5t-1 18.5t8.5 17.5t17.5 13t20.5 6t18.5 -2t14 -8t8 -13t-2 -18.5
t-12 -17.5t-17.5 -5t-15.5 6t-7 10t2 12.5t9 13.5q9 2 13 -8q-4 -13 -4 -17t4 -5t6 1l4 4t4 7.5t0 9.5t-4 9t-9 6t-12.5 1t-10.5 -4t-9 -8t-5 -6t-1 -8.5t2 -10.5l4 -8t5 -7t8 -7t9.5 -6.5t14.5 -2.5t17 3.5t12.5 11.5t9.5 16t4 16.5t-3 19.5t-14.5 21.5t-22.5 13.5t-21.5 4
t-22.5 3zM1062 1290l4 -67l-41 -2q-51 4 -90 12q23 -29 37 -59q45 6 94 8q4 -99 4 -183l62 -8q-8 17 -15 43q-6 72 -12 119v29q37 2 74 0q0 16 6 39h-82v57q0 14 2 29.5t5 25.5t8.5 17.5t10.5 12.5t13 9t17.5 4h16.5t14 -3t12.5 -7t7.5 -9t4 -10.5t3 -12.5t-1 -12t-7.5 -11
t-8.5 -10.5t-6 -6.5t-8 -4t-9 -1t-10.5 6t-8.5 9.5t-3 9.5t0 10t5.5 10t9.5 6t9 0t5 -4t0 -7t-4 -5t-10.5 -2t-6 -5t6.5 -6t11 -1t11 4t6 9t1 13t-5 12.5t-12 6.5t-16.5 0t-16.5 -8.5t-10 -12.5t-4 -11t1 -13t6 -14.5t12 -11.5t16.5 -6t15.5 -2t14.5 2t14.5 12t10 19.5
t3 21.5t-4 24.5t-14.5 19.5t-21.5 14.5t-21.5 7.5h-21.5t-18.5 -2t-17.5 -7.5t-17 -12.5t-12.5 -15t-9.5 -15.5t-6 -17.5t-3 -18.5t1 -18.5zM1350.5 1374q-18.5 -6 -32.5 -13t-26.5 -17.5t-23.5 -25.5t-19.5 -31.5t-14.5 -35t-9 -38t-2 -39t6 -38t10 -36t24.5 -40t40 -34.5
t35 -18.5t30 -7.5t27.5 1.5t21.5 6.5t17.5 11t17 18.5t15.5 23.5t8.5 23.5t0 23.5t-9.5 21.5t-13.5 16.5t-17 12t-18.5 7t-11.5 2t-5 -5t1 -8t9 -4t13.5 -6t13.5 -9.5t12 -12.5t5 -14v-15.5t-2 -17.5t-7 -15t-9 -12.5t-11.5 -10.5t-12.5 -8t-14 -3h-17.5t-15.5 1t-15 6
t-13.5 10.5t-12.5 13.5t-13 16t-14.5 25.5t-12.5 48.5t0 52.5t5.5 37.5t7.5 29.5t14 28t18.5 26.5t19.5 18.5t19.5 11.5t21.5 7t19 2t16.5 -4t16.5 -9.5t13 -14.5t10.5 -16t5.5 -18.5t-1 -19.5t-6.5 -16.5t-11.5 -11.5t-13 -4t-15.5 0t-15.5 7.5t-14 14.5t-6 19t5 16.5
t12 9.5t14.5 2t12.5 -7t5 -12.5t-4 -12.5t-9.5 -3t-10.5 5t-8 4t-5 -2t2 -9t9 -9t12.5 -4t13.5 2t10 8t4 13t0 15.5t-6 12.5t-14 8t-19.5 3t-19.5 -5t-16.5 -14.5t-8.5 -20.5t2 -19t9.5 -16.5t15.5 -13.5t19.5 -9t21.5 -4t21.5 5t16.5 16t10 22.5t5 25t-1 22.5t-7 19.5
t-16.5 20.5t-20.5 15t-25.5 7t-33 2t-35 -6zM415 911h119v-51h-64v-98h60v-55h-60v-172h-55v376zM628 911q70 0 70 -65v-256q0 -47 -68 -55h-4q-70 6 -70 59v246q0 71 72 71zM720 911h72l35 -166h2v166h49l6 -6v-364l-6 -6h-62l-41 190h-2v-190h-53v376zM904 911h146l4 -6
v-43h-39l-4 -2h-2l-2 2l-2 -2v-325h-51l-7 6v321h-43v49zM1146 911q62 0 76 -51v-86h-51v51q0 31 -15 35h-10q-18 0 -18 -18v-35q0 -14 47 -70q47 -43 47 -78v-67q0 -51 -74 -57h-2q-72 0 -72 67v76h54v-76q0 -14 10 -18h18q11 0 15 32h-4l4 2v23l-4 2l4 2v2q-4 17 -52 72
q-45 43 -45 82v41q0 69 72 69zM607 842v-242q0 -22 21 -22q14 0 20 14v250q0 18 -18 18h-4q-19 0 -19 -18zM1339 715h43q30 0 30 -35v-16q0 -17 -14 -31q10 0 14 -31v-20q0 -47 -32 -47h-41v180zM1423 715h20q6 0 14 -60h2l13 60h22l-22 -115v-65h-29v63q0 16 -20 117z
M1365 694l-2 -4v-47h2q15 0 17 8v35q0 4 -17 8zM1363 618v-59q0 -4 8 -4l11 8v53l-13 2h-6zM259 356q56 0 56 -34v-9q0 -22 -27 -94h-55q24 66 24 78l-8 8h-10q-25 0 -37 -59q0 -13 51 -113v-6q0 -35 -39 -113q-33 -32 -82 -32q-57 0 -57 38l29 103h55v-4l-25 -80v-8l13 -2
h6q26 0 41 71l-51 109v10q24 103 38 103q13 26 78 34zM405 356v-4l-105 -311q4 -12 19 -12q30 0 43 71l86 256h53q-102 -317 -117 -342q-33 -32 -82 -32q-57 0 -57 38q0 15 109 336h51zM601 356q43 0 43 -24v-8q-49 -187 -80 -187l-22 -4h-49q-41 -143 -53 -151h-43l127 374
h77zM798 356l-14 -51h-70l-33 -102h53l5 2h2v-4q-13 -49 -19 -49h-59l-41 -123h67v-4q-12 -43 -18 -43h-119l127 374h119zM898 356q49 0 49 -30q-45 -166 -67 -166h-8v-6q12 0 12 -9v-10l-49 -153h-45v2l45 143l-6 6h-31q-45 -145 -55 -151h-45l61 186l66 188h73zM1058 356
q53 0 53 -34v-9q0 -18 -24 -92h-54v2l21 74l-8 8h-10q-27 0 -43 -78q-62 -176 -62 -188v-8l14 -2h4q27 0 44 80q10 24 14 24h47v-4q-39 -135 -72 -135q-18 -12 -53 -12q-57 0 -57 38q6 27 92 281q33 55 94 55zM1224 356q59 0 59 -41q0 -18 -110 -333h-54l46 141h-35
q-6 0 -47 -139l-4 -2h-54q107 325 119 340q35 34 80 34zM1396 356q47 0 47 -30q-45 -166 -65 -166h-9v-6q11 0 11 -9v-4q0 -16 -50 -157v-2h-45v2l45 143l-4 6h-32q-45 -147 -54 -151h-45l125 374h76zM1554 356q53 0 53 -34v-9q0 -18 -23 -92h-55v2l23 74l-9 8h-10
q-26 0 -43 -78q-61 -176 -61 -188v-8l12 -2h6q25 0 43 80h-22v2l16 55h78v-4q-53 -170 -64 -180h-32l-2 14q-19 -14 -56 -14q-39 4 -39 34q0 21 95 291q32 49 90 49zM1699 356v-4l-104 -315l16 -8q33 0 43 63l88 264h53q-102 -317 -118 -342q-31 -32 -84 -32q-56 0 -56 41
q6 26 111 333h51zM1869 356l-20 -127v-2h4l65 129h49v-4q-123 -215 -133 -243q-41 -127 -47 -127h-51q61 168 61 245l21 129h51zM513 186h23q24 0 35 62q16 37 16 51l-4 6h-27q-6 -2 -43 -119zM816 186h21q29 0 39 60q14 37 14 51v2l-4 6h-27q-6 -2 -43 -119zM1144 168h35
q4 2 45 123q-6 12 -10 14h-9q-26 0 -43 -82q-4 0 -18 -55zM1312 186h23q26 0 36 60q17 37 17 51v2l-6 6h-27q-4 -2 -43 -119zM1650 -67q18 0 22 -12q5 -9 5 -17v-6q0 -22 -7 -35l-24 -55h31v-18h-58v16q0 4 27 63q10 17 10 23v10v2q0 8 -8 8v0q-8 0 -8 -8v-24h-21v26
q0 21 21 27h10zM1713 -67q29 0 29 -29v-88q0 -26 -25 -26h-8q-20 0 -24 20v96q0 27 28 27zM1779 -67q27 0 27 -29v-88q0 -26 -25 -26h-6q-21 0 -25 20v96q0 27 29 27zM1844 -67q19 0 25 -14q2 -7 2 -15v-12h-20v14q0 6 -9 6v0q-8 0 -8 -6v-24q6 4 15 4h4q18 -4 18 -19v-55
q0 -20 -27 -22h-6q-18 0 -24 16v6v94q0 21 20 27h10zM1707 -92v-96q0 -6 6 -6h2q7 0 7 6v96q0 4 -9 4q-6 0 -6 -4zM1771 -92v-96q0 -6 6 -6h2q8 0 8 6v96q0 4 -10 4q-6 0 -6 -4zM1834 -143v-43q0 -6 8 -6v0q9 0 9 6v43q0 6 -7 6h-4q-4 0 -6 -6z" />
    </font>
</defs>
</svg>
