<?xml version="1.0" standalone="no"?>
<!DOCTYPE svg PUBLIC "-//W3C//DTD SVG 1.1//EN" "http://www.w3.org/Graphics/SVG/1.1/DTD/svg11.dtd" >
<svg xmlns="http://www.w3.org/2000/svg" xmlns:xlink="http://www.w3.org/1999/xlink" version="1.1">
<metadata>
Created by FontForge 20170910 at Mon Aug 20 13:07:26 2012
 By Jimmy Wärting
2009 Svend Smital published by FSI FontShop International GmbH
</metadata>
<defs>
<font id="SuperGroteskOffc-CdMed" horiz-adv-x="516" >
  <font-face 
    font-family="Super Grotesk Offc Cond Medium"
    font-weight="500"
    font-stretch="condensed"
    units-per-em="1000"
    panose-1="2 11 6 6 2 1 1 2 1 2"
    ascent="780"
    descent="-220"
    x-height="500"
    cap-height="720"
    bbox="-840 -235 984 930"
    underline-thickness="90"
    underline-position="-100"
    unicode-range="U+0020-FEFF"
  />
<missing-glyph horiz-adv-x="430" 
d="M40 720h350v-720h-350v720zM280 110v500h-130v-500h130z" />
    <glyph glyph-name=".notdef" horiz-adv-x="430" 
d="M40 720h350v-720h-350v720zM280 110v500h-130v-500h130z" />
    <glyph glyph-name=".null" horiz-adv-x="0" 
 />
    <glyph glyph-name="nonmarkingreturn" horiz-adv-x="200" 
 />
    <glyph glyph-name="space" unicode=" " horiz-adv-x="200" 
 />
    <glyph glyph-name="exclam" unicode="!" horiz-adv-x="230" 
d="M50 200v520h130v-520h-130zM50 0v140h130v-140h-130z" />
    <glyph glyph-name="quotedbl" unicode="&#x22;" horiz-adv-x="340" 
d="M290 450h-90l-10 270h110zM140 450h-90l-10 270h110z" />
    <glyph glyph-name="numbersign" unicode="#" horiz-adv-x="540" 
d="M420 160v-160h-110v160h-80v-160h-110v160h-80v105h80v165h-80v105h80v145h110v-145h80v145h110v-145h80v-105h-80v-165h80v-105h-80zM310 430h-80v-165h80v165z" />
    <glyph glyph-name="dollar" unicode="$" horiz-adv-x="419" 
d="M404 170q0 -44 -12 -76.5t-33 -56t-50.5 -37t-64.5 -17.5v-83h-80v83q-33 6 -58 20.5t-44.5 35t-33.5 44.5t-23 49l105 57q14 -43 39.5 -64.5t54.5 -21.5t46.5 16t17.5 51q0 26 -18 50.5t-45 49.5t-59 52t-59 58t-45 68t-18 82q0 69 36.5 112.5t103.5 54.5v83h80v-83
q58 -9 93 -41.5t52 -80.5l-109 -44q-14 36 -30.5 46.5t-45.5 10.5q-21 0 -34 -14t-13 -43q0 -28 18.5 -53t45.5 -49t59.5 -50t59.5 -56.5t45.5 -68t18.5 -84.5z" />
    <glyph glyph-name="percent" unicode="%" horiz-adv-x="680" 
d="M260 0h-110l270 680h110zM290 530q0 -49 -12 -82t-31 -52.5t-42 -27.5t-45 -8t-45 8t-42 27.5t-31 52.5t-12 82t12 82t31 52.5t42 27.5t45 8t45 -8t42 -27.5t31 -52.5t12 -82zM650 150q0 -49 -12 -82t-31 -52.5t-42 -27.5t-45 -8t-45 8t-42 27.5t-31 52.5t-12 82t12 82
t31 52.5t42 27.5t45 8t45 -8t42 -27.5t31 -52.5t12 -82zM190 530q0 45 -7 62.5t-23 17.5q-15 0 -22.5 -17.5t-7.5 -62.5t7 -62.5t23 -17.5q15 0 22.5 17.5t7.5 62.5zM550 150q0 45 -7 62.5t-23 17.5q-15 0 -22.5 -17.5t-7.5 -62.5t7 -62.5t23 -17.5q15 0 22.5 17.5t7.5 62.5
z" />
    <glyph glyph-name="ampersand" unicode="&#x26;" horiz-adv-x="540" 
d="M387 0l-15 24q-30 -19 -62 -31.5t-70 -12.5q-51 0 -92 18t-69.5 49t-43.5 72.5t-15 88.5q0 36 8.5 65t23.5 53t34 43t40 35q-25 38 -39 71t-14 71q0 32 11.5 59t32.5 46.5t51 30.5t68 11q75 0 114 -41.5t39 -108.5q0 -33 -9 -57.5t-23.5 -44t-34 -35.5t-40.5 -32l96 -158
q5 12 8.5 28t3.5 36q0 31 -10 62h126q6 -35 6 -66q0 -57 -16 -101t-41 -76l65 -99h-133zM193 306q-23 -20 -37 -44t-14 -53q0 -53 25 -81t63 -28q20 0 38 7.5t35 20.5zM279 543q0 29 -11.5 41.5t-30.5 12.5t-34 -12t-15 -37q0 -23 12.5 -45.5t23.5 -39.5q23 17 39 35.5
t16 44.5z" />
    <glyph glyph-name="quotesingle" unicode="'" horiz-adv-x="190" 
d="M140 450h-90l-10 270h110z" />
    <glyph glyph-name="parenleft" unicode="(" horiz-adv-x="280" 
d="M140 -120q-30 52 -52.5 102.5t-37.5 105t-22.5 116t-7.5 136.5t7.5 136.5t22.5 116t37.5 104.5t52.5 103l120 -60q-45 -75 -75 -173.5t-30 -226.5t30 -226.5t75 -173.5z" />
    <glyph glyph-name="parenright" unicode=")" horiz-adv-x="280" 
d="M260 340q0 -75 -7.5 -136.5t-22.5 -116t-37.5 -105t-52.5 -102.5l-120 60q45 75 75 173.5t30 226.5t-30 226.5t-75 173.5l120 60q30 -53 52.5 -103t37.5 -104.5t22.5 -116t7.5 -136.5z" />
    <glyph glyph-name="asterisk" unicode="*" horiz-adv-x="360" 
d="M273 472l-75 46l2 -88h-70l2 88l-75 -46l-35 61l78 42l-78 42l35 61l75 -46l-2 88h70l-2 -88l75 46l35 -61l-78 -42l78 -42z" />
    <glyph glyph-name="plus" unicode="+" 
d="M313 250v-140h-110v140h-140v110h140v140h110v-140h140v-110h-140z" />
    <glyph glyph-name="comma" unicode="," horiz-adv-x="230" 
d="M180 0q0 -53 -28.5 -95t-81.5 -65l-60 50q23 23 31.5 51.5t8.5 58.5v140h130v-140z" />
    <glyph glyph-name="hyphen" unicode="-" horiz-adv-x="280" 
d="M40 250v110h200v-110h-200z" />
    <glyph glyph-name="period" unicode="." horiz-adv-x="230" 
d="M50 0v140h130v-140h-130z" />
    <glyph glyph-name="slash" unicode="/" horiz-adv-x="340" 
d="M100 -100h-100l240 880h100z" />
    <glyph glyph-name="zero" unicode="0" 
d="M468 340q0 -101 -16 -170t-44 -111t-66.5 -60.5t-83.5 -18.5t-83.5 18.5t-66.5 60.5t-44 111t-16 170t16 170t44 111t66.5 60.5t83.5 18.5t83.5 -18.5t66.5 -60.5t44 -111t16 -170zM333 340q0 71 -6 117.5t-16.5 73.5t-24 38t-28.5 11t-28.5 -11t-24 -38t-16.5 -73.5
t-6 -117.5t6 -117.5t16.5 -73.5t24 -38t28.5 -11t28.5 11t24 38t16.5 73.5t6 117.5z" />
    <glyph glyph-name="one" unicode="1" 
d="M88 120h119v410l-122 -89v140l132 99h125v-560h114v-120h-368v120z" />
    <glyph glyph-name="two" unicode="2" 
d="M437 0h-380v60q0 62 19.5 111t49.5 88t64 71t64 61t49.5 57.5t19.5 61.5q0 34 -18 52t-48 18q-29 0 -49 -22.5t-20 -73.5l-131 9q0 44 14.5 82t40.5 65.5t63 43.5t82 16q49 0 86 -14t62.5 -39.5t38.5 -60.5t13 -76q0 -52 -17.5 -92t-43 -72.5t-56 -59t-56 -52t-43 -53
t-17.5 -61.5h233z" />
    <glyph glyph-name="three" unicode="3" 
d="M460 200q0 -53 -16 -93.5t-44 -69t-66.5 -43t-83.5 -14.5q-49 0 -86 17.5t-62.5 46.5t-38.5 67t-13 79l127 14q2 -48 23 -73.5t50 -25.5q31 0 53 24.5t22 79.5q0 32 -7.5 53.5t-20 34t-30 18t-37.5 5.5v100q38 0 59 23.5t21 76.5q0 30 -18.5 45t-41.5 15t-41 -20t-18 -55
l-126 18q2 36 15 68.5t36 56.5t56.5 38t77.5 14q41 0 76.5 -12t61.5 -34.5t40.5 -54t14.5 -71.5q0 -57 -26.5 -97t-63.5 -55v-2q18 -6 37 -18.5t34.5 -33t25.5 -50.5t10 -72z" />
    <glyph glyph-name="four" unicode="4" 
d="M430 110v-110h-135v110h-260l240 570h155v-460h45v-110h-45zM295 470h-2l-103 -250h105v250z" />
    <glyph glyph-name="five" unicode="5" 
d="M455 250q0 -65 -16.5 -115t-46.5 -84.5t-72.5 -52.5t-94.5 -18q-34 0 -63.5 9.5t-54 25.5t-44 36.5t-33.5 43.5l95 85q15 -38 39 -56.5t51 -18.5q41 0 70.5 35t29.5 110q0 70 -28 101.5t-66 31.5q-42 0 -71 -13.5t-60 -40.5l25 351h290l-20 -110h-170l-10 -110
q38 22 79 22q37 0 68.5 -15.5t54 -45t35.5 -72.5t13 -99z" />
    <glyph glyph-name="six" unicode="6" 
d="M465 226q0 -116 -52 -181t-158 -65q-101 0 -153 63t-52 182q0 51 9.5 97.5t25 87.5t36 78.5t42.5 70.5q5 8 16.5 25.5t24 36.5t24 35.5t17.5 23.5h144q-25 -32 -45.5 -62t-39 -59.5t-35.5 -58t-34 -58.5q31 9 61 9q79 0 124 -60t45 -165zM330 230q0 62 -19 89.5t-53 27.5
t-53.5 -30.5t-19.5 -91.5q0 -65 18 -95t52 -30t54.5 32.5t20.5 97.5z" />
    <glyph glyph-name="seven" unicode="7" 
d="M275 0h-150l190 560h-270l20 120h390v-120z" />
    <glyph glyph-name="eight" unicode="8" 
d="M473 200q0 -49 -14 -89.5t-41 -69.5t-67.5 -45t-92.5 -16q-105 0 -160 62.5t-55 167.5q0 57 24.5 99.5t64.5 71.5q-28 24 -46 55.5t-18 73.5q0 45 14 80.5t39.5 59.5t60.5 37t76 13q87 0 138.5 -49.5t51.5 -140.5q0 -42 -17 -73.5t-44 -54.5q40 -29 63 -77t23 -105z
M338 210q0 53 -21 81.5t-59 28.5t-59 -28.5t-21 -81.5q0 -54 23 -82t57 -28t57 27.5t23 82.5zM323 510q0 40 -18 60t-47 20t-47 -20t-18 -60q0 -39 18 -59.5t47 -20.5t47 20.5t18 59.5z" />
    <glyph glyph-name="nine" unicode="9" 
d="M465 455q0 -51 -9.5 -97.5t-25.5 -87.5t-36 -78.5t-42 -70.5q-5 -8 -16.5 -25.5t-24 -36.5t-24 -35.5t-17.5 -23.5h-144q25 32 45.5 62t39 59.5t35.5 58t34 58.5q-32 -9 -61 -9q-79 0 -124 60t-45 165q0 116 52 181t158 65q101 0 153 -63t52 -182zM257 333q23 0 37 12.5
t22 31.5t11 41t3 42q0 63 -18.5 91.5t-51.5 28.5q-34 0 -54.5 -32.5t-20.5 -97.5q0 -62 19 -89.5t53 -27.5z" />
    <glyph glyph-name="colon" unicode=":" horiz-adv-x="230" 
d="M50 360v140h130v-140h-130zM50 0v140h130v-140h-130z" />
    <glyph glyph-name="semicolon" unicode=";" horiz-adv-x="230" 
d="M180 0q0 -53 -28.5 -95t-81.5 -65l-60 50q23 23 31.5 51.5t8.5 58.5v140h130v-140zM50 360v140h130v-140h-130z" />
    <glyph glyph-name="less" unicode="&#x3c;" 
d="M63 265v80l390 225v-130l-260 -135l260 -135v-130z" />
    <glyph glyph-name="equal" unicode="=" 
d="M63 345v105h390v-105h-390zM63 160v105h390v-105h-390z" />
    <glyph glyph-name="greater" unicode="&#x3e;" 
d="M63 40v130l260 135l-260 135v130l390 -225v-80z" />
    <glyph glyph-name="question" unicode="?" horiz-adv-x="420" 
d="M400 570q0 -46 -10.5 -78t-26.5 -56.5t-35 -44t-35 -40.5t-26.5 -47t-10.5 -62q0 -10 1 -21t3 -21h-130q-6 31 -6 58q0 40 11 70t27 55t35 45.5t35 40.5t27 42t11 49q0 34 -18.5 47t-41.5 13q-10 0 -22.5 -2.5t-23 -11t-17.5 -24.5t-7 -44q0 -6 0.5 -13t1.5 -15l-122 5
q-1 8 -1 14v14q0 102 49.5 149.5t141.5 47.5q49 0 84.5 -14t59 -37.5t35 -54t11.5 -64.5zM130 0v140h130v-140h-130z" />
    <glyph glyph-name="at" unicode="@" horiz-adv-x="600" 
d="M580 220q0 -56 -9.5 -96t-27 -65.5t-41.5 -37t-52 -11.5q-27 0 -48 13.5t-36 36.5q-17 -23 -38.5 -36.5t-53.5 -13.5q-47 0 -75.5 49.5t-28.5 140.5q0 98 27.5 144t72.5 46q21 0 38 -8.5t32 -31.5v30h90v-200q0 -38 8.5 -54t25.5 -16q15 0 20.5 25t5.5 85t-14 109
t-39 83.5t-60 53.5t-77 19q-38 0 -72 -20.5t-60.5 -58t-42 -90t-15.5 -116.5q0 -60 15.5 -112t42 -91t60.5 -61t72 -22q40 0 70 14t60 44l110 -41q-30 -30 -57 -51.5t-55.5 -34.5t-59.5 -19t-68 -6q-60 0 -111.5 28.5t-89 79t-58.5 120t-21 152.5q0 90 21 160.5t58.5 119.5
t89 74.5t111.5 25.5t111 -25.5t88.5 -72t59 -113.5t21.5 -149zM340 200q0 53 -8.5 76.5t-31.5 23.5t-31.5 -23.5t-8.5 -76.5t8.5 -76.5t31.5 -23.5t31.5 23.5t8.5 76.5z" />
    <glyph glyph-name="A" unicode="A" horiz-adv-x="480" 
d="M335 0l-27 135h-136l-27 -135h-145l170 720h140l170 -720h-145zM250 420q-2 13 -4.5 25t-4.5 35h-2q-2 -23 -4.5 -35t-4.5 -25l-34 -170h88z" />
    <glyph glyph-name="B" unicode="B" horiz-adv-x="485" 
d="M470 216q0 -51 -16.5 -91t-46.5 -68t-72.5 -42.5t-94.5 -14.5h-190v720h190q49 0 88 -15.5t66 -41t41.5 -57.5t14.5 -66q0 -59 -26.5 -101t-67.5 -51v-2q20 -6 40.5 -19t37 -33.5t26.5 -49.5t10 -68zM320 220q0 60 -35 80t-95 20v-200q60 0 95 20t35 80zM300 520
q0 52 -25 71t-85 19v-180q53 0 81.5 18.5t28.5 71.5z" />
    <glyph glyph-name="C" unicode="C" horiz-adv-x="500" 
d="M490 200q-23 -106 -77 -163t-148 -57q-56 0 -100.5 25.5t-75.5 74.5t-47.5 119.5t-16.5 160.5t16.5 160.5t47.5 119.5t75.5 74.5t100.5 25.5q91 0 146 -53t74 -162l-135 -30q-5 49 -26 82t-59 33q-45 0 -72.5 -57.5t-27.5 -192.5t27.5 -192.5t72.5 -57.5q38 0 57.5 30
t27.5 90z" />
    <glyph glyph-name="D" unicode="D" horiz-adv-x="525" 
d="M500 360q0 -90 -21 -157.5t-58.5 -112.5t-88.5 -67.5t-112 -22.5h-170v720h170q60 0 111 -22.5t88.5 -67.5t59 -112.5t21.5 -157.5zM350 360q0 120 -35 175t-125 55v-460q90 0 125 55t35 175z" />
    <glyph glyph-name="E" unicode="E" horiz-adv-x="400" 
d="M360 0h-310v720h310l10 -130h-180v-160h160v-125h-160v-175h180z" />
    <glyph glyph-name="F" unicode="F" horiz-adv-x="385" 
d="M190 590v-160h160v-125h-160v-305h-140v720h310l10 -130h-180z" />
    <glyph glyph-name="G" unicode="G" horiz-adv-x="530" 
d="M495 120q-21 -30 -44 -55.5t-50.5 -44.5t-61 -29.5t-74.5 -10.5q-56 0 -100.5 25.5t-75.5 74.5t-47.5 119.5t-16.5 160.5t16.5 160.5t47.5 119.5t75.5 74.5t100.5 25.5q91 0 148 -56.5t72 -156.5l-130 -31q-8 48 -30 81t-60 33q-45 0 -72.5 -57.5t-27.5 -192.5
t27.5 -192.5t72.5 -57.5q19 0 32 4t23.5 12.5t21 21.5t23.5 32v110h-80l20 120h190v-290z" />
    <glyph glyph-name="H" unicode="H" horiz-adv-x="530" 
d="M340 0v320h-150v-320h-140v720h140v-280h150v280h140v-720h-140z" />
    <glyph glyph-name="I" unicode="I" horiz-adv-x="240" 
d="M50 0v720h140v-720h-140z" />
    <glyph glyph-name="J" unicode="J" horiz-adv-x="290" 
d="M240 120q0 -72 -28.5 -106t-81.5 -34q-38 0 -72.5 13.5t-57.5 36.5l30 130q11 -15 23 -22.5t23 -7.5t17.5 8t6.5 24v558h140v-600z" />
    <glyph glyph-name="K" unicode="K" horiz-adv-x="490" 
d="M330 0l-138 320h-2v-320h-140v720h140v-300h2l128 300h150l-160 -350l180 -370h-160z" />
    <glyph glyph-name="L" unicode="L" horiz-adv-x="350" 
d="M330 0h-280v720h140v-590h160z" />
    <glyph glyph-name="M" unicode="M" horiz-adv-x="660" 
d="M470 0v420h-2q-4 -13 -8.5 -25t-9.5 -25l-120 -300l-120 300q-10 24 -18 50h-2v-420h-140v720h140l121 -320q5 -11 10 -26t8 -34h2q3 19 8 32.5t10 27.5l121 320h140v-720h-140z" />
    <glyph glyph-name="N" unicode="N" horiz-adv-x="530" 
d="M340 0l-131 350q-5 13 -8.5 24t-8.5 26h-2v-400h-140v720h140l131 -350q5 -13 8.5 -24t8.5 -26h2v400h140v-720h-140z" />
    <glyph glyph-name="O" unicode="O" horiz-adv-x="530" 
d="M505 360q0 -90 -16.5 -160.5t-47.5 -119.5t-75.5 -74.5t-100.5 -25.5t-100.5 25.5t-75.5 74.5t-47.5 119.5t-16.5 160.5q0 89 16.5 159.5t47.5 119.5t75.5 75t100.5 26t100.5 -25.5t75.5 -74.5t47.5 -119.5t16.5 -160.5zM365 360q0 135 -27.5 192.5t-72.5 57.5
t-72.5 -57.5t-27.5 -192.5t27.5 -192.5t72.5 -57.5t72.5 57.5t27.5 192.5z" />
    <glyph glyph-name="P" unicode="P" horiz-adv-x="460" 
d="M460 510q0 -50 -19 -89t-52 -66t-77.5 -41.5t-96.5 -14.5h-13q-6 0 -12 1v-300h-140v720h160q56 0 102 -13t79 -39.5t51 -66t18 -91.5zM320 510q0 26 -9 42t-26 24.5t-41 11t-54 2.5v-160q30 0 54 2.5t41 11t26 24.5t9 42z" />
    <glyph glyph-name="Q" unicode="Q" horiz-adv-x="530" 
d="M425 0l-19 36q-56 -56 -141 -56q-56 0 -100.5 25.5t-75.5 74.5t-47.5 119.5t-16.5 160.5q0 89 16.5 159.5t47.5 119.5t75.5 75t100.5 26t100.5 -25.5t75.5 -74.5t47.5 -119.5t16.5 -160.5q0 -146 -43 -241l63 -119h-100zM365 360q0 135 -27.5 192.5t-72.5 57.5
t-72.5 -57.5t-27.5 -192.5t27.5 -192.5t72.5 -57.5q46 0 72 55l-72 135h98q1 14 1.5 28.5t0.5 31.5z" />
    <glyph glyph-name="R" unicode="R" horiz-adv-x="480" 
d="M460 510q0 -69 -36 -118t-96 -73l122 -319h-150l-103 300h-7v-300h-140v720h160q56 0 102 -13t79 -39.5t51 -66t18 -91.5zM320 510q0 26 -9 42t-26 24.5t-41 11t-54 2.5v-160q30 0 54 2.5t41 11t26 24.5t9 42z" />
    <glyph glyph-name="S" unicode="S" horiz-adv-x="435" 
d="M425 180q0 -53 -16 -90.5t-44 -62t-66.5 -36t-83.5 -11.5t-79 13.5t-59.5 36t-43 51.5t-28.5 59l110 60q15 -45 42.5 -67.5t57.5 -22.5t50 16t20 54q0 27 -19.5 53t-48 52.5t-62.5 54.5t-62.5 61.5t-48 72t-19.5 86.5q0 83 49.5 131.5t140.5 48.5q80 0 127 -37.5
t67 -96.5l-114 -46q-15 37 -32.5 48.5t-47.5 11.5q-23 0 -36.5 -15t-13.5 -45t19.5 -56t48 -51.5t62.5 -52.5t62.5 -59t48 -71.5t19.5 -89.5z" />
    <glyph glyph-name="T" unicode="T" horiz-adv-x="380" 
d="M260 590v-590h-140v590h-120l15 130h350l15 -130h-120z" />
    <glyph glyph-name="U" unicode="U" horiz-adv-x="530" 
d="M480 210q0 -105 -53 -167.5t-162 -62.5t-162 62.5t-53 167.5v510h140v-510q0 -53 20.5 -76.5t54.5 -23.5t54.5 23.5t20.5 76.5v510h140v-510z" />
    <glyph glyph-name="V" unicode="V" horiz-adv-x="450" 
d="M310 0h-170l-140 720h150l67 -430l4 -30q2 -15 3 -30h2q2 14 3.5 30t3.5 30l67 430h150z" />
    <glyph glyph-name="W" unicode="W" horiz-adv-x="680" 
d="M550 0h-140l-61 360q-3 16 -4.5 30.5t-3.5 29.5h-2l-8 -60l-61 -360h-140l-120 720h150l53 -360q4 -30 6 -60h2q2 15 4 30.5t4 29.5l61 360h100l61 -360l8 -60h2q2 15 3 30.5t3 29.5l53 360h150z" />
    <glyph glyph-name="X" unicode="X" horiz-adv-x="450" 
d="M287 0l-50 170q-4 12 -6.5 23t-4.5 22h-2q-2 -11 -5 -22.5t-6 -22.5l-50 -170h-153l135 360l-130 360h145l53 -170q4 -11 6.5 -22.5t4.5 -22.5h2q4 22 11 45l53 170h145l-130 -360l135 -360h-153z" />
    <glyph glyph-name="Y" unicode="Y" horiz-adv-x="440" 
d="M290 210v-210h-140v210l-160 510h150l68 -280q4 -15 6.5 -30t4.5 -30h2q3 29 11 60l68 280h150z" />
    <glyph glyph-name="Z" unicode="Z" horiz-adv-x="420" 
d="M210 130h195l-20 -130h-370l205 590h-195l20 130h370z" />
    <glyph glyph-name="bracketleft" unicode="[" horiz-adv-x="270" 
d="M230 -100l-180 10v860l180 10l10 -120h-55v-640h55z" />
    <glyph glyph-name="backslash" unicode="\" horiz-adv-x="340" 
d="M240 -100l-240 880h100l240 -880h-100z" />
    <glyph glyph-name="bracketright" unicode="]" horiz-adv-x="270" 
d="M40 -100l-10 120h55v640h-55l10 120l180 -10v-860z" />
    <glyph glyph-name="asciicircum" unicode="^" horiz-adv-x="420" 
d="M260 320l-50 270l-50 -270h-120l100 400h140l100 -400h-120z" />
    <glyph glyph-name="underscore" unicode="_" horiz-adv-x="400" 
d="M0 -180v110h400v-110h-400z" />
    <glyph glyph-name="grave" unicode="`" horiz-adv-x="240" 
d="M120 580l-80 140h110l50 -140h-80z" />
    <glyph glyph-name="a" unicode="a" horiz-adv-x="435" 
d="M270 0v50h-2q-17 -38 -45 -51.5t-58 -13.5q-26 0 -51.5 14.5t-45 46.5t-31.5 82.5t-12 121.5t12 121.5t31.5 82.5t45 46.5t51.5 14.5q30 0 58 -13.5t45 -51.5h2v50h125v-500h-125zM270 250q0 45 -4.5 74t-12 46t-17.5 23.5t-21 6.5t-22 -6.5t-19.5 -23.5t-13.5 -46
t-5 -74t5 -74t13.5 -46t19.5 -23.5t22 -6.5t21 6.5t17.5 23.5t12 46t4.5 74z" />
    <glyph glyph-name="b" unicode="b" horiz-adv-x="435" 
d="M410 250q0 -71 -12 -121.5t-31.5 -82.5t-45 -46.5t-51.5 -14.5q-30 0 -58 13.5t-45 51.5h-2v-50h-125v730h125v-280h2q17 38 45 51.5t58 13.5q26 0 51.5 -14.5t45 -46.5t31.5 -82.5t12 -121.5zM280 250q0 45 -5 74t-13.5 46t-19.5 23.5t-22 6.5t-21 -6.5t-17.5 -23.5
t-12 -46t-4.5 -74t4.5 -74t12 -46t17.5 -23.5t21 -6.5t22 6.5t19.5 23.5t13.5 46t5 74z" />
    <glyph glyph-name="c" unicode="c" horiz-adv-x="380" 
d="M365 120q-8 -26 -21 -50.5t-31.5 -43.5t-43 -30t-54.5 -11q-38 0 -72 13.5t-60.5 44t-42 81.5t-15.5 126t15.5 126t42 81.5t60.5 44t72 13.5q34 0 58.5 -9.5t42.5 -26.5t29.5 -40t19.5 -49l-95 -40q-8 30 -20 45t-35 15q-12 0 -22.5 -8t-19 -26.5t-13.5 -49t-5 -76.5
t5 -75t13.5 -45.5t19 -23t22.5 -6.5q23 0 32.5 10t17.5 40z" />
    <glyph glyph-name="d" unicode="d" horiz-adv-x="435" 
d="M270 0v50h-2q-17 -38 -45 -51.5t-58 -13.5q-26 0 -51.5 14.5t-45 46.5t-31.5 82.5t-12 121.5t12 121.5t31.5 82.5t45 46.5t51.5 14.5q30 0 58 -13.5t45 -51.5h2v280h125v-730h-125zM270 250q0 45 -4.5 74t-12 46t-17.5 23.5t-21 6.5t-22 -6.5t-19.5 -23.5t-13.5 -46
t-5 -74t5 -74t13.5 -46t19.5 -23.5t22 -6.5t21 6.5t17.5 23.5t12 46t4.5 74z" />
    <glyph glyph-name="e" unicode="e" horiz-adv-x="420" 
d="M155 210q0 -54 18.5 -82t41.5 -28t38 9t24 35l108 -44q-15 -26 -30.5 -47.5t-35 -36.5t-45 -23t-59.5 -8q-37 0 -71.5 13.5t-60.5 44t-42 81.5t-16 126t15.5 126t42 81.5t60.5 44t72 13.5q37 0 70 -14.5t57.5 -44.5t38.5 -76t14 -110v-60h-240zM275 290q0 60 -18.5 85
t-41.5 25t-41.5 -25t-18.5 -85h120z" />
    <glyph glyph-name="f" unicode="f" horiz-adv-x="260" 
d="M185 390v-390h-125v390h-45l15 110h30v90q0 41 10 68t29.5 43t47 22.5t63.5 6.5h35v-110q-21 0 -33 -2t-18 -8t-7.5 -15.5t-1.5 -24.5v-70h60v-110h-60z" />
    <glyph glyph-name="g" unicode="g" horiz-adv-x="435" 
d="M395 -20q0 -45 -12.5 -79t-35 -56.5t-54 -33.5t-68.5 -11q-30 0 -55 3.5t-47.5 11.5t-43.5 20t-45 29l51 86q28 -23 55 -36.5t65 -13.5q35 0 52.5 26.5t17.5 71.5q0 12 -1.5 25t-3.5 27h-2q-17 -38 -45 -51.5t-58 -13.5q-26 0 -51.5 14.5t-45 46.5t-31.5 82.5t-12 121.5
t12 121.5t31.5 82.5t45 46.5t51.5 14.5q30 0 58 -13.5t45 -51.5h2v50h125v-520zM270 250q0 45 -4.5 74t-12 46t-17.5 23.5t-21 6.5t-22 -6.5t-19.5 -23.5t-13.5 -46t-5 -74t5 -74t13.5 -46t19.5 -23.5t22 -6.5t21 6.5t17.5 23.5t12 46t4.5 74z" />
    <glyph glyph-name="h" unicode="h" horiz-adv-x="430" 
d="M265 0v324q0 34 -7.5 55t-37.5 21t-42.5 -20.5t-12.5 -54.5v-325h-125v730h125v-280h2q25 37 51.5 51t71.5 14q19 0 37 -6t32 -21t22.5 -41.5t8.5 -66.5v-380h-125z" />
    <glyph glyph-name="i" unicode="i" horiz-adv-x="205" 
d="M40 0v500h125v-500h-125zM40 580v140h125v-140h-125z" />
    <glyph glyph-name="j" unicode="j" horiz-adv-x="205" 
d="M165 -35q0 -45 -10 -75t-28.5 -48.5t-45.5 -26t-60 -7.5q-8 0 -17.5 0.5t-18.5 1.5v110q26 0 40.5 7.5t14.5 37.5v535h125v-535zM40 580v140h125v-140h-125z" />
    <glyph glyph-name="k" unicode="k" horiz-adv-x="400" 
d="M250 0l-83 210h-2v-210h-125v730h125v-430h2l78 200h135l-105 -250l115 -250h-140z" />
    <glyph glyph-name="l" unicode="l" horiz-adv-x="205" 
d="M40 0v730h125v-730h-125z" />
    <glyph glyph-name="m" unicode="m" horiz-adv-x="635" 
d="M470 0v340q0 34 -12.5 47t-32.5 13t-32.5 -15t-12.5 -45v-340h-125v340q0 34 -12.5 47t-32.5 13t-32.5 -15t-12.5 -45v-340h-125v500h125v-50h2q26 34 57.5 49.5t65.5 15.5q30 0 56.5 -17t33.5 -48q27 31 61.5 48t68.5 17q45 0 65 -29t20 -86v-400h-125z" />
    <glyph glyph-name="n" unicode="n" horiz-adv-x="430" 
d="M265 0v324q0 34 -7.5 55t-37.5 21t-42.5 -20.5t-12.5 -54.5v-325h-125v500h125v-50h2q25 37 51.5 51t71.5 14q19 0 37 -6t32 -21t22.5 -41.5t8.5 -66.5v-380h-125z" />
    <glyph glyph-name="o" unicode="o" horiz-adv-x="430" 
d="M405 250q0 -74 -16 -125t-42 -82t-60.5 -44.5t-71.5 -13.5t-71.5 13.5t-60.5 44.5t-42 82t-16 125t16 125t42 82t60.5 44.5t71.5 13.5t71.5 -13.5t60.5 -44.5t42 -82t16 -125zM275 250q0 45 -5 74t-13.5 46t-19.5 23.5t-22 6.5t-22 -6.5t-19.5 -23.5t-13.5 -46t-5 -74
t5 -74t13.5 -46t19.5 -23.5t22 -6.5t22 6.5t19.5 23.5t13.5 46t5 74z" />
    <glyph glyph-name="p" unicode="p" horiz-adv-x="435" 
d="M410 250q0 -71 -12 -121.5t-31.5 -82.5t-45 -46.5t-51.5 -14.5q-30 0 -58 13.5t-45 51.5h-2v-240h-125v690h125v-50h2q17 38 45 51.5t58 13.5q26 0 51.5 -14.5t45 -46.5t31.5 -82.5t12 -121.5zM280 250q0 45 -5 74t-13.5 46t-19.5 23.5t-22 6.5t-21 -6.5t-17.5 -23.5
t-12 -46t-4.5 -74t4.5 -74t12 -46t17.5 -23.5t21 -6.5t22 6.5t19.5 23.5t13.5 46t5 74z" />
    <glyph glyph-name="q" unicode="q" horiz-adv-x="435" 
d="M270 -190v240h-2q-17 -38 -45 -51.5t-58 -13.5q-26 0 -51.5 14.5t-45 46.5t-31.5 82.5t-12 121.5t12 121.5t31.5 82.5t45 46.5t51.5 14.5q30 0 58 -13.5t45 -51.5h2v50h125v-690h-125zM270 250q0 45 -4.5 74t-12 46t-17.5 23.5t-21 6.5t-22 -6.5t-19.5 -23.5t-13.5 -46
t-5 -74t5 -74t13.5 -46t19.5 -23.5t22 -6.5t21 6.5t17.5 23.5t12 46t4.5 74z" />
    <glyph glyph-name="r" unicode="r" horiz-adv-x="290" 
d="M290 390q-7 1 -13 1.5t-12 0.5q-54 0 -77 -30t-23 -87v-275h-125v500h125v-60h2q42 75 123 75v-125z" />
    <glyph glyph-name="s" unicode="s" horiz-adv-x="350" 
d="M330 140q0 -32 -11 -60.5t-32 -49.5t-50.5 -33t-66.5 -12q-57 0 -93 20t-67 55l69 82q19 -23 38.5 -34t36.5 -11q24 0 35 11.5t11 31.5q0 16 -12.5 31t-31.5 31t-41 34t-41 39.5t-31.5 47t-12.5 57.5q0 27 10 51.5t28 43t44 29.5t58 11q55 0 92.5 -16t57.5 -44l-62 -75
q-11 14 -25.5 24t-34.5 10q-15 0 -26.5 -10t-11.5 -24q0 -20 26.5 -42.5t58.5 -50.5t58.5 -64t26.5 -83z" />
    <glyph glyph-name="t" unicode="t" horiz-adv-x="265" 
d="M255 15q-15 -9 -27 -15t-23.5 -9.5t-24.5 -4.5t-30 -1q-42 0 -66 26t-24 79v300h-45l15 110h30v90l125 30v-120h60v-110h-60v-240q0 -22 8 -31.5t21 -9.5q14 0 31 11z" />
    <glyph glyph-name="u" unicode="u" horiz-adv-x="430" 
d="M265 0v50h-2q-12 -19 -24.5 -31.5t-27 -20t-32 -10.5t-39.5 -3q-19 0 -37 6t-32 21t-22.5 41t-8.5 67v380h125v-324q0 -34 8.5 -55t38.5 -21t41.5 20.5t11.5 54.5v325h125v-500h-125z" />
    <glyph glyph-name="v" unicode="v" horiz-adv-x="360" 
d="M250 0h-140l-110 500h135l39 -260q2 -13 3 -25t2 -25h2q1 13 2 25t3 25l39 260h135z" />
    <glyph glyph-name="w" unicode="w" horiz-adv-x="580" 
d="M480 0h-130l-51 280q-3 15 -4.5 30t-3.5 30h-2q-2 -15 -3.5 -30t-4.5 -30l-51 -280h-130l-100 500h130l41 -230q3 -15 5 -30t3 -30h2q2 15 4.5 30t5.5 30l49 230h100l49 -230q3 -15 5.5 -30t4.5 -30h2q2 15 3.5 30t4.5 30l41 230h130z" />
    <glyph glyph-name="x" unicode="x" horiz-adv-x="390" 
d="M245 0l-38 90q-5 10 -6.5 17t-4.5 18h-2q-3 -11 -5 -18t-6 -17l-38 -90h-135l120 253l-115 247h130l35 -80q5 -11 8 -20t6 -20h2q3 11 6.5 20t8.5 21l34 79h130l-115 -247l120 -253h-135z" />
    <glyph glyph-name="y" unicode="y" horiz-adv-x="360" 
d="M200 -190h-130l57 240l-127 450h130l42 -170q3 -13 5 -24t4 -26h2q2 15 3.5 26.5t4.5 23.5l39 170h130z" />
    <glyph glyph-name="z" unicode="z" horiz-adv-x="355" 
d="M310 0h-300l140 380h-120l20 120h280l-140 -380h140z" />
    <glyph glyph-name="braceleft" unicode="{" horiz-adv-x="280" 
d="M210 -100q-41 0 -68 8t-43 26t-22.5 48t-6.5 74v184q0 30 -10 40t-40 10v100q30 0 40 10t10 40v187q0 42 6.5 71.5t22.5 47.5t43 26t68 8h50v-100q-19 0 -31.5 -0.5t-20 -4.5t-10.5 -12t-3 -23v-220q0 -30 -7.5 -51t-37.5 -29q30 -8 37.5 -29t7.5 -51v-220q0 -15 3 -23
t10.5 -12t20 -4.5t31.5 -0.5v-100h-50z" />
    <glyph glyph-name="bar" unicode="|" horiz-adv-x="340" 
d="M125 -100v880h90v-880h-90z" />
    <glyph glyph-name="braceright" unicode="}" horiz-adv-x="280" 
d="M260 290q-30 0 -40 -10t-10 -40v-184q0 -44 -6.5 -74t-22.5 -48t-43 -26t-68 -8h-50v100q19 0 31.5 0.5t20 4.5t10.5 12t3 23v220q0 30 7.5 51t37.5 29q-30 8 -37.5 29t-7.5 51v220q0 15 -3 23t-10.5 12t-20 4.5t-31.5 0.5v100h50q41 0 68 -8t43 -26t22.5 -47.5
t6.5 -71.5v-187q0 -30 10 -40t40 -10v-100z" />
    <glyph glyph-name="asciitilde" unicode="~" horiz-adv-x="462" 
d="M441 397q1 -8 1 -15v-14q0 -44 -10 -73t-27.5 -46t-41.5 -24.5t-52 -7.5q-26 0 -48.5 11t-41.5 24t-34 24t-26 11q-23 0 -31.5 -11t-8.5 -49h-100q-1 8 -1 15v14q0 43 10 72.5t27.5 46.5t41.5 24.5t52 7.5q26 0 48.5 -11t41.5 -24t34 -24t26 -11q23 0 31.5 11t8.5 49h100
z" />
    <glyph glyph-name="uni00A0" unicode="&#xa0;" horiz-adv-x="200" 
 />
    <glyph glyph-name="exclamdown" unicode="&#xa1;" horiz-adv-x="230" 
d="M50 -190v520h130v-520h-130zM50 390v140h130v-140h-130z" />
    <glyph glyph-name="cent" unicode="&#xa2;" horiz-adv-x="380" 
d="M365 120q-12 -43 -39.5 -79.5t-70.5 -49.5v-91h-80v89q-31 6 -58.5 23t-47.5 48.5t-32 78t-12 111.5t12 111.5t32 78t47.5 48.5t58.5 23v89h80v-89q47 -11 72 -43.5t38 -77.5l-95 -40q-8 30 -20 45t-35 15q-12 0 -22.5 -8t-19 -26.5t-13.5 -49t-5 -76.5t5 -75t13.5 -45.5
t19 -23t22.5 -6.5q23 0 32.5 10t17.5 40z" />
    <glyph glyph-name="sterling" unicode="&#xa3;" horiz-adv-x="420" 
d="M347 575q-15 14 -31 20.5t-30 6.5q-23 0 -39.5 -15t-16.5 -41v-66h90l-20 -90h-70q-1 -57 -5.5 -98.5t-12 -73t-18 -55t-24.5 -43.5h210l-20 -120h-340v110q22 22 37 47.5t23 58.5t11.5 75.5t3.5 98.5h-65l20 90h45v67q0 75 40 114t118 39q47 0 83 -16.5t59 -48.5z" />
    <glyph glyph-name="currency" unicode="&#xa4;" horiz-adv-x="510" 
d="M404 82l-54 53q-44 -25 -95 -25q-52 0 -96 25l-54 -53l-74 74l54 54q-25 44 -25 95t25 95l-54 54l74 74l54 -53q44 25 96 25q51 0 95 -25l54 53l74 -74l-53 -53q25 -44 25 -96t-25 -96l53 -53zM346 305q0 38 -26.5 64.5t-64.5 26.5t-64.5 -26.5t-26.5 -64.5t26.5 -64.5
t64.5 -26.5t64.5 26.5t26.5 64.5z" />
    <glyph glyph-name="yen" unicode="&#xa5;" horiz-adv-x="470" 
d="M300 110v-110h-130v110h-150v90h150l-19 60h-131v90h103l-103 330h140l75 -310l75 310h140l-103 -330h103v-90h-131l-19 -60h150v-90h-150z" />
    <glyph glyph-name="brokenbar" unicode="&#xa6;" horiz-adv-x="350" 
d="M120 380v300h110v-300h-110zM120 0v300h110v-300h-110z" />
    <glyph glyph-name="section" unicode="&#xa7;" horiz-adv-x="480" 
d="M460 310q0 -33 -9.5 -60.5t-24 -49.5t-32.5 -39t-36 -29q23 -24 37.5 -54t14.5 -68q0 -41 -15.5 -71.5t-42 -50t-61 -29t-71.5 -9.5q-30 0 -56.5 8.5t-49 21.5t-41 29t-33.5 31l70 90q23 -30 51.5 -50t58.5 -20t45 13.5t15 36.5q0 25 -19.5 45.5t-48 40.5t-62.5 41.5
t-62.5 50t-48 65.5t-19.5 87q0 34 9.5 61.5t25 50t34 39.5t36.5 29q-24 24 -39.5 53t-15.5 67q0 41 14 71.5t37.5 50t54 29t64.5 9.5t59 -7t44.5 -18t35.5 -25.5t31 -29.5l-60 -90q-23 30 -47.5 45t-62.5 15q-23 0 -31.5 -13.5t-8.5 -36.5q0 -22 19.5 -41.5t48 -39.5
t62.5 -42.5t62.5 -52t48 -67t19.5 -87.5zM340 300q0 23 -10.5 42.5t-28 37.5t-40.5 34.5t-47 33.5q-12 -5 -25 -14.5t-24 -22t-18 -28t-7 -33.5q0 -38 32 -71.5t96 -75.5q11 5 24 14.5t23.5 22t17.5 28t7 32.5z" />
    <glyph glyph-name="dieresis" unicode="&#xa8;" horiz-adv-x="330" 
d="M190 580v140h100v-140h-100zM40 580v140h100v-140h-100z" />
    <glyph glyph-name="copyright" unicode="&#xa9;" horiz-adv-x="630" 
d="M605 360q0 -90 -21.5 -160.5t-60 -119.5t-91.5 -74.5t-117 -25.5t-117 25.5t-91.5 74.5t-60 119.5t-21.5 160.5t21.5 160.5t60 119.5t91.5 74.5t117 25.5t117 -25.5t91.5 -74.5t60 -119.5t21.5 -160.5zM525 360q0 67 -16 122.5t-44 95t-66.5 61t-83.5 21.5t-83.5 -21.5
t-66.5 -61t-44 -95t-16 -122.5q0 -68 16 -123t44 -94.5t66.5 -61t83.5 -21.5t83.5 21.5t66.5 61t44 94.5t16 123zM455 260q-8 -60 -44 -97.5t-96 -37.5q-68 0 -109 61t-41 174t41 174t109 61q60 0 96 -37.5t44 -97.5l-90 -20q-8 37 -17.5 48.5t-32.5 11.5t-36.5 -36
t-13.5 -104t13.5 -104t36.5 -36q11 0 19 2.5t13.5 9t9.5 18t8 30.5z" />
    <glyph glyph-name="ordfeminine" unicode="&#xaa;" horiz-adv-x="300" 
d="M190 390v25q-11 -19 -29 -27t-41 -8q-15 0 -32.5 8t-32.5 26.5t-25 48t-10 72.5t10 72.5t25 48t32.5 26.5t32.5 8q23 0 41 -8t29 -27v25h85v-290h-85zM30 250v90h245v-90h-245zM185 535q0 42 -10 58.5t-25 16.5t-25 -16.5t-10 -58.5t10 -58.5t25 -16.5t25 16.5t10 58.5z
" />
    <glyph glyph-name="guillemotleft" unicode="&#xab;" horiz-adv-x="380" 
d="M240 120l-50 160l50 160h110l-50 -160l50 -160h-110zM80 120l-50 160l50 160h110l-50 -160l50 -160h-110z" />
    <glyph glyph-name="logicalnot" unicode="&#xac;" 
d="M353 110v140h-290v110h390v-250h-100z" />
    <glyph glyph-name="uni00AD" unicode="&#xad;" horiz-adv-x="280" 
d="M40 250v110h200v-110h-200z" />
    <glyph glyph-name="registered" unicode="&#xae;" horiz-adv-x="460" 
d="M420 500q0 -60 -15.5 -105t-42 -75t-61 -45t-71.5 -15q-38 0 -72 15t-60.5 45t-42 75t-15.5 105t15.5 105t42 75t60.5 45t72 15q37 0 71.5 -15t61 -45t42 -75t15.5 -105zM360 500q0 83 -35 131.5t-95 48.5t-95 -48.5t-35 -131.5t35 -131.5t95 -48.5t95 48.5t35 131.5z
M320 555q0 -30 -8.5 -44.5t-31.5 -25.5l30 -105h-60l-25 100h-5v-100h-60v250h70q38 0 64 -18.5t26 -56.5zM265 555q0 19 -11 22t-34 3v-50q23 0 34 3t11 22z" />
    <glyph glyph-name="macron" unicode="&#xaf;" horiz-adv-x="420" 
d="M70 592v85h280v-85h-280z" />
    <glyph glyph-name="degree" unicode="&#xb0;" horiz-adv-x="290" 
d="M270 595q0 -26 -10 -48.5t-27 -39.5t-39.5 -27t-48.5 -10t-48.5 10t-39.5 27t-27 39.5t-10 48.5t10 48.5t27 39.5t39.5 27t48.5 10t48.5 -10t39.5 -27t27 -39.5t10 -48.5zM200 595q0 23 -16 39t-39 16t-39 -16t-16 -39t16 -39t39 -16t39 16t16 39z" />
    <glyph glyph-name="plusminus" unicode="&#xb1;" 
d="M313 270v-120h-110v120h-140v110h140v120h110v-120h140v-110h-140zM63 0v110h390v-110h-390z" />
    <glyph glyph-name="twosuperior" unicode="&#xb2;" horiz-adv-x="331" 
d="M34 346q0 32 9.5 57.5t24.5 46.5t33.5 39t37.5 35q26 23 44 45t18 45q0 41 -39 41q-15 0 -26 -13t-12 -42l-90 8q0 55 35.5 91.5t95.5 36.5q63 0 98 -33.5t35 -87.5q0 -24 -8 -44t-20.5 -37t-28 -32t-31.5 -29q-23 -21 -43.5 -44t-20.5 -49h149l-8 -78h-253v44z" />
    <glyph glyph-name="threesuperior" unicode="&#xb3;" horiz-adv-x="331" 
d="M165 286q-65 0 -101 35.5t-40 102.5l89 11q2 -29 15.5 -46.5t31.5 -17.5q17 0 31 13.5t14 45.5q0 35 -18 50.5t-47 15.5v66q55 0 55 51q0 21 -11 30.5t-25 9.5q-15 0 -25.5 -11.5t-12.5 -37.5l-85 9q2 55 35 89t94 34q55 0 88.5 -29.5t33.5 -80.5q0 -64 -53 -94
q29 -12 48 -38t19 -72q0 -32 -10.5 -57t-29 -42.5t-43.5 -27t-53 -9.5z" />
    <glyph glyph-name="acute" unicode="&#xb4;" horiz-adv-x="240" 
d="M120 580h-80l50 140h110z" />
    <glyph glyph-name="mu" unicode="&#xb5;" horiz-adv-x="430" 
d="M265 0v48q-20 -27 -36.5 -37.5t-36.5 -10.5q-16 0 -27 5v-195h-125v690h125v-324q0 -34 8.5 -55t37.5 -21q30 0 42 20.5t12 55.5v324h125v-500h-125z" />
    <glyph glyph-name="paragraph" unicode="&#xb6;" horiz-adv-x="540" 
d="M370 0v620h-50v-620h-120v380h-10q-35 0 -66 13.5t-54 36.5t-36.5 54t-13.5 66t12.5 66t36 54t57 36.5t74.5 13.5h290v-720h-120z" />
    <glyph glyph-name="periodcentered" unicode="&#xb7;" horiz-adv-x="240" 
d="M50 240v140h140v-140h-140z" />
    <glyph glyph-name="cedilla" unicode="&#xb8;" horiz-adv-x="180" 
d="M140 -60q6 -21 6 -41q0 -42 -20.5 -77.5t-50.5 -56.5l-55 25q11 11 19.5 40t8.5 61q0 29 -8 49h100z" />
    <glyph glyph-name="onesuperior" unicode="&#xb9;" horiz-adv-x="265" 
d="M102 618l-60 -49v98l65 53h92v-418h-97v316z" />
    <glyph glyph-name="ordmasculine" unicode="&#xba;" horiz-adv-x="300" 
d="M280 535q0 -45 -12 -75t-31 -47.5t-42 -25t-45 -7.5t-45 7.5t-42 25t-31 47.5t-12 75t12 75t31 47.5t42 25t45 7.5t45 -7.5t42 -25t31 -47.5t12 -75zM30 250v90h240v-90h-240zM185 535q0 42 -10 58.5t-25 16.5t-25 -16.5t-10 -58.5t10 -58.5t25 -16.5t25 16.5t10 58.5z
" />
    <glyph glyph-name="guillemotright" unicode="&#xbb;" horiz-adv-x="380" 
d="M300 120h-110l50 160l-50 160h110l50 -160zM140 120h-110l50 160l-50 160h110l50 -160z" />
    <glyph glyph-name="onequarter" unicode="&#xbc;" horiz-adv-x="700" 
d="M102 581l-60 -49v98l65 53h92v-418h-97v316zM429 680h100l-270 -680h-100zM546 67h-165l162 351h98v-281h34v-70h-34v-67h-95v67zM546 137v147l-66 -147h66z" />
    <glyph glyph-name="onehalf" unicode="&#xbd;" horiz-adv-x="760" 
d="M102 582l-60 -49v98l65 53h92v-418h-97v316zM429 680h100l-270 -680h-100zM463 45q0 32 9.5 57.5t24.5 46.5t33.5 39t37.5 35q26 23 44 45t18 45q0 41 -39 41q-15 0 -26 -13t-12 -42l-90 8q0 55 35.5 91.5t95.5 36.5q63 0 98 -33.5t35 -87.5q0 -24 -8 -44t-20.5 -37
t-28 -32t-31.5 -29q-23 -21 -43.5 -44t-20.5 -49h149l-8 -78h-253v44z" />
    <glyph glyph-name="threequarters" unicode="&#xbe;" horiz-adv-x="766" 
d="M165 249q-65 0 -101 35.5t-40 102.5l89 11q2 -29 15.5 -46.5t31.5 -17.5q17 0 31 13.5t14 45.5q0 35 -18 50.5t-47 15.5v66q55 0 55 51q0 21 -11 30.5t-25 9.5q-15 0 -25.5 -11.5t-12.5 -37.5l-85 9q2 55 35 89t94 34q55 0 88.5 -29.5t33.5 -80.5q0 -64 -53 -94
q29 -12 48 -38t19 -72q0 -32 -10.5 -57t-29 -42.5t-43.5 -27t-53 -9.5zM495 680h100l-270 -680h-100zM612 67h-165l162 351h98v-281h34v-70h-34v-67h-95v67zM612 137v147l-66 -147h66z" />
    <glyph glyph-name="questiondown" unicode="&#xbf;" horiz-adv-x="420" 
d="M400 25q1 -8 1 -15v-13q0 -102 -49.5 -149.5t-141.5 -47.5q-49 0 -84.5 14t-59 37.5t-35 54t-11.5 64.5q0 46 10.5 78t26.5 56.5t35 44t35 40.5t26.5 46.5t10.5 62.5q0 8 -1 19.5t-3 22.5h130q6 -32 6 -58q0 -40 -11 -70t-27 -55t-35 -45.5t-35 -40.5t-27 -42t-11 -49
q0 -34 18.5 -47t41.5 -13q10 0 22.5 2.5t23 11t17.5 24.5t7 44q0 6 -0.5 12t-1.5 13v3zM160 400v140h130v-140h-130z" />
    <glyph glyph-name="Agrave" unicode="&#xc0;" horiz-adv-x="480" 
d="M335 0l-27 135h-136l-27 -135h-145l170 720h140l170 -720h-145zM250 420q-2 13 -4.5 25t-4.5 35h-2q-2 -23 -4.5 -35t-4.5 -25l-34 -170h88zM200 780l-80 140h110l50 -140h-80z" />
    <glyph glyph-name="Aacute" unicode="&#xc1;" horiz-adv-x="480" 
d="M335 0l-27 135h-136l-27 -135h-145l170 720h140l170 -720h-145zM250 420q-2 13 -4.5 25t-4.5 35h-2q-2 -23 -4.5 -35t-4.5 -25l-34 -170h88zM280 780h-80l50 140h110z" />
    <glyph glyph-name="Acircumflex" unicode="&#xc2;" horiz-adv-x="480" 
d="M335 0l-27 135h-136l-27 -135h-145l170 720h140l170 -720h-145zM250 420q-2 13 -4.5 25t-4.5 35h-2q-2 -23 -4.5 -35t-4.5 -25l-34 -170h88zM270 780l-30 90l-30 -90h-90l70 140h100l70 -140h-90z" />
    <glyph glyph-name="Atilde" unicode="&#xc3;" horiz-adv-x="480" 
d="M335 0l-27 135h-136l-27 -135h-145l170 720h140l170 -720h-145zM250 420q-2 13 -4.5 25t-4.5 35h-2q-2 -23 -4.5 -35t-4.5 -25l-34 -170h88zM380 870q0 -19 -2.5 -37t-10 -32t-21.5 -22.5t-36 -8.5q-15 0 -33 8t-34.5 17t-31 17t-21.5 8q-14 0 -17 -8.5t-3 -31.5h-70v30
q0 19 2.5 37t10 32t21 22.5t36.5 8.5q15 0 33 -8t34.5 -17t30.5 -17t22 -8q15 0 17.5 8.5t2.5 31.5h70v-30z" />
    <glyph glyph-name="Adieresis" unicode="&#xc4;" horiz-adv-x="480" 
d="M335 0l-27 135h-136l-27 -135h-145l170 720h140l170 -720h-145zM250 420q-2 13 -4.5 25t-4.5 35h-2q-2 -23 -4.5 -35t-4.5 -25l-34 -170h88zM275 780v130h105v-130h-105zM100 780v130h105v-130h-105z" />
    <glyph glyph-name="Aring" unicode="&#xc5;" horiz-adv-x="480" 
d="M335 0l-27 135h-136l-27 -135h-145l170 720h140l170 -720h-145zM250 420q-2 13 -4.5 25t-4.5 35h-2q-2 -23 -4.5 -35t-4.5 -25l-34 -170h88zM325 845q0 -35 -25 -60t-60 -25t-60 25t-25 60t25 60t60 25t60 -25t25 -60zM275 845q0 14 -10.5 24.5t-24.5 10.5t-24.5 -10.5
t-10.5 -24.5t10.5 -24.5t24.5 -10.5t24.5 10.5t10.5 24.5z" />
    <glyph glyph-name="AE" unicode="&#xc6;" horiz-adv-x="680" 
d="M640 0h-310v130h-138l-42 -130h-150l270 720h370l10 -130h-180v-160h160v-125h-160v-175h180zM330 560h-2q-3 -18 -6.5 -31.5t-8.5 -28.5l-82 -250h99v310z" />
    <glyph glyph-name="Ccedilla" unicode="&#xc7;" horiz-adv-x="500" 
d="M490 200q-23 -106 -77 -163t-148 -57q-56 0 -100.5 25.5t-75.5 74.5t-47.5 119.5t-16.5 160.5t16.5 160.5t47.5 119.5t75.5 74.5t100.5 25.5q91 0 146 -53t74 -162l-135 -30q-5 49 -26 82t-59 33q-45 0 -72.5 -57.5t-27.5 -192.5t27.5 -192.5t72.5 -57.5q38 0 57.5 30
t27.5 90zM320 -60q6 -21 6 -41q0 -42 -20.5 -77.5t-50.5 -56.5l-55 25q11 11 19.5 40t8.5 61q0 29 -8 49h100z" />
    <glyph glyph-name="Egrave" unicode="&#xc8;" horiz-adv-x="400" 
d="M360 0h-310v720h310l10 -130h-180v-160h160v-125h-160v-175h180zM180 780l-80 140h110l50 -140h-80z" />
    <glyph glyph-name="Eacute" unicode="&#xc9;" horiz-adv-x="400" 
d="M360 0h-310v720h310l10 -130h-180v-160h160v-125h-160v-175h180zM220 780h-80l50 140h110z" />
    <glyph glyph-name="Ecircumflex" unicode="&#xca;" horiz-adv-x="400" 
d="M360 0h-310v720h310l10 -130h-180v-160h160v-125h-160v-175h180zM230 780l-30 90l-30 -90h-90l70 140h100l70 -140h-90z" />
    <glyph glyph-name="Edieresis" unicode="&#xcb;" horiz-adv-x="400" 
d="M360 0h-310v720h310l10 -130h-180v-160h160v-125h-160v-175h180zM240 780v130h105v-130h-105zM65 780v130h105v-130h-105z" />
    <glyph glyph-name="Igrave" unicode="&#xcc;" horiz-adv-x="240" 
d="M50 0v720h140v-720h-140zM80 780l-80 140h110l50 -140h-80z" />
    <glyph glyph-name="Iacute" unicode="&#xcd;" horiz-adv-x="240" 
d="M50 0v720h140v-720h-140zM160 780h-80l50 140h110z" />
    <glyph glyph-name="Icircumflex" unicode="&#xce;" horiz-adv-x="240" 
d="M50 0v720h140v-720h-140zM150 780l-30 90l-30 -90h-90l70 140h100l70 -140h-90z" />
    <glyph glyph-name="Idieresis" unicode="&#xcf;" horiz-adv-x="240" 
d="M50 0v720h140v-720h-140zM155 780v130h105v-130h-105zM-20 780v130h105v-130h-105z" />
    <glyph glyph-name="Eth" unicode="&#xd0;" horiz-adv-x="525" 
d="M500 360q0 -90 -21 -157.5t-58.5 -112.5t-88.5 -67.5t-112 -22.5h-170v310h-50l10 110h40v300h170q60 0 111 -22.5t88.5 -67.5t59 -112.5t21.5 -157.5zM350 360q0 120 -35 175t-125 55v-170h80v-110h-80v-180q90 0 125 55t35 175z" />
    <glyph glyph-name="Ntilde" unicode="&#xd1;" horiz-adv-x="530" 
d="M340 0l-131 350q-5 13 -8.5 24t-8.5 26h-2v-400h-140v720h140l131 -350q5 -13 8.5 -24t8.5 -26h2v400h140v-720h-140zM405 870q0 -19 -2.5 -37t-10 -32t-21.5 -22.5t-36 -8.5q-15 0 -33 8t-34.5 17t-31 17t-21.5 8q-14 0 -17 -8.5t-3 -31.5h-70v30q0 19 2.5 37t10 32
t21 22.5t36.5 8.5q15 0 33 -8t34.5 -17t30.5 -17t22 -8q15 0 17.5 8.5t2.5 31.5h70v-30z" />
    <glyph glyph-name="Ograve" unicode="&#xd2;" horiz-adv-x="530" 
d="M505 360q0 -90 -16.5 -160.5t-47.5 -119.5t-75.5 -74.5t-100.5 -25.5t-100.5 25.5t-75.5 74.5t-47.5 119.5t-16.5 160.5q0 89 16.5 159.5t47.5 119.5t75.5 75t100.5 26t100.5 -25.5t75.5 -74.5t47.5 -119.5t16.5 -160.5zM365 360q0 135 -27.5 192.5t-72.5 57.5
t-72.5 -57.5t-27.5 -192.5t27.5 -192.5t72.5 -57.5t72.5 57.5t27.5 192.5zM230 780l-80 140h110l50 -140h-80z" />
    <glyph glyph-name="Oacute" unicode="&#xd3;" horiz-adv-x="530" 
d="M505 360q0 -90 -16.5 -160.5t-47.5 -119.5t-75.5 -74.5t-100.5 -25.5t-100.5 25.5t-75.5 74.5t-47.5 119.5t-16.5 160.5q0 89 16.5 159.5t47.5 119.5t75.5 75t100.5 26t100.5 -25.5t75.5 -74.5t47.5 -119.5t16.5 -160.5zM365 360q0 135 -27.5 192.5t-72.5 57.5
t-72.5 -57.5t-27.5 -192.5t27.5 -192.5t72.5 -57.5t72.5 57.5t27.5 192.5zM300 780h-80l50 140h110z" />
    <glyph glyph-name="Ocircumflex" unicode="&#xd4;" horiz-adv-x="530" 
d="M505 360q0 -90 -16.5 -160.5t-47.5 -119.5t-75.5 -74.5t-100.5 -25.5t-100.5 25.5t-75.5 74.5t-47.5 119.5t-16.5 160.5q0 89 16.5 159.5t47.5 119.5t75.5 75t100.5 26t100.5 -25.5t75.5 -74.5t47.5 -119.5t16.5 -160.5zM365 360q0 135 -27.5 192.5t-72.5 57.5
t-72.5 -57.5t-27.5 -192.5t27.5 -192.5t72.5 -57.5t72.5 57.5t27.5 192.5zM295 780l-30 90l-30 -90h-90l70 140h100l70 -140h-90z" />
    <glyph glyph-name="Otilde" unicode="&#xd5;" horiz-adv-x="530" 
d="M505 360q0 -90 -16.5 -160.5t-47.5 -119.5t-75.5 -74.5t-100.5 -25.5t-100.5 25.5t-75.5 74.5t-47.5 119.5t-16.5 160.5q0 89 16.5 159.5t47.5 119.5t75.5 75t100.5 26t100.5 -25.5t75.5 -74.5t47.5 -119.5t16.5 -160.5zM365 360q0 135 -27.5 192.5t-72.5 57.5
t-72.5 -57.5t-27.5 -192.5t27.5 -192.5t72.5 -57.5t72.5 57.5t27.5 192.5zM405 870q0 -19 -2.5 -37t-10 -32t-21.5 -22.5t-36 -8.5q-15 0 -33 8t-34.5 17t-31 17t-21.5 8q-14 0 -17 -8.5t-3 -31.5h-70v30q0 19 2.5 37t10 32t21 22.5t36.5 8.5q15 0 33 -8t34.5 -17t30.5 -17
t22 -8q15 0 17.5 8.5t2.5 31.5h70v-30z" />
    <glyph glyph-name="Odieresis" unicode="&#xd6;" horiz-adv-x="530" 
d="M505 360q0 -90 -16.5 -160.5t-47.5 -119.5t-75.5 -74.5t-100.5 -25.5t-100.5 25.5t-75.5 74.5t-47.5 119.5t-16.5 160.5q0 89 16.5 159.5t47.5 119.5t75.5 75t100.5 26t100.5 -25.5t75.5 -74.5t47.5 -119.5t16.5 -160.5zM365 360q0 135 -27.5 192.5t-72.5 57.5
t-72.5 -57.5t-27.5 -192.5t27.5 -192.5t72.5 -57.5t72.5 57.5t27.5 192.5zM300 780v130h105v-130h-105zM125 780v130h105v-130h-105z" />
    <glyph glyph-name="multiply" unicode="&#xd7;" 
d="M379 101l-120 121l-121 -121q-8 7 -18 17.5t-21 21.5l-22 21q-10 11 -17 19l120 120l-120 121l78 78l121 -120l120 120q7 -8 17.5 -18t21.5 -21t21 -21.5t18 -17.5l-120 -121l120 -120z" />
    <glyph glyph-name="Oslash" unicode="&#xd8;" horiz-adv-x="530" 
d="M505 360q0 -90 -16.5 -160.5t-47.5 -119.5t-75.5 -74.5t-100.5 -25.5q-90 0 -151 66l-39 -66l-50 30l53 89q-26 48 -39.5 113.5t-13.5 147.5q0 89 16.5 159.5t47.5 119.5t75.5 75t100.5 26q90 0 151 -66l39 66l50 -30l-53 -89q26 -48 39.5 -113t13.5 -148zM340 545
q-12 34 -31.5 49.5t-43.5 15.5q-45 0 -72.5 -57.5t-27.5 -192.5q0 -27 1.5 -52t3.5 -51zM365 360q0 29 -1.5 54.5t-3.5 48.5l-170 -288q25 -65 75 -65q45 0 72.5 57.5t27.5 192.5z" />
    <glyph glyph-name="Ugrave" unicode="&#xd9;" horiz-adv-x="530" 
d="M480 210q0 -105 -53 -167.5t-162 -62.5t-162 62.5t-53 167.5v510h140v-510q0 -53 20.5 -76.5t54.5 -23.5t54.5 23.5t20.5 76.5v510h140v-510zM230 780l-80 140h110l50 -140h-80z" />
    <glyph glyph-name="Uacute" unicode="&#xda;" horiz-adv-x="530" 
d="M480 210q0 -105 -53 -167.5t-162 -62.5t-162 62.5t-53 167.5v510h140v-510q0 -53 20.5 -76.5t54.5 -23.5t54.5 23.5t20.5 76.5v510h140v-510zM300 780h-80l50 140h110z" />
    <glyph glyph-name="Ucircumflex" unicode="&#xdb;" horiz-adv-x="530" 
d="M480 210q0 -105 -53 -167.5t-162 -62.5t-162 62.5t-53 167.5v510h140v-510q0 -53 20.5 -76.5t54.5 -23.5t54.5 23.5t20.5 76.5v510h140v-510zM295 780l-30 90l-30 -90h-90l70 140h100l70 -140h-90z" />
    <glyph glyph-name="Udieresis" unicode="&#xdc;" horiz-adv-x="530" 
d="M480 210q0 -105 -53 -167.5t-162 -62.5t-162 62.5t-53 167.5v510h140v-510q0 -53 20.5 -76.5t54.5 -23.5t54.5 23.5t20.5 76.5v510h140v-510zM300 780v130h105v-130h-105zM125 780v130h105v-130h-105z" />
    <glyph glyph-name="Yacute" unicode="&#xdd;" horiz-adv-x="440" 
d="M290 210v-210h-140v210l-160 510h150l68 -280q4 -15 6.5 -30t4.5 -30h2q3 29 11 60l68 280h150zM260 780h-80l50 140h110z" />
    <glyph glyph-name="Thorn" unicode="&#xde;" horiz-adv-x="460" 
d="M460 370q0 -50 -19 -89t-52 -66t-77.5 -41.5t-96.5 -14.5h-13q-6 0 -12 1v-160h-140v720h140v-140h20q56 0 102 -13t79 -39.5t51 -66t18 -91.5zM320 370q0 26 -9 42t-26 24.5t-41 11t-54 2.5v-160q30 0 54 2.5t41 11t26 24.5t9 42z" />
    <glyph glyph-name="germandbls" unicode="&#xdf;" horiz-adv-x="455" 
d="M430 250q0 -128 -49.5 -189t-130.5 -61h-50v110q24 0 42.5 6.5t31 22.5t19.5 43t7 68q0 82 -27.5 116t-72.5 34v106q30 0 50 12t20 42t-13.5 45t-37.5 15t-39 -14t-15 -46v-560h-125v570q0 41 14 72t39 51.5t59 31t74 10.5q35 0 65 -10t52 -29t34.5 -45.5t12.5 -60.5
q0 -53 -20 -83.5t-49 -41.5q18 -6 37.5 -19t35.5 -38t26 -63.5t10 -94.5z" />
    <glyph glyph-name="agrave" unicode="&#xe0;" horiz-adv-x="435" 
d="M270 0v50h-2q-17 -38 -45 -51.5t-58 -13.5q-26 0 -51.5 14.5t-45 46.5t-31.5 82.5t-12 121.5t12 121.5t31.5 82.5t45 46.5t51.5 14.5q30 0 58 -13.5t45 -51.5h2v50h125v-500h-125zM270 250q0 45 -4.5 74t-12 46t-17.5 23.5t-21 6.5t-22 -6.5t-19.5 -23.5t-13.5 -46
t-5 -74t5 -74t13.5 -46t19.5 -23.5t22 -6.5t21 6.5t17.5 23.5t12 46t4.5 74zM190 570l-80 140h110l50 -140h-80z" />
    <glyph glyph-name="aacute" unicode="&#xe1;" horiz-adv-x="435" 
d="M270 0v50h-2q-17 -38 -45 -51.5t-58 -13.5q-26 0 -51.5 14.5t-45 46.5t-31.5 82.5t-12 121.5t12 121.5t31.5 82.5t45 46.5t51.5 14.5q30 0 58 -13.5t45 -51.5h2v50h125v-500h-125zM270 250q0 45 -4.5 74t-12 46t-17.5 23.5t-21 6.5t-22 -6.5t-19.5 -23.5t-13.5 -46
t-5 -74t5 -74t13.5 -46t19.5 -23.5t22 -6.5t21 6.5t17.5 23.5t12 46t4.5 74zM240 570h-80l50 140h110z" />
    <glyph glyph-name="acircumflex" unicode="&#xe2;" horiz-adv-x="435" 
d="M270 0v50h-2q-17 -38 -45 -51.5t-58 -13.5q-26 0 -51.5 14.5t-45 46.5t-31.5 82.5t-12 121.5t12 121.5t31.5 82.5t45 46.5t51.5 14.5q30 0 58 -13.5t45 -51.5h2v50h125v-500h-125zM270 250q0 45 -4.5 74t-12 46t-17.5 23.5t-21 6.5t-22 -6.5t-19.5 -23.5t-13.5 -46
t-5 -74t5 -74t13.5 -46t19.5 -23.5t22 -6.5t21 6.5t17.5 23.5t12 46t4.5 74zM260 570l-30 90l-30 -90h-90l70 140h100l70 -140h-90z" />
    <glyph glyph-name="atilde" unicode="&#xe3;" horiz-adv-x="435" 
d="M270 0v50h-2q-17 -38 -45 -51.5t-58 -13.5q-26 0 -51.5 14.5t-45 46.5t-31.5 82.5t-12 121.5t12 121.5t31.5 82.5t45 46.5t51.5 14.5q30 0 58 -13.5t45 -51.5h2v50h125v-500h-125zM270 250q0 45 -4.5 74t-12 46t-17.5 23.5t-21 6.5t-22 -6.5t-19.5 -23.5t-13.5 -46
t-5 -74t5 -74t13.5 -46t19.5 -23.5t22 -6.5t21 6.5t17.5 23.5t12 46t4.5 74zM365 660q0 -19 -2.5 -37t-10 -32t-21.5 -22.5t-36 -8.5q-15 0 -33 8t-34.5 17t-31 17t-21.5 8q-14 0 -17 -8.5t-3 -31.5h-70v30q0 19 2.5 37t10 32t21 22.5t36.5 8.5q15 0 33 -8t34.5 -17
t30.5 -17t22 -8q15 0 17.5 8.5t2.5 31.5h70v-30z" />
    <glyph glyph-name="adieresis" unicode="&#xe4;" horiz-adv-x="435" 
d="M270 0v50h-2q-17 -38 -45 -51.5t-58 -13.5q-26 0 -51.5 14.5t-45 46.5t-31.5 82.5t-12 121.5t12 121.5t31.5 82.5t45 46.5t51.5 14.5q30 0 58 -13.5t45 -51.5h2v50h125v-500h-125zM270 250q0 45 -4.5 74t-12 46t-17.5 23.5t-21 6.5t-22 -6.5t-19.5 -23.5t-13.5 -46
t-5 -74t5 -74t13.5 -46t19.5 -23.5t22 -6.5t21 6.5t17.5 23.5t12 46t4.5 74zM260 570v130h105v-130h-105zM85 570v130h105v-130h-105z" />
    <glyph glyph-name="aring" unicode="&#xe5;" horiz-adv-x="435" 
d="M270 0v50h-2q-17 -38 -45 -51.5t-58 -13.5q-26 0 -51.5 14.5t-45 46.5t-31.5 82.5t-12 121.5t12 121.5t31.5 82.5t45 46.5t51.5 14.5q30 0 58 -13.5t45 -51.5h2v50h125v-500h-125zM270 250q0 45 -4.5 74t-12 46t-17.5 23.5t-21 6.5t-22 -6.5t-19.5 -23.5t-13.5 -46
t-5 -74t5 -74t13.5 -46t19.5 -23.5t22 -6.5t21 6.5t17.5 23.5t12 46t4.5 74zM305 635q0 -35 -25 -60t-60 -25t-60 25t-25 60t25 60t60 25t60 -25t25 -60zM255 635q0 14 -10.5 24.5t-24.5 10.5t-24.5 -10.5t-10.5 -24.5t10.5 -24.5t24.5 -10.5t24.5 10.5t10.5 24.5z" />
    <glyph glyph-name="ae" unicode="&#xe6;" horiz-adv-x="670" 
d="M405 210q0 -54 18.5 -82t41.5 -28t38 9t24 35l108 -44q-15 -26 -30.5 -47.5t-35 -36.5t-45 -23t-59.5 -8q-40 0 -76 15h-119v50h-2q-17 -38 -45 -51.5t-58 -13.5q-26 0 -51.5 14.5t-45 46.5t-31.5 82.5t-12 121.5t12 121.5t31.5 82.5t45 46.5t51.5 14.5q30 0 58 -13.5
t45 -51.5h2v50h120q34 15 75 15q37 0 70 -14.5t57.5 -44.5t38.5 -76t14 -110v-60h-240zM270 250q0 45 -4.5 74t-12 46t-17.5 23.5t-21 6.5t-22 -6.5t-19.5 -23.5t-13.5 -46t-5 -74t5 -74t13.5 -46t19.5 -23.5t22 -6.5t21 6.5t17.5 23.5t12 46t4.5 74zM525 290q0 60 -18.5 85
t-41.5 25t-41.5 -25t-18.5 -85h120z" />
    <glyph glyph-name="ccedilla" unicode="&#xe7;" horiz-adv-x="380" 
d="M365 120q-8 -26 -21 -50.5t-31.5 -43.5t-43 -30t-54.5 -11q-38 0 -72 13.5t-60.5 44t-42 81.5t-15.5 126t15.5 126t42 81.5t60.5 44t72 13.5q34 0 58.5 -9.5t42.5 -26.5t29.5 -40t19.5 -49l-95 -40q-8 30 -20 45t-35 15q-12 0 -22.5 -8t-19 -26.5t-13.5 -49t-5 -76.5
t5 -75t13.5 -45.5t19 -23t22.5 -6.5q23 0 32.5 10t17.5 40zM255 -55q6 -21 6 -41q0 -42 -20.5 -77.5t-50.5 -56.5l-55 25q11 11 19.5 40t8.5 61q0 29 -8 49h100z" />
    <glyph glyph-name="egrave" unicode="&#xe8;" horiz-adv-x="420" 
d="M155 210q0 -54 18.5 -82t41.5 -28t38 9t24 35l108 -44q-15 -26 -30.5 -47.5t-35 -36.5t-45 -23t-59.5 -8q-37 0 -71.5 13.5t-60.5 44t-42 81.5t-16 126t15.5 126t42 81.5t60.5 44t72 13.5q37 0 70 -14.5t57.5 -44.5t38.5 -76t14 -110v-60h-240zM275 290q0 60 -18.5 85
t-41.5 25t-41.5 -25t-18.5 -85h120zM180 570l-80 140h110l50 -140h-80z" />
    <glyph glyph-name="eacute" unicode="&#xe9;" horiz-adv-x="420" 
d="M155 210q0 -54 18.5 -82t41.5 -28t38 9t24 35l108 -44q-15 -26 -30.5 -47.5t-35 -36.5t-45 -23t-59.5 -8q-37 0 -71.5 13.5t-60.5 44t-42 81.5t-16 126t15.5 126t42 81.5t60.5 44t72 13.5q37 0 70 -14.5t57.5 -44.5t38.5 -76t14 -110v-60h-240zM275 290q0 60 -18.5 85
t-41.5 25t-41.5 -25t-18.5 -85h120zM250 570h-80l50 140h110z" />
    <glyph glyph-name="ecircumflex" unicode="&#xea;" horiz-adv-x="420" 
d="M155 210q0 -54 18.5 -82t41.5 -28t38 9t24 35l108 -44q-15 -26 -30.5 -47.5t-35 -36.5t-45 -23t-59.5 -8q-37 0 -71.5 13.5t-60.5 44t-42 81.5t-16 126t15.5 126t42 81.5t60.5 44t72 13.5q37 0 70 -14.5t57.5 -44.5t38.5 -76t14 -110v-60h-240zM275 290q0 60 -18.5 85
t-41.5 25t-41.5 -25t-18.5 -85h120zM245 570l-30 90l-30 -90h-90l70 140h100l70 -140h-90z" />
    <glyph glyph-name="edieresis" unicode="&#xeb;" horiz-adv-x="420" 
d="M155 210q0 -54 18.5 -82t41.5 -28t38 9t24 35l108 -44q-15 -26 -30.5 -47.5t-35 -36.5t-45 -23t-59.5 -8q-37 0 -71.5 13.5t-60.5 44t-42 81.5t-16 126t15.5 126t42 81.5t60.5 44t72 13.5q37 0 70 -14.5t57.5 -44.5t38.5 -76t14 -110v-60h-240zM275 290q0 60 -18.5 85
t-41.5 25t-41.5 -25t-18.5 -85h120zM250 570v130h105v-130h-105zM75 570v130h105v-130h-105z" />
    <glyph glyph-name="igrave" unicode="&#xec;" horiz-adv-x="205" 
d="M40 0v500h125v-500h-125zM65 570l-80 140h110l50 -140h-80z" />
    <glyph glyph-name="iacute" unicode="&#xed;" horiz-adv-x="205" 
d="M40 0v500h125v-500h-125zM140 570h-80l50 140h110z" />
    <glyph glyph-name="icircumflex" unicode="&#xee;" horiz-adv-x="205" 
d="M40 0v500h125v-500h-125zM133 570l-30 90l-30 -90h-90l70 140h100l70 -140h-90z" />
    <glyph glyph-name="idieresis" unicode="&#xef;" horiz-adv-x="205" 
d="M40 0v500h125v-500h-125zM137 570v130h105v-130h-105zM-38 570v130h105v-130h-105z" />
    <glyph glyph-name="eth" unicode="&#xf0;" horiz-adv-x="430" 
d="M293 615l61 -127q16 -35 26.5 -65t15.5 -58.5t7 -56.5t2 -58q0 -74 -16 -125t-42 -82t-60.5 -44.5t-71.5 -13.5t-71.5 13.5t-60.5 44.5t-42 82t-16 125t15 124t38 80.5t51.5 43.5t55.5 13q4 0 12 -1t13 -3l-28 54l-53 -26l-34 71l50 25l-51 99h144l20 -43l48 24l34 -73z
M275 250q0 45 -5 74t-13.5 46t-19.5 23.5t-22 6.5t-22 -6.5t-19.5 -23.5t-13.5 -46t-5 -74t5 -74t13.5 -46t19.5 -23.5t22 -6.5t22 6.5t19.5 23.5t13.5 46t5 74z" />
    <glyph glyph-name="ntilde" unicode="&#xf1;" horiz-adv-x="430" 
d="M265 0v324q0 34 -7.5 55t-37.5 21t-42.5 -20.5t-12.5 -54.5v-325h-125v500h125v-50h2q25 37 51.5 51t71.5 14q19 0 37 -6t32 -21t22.5 -41.5t8.5 -66.5v-380h-125zM349 660q0 -19 -2.5 -37t-10 -32t-21.5 -22.5t-36 -8.5q-15 0 -33 8t-34.5 17t-31 17t-21.5 8
q-14 0 -17 -8.5t-3 -31.5h-70v30q0 19 2.5 37t10 32t21 22.5t36.5 8.5q15 0 33 -8t34.5 -17t30.5 -17t22 -8q15 0 17.5 8.5t2.5 31.5h70v-30z" />
    <glyph glyph-name="ograve" unicode="&#xf2;" horiz-adv-x="430" 
d="M405 250q0 -74 -16 -125t-42 -82t-60.5 -44.5t-71.5 -13.5t-71.5 13.5t-60.5 44.5t-42 82t-16 125t16 125t42 82t60.5 44.5t71.5 13.5t71.5 -13.5t60.5 -44.5t42 -82t16 -125zM275 250q0 45 -5 74t-13.5 46t-19.5 23.5t-22 6.5t-22 -6.5t-19.5 -23.5t-13.5 -46t-5 -74
t5 -74t13.5 -46t19.5 -23.5t22 -6.5t22 6.5t19.5 23.5t13.5 46t5 74zM180 570l-80 140h110l50 -140h-80z" />
    <glyph glyph-name="oacute" unicode="&#xf3;" horiz-adv-x="430" 
d="M405 250q0 -74 -16 -125t-42 -82t-60.5 -44.5t-71.5 -13.5t-71.5 13.5t-60.5 44.5t-42 82t-16 125t16 125t42 82t60.5 44.5t71.5 13.5t71.5 -13.5t60.5 -44.5t42 -82t16 -125zM275 250q0 45 -5 74t-13.5 46t-19.5 23.5t-22 6.5t-22 -6.5t-19.5 -23.5t-13.5 -46t-5 -74
t5 -74t13.5 -46t19.5 -23.5t22 -6.5t22 6.5t19.5 23.5t13.5 46t5 74zM250 570h-80l50 140h110z" />
    <glyph glyph-name="ocircumflex" unicode="&#xf4;" horiz-adv-x="430" 
d="M405 250q0 -74 -16 -125t-42 -82t-60.5 -44.5t-71.5 -13.5t-71.5 13.5t-60.5 44.5t-42 82t-16 125t16 125t42 82t60.5 44.5t71.5 13.5t71.5 -13.5t60.5 -44.5t42 -82t16 -125zM275 250q0 45 -5 74t-13.5 46t-19.5 23.5t-22 6.5t-22 -6.5t-19.5 -23.5t-13.5 -46t-5 -74
t5 -74t13.5 -46t19.5 -23.5t22 -6.5t22 6.5t19.5 23.5t13.5 46t5 74zM245 570l-30 90l-30 -90h-90l70 140h100l70 -140h-90z" />
    <glyph glyph-name="otilde" unicode="&#xf5;" horiz-adv-x="430" 
d="M405 250q0 -74 -16 -125t-42 -82t-60.5 -44.5t-71.5 -13.5t-71.5 13.5t-60.5 44.5t-42 82t-16 125t16 125t42 82t60.5 44.5t71.5 13.5t71.5 -13.5t60.5 -44.5t42 -82t16 -125zM275 250q0 45 -5 74t-13.5 46t-19.5 23.5t-22 6.5t-22 -6.5t-19.5 -23.5t-13.5 -46t-5 -74
t5 -74t13.5 -46t19.5 -23.5t22 -6.5t22 6.5t19.5 23.5t13.5 46t5 74zM355 660q0 -19 -2.5 -37t-10 -32t-21.5 -22.5t-36 -8.5q-15 0 -33 8t-34.5 17t-31 17t-21.5 8q-14 0 -17 -8.5t-3 -31.5h-70v30q0 19 2.5 37t10 32t21 22.5t36.5 8.5q15 0 33 -8t34.5 -17t30.5 -17t22 -8
q15 0 17.5 8.5t2.5 31.5h70v-30z" />
    <glyph glyph-name="odieresis" unicode="&#xf6;" horiz-adv-x="430" 
d="M405 250q0 -74 -16 -125t-42 -82t-60.5 -44.5t-71.5 -13.5t-71.5 13.5t-60.5 44.5t-42 82t-16 125t16 125t42 82t60.5 44.5t71.5 13.5t71.5 -13.5t60.5 -44.5t42 -82t16 -125zM275 250q0 45 -5 74t-13.5 46t-19.5 23.5t-22 6.5t-22 -6.5t-19.5 -23.5t-13.5 -46t-5 -74
t5 -74t13.5 -46t19.5 -23.5t22 -6.5t22 6.5t19.5 23.5t13.5 46t5 74zM250 570v130h105v-130h-105zM75 570v130h105v-130h-105z" />
    <glyph glyph-name="divide" unicode="&#xf7;" 
d="M63 250v110h390v-110h-390zM203 70v110h110v-110h-110zM203 430v110h110v-110h-110z" />
    <glyph glyph-name="oslash" unicode="&#xf8;" horiz-adv-x="430" 
d="M405 250q0 -74 -16 -125t-42 -82t-60.5 -44.5t-71.5 -13.5q-33 0 -63.5 10.5t-56.5 34.5l-30 -45l-40 30l38 56q-18 31 -28 75t-10 104q0 74 16 125t42 82t60.5 44.5t71.5 13.5q33 0 63.5 -10.5t56.5 -34.5l30 45l40 -30l-38 -56q17 -31 27.5 -75t10.5 -104zM260 361
q-8 22 -20 30.5t-25 8.5q-11 0 -22 -6.5t-19.5 -23.5t-13.5 -46t-5 -74v-20q0 -9 1 -23zM275 250q0 11 -0.5 22t-0.5 21l-104 -154q8 -23 20 -31t25 -8q11 0 22 6.5t19.5 23.5t13.5 46t5 74z" />
    <glyph glyph-name="ugrave" unicode="&#xf9;" horiz-adv-x="430" 
d="M265 0v50h-2q-12 -19 -24.5 -31.5t-27 -20t-32 -10.5t-39.5 -3q-19 0 -37 6t-32 21t-22.5 41t-8.5 67v380h125v-324q0 -34 8.5 -55t38.5 -21t41.5 20.5t11.5 54.5v325h125v-500h-125zM180 570l-80 140h110l50 -140h-80z" />
    <glyph glyph-name="uacute" unicode="&#xfa;" horiz-adv-x="430" 
d="M265 0v50h-2q-12 -19 -24.5 -31.5t-27 -20t-32 -10.5t-39.5 -3q-19 0 -37 6t-32 21t-22.5 41t-8.5 67v380h125v-324q0 -34 8.5 -55t38.5 -21t41.5 20.5t11.5 54.5v325h125v-500h-125zM250 570h-80l50 140h110z" />
    <glyph glyph-name="ucircumflex" unicode="&#xfb;" horiz-adv-x="430" 
d="M265 0v50h-2q-12 -19 -24.5 -31.5t-27 -20t-32 -10.5t-39.5 -3q-19 0 -37 6t-32 21t-22.5 41t-8.5 67v380h125v-324q0 -34 8.5 -55t38.5 -21t41.5 20.5t11.5 54.5v325h125v-500h-125zM245 570l-30 90l-30 -90h-90l70 140h100l70 -140h-90z" />
    <glyph glyph-name="udieresis" unicode="&#xfc;" horiz-adv-x="430" 
d="M265 0v50h-2q-12 -19 -24.5 -31.5t-27 -20t-32 -10.5t-39.5 -3q-19 0 -37 6t-32 21t-22.5 41t-8.5 67v380h125v-324q0 -34 8.5 -55t38.5 -21t41.5 20.5t11.5 54.5v325h125v-500h-125zM250 570v130h105v-130h-105zM75 570v130h105v-130h-105z" />
    <glyph glyph-name="yacute" unicode="&#xfd;" horiz-adv-x="360" 
d="M200 -190h-130l57 240l-127 450h130l42 -170q3 -13 5 -24t4 -26h2q2 15 3.5 26.5t4.5 23.5l39 170h130zM215 570h-80l50 140h110z" />
    <glyph glyph-name="thorn" unicode="&#xfe;" horiz-adv-x="435" 
d="M410 250q0 -71 -12 -121.5t-31.5 -82.5t-45 -46.5t-51.5 -14.5q-30 0 -58 13.5t-47 51.5v-240h-125v920h125v-280q19 38 47 51.5t58 13.5q26 0 51.5 -14.5t45 -46.5t31.5 -82.5t12 -121.5zM280 250q0 45 -5 74t-13.5 46t-19.5 23.5t-22 6.5t-21 -6.5t-17.5 -23.5t-12 -46
t-4.5 -74t4.5 -74t12 -46t17.5 -23.5t21 -6.5t22 6.5t19.5 23.5t13.5 46t5 74z" />
    <glyph glyph-name="ydieresis" unicode="&#xff;" horiz-adv-x="360" 
d="M200 -190h-130l57 240l-127 450h130l42 -170q3 -13 5 -24t4 -26h2q2 15 3.5 26.5t4.5 23.5l39 170h130zM220 570v130h105v-130h-105zM45 570v130h105v-130h-105z" />
    <glyph glyph-name="dotlessi" unicode="&#x131;" horiz-adv-x="205" 
d="M40 0v500h125v-500h-125z" />
    <glyph glyph-name="Lslash" unicode="&#x141;" horiz-adv-x="350" 
d="M330 0h-280v240l-40 -40v120l40 40v360h140v-220l80 80v-120l-80 -80v-250h160z" />
    <glyph glyph-name="lslash" unicode="&#x142;" horiz-adv-x="205" 
d="M165 365v-365h-125v240l-40 -40v120l40 40v370h125v-245l40 40v-120z" />
    <glyph glyph-name="OE" unicode="&#x152;" horiz-adv-x="715" 
d="M675 0h-322q-20 -9 -42.5 -14.5t-45.5 -5.5q-56 0 -100.5 25.5t-75.5 74.5t-47.5 119.5t-16.5 160.5t16.5 160.5t47.5 119t75.5 74.5t100.5 26q23 0 45.5 -5.5t42.5 -14.5h322l10 -130h-180v-160h160v-125h-160v-175h180zM365 360q0 135 -27.5 192.5t-72.5 57.5
t-72.5 -57.5t-27.5 -192.5t27.5 -192.5t72.5 -57.5t72.5 57.5t27.5 192.5z" />
    <glyph glyph-name="oe" unicode="&#x153;" horiz-adv-x="670" 
d="M405 210q0 -54 18.5 -82t41.5 -28t38 9t24 35l108 -44q-15 -26 -30.5 -47.5t-35 -36.5t-45 -23t-59.5 -8q-35 0 -67 11.5t-58 39.5q-26 -27 -58 -39t-67 -12q-37 0 -71.5 13.5t-60.5 44.5t-42 82t-16 125t16 125t42 82t60.5 44.5t71.5 13.5q35 0 66.5 -11.5t57.5 -38.5
q26 27 58.5 38.5t67.5 11.5q37 0 70 -14.5t57.5 -44.5t38.5 -76t14 -110v-60h-240zM275 250q0 45 -5 74t-13.5 46t-19.5 23.5t-22 6.5t-22 -6.5t-19.5 -23.5t-13.5 -46t-5 -74t5 -74t13.5 -46t19.5 -23.5t22 -6.5t22 6.5t19.5 23.5t13.5 46t5 74zM525 290q0 60 -18.5 85
t-41.5 25t-41.5 -25t-18.5 -85h120z" />
    <glyph glyph-name="Scaron" unicode="&#x160;" horiz-adv-x="435" 
d="M425 180q0 -53 -16 -90.5t-44 -62t-66.5 -36t-83.5 -11.5t-79 13.5t-59.5 36t-43 51.5t-28.5 59l110 60q15 -45 42.5 -67.5t57.5 -22.5t50 16t20 54q0 27 -19.5 53t-48 52.5t-62.5 54.5t-62.5 61.5t-48 72t-19.5 86.5q0 83 49.5 131.5t140.5 48.5q80 0 127 -37.5
t67 -96.5l-114 -46q-15 37 -32.5 48.5t-47.5 11.5q-23 0 -36.5 -15t-13.5 -45t19.5 -56t48 -51.5t62.5 -52.5t62.5 -59t48 -71.5t19.5 -89.5zM270 780h-100l-70 140h90l30 -90l30 90h90z" />
    <glyph glyph-name="scaron" unicode="&#x161;" horiz-adv-x="350" 
d="M330 140q0 -32 -11 -60.5t-32 -49.5t-50.5 -33t-66.5 -12q-57 0 -93 20t-67 55l69 82q19 -23 38.5 -34t36.5 -11q24 0 35 11.5t11 31.5q0 16 -12.5 31t-31.5 31t-41 34t-41 39.5t-31.5 47t-12.5 57.5q0 27 10 51.5t28 43t44 29.5t58 11q55 0 92.5 -16t57.5 -44l-62 -75
q-11 14 -25.5 24t-34.5 10q-15 0 -26.5 -10t-11.5 -24q0 -20 26.5 -42.5t58.5 -50.5t58.5 -64t26.5 -83zM225 570h-100l-70 140h90l30 -90l30 90h90z" />
    <glyph glyph-name="Ydieresis" unicode="&#x178;" horiz-adv-x="440" 
d="M290 210v-210h-140v210l-160 510h150l68 -280q4 -15 6.5 -30t4.5 -30h2q3 29 11 60l68 280h150zM265 780v130h105v-130h-105zM90 780v130h105v-130h-105z" />
    <glyph glyph-name="Zcaron" unicode="&#x17d;" horiz-adv-x="420" 
d="M210 130h195l-20 -130h-370l205 590h-195l20 130h370zM270 780h-100l-70 140h90l30 -90l30 90h90z" />
    <glyph glyph-name="zcaron" unicode="&#x17e;" horiz-adv-x="355" 
d="M310 0h-300l140 380h-120l20 120h280l-140 -380h140zM230 570h-100l-70 140h90l30 -90l30 90h90z" />
    <glyph glyph-name="florin" unicode="&#x192;" horiz-adv-x="420" 
d="M404 614q-20 0 -33 -2t-21 -7t-12 -15t-7 -25l-21 -121h64l-15 -86h-63l-72 -402q-8 -41 -18.5 -68.5t-29.5 -44.5t-48 -24.5t-73 -7.5h-54l14 85q40 0 53.5 10t18.5 40l74 412h-64l15 86h64l19 112q7 40 18 68t30 44.5t48 24t73 7.5h55z" />
    <glyph glyph-name="uni02BB" unicode="&#x2bb;" horiz-adv-x="230" 
d="M210 750q-19 -19 -29.5 -45.5t-10.5 -64.5v-140h-120v140q0 60 27.5 95t72.5 65z" />
    <glyph glyph-name="afii57929" unicode="&#x2bc;" horiz-adv-x="230" 
d="M180 580q0 -60 -27.5 -95t-72.5 -65l-60 50q19 19 29.5 45.5t10.5 64.5v140h120v-140z" />
    <glyph glyph-name="circumflex" unicode="&#x2c6;" horiz-adv-x="320" 
d="M190 570l-30 90l-30 -90h-90l70 140h100l70 -140h-90z" />
    <glyph glyph-name="caron" unicode="&#x2c7;" horiz-adv-x="320" 
d="M210 570h-100l-70 140h90l30 -90l30 90h90z" />
    <glyph glyph-name="breve" unicode="&#x2d8;" horiz-adv-x="320" 
d="M290 700q0 -83 -31 -116.5t-99 -33.5t-99 33.5t-31 116.5h70q0 -45 13 -65t47 -20t47 20t13 65h70z" />
    <glyph glyph-name="dotaccent" unicode="&#x2d9;" horiz-adv-x="205" 
d="M40 570v140h125v-140h-125z" />
    <glyph glyph-name="ring" unicode="&#x2da;" horiz-adv-x="250" 
d="M210 635q0 -35 -25 -60t-60 -25t-60 25t-25 60t25 60t60 25t60 -25t25 -60zM160 635q0 14 -10.5 24.5t-24.5 10.5t-24.5 -10.5t-10.5 -24.5t10.5 -24.5t24.5 -10.5t24.5 10.5t10.5 24.5z" />
    <glyph glyph-name="ogonek" unicode="&#x2db;" horiz-adv-x="170" 
d="M100 -220q-19 0 -36 5.5t-30.5 16.5t-21.5 27.5t-8 39.5q0 34 18.5 68.5t54.5 62.5h70q-16 -25 -31 -52.5t-15 -49.5q0 -15 7 -24t21 -9q12 0 22.5 1t15.5 2v-76q-8 -3 -26 -7.5t-41 -4.5z" />
    <glyph glyph-name="tilde" unicode="&#x2dc;" horiz-adv-x="360" 
d="M320 660q0 -19 -2.5 -37t-10 -32t-21.5 -22.5t-36 -8.5q-15 0 -33 8t-34.5 17t-31 17t-21.5 8q-14 0 -17 -8.5t-3 -31.5h-70v30q0 19 2.5 37t10 32t21 22.5t36.5 8.5q15 0 33 -8t34.5 -17t30.5 -17t22 -8q15 0 17.5 8.5t2.5 31.5h70v-30z" />
    <glyph glyph-name="hungarumlaut" unicode="&#x2dd;" horiz-adv-x="380" 
d="M260 570h-80l50 140h110zM120 570h-80l50 140h110z" />
    <glyph glyph-name="gravecomb" unicode="&#x300;" horiz-adv-x="1" 
d="M-249 570l-80 140h110l50 -140h-80z" />
    <glyph glyph-name="acutecomb" unicode="&#x301;" horiz-adv-x="1" 
d="M-179 570h-80l50 140h110z" />
    <glyph glyph-name="uni0302" unicode="&#x302;" horiz-adv-x="1" 
d="M-184 570l-30 90l-30 -90h-90l70 140h100l70 -140h-90z" />
    <glyph glyph-name="tildecomb" unicode="&#x303;" horiz-adv-x="1" 
d="M-74 660q0 -19 -2.5 -37t-10 -32t-21.5 -22.5t-36 -8.5q-15 0 -33 8t-34.5 17t-31 17t-21.5 8q-14 0 -17 -8.5t-3 -31.5h-70v30q0 19 2.5 37t10 32t21 22.5t36.5 8.5q15 0 33 -8t34.5 -17t30.5 -17t22 -8q15 0 17.5 8.5t2.5 31.5h70v-30z" />
    <glyph glyph-name="uni0304" unicode="&#x304;" horiz-adv-x="1" 
d="M-349 592v85h280v-85h-280z" />
    <glyph glyph-name="uni0306" unicode="&#x306;" horiz-adv-x="1" 
d="M-30 700q0 -83 -31 -116.5t-99 -33.5t-99 33.5t-31 116.5h70q0 -45 13 -65t47 -20t47 20t13 65h70z" />
    <glyph glyph-name="uni0307" unicode="&#x307;" horiz-adv-x="1" 
d="M-165 580v140h125v-140h-125z" />
    <glyph glyph-name="uni0308" unicode="&#x308;" horiz-adv-x="1" 
d="M-129 570v130h105v-130h-105zM-304 570v130h105v-130h-105z" />
    <glyph glyph-name="uni030A" unicode="&#x30a;" horiz-adv-x="1" 
d="M-39 635q0 -35 -25 -60t-60 -25t-60 25t-25 60t25 60t60 25t60 -25t25 -60zM-89 635q0 14 -10.5 24.5t-24.5 10.5t-24.5 -10.5t-10.5 -24.5t10.5 -24.5t24.5 -10.5t24.5 10.5t10.5 24.5z" />
    <glyph glyph-name="uni030B" unicode="&#x30b;" horiz-adv-x="1" 
d="M-120 570h-80l50 140h110zM-260 570h-80l50 140h110z" />
    <glyph glyph-name="uni030C" unicode="&#x30c;" horiz-adv-x="1" 
d="M-109 570h-100l-70 140h90l30 -90l30 90h90z" />
    <glyph glyph-name="uni0312" unicode="&#x312;" horiz-adv-x="1" 
d="M-266 570q-6 21 -6 41q0 42 20.5 77.5t50.5 56.5l55 -25q-11 -11 -19.5 -40t-8.5 -61q0 -29 8 -49h-100z" />
    <glyph glyph-name="uni0313" unicode="&#x313;" horiz-adv-x="1" 
d="M-112 457h-98v263h123z" />
    <glyph glyph-name="uni0326" unicode="&#x326;" horiz-adv-x="1" 
d="M-41 -60q6 -21 6 -41q0 -42 -20.5 -77.5t-50.5 -56.5l-55 25q11 11 19.5 40t8.5 61q0 29 -8 49h100z" />
    <glyph glyph-name="uni0327" unicode="&#x327;" horiz-adv-x="1" 
d="M-39 -55q6 -21 6 -41q0 -42 -20.5 -77.5t-50.5 -56.5l-55 25q11 11 19.5 40t8.5 61q0 29 -8 49h100z" />
    <glyph glyph-name="uni0328" unicode="&#x328;" horiz-adv-x="1" 
d="M-69 -220q-19 0 -36 5.5t-30.5 16.5t-21.5 27.5t-8 39.5q0 34 18.5 68.5t54.5 62.5h70q-16 -25 -31 -52.5t-15 -49.5q0 -15 7 -24t21 -9q12 0 22.5 1t15.5 2v-76q-8 -3 -26 -7.5t-41 -4.5z" />
    <glyph glyph-name="uni0335" unicode="&#x335;" horiz-adv-x="1" 
d="M-450 250v110h400v-110h-400z" />
    <glyph glyph-name="uni0336" unicode="&#x336;" horiz-adv-x="1" 
d="M-840 250v110h800v-110h-800z" />
    <glyph glyph-name="uni0394" unicode="&#x394;" horiz-adv-x="520" 
d="M0 0l220 680h80l220 -680h-520zM260 480l-100 -370h200z" />
    <glyph glyph-name="uni03A9" unicode="&#x3a9;" horiz-adv-x="520" 
d="M500 0h-204l-9 104q41 54 59.5 121t18.5 155q0 55 -8 93.5t-22 62t-33 34t-42 10.5q-22 0 -41 -10.5t-33.5 -34t-22.5 -62t-8 -93.5q0 -88 18.5 -155t59.5 -121l-9 -104h-204l-10 120h100q-48 68 -69 131.5t-21 138.5q0 81 17.5 139.5t49.5 96.5t76 56t97 18t97 -18
t76 -56t49.5 -96.5t17.5 -139.5q0 -75 -21 -138.5t-69 -131.5h100z" />
    <glyph glyph-name="uni03BC" unicode="&#x3bc;" horiz-adv-x="430" 
d="M265 0v48q-20 -27 -36.5 -37.5t-36.5 -10.5q-16 0 -27 5v-195h-125v690h125v-324q0 -34 8.5 -55t37.5 -21q30 0 42 20.5t12 55.5v324h125v-500h-125z" />
    <glyph glyph-name="pi" unicode="&#x3c0;" horiz-adv-x="440" 
d="M370 400v-400h-120v400h-60v-400h-120v400h-50l5 100h390l5 -100h-50z" />
    <glyph glyph-name="uni2007" unicode="&#x2007;" 
 />
    <glyph glyph-name="uni2008" unicode="&#x2008;" horiz-adv-x="230" 
 />
    <glyph glyph-name="uni200B" unicode="&#x200b;" horiz-adv-x="0" 
 />
    <glyph glyph-name="uniFEFF" unicode="&#xfeff;" horiz-adv-x="0" 
 />
    <glyph glyph-name="endash" unicode="&#x2013;" horiz-adv-x="500" 
d="M50 250v110h400v-110h-400z" />
    <glyph glyph-name="emdash" unicode="&#x2014;" horiz-adv-x="880" 
d="M40 250v110h800v-110h-800z" />
    <glyph glyph-name="quoteleft" unicode="&#x2018;" horiz-adv-x="230" 
d="M210 750q-19 -19 -29.5 -45.5t-10.5 -64.5v-140h-120v140q0 60 27.5 95t72.5 65z" />
    <glyph glyph-name="quoteright" unicode="&#x2019;" horiz-adv-x="230" 
d="M180 580q0 -60 -27.5 -95t-72.5 -65l-60 50q19 19 29.5 45.5t10.5 64.5v140h120v-140z" />
    <glyph glyph-name="quotesinglbase" unicode="&#x201a;" horiz-adv-x="230" 
d="M180 0q0 -60 -27.5 -95t-72.5 -65l-60 50q19 19 29.5 45.5t10.5 64.5v140h120v-140z" />
    <glyph glyph-name="quotedblleft" unicode="&#x201c;" horiz-adv-x="410" 
d="M390 750q-19 -19 -29.5 -45.5t-10.5 -64.5v-140h-120v140q0 60 27.5 95t72.5 65zM210 750q-19 -19 -29.5 -45.5t-10.5 -64.5v-140h-120v140q0 60 27.5 95t72.5 65z" />
    <glyph glyph-name="quotedblright" unicode="&#x201d;" horiz-adv-x="410" 
d="M360 580q0 -60 -27.5 -95t-72.5 -65l-60 50q19 19 29.5 45.5t10.5 64.5v140h120v-140zM180 580q0 -60 -27.5 -95t-72.5 -65l-60 50q19 19 29.5 45.5t10.5 64.5v140h120v-140z" />
    <glyph glyph-name="quotedblbase" unicode="&#x201e;" horiz-adv-x="410" 
d="M360 0q0 -60 -27.5 -95t-72.5 -65l-60 50q19 19 29.5 45.5t10.5 64.5v140h120v-140zM180 0q0 -60 -27.5 -95t-72.5 -65l-60 50q19 19 29.5 45.5t10.5 64.5v140h120v-140z" />
    <glyph glyph-name="dagger" unicode="&#x2020;" horiz-adv-x="410" 
d="M270 335v-525h-130v525h-120v125h120v220h130v-220h120v-125h-120z" />
    <glyph glyph-name="daggerdbl" unicode="&#x2021;" horiz-adv-x="410" 
d="M270 30v-220h-130v220h-120v125h120v180h-120v125h120v220h130v-220h120v-125h-120v-180h120v-125h-120z" />
    <glyph glyph-name="bullet" unicode="&#x2022;" horiz-adv-x="400" 
d="M380 335q0 -37 -14 -70t-38.5 -57.5t-57.5 -38.5t-70 -14t-70 14t-57.5 38.5t-38.5 57.5t-14 70t14 70t38.5 57.5t57.5 38.5t70 14t70 -14t57.5 -38.5t38.5 -57.5t14 -70z" />
    <glyph glyph-name="ellipsis" unicode="&#x2026;" horiz-adv-x="750" 
d="M570 0v140h130v-140h-130zM50 0v140h130v-140h-130zM310 0v140h130v-140h-130z" />
    <glyph glyph-name="perthousand" unicode="&#x2030;" horiz-adv-x="980" 
d="M260 0h-110l270 680h110zM290 530q0 -49 -12 -82t-31 -52.5t-42 -27.5t-45 -8t-45 8t-42 27.5t-31 52.5t-12 82t12 82t31 52.5t42 27.5t45 8t45 -8t42 -27.5t31 -52.5t12 -82zM650 150q0 -49 -12 -82t-31 -52.5t-42 -27.5t-45 -8t-45 8t-42 27.5t-31 52.5t-12 82t12 82
t31 52.5t42 27.5t45 8t45 -8t42 -27.5t31 -52.5t12 -82zM950 150q0 -49 -12 -82t-31 -52.5t-42 -27.5t-45 -8t-45 8t-42 27.5t-31 52.5t-12 82t12 82t31 52.5t42 27.5t45 8t45 -8t42 -27.5t31 -52.5t12 -82zM550 150q0 45 -7 62.5t-23 17.5q-15 0 -22.5 -17.5t-7.5 -62.5
t7 -62.5t23 -17.5q15 0 22.5 17.5t7.5 62.5zM850 150q0 45 -7 62.5t-23 17.5q-15 0 -22.5 -17.5t-7.5 -62.5t7 -62.5t23 -17.5q15 0 22.5 17.5t7.5 62.5zM190 530q0 45 -7 62.5t-23 17.5q-15 0 -22.5 -17.5t-7.5 -62.5t7 -62.5t23 -17.5q15 0 22.5 17.5t7.5 62.5z" />
    <glyph glyph-name="guilsinglleft" unicode="&#x2039;" horiz-adv-x="220" 
d="M80 120l-50 160l50 160h110l-50 -160l50 -160h-110z" />
    <glyph glyph-name="guilsinglright" unicode="&#x203a;" horiz-adv-x="220" 
d="M140 120h-110l50 160l-50 160h110l50 -160z" />
    <glyph glyph-name="fraction" unicode="&#x2044;" horiz-adv-x="164" 
d="M164 680h100l-270 -680h-100z" />
    <glyph glyph-name="uni2070" unicode="&#x2070;" horiz-adv-x="331" 
d="M166 286q-30 0 -56.5 11.5t-46 38t-31 69.5t-11.5 106t11.5 106t31 69.5t46 38t56.5 11.5q29 0 55.5 -11.5t46 -38t31 -69.5t11.5 -106t-11.5 -106t-31 -69.5t-46 -38t-55.5 -11.5zM166 372q10 0 18 6.5t13.5 22.5t8 42.5t2.5 67.5q0 42 -2.5 68.5t-8 42.5t-13.5 22
t-18 6q-11 0 -19 -6t-13.5 -22t-8.5 -42.5t-3 -68.5q0 -41 3 -67.5t8.5 -42.5t13.5 -22.5t19 -6.5z" />
    <glyph glyph-name="uni2074" unicode="&#x2074;" horiz-adv-x="331" 
d="M177 369h-165l162 351h98v-281h34v-70h-34v-67h-95v67zM177 439v147l-66 -147h66z" />
    <glyph glyph-name="uni2075" unicode="&#x2075;" horiz-adv-x="331" 
d="M142 286q-26 0 -46.5 8t-35.5 19.5t-26 25t-18 25.5l65 58q27 -52 60 -52q24 0 40 20.5t16 60.5q0 36 -16.5 53.5t-41.5 17.5q-22 0 -43.5 -9.5t-44.5 -26.5l19 234h194l-14 -74h-112q0 -2 -1 -12.5t-2 -22.5t-2 -22t-1 -13q25 13 52 13q47 0 76.5 -33.5t29.5 -98.5
q0 -80 -38 -125.5t-110 -45.5z" />
    <glyph glyph-name="uni2076" unicode="&#x2076;" horiz-adv-x="331" 
d="M167 286q-64 0 -99.5 39.5t-35.5 118.5q0 29 6 55t14.5 48t18 39.5t16.5 29.5q5 9 15 23.5t21.5 30.5t21.5 29.5t16 20.5h104q-29 -34 -56 -68t-44 -60q-2 -3 -6.5 -10.5t-5.5 -9.5q19 10 42 10q20 0 39 -8t34 -24.5t24.5 -43t9.5 -62.5q0 -77 -37.5 -117.5t-97.5 -40.5z
M167 364q41 0 41 73q0 75 -41 75q-20 0 -30.5 -20t-10.5 -55q0 -73 41 -73z" />
    <glyph glyph-name="uni2077" unicode="&#x2077;" horiz-adv-x="301" 
d="M185 643h-168l13 77h252v-69l-121 -349h-97z" />
    <glyph glyph-name="uni2078" unicode="&#x2078;" horiz-adv-x="331" 
d="M164 286q-65 0 -103 39.5t-38 100.5q0 40 16.5 68t41.5 45q-16 10 -28.5 32.5t-12.5 49.5q0 51 33.5 83t90.5 32q60 0 93.5 -31.5t33.5 -83.5q0 -27 -12.5 -49.5t-28.5 -32.5q25 -17 41.5 -45t16.5 -68q0 -61 -38 -100.5t-106 -39.5zM164 364q23 0 35.5 17.5t12.5 49.5
q0 29 -12.5 47t-35.5 18q-21 0 -33 -18t-12 -47q0 -32 12.5 -49.5t32.5 -17.5zM164 567q20 0 30.5 14.5t10.5 37.5q0 20 -10.5 32t-30.5 12q-17 0 -27.5 -12t-10.5 -32q0 -23 10 -37.5t28 -14.5z" />
    <glyph glyph-name="uni2079" unicode="&#x2079;" horiz-adv-x="331" 
d="M67 302q29 34 54.5 67.5t42.5 59.5q2 4 7 11.5t6 9.5q-19 -10 -41 -10q-20 0 -39.5 8t-34.5 24.5t-24.5 43t-9.5 62.5q0 77 37.5 117.5t97.5 40.5q66 0 100.5 -40t34.5 -121q0 -29 -6 -54.5t-14 -46.5t-17.5 -38t-16.5 -29q-5 -9 -15 -24t-21 -30.5t-21 -29.5t-16 -21
h-104zM163 513q20 0 30.5 18.5t10.5 53.5q0 73 -41 73t-41 -73q0 -72 41 -72z" />
    <glyph glyph-name="uni2080" unicode="&#x2080;" horiz-adv-x="331" 
d="M166 -225q-30 0 -56.5 11.5t-46 38t-31 69.5t-11.5 106t11.5 106t31 69.5t46 38t56.5 11.5q29 0 55.5 -11.5t46 -38t31 -69.5t11.5 -106t-11.5 -106t-31 -69.5t-46 -38t-55.5 -11.5zM166 -139q10 0 18 6.5t13.5 22.5t8 42.5t2.5 67.5q0 42 -2.5 68.5t-8 42.5t-13.5 22
t-18 6q-11 0 -19 -6t-13.5 -22t-8.5 -42.5t-3 -68.5q0 -41 3 -67.5t8.5 -42.5t13.5 -22.5t19 -6.5z" />
    <glyph glyph-name="uni2081" unicode="&#x2081;" horiz-adv-x="265" 
d="M102 108l-60 -49v98l65 53h92v-418h-97v316z" />
    <glyph glyph-name="uni2082" unicode="&#x2082;" horiz-adv-x="331" 
d="M34 -164q0 32 9.5 57.5t24.5 46.5t33.5 39t37.5 35q26 23 44 45t18 45q0 41 -39 41q-15 0 -26 -13t-12 -42l-90 8q0 55 35.5 91.5t95.5 36.5q63 0 98 -33.5t35 -87.5q0 -24 -8 -44t-20.5 -37t-28 -32t-31.5 -29q-23 -21 -43.5 -44t-20.5 -49h149l-8 -78h-253v44z" />
    <glyph glyph-name="uni2083" unicode="&#x2083;" horiz-adv-x="331" 
d="M165 -224q-65 0 -101 35.5t-40 102.5l89 11q2 -29 15.5 -46.5t31.5 -17.5q17 0 31 13.5t14 45.5q0 35 -18 50.5t-47 15.5v66q55 0 55 51q0 21 -11 30.5t-25 9.5q-15 0 -25.5 -11.5t-12.5 -37.5l-85 9q2 55 35 89t94 34q55 0 88.5 -29.5t33.5 -80.5q0 -64 -53 -94
q29 -12 48 -38t19 -72q0 -32 -10.5 -57t-29 -42.5t-43.5 -27t-53 -9.5z" />
    <glyph glyph-name="uni2084" unicode="&#x2084;" horiz-adv-x="331" 
d="M177 -142h-165l162 351h98v-281h34v-70h-34v-67h-95v67zM177 -72v147l-66 -147h66z" />
    <glyph glyph-name="uni2085" unicode="&#x2085;" horiz-adv-x="331" 
d="M142 -225q-26 0 -46.5 8t-35.5 19.5t-26 25t-18 25.5l65 58q27 -52 60 -52q24 0 40 20.5t16 60.5q0 36 -16.5 53.5t-41.5 17.5q-22 0 -43.5 -9.5t-44.5 -26.5l19 234h194l-14 -74h-112q0 -2 -1 -12.5t-2 -22.5t-2 -22t-1 -13q25 13 52 13q47 0 76.5 -33.5t29.5 -98.5
q0 -80 -38 -125.5t-110 -45.5z" />
    <glyph glyph-name="uni2086" unicode="&#x2086;" horiz-adv-x="331" 
d="M167 -225q-64 0 -99.5 39.5t-35.5 118.5q0 29 6 55t14.5 48t18 39.5t16.5 29.5q5 9 15 23.5t21.5 30.5t21.5 29.5t16 20.5h104q-29 -34 -56 -68t-44 -60q-2 -3 -6.5 -10.5t-5.5 -9.5q19 10 42 10q20 0 39 -8t34 -24.5t24.5 -43t9.5 -62.5q0 -77 -37.5 -117.5t-97.5 -40.5
zM167 -147q41 0 41 73q0 75 -41 75q-20 0 -30.5 -20t-10.5 -55q0 -73 41 -73z" />
    <glyph glyph-name="uni2087" unicode="&#x2087;" horiz-adv-x="301" 
d="M185 132h-168l13 77h252v-69l-121 -349h-97z" />
    <glyph glyph-name="uni2088" unicode="&#x2088;" horiz-adv-x="331" 
d="M164 -225q-65 0 -103 39.5t-38 100.5q0 40 16.5 68t41.5 45q-16 10 -28.5 32.5t-12.5 49.5q0 51 33.5 83t90.5 32q60 0 93.5 -31.5t33.5 -83.5q0 -27 -12.5 -49.5t-28.5 -32.5q25 -17 41.5 -45t16.5 -68q0 -61 -38 -100.5t-106 -39.5zM164 -147q23 0 35.5 17.5t12.5 49.5
q0 29 -12.5 47t-35.5 18q-21 0 -33 -18t-12 -47q0 -32 12.5 -49.5t32.5 -17.5zM164 56q20 0 30.5 14.5t10.5 37.5q0 20 -10.5 32t-30.5 12q-17 0 -27.5 -12t-10.5 -32q0 -23 10 -37.5t28 -14.5z" />
    <glyph glyph-name="uni2089" unicode="&#x2089;" horiz-adv-x="331" 
d="M67 -209q29 34 54.5 67.5t42.5 59.5q2 4 7 11.5t6 9.5q-19 -10 -41 -10q-20 0 -39.5 8t-34.5 24.5t-24.5 43t-9.5 62.5q0 77 37.5 117.5t97.5 40.5q66 0 100.5 -40t34.5 -121q0 -29 -6 -54.5t-14 -46.5t-17.5 -38t-16.5 -29q-5 -9 -15 -24t-21 -30.5t-21 -29.5t-16 -21
h-104zM163 2q20 0 30.5 18.5t10.5 53.5q0 73 -41 73t-41 -73q0 -72 41 -72z" />
    <glyph glyph-name="Euro" unicode="&#x20ac;" horiz-adv-x="515" 
d="M195 310h115l-10 -80h-100q8 -75 27.5 -102.5t42.5 -27.5q61 0 75 116l125 -26q-11 -49 -27.5 -88t-40.5 -66t-56.5 -41.5t-75.5 -14.5q-38 0 -71.5 13t-60 42.5t-45.5 77t-27 117.5h-66l10 80h50v60h-60l10 80h56q8 69 26.5 117t45 77.5t60 42.5t72.5 13q79 0 129.5 -55
t65.5 -145l-120 -30q-8 53 -24.5 81.5t-50.5 28.5q-12 0 -22.5 -6t-20 -21t-16.5 -40t-11 -63h110l-10 -80h-105v-60z" />
    <glyph glyph-name="uni2117" unicode="&#x2117;" horiz-adv-x="630" 
d="M605 360q0 -90 -21.5 -160.5t-60 -119.5t-91.5 -74.5t-117 -25.5t-117 25.5t-91.5 74.5t-60 119.5t-21.5 160.5t21.5 160.5t60 119.5t91.5 74.5t117 25.5t117 -25.5t91.5 -74.5t60 -119.5t21.5 -160.5zM525 360q0 67 -16 122.5t-44 95t-66.5 61t-83.5 21.5t-83.5 -21.5
t-66.5 -61t-44 -95t-16 -122.5q0 -68 16 -123t44 -94.5t66.5 -61t83.5 -21.5t83.5 21.5t66.5 61t44 94.5t16 123zM475 450q0 -35 -12.5 -61.5t-34.5 -44t-51.5 -26.5t-62.5 -9q-5 0 -9.5 0.5t-9.5 0.5v-180h-90v460h90q40 0 73 -8t57 -24.5t37 -43.5t13 -64zM385 450
q0 34 -22.5 44.5t-67.5 10.5v-110q45 0 67.5 10t22.5 45z" />
    <glyph glyph-name="trademark" unicode="&#x2122;" horiz-adv-x="590" 
d="M470 400v190l-60 -110l-60 110v-190h-80v320h80l60 -110l60 110h80v-320h-80zM170 640v-240h-80v240h-60l5 80h190l5 -80h-60z" />
    <glyph glyph-name="Omega" unicode="&#x2126;" horiz-adv-x="520" 
d="M500 0h-204l-9 104q41 54 59.5 121t18.5 155q0 55 -8 93.5t-22 62t-33 34t-42 10.5q-22 0 -41 -10.5t-33.5 -34t-22.5 -62t-8 -93.5q0 -88 18.5 -155t59.5 -121l-9 -104h-204l-10 120h100q-48 68 -69 131.5t-21 138.5q0 81 17.5 139.5t49.5 96.5t76 56t97 18t97 -18
t76 -56t49.5 -96.5t17.5 -139.5q0 -75 -21 -138.5t-69 -131.5h100z" />
    <glyph glyph-name="uni2150" unicode="&#x2150;" horiz-adv-x="750" 
d="M102 581l-60 -49v98l65 53h92v-418h-97v316zM429 680h100l-270 -680h-100zM634 341h-168l13 77h252v-69l-121 -349h-97z" />
    <glyph glyph-name="uni2151" unicode="&#x2151;" horiz-adv-x="760" 
d="M102 581l-60 -49v98l65 53h92v-418h-97v316zM429 680h100l-270 -680h-100zM496 0q29 34 54.5 67.5t42.5 59.5q2 4 7 11.5t6 9.5q-19 -10 -41 -10q-20 0 -39.5 8t-34.5 24.5t-24.5 43t-9.5 62.5q0 77 37.5 117.5t97.5 40.5q66 0 100.5 -40t34.5 -121q0 -29 -6 -54.5
t-14 -46.5t-17.5 -38t-16.5 -29q-5 -9 -15 -24t-21 -30.5t-21 -29.5t-16 -21h-104zM592 211q20 0 30.5 18.5t10.5 53.5q0 73 -41 73t-41 -73q0 -72 41 -72z" />
    <glyph glyph-name="uni2152" unicode="&#x2152;" horiz-adv-x="1005" 
d="M102 581l-60 -49v98l65 53h92v-418h-97v316zM429 680h100l-270 -680h-100zM531 316l-60 -49v98l65 53h92v-418h-97v316zM840 -16q-30 0 -56.5 11.5t-46 38t-31 69.5t-11.5 106t11.5 106t31 69.5t46 38t56.5 11.5q29 0 55.5 -11.5t46 -38t31 -69.5t11.5 -106t-11.5 -106
t-31 -69.5t-46 -38t-55.5 -11.5zM840 70q10 0 18 6.5t13.5 22.5t8 42.5t2.5 67.5q0 42 -2.5 68.5t-8 42.5t-13.5 22t-18 6q-11 0 -19 -6t-13.5 -22t-8.5 -42.5t-3 -68.5q0 -41 3 -67.5t8.5 -42.5t13.5 -22.5t19 -6.5z" />
    <glyph glyph-name="onethird" unicode="&#x2153;" horiz-adv-x="760" 
d="M102 582l-60 -49v98l65 53h92v-418h-97v316zM429 680h100l-270 -680h-100zM594 -15q-65 0 -101 35.5t-40 102.5l89 11q2 -29 15.5 -46.5t31.5 -17.5q17 0 31 13.5t14 45.5q0 35 -18 50.5t-47 15.5v66q55 0 55 51q0 21 -11 30.5t-25 9.5q-15 0 -25.5 -11.5t-12.5 -37.5
l-85 9q2 55 35 89t94 34q55 0 88.5 -29.5t33.5 -80.5q0 -64 -53 -94q29 -12 48 -38t19 -72q0 -32 -10.5 -57t-29 -42.5t-43.5 -27t-53 -9.5z" />
    <glyph glyph-name="twothirds" unicode="&#x2154;" horiz-adv-x="826" 
d="M34 310q0 32 9.5 57.5t24.5 46.5t33.5 39t37.5 35q26 23 44 45t18 45q0 41 -39 41q-15 0 -26 -13t-12 -42l-90 8q0 55 35.5 91.5t95.5 36.5q63 0 98 -33.5t35 -87.5q0 -24 -8 -44t-20.5 -37t-28 -32t-31.5 -29q-23 -21 -43.5 -44t-20.5 -49h149l-8 -78h-253v44zM495 680
h100l-270 -680h-100zM660 -15q-65 0 -101 35.5t-40 102.5l89 11q2 -29 15.5 -46.5t31.5 -17.5q17 0 31 13.5t14 45.5q0 35 -18 50.5t-47 15.5v66q55 0 55 51q0 21 -11 30.5t-25 9.5q-15 0 -25.5 -11.5t-12.5 -37.5l-85 9q2 55 35 89t94 34q55 0 88.5 -29.5t33.5 -80.5
q0 -64 -53 -94q29 -12 48 -38t19 -72q0 -32 -10.5 -57t-29 -42.5t-43.5 -27t-53 -9.5z" />
    <glyph glyph-name="uni2155" unicode="&#x2155;" horiz-adv-x="760" 
d="M102 581l-60 -49v98l65 53h92v-418h-97v316zM429 680h100l-270 -680h-100zM571 -16q-26 0 -46.5 8t-35.5 19.5t-26 25t-18 25.5l65 58q27 -52 60 -52q24 0 40 20.5t16 60.5q0 36 -16.5 53.5t-41.5 17.5q-22 0 -43.5 -9.5t-44.5 -26.5l19 234h194l-14 -74h-112
q0 -2 -1 -12.5t-2 -22.5t-2 -22t-1 -13q25 13 52 13q47 0 76.5 -33.5t29.5 -98.5q0 -80 -38 -125.5t-110 -45.5z" />
    <glyph glyph-name="uni2156" unicode="&#x2156;" horiz-adv-x="826" 
d="M34 309q0 32 9.5 57.5t24.5 46.5t33.5 39t37.5 35q26 23 44 45t18 45q0 41 -39 41q-15 0 -26 -13t-12 -42l-90 8q0 55 35.5 91.5t95.5 36.5q63 0 98 -33.5t35 -87.5q0 -24 -8 -44t-20.5 -37t-28 -32t-31.5 -29q-23 -21 -43.5 -44t-20.5 -49h149l-8 -78h-253v44zM495 680
h100l-270 -680h-100zM637 -16q-26 0 -46.5 8t-35.5 19.5t-26 25t-18 25.5l65 58q27 -52 60 -52q24 0 40 20.5t16 60.5q0 36 -16.5 53.5t-41.5 17.5q-22 0 -43.5 -9.5t-44.5 -26.5l19 234h194l-14 -74h-112q0 -2 -1 -12.5t-2 -22.5t-2 -22t-1 -13q25 13 52 13
q47 0 76.5 -33.5t29.5 -98.5q0 -80 -38 -125.5t-110 -45.5z" />
    <glyph glyph-name="uni2157" unicode="&#x2157;" horiz-adv-x="826" 
d="M165 249q-65 0 -101 35.5t-40 102.5l89 11q2 -29 15.5 -46.5t31.5 -17.5q17 0 31 13.5t14 45.5q0 35 -18 50.5t-47 15.5v66q55 0 55 51q0 21 -11 30.5t-25 9.5q-15 0 -25.5 -11.5t-12.5 -37.5l-85 9q2 55 35 89t94 34q55 0 88.5 -29.5t33.5 -80.5q0 -64 -53 -94
q29 -12 48 -38t19 -72q0 -32 -10.5 -57t-29 -42.5t-43.5 -27t-53 -9.5zM495 680h100l-270 -680h-100zM637 -16q-26 0 -46.5 8t-35.5 19.5t-26 25t-18 25.5l65 58q27 -52 60 -52q24 0 40 20.5t16 60.5q0 36 -16.5 53.5t-41.5 17.5q-22 0 -43.5 -9.5t-44.5 -26.5l19 234h194
l-14 -74h-112q0 -2 -1 -12.5t-2 -22.5t-2 -22t-1 -13q25 13 52 13q47 0 76.5 -33.5t29.5 -98.5q0 -80 -38 -125.5t-110 -45.5z" />
    <glyph glyph-name="uni2158" unicode="&#x2158;" horiz-adv-x="826" 
d="M177 332h-165l162 351h98v-281h34v-70h-34v-67h-95v67zM177 402v147l-66 -147h66zM495 680h100l-270 -680h-100zM637 -16q-26 0 -46.5 8t-35.5 19.5t-26 25t-18 25.5l65 58q27 -52 60 -52q24 0 40 20.5t16 60.5q0 36 -16.5 53.5t-41.5 17.5q-22 0 -43.5 -9.5t-44.5 -26.5
l19 234h194l-14 -74h-112q0 -2 -1 -12.5t-2 -22.5t-2 -22t-1 -13q25 13 52 13q47 0 76.5 -33.5t29.5 -98.5q0 -80 -38 -125.5t-110 -45.5z" />
    <glyph glyph-name="uni2159" unicode="&#x2159;" horiz-adv-x="720" 
d="M102 581l-60 -49v98l65 53h92v-418h-97v316zM429 680h100l-270 -680h-100zM556 -16q-64 0 -99.5 39.5t-35.5 118.5q0 29 6 55t14.5 48t18 39.5t16.5 29.5q5 9 15 23.5t21.5 30.5t21.5 29.5t16 20.5h104q-29 -34 -56 -68t-44 -60q-2 -3 -6.5 -10.5t-5.5 -9.5q19 10 42 10
q20 0 39 -8t34 -24.5t24.5 -43t9.5 -62.5q0 -77 -37.5 -117.5t-97.5 -40.5zM556 62q41 0 41 73q0 75 -41 75q-20 0 -30.5 -20t-10.5 -55q0 -73 41 -73z" />
    <glyph glyph-name="uni215A" unicode="&#x215a;" horiz-adv-x="786" 
d="M142 249q-26 0 -46.5 8t-35.5 19.5t-26 25t-18 25.5l65 58q27 -52 60 -52q24 0 40 20.5t16 60.5q0 36 -16.5 53.5t-41.5 17.5q-22 0 -43.5 -9.5t-44.5 -26.5l19 234h194l-14 -74h-112q0 -2 -1 -12.5t-2 -22.5t-2 -22t-1 -13q25 13 52 13q47 0 76.5 -33.5t29.5 -98.5
q0 -80 -38 -125.5t-110 -45.5zM495 680h100l-270 -680h-100zM622 -16q-64 0 -99.5 39.5t-35.5 118.5q0 29 6 55t14.5 48t18 39.5t16.5 29.5q5 9 15 23.5t21.5 30.5t21.5 29.5t16 20.5h104q-29 -34 -56 -68t-44 -60q-2 -3 -6.5 -10.5t-5.5 -9.5q19 10 42 10q20 0 39 -8
t34 -24.5t24.5 -43t9.5 -62.5q0 -77 -37.5 -117.5t-97.5 -40.5zM622 62q41 0 41 73q0 75 -41 75q-20 0 -30.5 -20t-10.5 -55q0 -73 41 -73z" />
    <glyph glyph-name="oneeighth" unicode="&#x215b;" horiz-adv-x="760" 
d="M102 581l-60 -49v98l65 53h92v-418h-97v316zM429 680h100l-270 -680h-100zM593 -16q-65 0 -103 39.5t-38 100.5q0 40 16.5 68t41.5 45q-16 10 -28.5 32.5t-12.5 49.5q0 51 33.5 83t90.5 32q60 0 93.5 -31.5t33.5 -83.5q0 -27 -12.5 -49.5t-28.5 -32.5q25 -17 41.5 -45
t16.5 -68q0 -61 -38 -100.5t-106 -39.5zM593 62q23 0 35.5 17.5t12.5 49.5q0 29 -12.5 47t-35.5 18q-21 0 -33 -18t-12 -47q0 -32 12.5 -49.5t32.5 -17.5zM593 265q20 0 30.5 14.5t10.5 37.5q0 20 -10.5 32t-30.5 12q-17 0 -27.5 -12t-10.5 -32q0 -23 10 -37.5t28 -14.5z
" />
    <glyph glyph-name="threeeighths" unicode="&#x215c;" horiz-adv-x="826" 
d="M165 249q-65 0 -101 35.5t-40 102.5l89 11q2 -29 15.5 -46.5t31.5 -17.5q17 0 31 13.5t14 45.5q0 35 -18 50.5t-47 15.5v66q55 0 55 51q0 21 -11 30.5t-25 9.5q-15 0 -25.5 -11.5t-12.5 -37.5l-85 9q2 55 35 89t94 34q55 0 88.5 -29.5t33.5 -80.5q0 -64 -53 -94
q29 -12 48 -38t19 -72q0 -32 -10.5 -57t-29 -42.5t-43.5 -27t-53 -9.5zM495 680h100l-270 -680h-100zM659 -16q-65 0 -103 39.5t-38 100.5q0 40 16.5 68t41.5 45q-16 10 -28.5 32.5t-12.5 49.5q0 51 33.5 83t90.5 32q60 0 93.5 -31.5t33.5 -83.5q0 -27 -12.5 -49.5
t-28.5 -32.5q25 -17 41.5 -45t16.5 -68q0 -61 -38 -100.5t-106 -39.5zM659 62q23 0 35.5 17.5t12.5 49.5q0 29 -12.5 47t-35.5 18q-21 0 -33 -18t-12 -47q0 -32 12.5 -49.5t32.5 -17.5zM659 265q20 0 30.5 14.5t10.5 37.5q0 20 -10.5 32t-30.5 12q-17 0 -27.5 -12t-10.5 -32
q0 -23 10 -37.5t28 -14.5z" />
    <glyph glyph-name="fiveeighths" unicode="&#x215d;" horiz-adv-x="826" 
d="M142 249q-26 0 -46.5 8t-35.5 19.5t-26 25t-18 25.5l65 58q27 -52 60 -52q24 0 40 20.5t16 60.5q0 36 -16.5 53.5t-41.5 17.5q-22 0 -43.5 -9.5t-44.5 -26.5l19 234h194l-14 -74h-112q0 -2 -1 -12.5t-2 -22.5t-2 -22t-1 -13q25 13 52 13q47 0 76.5 -33.5t29.5 -98.5
q0 -80 -38 -125.5t-110 -45.5zM495 680h100l-270 -680h-100zM659 -16q-65 0 -103 39.5t-38 100.5q0 40 16.5 68t41.5 45q-16 10 -28.5 32.5t-12.5 49.5q0 51 33.5 83t90.5 32q60 0 93.5 -31.5t33.5 -83.5q0 -27 -12.5 -49.5t-28.5 -32.5q25 -17 41.5 -45t16.5 -68
q0 -61 -38 -100.5t-106 -39.5zM659 62q23 0 35.5 17.5t12.5 49.5q0 29 -12.5 47t-35.5 18q-21 0 -33 -18t-12 -47q0 -32 12.5 -49.5t32.5 -17.5zM659 265q20 0 30.5 14.5t10.5 37.5q0 20 -10.5 32t-30.5 12q-17 0 -27.5 -12t-10.5 -32q0 -23 10 -37.5t28 -14.5z" />
    <glyph glyph-name="seveneighths" unicode="&#x215e;" horiz-adv-x="756" 
d="M185 606h-168l13 77h252v-69l-121 -349h-97zM425 680h100l-270 -680h-100zM589 -16q-65 0 -103 39.5t-38 100.5q0 40 16.5 68t41.5 45q-16 10 -28.5 32.5t-12.5 49.5q0 51 33.5 83t90.5 32q60 0 93.5 -31.5t33.5 -83.5q0 -27 -12.5 -49.5t-28.5 -32.5q25 -17 41.5 -45
t16.5 -68q0 -61 -38 -100.5t-106 -39.5zM589 62q23 0 35.5 17.5t12.5 49.5q0 29 -12.5 47t-35.5 18q-21 0 -33 -18t-12 -47q0 -32 12.5 -49.5t32.5 -17.5zM589 265q20 0 30.5 14.5t10.5 37.5q0 20 -10.5 32t-30.5 12q-17 0 -27.5 -12t-10.5 -32q0 -23 10 -37.5t28 -14.5z
" />
    <glyph glyph-name="uni215F" unicode="&#x215f;" horiz-adv-x="429" 
d="M102 582l-60 -49v98l65 53h92v-418h-97v316zM429 680h100l-270 -680h-100z" />
    <glyph glyph-name="uni2189" unicode="&#x2189;" horiz-adv-x="826" 
d="M166 249q-30 0 -56.5 11.5t-46 38t-31 69.5t-11.5 106t11.5 106t31 69.5t46 38t56.5 11.5q29 0 55.5 -11.5t46 -38t31 -69.5t11.5 -106t-11.5 -106t-31 -69.5t-46 -38t-55.5 -11.5zM166 335q10 0 18 6.5t13.5 22.5t8 42.5t2.5 67.5q0 42 -2.5 68.5t-8 42.5t-13.5 22
t-18 6q-11 0 -19 -6t-13.5 -22t-8.5 -42.5t-3 -68.5q0 -41 3 -67.5t8.5 -42.5t13.5 -22.5t19 -6.5zM495 680h100l-270 -680h-100zM660 -16q-65 0 -101 35.5t-40 102.5l89 11q2 -29 15.5 -46.5t31.5 -17.5q17 0 31 13.5t14 45.5q0 35 -18 50.5t-47 15.5v66q55 0 55 51
q0 21 -11 30.5t-25 9.5q-15 0 -25.5 -11.5t-12.5 -37.5l-85 9q2 55 35 89t94 34q55 0 88.5 -29.5t33.5 -80.5q0 -64 -53 -94q29 -12 48 -38t19 -72q0 -32 -10.5 -57t-29 -42.5t-43.5 -27t-53 -9.5z" />
    <glyph glyph-name="partialdiff" unicode="&#x2202;" horiz-adv-x="480" 
d="M460 320q0 -75 -12 -137.5t-38 -107.5t-68 -70t-102 -25q-109 0 -164.5 67t-55.5 192q0 56 16.5 97.5t43 69t58.5 41t62 13.5q34 0 66.5 -9.5t59.5 -40.5q-5 43 -23 75.5t-43.5 54.5t-57 33t-64.5 11q-21 0 -38 -4l40 120q91 -2 152.5 -37.5t98.5 -90.5t53 -121.5
t16 -130.5zM317 230q0 57 -20 93.5t-57 36.5t-61 -32.5t-24 -97.5q0 -62 22 -101t63 -39q38 0 57.5 38t19.5 102z" />
    <glyph glyph-name="Delta" unicode="&#x2206;" horiz-adv-x="520" 
d="M0 0l220 680h80l220 -680h-520zM260 480l-100 -370h200z" />
    <glyph glyph-name="product" unicode="&#x220f;" horiz-adv-x="500" 
d="M420 560v-663h-130v663h-80v-663h-130v663h-70l10 120h460l10 -120h-70z" />
    <glyph glyph-name="summation" unicode="&#x2211;" horiz-adv-x="407" 
d="M380 -103h-360v120l139 281l-139 262v120h360l10 -120h-225l139 -262l-139 -281h225z" />
    <glyph glyph-name="minus" unicode="&#x2212;" 
d="M63 250v110h390v-110h-390z" />
    <glyph glyph-name="uni2219" unicode="&#x2219;" 
d="M438 335q0 -37 -14 -70t-38.5 -57.5t-57.5 -38.5t-70 -14t-70 14t-57.5 38.5t-38.5 57.5t-14 70t14 70t38.5 57.5t57.5 38.5t70 14t70 -14t57.5 -38.5t38.5 -57.5t14 -70z" />
    <glyph glyph-name="radical" unicode="&#x221a;" horiz-adv-x="510" 
d="M280 0h-100l-103 400h-77l20 100h140l70 -280l160 640h120z" />
    <glyph glyph-name="infinity" unicode="&#x221e;" horiz-adv-x="870" 
d="M844 307q0 -39 -13.5 -73.5t-38.5 -60t-60 -40.5t-77 -15q-31 0 -59 9.5t-53.5 26t-49 37.5t-45.5 44q-21 -23 -44.5 -44t-49 -37t-53.5 -26t-60 -10q-42 0 -77 15t-60 40.5t-38.5 60t-13.5 73.5t13.5 73.5t38.5 60t60 40.5t77 15q31 0 59 -9.5t53.5 -26t49 -37.5
t45.5 -44q21 22 44 43.5t48.5 37.5t54 26t60.5 10q42 0 77 -15t60 -40.5t38.5 -60t13.5 -73.5zM736 307q0 37 -23.5 59t-57.5 22q-37 0 -68 -20t-74 -61q21 -20 39 -35t34.5 -25.5t33 -15.5t35.5 -5q34 0 57.5 22t23.5 59zM383 307q-42 40 -73.5 60.5t-68.5 20.5
q-34 0 -57.5 -22t-23.5 -59t23.5 -59t57.5 -22q37 0 68 20t74 61z" />
    <glyph glyph-name="integral" unicode="&#x222b;" horiz-adv-x="310" 
d="M310 720q-15 3 -28 3q-31 0 -46.5 -14t-15.5 -39v-660q0 -46 -11.5 -77t-32.5 -49.5t-52 -26t-70 -7.5q-11 0 -22 0.5t-22 1.5l-10 109q16 -3 30 -3q60 0 60 52v660q0 46 11.5 77.5t33 50t53 26.5t70.5 8q10 0 20 -0.5t22 -1.5z" />
    <glyph glyph-name="approxequal" unicode="&#x2248;" 
d="M453 380q-30 -30 -56.5 -45t-63.5 -15q-23 0 -42 9.5t-37 20.5t-35 20.5t-36 9.5q-27 0 -58.5 -16t-61.5 -54v115q30 30 56 45t64 15q22 0 41.5 -9.5t37.5 -20.5t35 -20.5t36 -9.5q27 0 58.5 16t61.5 54v-115zM453 185q-30 -30 -56.5 -45t-63.5 -15q-23 0 -42 9.5
t-37 20.5t-35 20.5t-36 9.5q-27 0 -58.5 -16t-61.5 -54v115q30 30 56 45t64 15q22 0 41.5 -9.5t37.5 -20.5t35 -20.5t36 -9.5q27 0 58.5 16t61.5 54v-115z" />
    <glyph glyph-name="notequal" unicode="&#x2260;" 
d="M252 160l-39 -100h-100l39 100h-89v105h129l32 80h-161v105h201l39 100h100l-39 -100h89v-105h-129l-32 -80h161v-105h-201z" />
    <glyph glyph-name="lessequal" unicode="&#x2264;" 
d="M63 320v80l390 200v-130l-260 -110l260 -110v-120zM63 0v110h390v-110h-390z" />
    <glyph glyph-name="greaterequal" unicode="&#x2265;" 
d="M63 130v120l260 110l-260 110v130l390 -200v-80zM63 0v110h390v-110h-390z" />
    <glyph glyph-name="dotmath" unicode="&#x22c5;" 
d="M188 240v140h140v-140h-140z" />
    <glyph glyph-name="lozenge" unicode="&#x25ca;" horiz-adv-x="540" 
d="M310 0h-80l-210 340l210 340h80l210 -340zM270 540l-120 -200l120 -200l120 200z" />
    <glyph glyph-name="uniFB00" unicode="&#xfb00;" horiz-adv-x="495" 
d="M420 390v-390h-125v390h-110v-390h-125v390h-45l15 110h30v90q0 41 10 68t29.5 43t47 22.5t63.5 6.5h35v-110q-21 0 -33 -2t-18 -8t-7.5 -15.5t-1.5 -24.5v-70h110v90q0 41 10 68t29.5 43t47 22.5t63.5 6.5h35v-110q-21 0 -33 -2t-18 -8t-7.5 -15.5t-1.5 -24.5v-70h60
v-110h-60z" />
    <glyph glyph-name="fi" unicode="&#xfb01;" horiz-adv-x="460" 
d="M185 0h-125v390h-45l15 110h30v90q0 41 10 68t29.5 43t47 22.5t63.5 6.5h35v-110q-21 0 -33 -2t-18 -8t-7.5 -15.5t-1.5 -24.5v-70h235v-500h-125v390h-110v-390zM295 580v140h125v-140h-125z" />
    <glyph glyph-name="fl" unicode="&#xfb02;" horiz-adv-x="460" 
d="M295 0v620h-60q-30 0 -40 -10t-10 -40v-70h50v-110h-50v-390h-125v390h-45l15 110h30v90q0 41 9 68t29.5 43t54 22.5t82.5 6.5h185v-730h-125z" />
    <glyph glyph-name="uniFB03" unicode="&#xfb03;" horiz-adv-x="695" 
d="M530 580v140h125v-140h-125zM530 0v390h-110v-390h-125v390h-110v-390h-125v390h-45l15 110h30v90q0 41 10 68t29.5 43t47 22.5t63.5 6.5h35v-110q-21 0 -33 -2t-18 -8t-7.5 -15.5t-1.5 -24.5v-70h110v90q0 41 10 68t29.5 43t47 22.5t63.5 6.5h35v-110q-21 0 -33 -2
t-18 -8t-7.5 -15.5t-1.5 -24.5v-70h235v-500h-125z" />
    <glyph glyph-name="uniFB04" unicode="&#xfb04;" horiz-adv-x="695" 
d="M530 0v620h-50q-21 0 -33 -2t-18 -8t-7.5 -15.5t-1.5 -24.5v-70h60v-110h-60v-390h-125v390h-110v-390h-125v390h-45l15 110h30v90q0 41 10 68t29.5 43t47 22.5t63.5 6.5h35v-110q-21 0 -33 -2t-18 -8t-7.5 -15.5t-1.5 -24.5v-70h110v90q0 41 10 68t29.5 43t47 22.5
t63.5 6.5h210v-730h-125z" />
    <glyph glyph-name="gravecomb.case" horiz-adv-x="1" 
d="M-299 780l-80 140h110l50 -140h-80z" />
    <glyph glyph-name="acutecomb.case" horiz-adv-x="1" 
d="M-229 780h-80l50 140h110z" />
    <glyph glyph-name="uni0302.case" horiz-adv-x="1" 
d="M-234 780l-30 90l-30 -90h-90l70 140h100l70 -140h-90z" />
    <glyph glyph-name="tildecomb.case" horiz-adv-x="1" 
d="M-124 870q0 -19 -2.5 -37t-10 -32t-21.5 -22.5t-36 -8.5q-15 0 -33 8t-34.5 17t-31 17t-21.5 8q-14 0 -17 -8.5t-3 -31.5h-70v30q0 19 2.5 37t10 32t21 22.5t36.5 8.5q15 0 33 -8t34.5 -17t30.5 -17t22 -8q15 0 17.5 8.5t2.5 31.5h70v-30z" />
    <glyph glyph-name="uni0308.case" horiz-adv-x="1" 
d="M-129 780v130h105v-130h-105zM-304 780v130h105v-130h-105z" />
    <glyph glyph-name="uni030A.case" horiz-adv-x="1" 
d="M-39 845q0 -35 -25 -60t-60 -25t-60 25t-25 60t25 60t60 25t60 -25t25 -60zM-89 845q0 14 -10.5 24.5t-24.5 10.5t-24.5 -10.5t-10.5 -24.5t10.5 -24.5t24.5 -10.5t24.5 10.5t10.5 24.5z" />
    <glyph glyph-name="uni030C.case" horiz-adv-x="1" 
d="M-159 780h-100l-70 140h90l30 -90l30 90h90z" />
    <glyph glyph-name="uni0327.case" horiz-adv-x="1" 
d="M-39 -60q6 -21 6 -41q0 -42 -20.5 -77.5t-50.5 -56.5l-55 25q11 11 19.5 40t8.5 61q0 29 -8 49h100z" />
    </font>
</defs>
</svg>
