<?xml version="1.0" standalone="no"?>
<!DOCTYPE svg PUBLIC "-//W3C//DTD SVG 1.1//EN" "http://www.w3.org/Graphics/SVG/1.1/DTD/svg11.dtd" >
<svg>
<metadata>
Created by FontForge 20120731 at Wed Sep 21 08:29:47 2016
 By www-data
Republica Minor (c) 2015 Sharkshock. All Rights reserved
</metadata>
<defs>
<font id="RepublicaMinor2.0" horiz-adv-x="3325" >
  <font-face 
    font-family="Republica Minor 2.0"
    font-weight="400"
    font-style="italic"
    font-stretch="semi-expanded"
    units-per-em="4096"
    panose-1="2 11 8 6 3 9 2 9 2 4"
    ascent="3276"
    descent="-820"
    x-height="2621"
    cap-height="3326"
    bbox="-319 -1219 5000 4739"
    underline-thickness="102"
    underline-position="-154"
    slope="-13"
    unicode-range="U+0020-2122"
  />
    <missing-glyph />
    <glyph glyph-name="space" unicode=" " horiz-adv-x="787" 
 />
    <glyph glyph-name="exclam" unicode="!" horiz-adv-x="1412" 
d="M1312 997h-1212v2329h1212v-2329zM1312 -2h-1212v823h1212v-823z" />
    <glyph glyph-name="quotedbl" unicode="&#x22;" horiz-adv-x="1846" 
d="M846 4129v-1361h-746v1361h746zM1746 4129v-1361h-746v1361h746z" />
    <glyph glyph-name="numbersign" unicode="#" horiz-adv-x="3143" 
d="M1866 1733h-445l-144 -443h445zM1850 3056l-239 -761h420l242 761h534l-239 -761h475l-187 -562h-467l-141 -443h480l-187 -562h-471l-242 -761h-537l244 761h-420l-245 -761h-534l241 761h-477l185 562h471l136 443h-477l182 562h480l238 761h535z" />
    <glyph glyph-name="dollar" unicode="$" horiz-adv-x="3246" 
d="M1910 276l1 -270h-583l-1 270h-391q-415 0 -625.5 162t-209.5 469v325h1365v-234q0 -127 37 -182t128 -55q87 0 128 61.5t40 208.5q1 62 -6.5 105t-31.5 77.5t-69.5 61.5t-121.5 55l-925 365q-316 127 -431 270q-114 148 -113 401l-1 51q0 307 212 469t624 162h391v274
h583v-274h400q415 0 625.5 -162t210.5 -469l1 -116h-1356l-1 41q0 225 -174 225q-73 0 -116.5 -41t-43.5 -106q1 -33 9.5 -57.5t34.5 -49t73 -49t124 -57.5l1077 -443q102 -45 172.5 -102t115.5 -139t64.5 -197t19.5 -270l1 -63q0 -373 -202 -545t-635 -172h-400z" />
    <glyph glyph-name="percent" unicode="%" horiz-adv-x="3130" 
d="M2698 3326l-1869 -3326h-404l1869 3326h404zM428 1991q-180 0 -255 71q-73 70 -73 246v735q0 147 78.5 215t249.5 68h563q93 0 158 -16.5t106 -50.5t60 -88t19 -128v-735q0 -178 -77 -247q-74 -70 -266 -70h-563zM648 2928v-551q0 -50 16 -72t52 -22q37 0 53.5 22
t16.5 72v551q0 96 -70 96q-36 0 -52 -22.5t-16 -73.5zM2124 0q-180 0 -255 71q-73 70 -73 246v735q0 147 78.5 215t249.5 68h563q93 0 158 -16.5t106 -50.5t60 -88t19 -128v-735q0 -178 -77 -247q-74 -70 -266 -70h-563zM2344 937v-551q0 -50 16 -72t52 -22q37 0 53.5 22
t16.5 72v551q0 96 -70 96q-36 0 -52 -22.5t-16 -73.5z" />
    <glyph glyph-name="ampersand" unicode="&#x26;" horiz-adv-x="3308" 
d="M1789 1410h-152q-222 0 -222 -234l1 -193q-1 -125 38 -179q38 -55 122 -55q3 0 23 2v-4h54v4q68 7 99 55q36 56 37 177v427zM3350 2151v-741h-147v-790q1 -301 -203 -461q-204 -159 -608 -159h-1478q-422 0 -618 169t-195 536l-1 178q0 173 28 300t91 213q64 87 165 143
q100 57 250 92q-285 97 -409 254t-125 411l1 410q-1 302 205 461q208 159 609 159h979q398 0 603 -159q207 -160 208 -461v-386h-956l-1 60q1 88 -45 144q-47 57 -124 57q-69 0 -117 -58q-46 -59 -46 -147q0 -225 243 -225h1691z" />
    <glyph glyph-name="quotesingle" unicode="'" horiz-adv-x="946" 
d="M846 4129v-1361h-746v1361h746z" />
    <glyph glyph-name="parenleft" unicode="(" horiz-adv-x="2107" 
d="M2007 4137v-663h-241q-104 0 -167.5 -10.5t-96.5 -37t-45 -73.5t-12 -121v-3093q0 -74 12 -121t45 -73.5t96.5 -37t167.5 -10.5h241v-664h-952q-469 0 -712 162t-243 469v3643q0 307 243 468.5t712 161.5h952z" />
    <glyph glyph-name="parenright" unicode=")" horiz-adv-x="2107" 
d="M1052 4137q469 0 712.5 -161.5t243.5 -468.5v-3643q-1 -307 -244 -469t-712 -162h-952v664h241q104 0 167.5 10.5t96.5 37t45 73.5t12 121v3093q0 74 -12 121t-45 73.5t-96.5 37t-167.5 10.5h-241v663h952z" />
    <glyph glyph-name="asterisk" unicode="*" horiz-adv-x="1424" 
d="M581 3346v259h280v-259l187 188l197 -198l-194 -195h273v-279h-260l179 -178l-199 -198l-184 183v-266h-280l1 268l-200 -200l-199 197l194 194h-276v279h289l-195 195l198 198z" />
    <glyph glyph-name="plus" unicode="+" horiz-adv-x="2066" 
d="M654 1286h-554v758h554v554h758v-554h554v-758h-554v-554h-758v554z" />
    <glyph glyph-name="comma" unicode="," horiz-adv-x="1182" 
d="M667 -2h-567v823h982v-823l-225 -370h-403z" />
    <glyph glyph-name="hyphen" unicode="-" horiz-adv-x="1766" 
d="M100 2044h1566v-758h-1566v758z" />
    <glyph glyph-name="hyphen" unicode="&#xad;" horiz-adv-x="1766" 
d="M100 2044h1566v-758h-1566v758z" />
    <glyph glyph-name="period" unicode="." horiz-adv-x="1182" 
d="M1082 -2h-982v823h982v-823z" />
    <glyph glyph-name="slash" unicode="/" horiz-adv-x="2294" 
d="M1298 3658h896l-1199 -3995h-895z" />
    <glyph glyph-name="zero" unicode="0" horiz-adv-x="3304" 
d="M926 0q-453 0 -644 179q-183 174 -183 617v1848q0 369 197 540t629 171h1415q233 0 396.5 -41t267.5 -126t151.5 -221t47.5 -323v-1848q0 -447 -193 -621q-186 -175 -669 -175h-1415zM1478 2355l1 -1384q-1 -127 39.5 -182.5t131.5 -55.5q92 0 133 55.5t42 182.5l-1 1384
q0 242 -175 242q-91 0 -130.5 -57.5t-40.5 -184.5z" />
    <glyph glyph-name="one" unicode="1" horiz-adv-x="1831" 
d="M382 0v2126h-282v1200h1631v-3326h-1349z" />
    <glyph glyph-name="two" unicode="2" horiz-adv-x="3242" 
d="M99 2v707l1570 1362q54 52 85 116t31 133q1 116 -35.5 172.5t-123.5 56.5q-78 0 -124 -56.5t-46 -144.5l-1 -197h-1356v556q1 301 212.5 460t620.5 159h1376q412 0 623 -159t210 -460v-564q0 -217 -51 -351.5t-167 -235.5l-936 -807h1154v-747h-3042z" />
    <glyph glyph-name="three" unicode="3" horiz-adv-x="3218" 
d="M3118 719q0 -373 -200 -545t-629 -172h-1365q-411 0 -618 162t-207 469v578h1356v-209q1 -123 37.5 -180.5t123.5 -57.5q86 0 125 55.5t38 182.5v196q0 238 -226 238h-292v754h271q247 0 247 229q0 90 -47.5 149.5t-118.5 59.5q-78 0 -125.5 -57.5t-47.5 -147.5v-61
h-1341v333q1 307 211 469t615 162h1365q408 0 618 -162t209 -469v-219q1 -258 -126 -417.5t-416 -258.5q152 -36 254.5 -93.5t167.5 -145.5t92.5 -217t28.5 -305v-320z" />
    <glyph glyph-name="four" unicode="4" horiz-adv-x="3602" 
d="M1283 1423h411v910zM1694 2v659h-1594v680l927 1987h2028v-1905h447v-762h-447v-659h-1361z" />
    <glyph glyph-name="five" unicode="5" horiz-adv-x="3192" 
d="M1443 1086q0 -117 38 -171.5t124 -54.5t125.5 52.5t39.5 173.5v304q0 121 -39 173.5t-125 52.5h-1505l-1 1710h2992l1 -721h-1652l-1 -214l776 4q437 0 657 -181t219 -548v-849q1 -487 -195 -651t-621 -164h-1358q-404 0 -611 154t-207 446v609h1343v-125z" />
    <glyph glyph-name="six" unicode="6" horiz-adv-x="3202" 
d="M1441 2132q187 4 374 4h382q905 0 905 -766v-659q0 -369 -197 -539t-625 -170h-1358q-410 0 -616 160t-206 467v2126q0 307 206 467t616 160h1358q407 0 614.5 -160t207.5 -467v-430h-1338v94q0 90 -46 145.5t-123 55.5q-86 0 -120 -59.5t-34 -211.5v-217zM1773 973v148
q0 213 -166 213h-163v-222v-139q0 -213 163 -213q166 0 166 213z" />
    <glyph glyph-name="seven" unicode="7" horiz-adv-x="3012" 
d="M100 0l1288 2568h-1288v758h2812v-864l-1243 -2462h-1569z" />
    <glyph glyph-name="eight" unicode="8" horiz-adv-x="3195" 
d="M1431 2591v-201q1 -127 39.5 -186t125.5 -59t128 57t40 188v201q1 131 -40 190.5t-128 59.5t-126 -57.5t-39 -192.5zM3095 719q0 -373 -200 -545t-631 -172h-1334q-431 0 -630.5 172t-199.5 545v320q1 180 29 307t93 217t167.5 145.5t253.5 91.5q-288 99 -415.5 256.5
t-126.5 419.5l-1 279q0 307 211 469t618 162h1334q410 0 621 -162t211 -469l1 -279q-1 -258 -127.5 -417.5t-416.5 -258.5q151 -36 254.5 -93.5t167.5 -145.5t93 -217t28 -305v-320zM1437 1088v-205q1 -123 39.5 -182.5t128.5 -59.5q168 0 168 242v205q1 131 -41.5 190.5
t-126.5 59.5q-90 0 -129 -57.5t-39 -192.5z" />
    <glyph glyph-name="nine" unicode="9" horiz-adv-x="3202" 
d="M1761 1252q-187 -4 -374 -4h-382q-905 0 -905 766v659q0 369 197 539t625 170h1358q410 0 616 -160t206 -467v-2126q0 -307 -206 -467t-616 -160h-1358q-407 0 -614.5 160t-207.5 467v430h1338v-94q0 -90 46 -145.5t123 -55.5q86 0 120 59.5t34 211.5v217zM1429 2411
v-148q0 -213 166 -213h163v222v139q0 213 -163 213q-166 0 -166 -213z" />
    <glyph glyph-name="colon" unicode=":" horiz-adv-x="1182" 
d="M1082 -2h-982v823h982v-823zM1082 2061h-982v823h982v-823z" />
    <glyph glyph-name="semicolon" unicode=";" horiz-adv-x="1182" 
d="M667 -2h-567v823h982v-823l-225 -370h-403zM1082 2061h-982v823h982v-823z" />
    <glyph glyph-name="semicolon" unicode="&#x37e;" horiz-adv-x="1182" 
d="M667 -2h-567v823h982v-823l-225 -370h-403zM1082 2061h-982v823h982v-823z" />
    <glyph glyph-name="less" unicode="&#x3c;" horiz-adv-x="2038" 
d="M1938 2083l-892 -390l892 -390v-706l-1838 813v568l1838 813v-708z" />
    <glyph glyph-name="equal" unicode="=" horiz-adv-x="2066" 
d="M100 1622h1866v-758h-1866v758zM100 2466h1866v-758h-1866v758z" />
    <glyph glyph-name="greater" unicode="&#x3e;" horiz-adv-x="2038" 
d="M101 2791l1837 -813v-568l-1838 -813v706l892 390l-892 390z" />
    <glyph glyph-name="question" unicode="?" horiz-adv-x="3203" 
d="M2250 -2h-1330v823h1330v-823zM1749 2321.5q0 140.5 -39 198t-167 57.5q-90 0 -130.5 -55.5t-40.5 -186.5v-241h-1309l-1 438q1 438 187 618q89 90 255 133t402 43h1384q221 0 375 -43t249 -137t139 -245.5t43 -368.5q0 -702 -423.5 -871t-423.5 -391v-271h-1330v406
q0 350 415 563t415 353.5z" />
    <glyph glyph-name="at" unicode="@" horiz-adv-x="5029" 
d="M2691 1040l-165 -55q-117 -40 -162 -95q-46 -55 -46 -161v-51q0 -187 183 -187q95 0 143 44q47 44 47 143v362zM4753 3172q176 -152 176 -482v-1979q0 -396 -163 -551q-170 -160 -574 -160h-258v1h-36v-1h-1920q-409 -7 -619 163t-236 635q14 619 844 715l731 5v200
q0 106 -43 146q-44 41 -139 41t-137 -44t-42 -143v-77h-1174v168q0 151 42 253t137 165q95 62 249 89q153 28 376 28h1127q223 0 377 -28q153 -27 248 -91t137 -167t42 -249v-1154h39q77 2 111 49q36 50 36 163v1235q0 221 -39 331q-78 215 -309 215h-2393q-231 0 -308 -215
q-40 -110 -40 -331v-2106l-895 11v2684q0 330 176 482q176 153 561 153l303 -1v0h2799v0h253q385 0 561 -153z" />
    <glyph glyph-name="A" unicode="A" horiz-adv-x="3478" 
d="M1618 1454h239l-120 1131zM100 0l635 3326h2008l635 -3326h-1358l-83 721h-403l-79 -721h-1355z" />
    <glyph glyph-name="B" unicode="B" horiz-adv-x="3267" 
d="M1451 2570v-471h149q106 0 150.5 53.5t44.5 180.5q0 135 -41 186t-154 51h-149zM1451 764h149q113 0 154 51t41 186v136q0 131 -41 184t-154 53h-149v-610zM100 2v3326h2188q237 0 404.5 -45t272 -139.5t153.5 -246t49 -360.5q0 -331 -129.5 -507.5t-433.5 -249.5
q295 -70 429 -283t134 -639q0 -471 -198 -663.5t-681 -192.5h-2188z" />
    <glyph glyph-name="C" unicode="C" horiz-adv-x="3234" 
d="M3134 1399v-684q0 -192 -46.5 -327.5t-147.5 -221.5t-261 -127t-387 -41h-1384q-421 0 -614.5 172t-193.5 545l1 1816q-1 217 43 368.5t139 245.5t249 137t375 43h1384q236 0 402 -43t255 -133q186 -180 187 -618l-1 -438h-1348v241q0 131 -40.5 186.5t-130.5 55.5
q-89 0 -128 -57.5t-39 -184.5l1 -1340q-1 -127 38 -184.5t128 -57.5q171 0 172 242l-1 405h1348z" />
    <glyph glyph-name="D" unicode="D" horiz-adv-x="3267" 
d="M1451 762h149q113 0 154 51t41 186v1332q0 135 -41 186t-154 51h-149v-1806zM100 0v3326h2209q231 0 394 -41t266.5 -127t150.5 -223t47 -326v-1806q0 -447 -189 -627q-91 -90 -260 -133t-409 -43h-2209z" />
    <glyph glyph-name="E" unicode="E" horiz-adv-x="2647" 
d="M100 0v3326h2447v-758h-1106v-524h983v-758h-983v-528h1106v-758h-2447z" />
    <glyph glyph-name="F" unicode="F" horiz-adv-x="2731" 
d="M100 0v3326h2531v-758h-1190v-524h1067v-758h-1067v-1283z" />
    <glyph glyph-name="G" unicode="G" horiz-adv-x="3239" 
d="M1789 1201h-185l-1 741h1535v-1327q0 -615 -586 -615h-922h-721q-221 0 -376 43t-250.5 139.5t-139 248t-43.5 368.5v1816q1 373 194 540.5t615 167.5h1386q227 0 387 -38.5t261.5 -124.5t148.5 -221.5t46 -323.5l1 -336h-1353l2 53q0 8 2 22.5t1 22.5q0 90 -48 143.5
t-126 53.5q-89 0 -128 -57.5t-39 -184.5l1 -1336q-1 -127 38.5 -182.5t128.5 -55.5q90 0 130 55.5t41 182.5v205z" />
    <glyph glyph-name="H" unicode="H" horiz-adv-x="3182" 
d="M100 0v3326h1349v-1126h284v1126h1349v-3326h-1349v1442h-284v-1442h-1349z" />
    <glyph glyph-name="I" unicode="I" horiz-adv-x="1552" 
d="M100 0v3326h1352v-3326h-1352z" />
    <glyph glyph-name="J" unicode="J" horiz-adv-x="3241" 
d="M3141 3326v-2528q0 -446 -188 -622.5t-677 -176.5h-1345q-228 0 -386.5 43t-257 139.5t-143 248t-44.5 368.5v627h1327l1 -430q-1 -127 40.5 -182.5t130.5 -55.5q95 0 136.5 55.5t42.5 182.5l-1 2331h1364z" />
    <glyph glyph-name="K" unicode="K" horiz-adv-x="3431" 
d="M100 0v3326h1351v-1344l445 1344h1404l-531 -1544l562 -1782h-1389l-491 1520v-1520h-1351z" />
    <glyph glyph-name="L" unicode="L" horiz-adv-x="2369" 
d="M100 0v3326h1342v-2568h827v-758h-2169z" />
    <glyph glyph-name="M" unicode="M" horiz-adv-x="4482" 
d="M1815 0l-364 1416v-1416h-1351v3326h1701l439 -1332l438 1332h1704v-3326h-1354v1416l-361 -1416h-852z" />
    <glyph glyph-name="N" unicode="N" horiz-adv-x="3619" 
d="M100 0v3326h1471l588 -1372v1372h1360v-3326h-1407l-655 1565v-1565h-1357z" />
    <glyph glyph-name="O" unicode="O" horiz-adv-x="3320" 
d="M1486 2336l1 -1339q-1 -127 39.5 -182.5t132.5 -55.5t133 55.5t42 182.5l-1 1339q0 242 -175 242q-92 0 -132 -57.5t-40 -184.5zM931 1q-228 0 -386.5 43t-257 139.5t-143 248t-44.5 368.5v1819q1 373 199 540.5t632 167.5h1423q233 0 397 -38.5t268.5 -124.5t153 -221.5
t47.5 -323.5v-1819q0 -442 -191 -622q-92 -91 -262 -134t-413 -43h-1423z" />
    <glyph glyph-name="P" unicode="P" horiz-adv-x="3283" 
d="M1641 2576h-183v-934h177q101 0 145.5 53.5t44.5 184.5v455q0 131 -43 186t-141 55zM100 0v3326h2220q233 0 396.5 -41t267.5 -127t151.5 -223t47.5 -326v-917q0 -451 -193 -627q-186 -176 -670 -176h-862v-889h-1358z" />
    <glyph glyph-name="Q" unicode="Q" horiz-adv-x="3320" 
d="M1486 2339l1 -1344q-1 -127 39.5 -182.5t133.5 -55.5q92 0 133 55.5t42 182.5l-1 1344q0 242 -175 242q-93 0 -133 -57.5t-40 -184.5zM984 -1q-280 0 -439 43t-257.5 139.5t-143 248t-44.5 368.5v1824q1 373 199.5 540.5t631.5 167.5h1423q234 0 398 -38.5t268.5 -124.5
t152.5 -221.5t47 -323.5v-1824q0 -442 -191 -622q-92 -91 -262 -134t-413 -43h-17l-1 -633h-1353z" />
    <glyph glyph-name="R" unicode="R" horiz-adv-x="3283" 
d="M1641 2576h-183v-664h177q101 0 145.5 53.5t44.5 184.5v185q0 131 -43 186t-141 55zM1458 966v-966h-1358v3326h2220q233 0 396.5 -41t267.5 -127t151.5 -223t47.5 -326v-647q0 -451 -193 -627q-75 -71 -199 -114q381 -256 383 -1221h-1358q-2 967 -358 966z" />
    <glyph glyph-name="S" unicode="S" horiz-adv-x="3345" 
d="M961 -1q-427 0 -644 155t-209 514v583h1406v-226q0 -230 170 -230q90 0 132 57.5t42 192.5q0 75 -8 124.5t-32.5 85.5t-71 63.5t-124.5 55.5l-953 353q-332 123 -446 262q-115 146 -115 388v346q0 297 217 449.5t644 152.5h1415q428 0 644.5 -152.5t216.5 -449.5v-381
h-1397v39q0 219 -179 219q-74 0 -119 -44t-45 -115q0 -36 7.5 -61.5t34 -49.5t74.5 -50t131 -57l1109 -429q105 -43 178 -98.5t119.5 -135t66.5 -190.5t20 -262v-357q-8 -422 -214 -587t-655 -165h-1415z" />
    <glyph glyph-name="T" unicode="T" horiz-adv-x="3070" 
d="M830 0v2568h-730v758h2870v-758h-729v-2568h-1411z" />
    <glyph glyph-name="U" unicode="U" horiz-adv-x="3322" 
d="M1833 3346h1389l-2 -708v-1864q0 -442 -191 -622q-92 -91 -262.5 -134t-413.5 -43h-1423q-228 0 -386 43t-256.5 139.5t-143 248t-44.5 368.5v2573l830 -1h556l1 -2375q-1 -127 39 -182.5t132 -55.5t133.5 55.5t42.5 182.5z" />
    <glyph glyph-name="V" unicode="V" horiz-adv-x="3382" 
d="M815 2l-715 3326h1357l234 -2114l235 2114h1356l-712 -3326h-1755z" />
    <glyph glyph-name="W" unicode="W" horiz-adv-x="4931" 
d="M2962 3328l266 -1524l251 1524h1352l-703 -3326h-1374l-290 1409l-290 -1409h-1374l-700 3326h1353l250 -1524l266 1524h993z" />
    <glyph glyph-name="X" unicode="X" horiz-adv-x="3364" 
d="M100 0l520 1671l-496 1655h1331l229 -929l229 929h1328l-491 -1655l514 -1671h-1316l-264 1159l-262 -1159h-1322z" />
    <glyph glyph-name="Y" unicode="Y" horiz-adv-x="3603" 
d="M1116 2v1257l-1016 2069h1337l364 -799l368 799h1334l-1016 -2069v-1257h-1371z" />
    <glyph glyph-name="Z" unicode="Z" horiz-adv-x="2832" 
d="M2732 3328v-696l-1005 -1872h1005v-758h-2632v713l1001 1855h-912v758h2543z" />
    <glyph glyph-name="bracketleft" unicode="[" horiz-adv-x="2095" 
d="M100 -768v4897h1895v-667h-554v-3562h554v-668h-1895z" />
    <glyph glyph-name="backslash" unicode="\" horiz-adv-x="2294" 
d="M2194 -337h-896l-1198 3995h895z" />
    <glyph glyph-name="bracketright" unicode="]" horiz-adv-x="2095" 
d="M100 -768v668h554l1 3562h-554v667h1895l-1 -4897h-1895z" />
    <glyph glyph-name="asciicircum" unicode="^" horiz-adv-x="1839" 
d="M1312 4148l427 -822h-673l-147 283l-147 -283h-672l426 822h786z" />
    <glyph glyph-name="underscore" unicode="_" horiz-adv-x="2066" 
d="M100 -271h1866v-758h-1866v758z" />
    <glyph glyph-name="grave" unicode="`" horiz-adv-x="1278" 
d="M746 4407l432 -802h-646l-432 802h646z" />
    <glyph glyph-name="a" unicode="a" horiz-adv-x="3309" 
d="M1874 759v406l-184 -62q-132 -45 -182.5 -106.5t-51.5 -180.5v-57q0 -209 205 -209q106 0 159.5 49t53.5 160zM1864 1694l1 230q1 119 -48.5 164t-155.5 45q-107 0 -153.5 -49t-47.5 -160v-86h-1315l1 188q0 169 47 283.5t153 184.5t278 100.5t422 30.5h1262
q250 0 422 -30.5t279 -102.5t153.5 -187t47.5 -279l-1 -2026h-2151q-458 -8 -693.5 182.5t-264.5 711.5q68 777 946 800h818z" />
    <glyph glyph-name="b" unicode="b" 
d="M1662 495q188 0 188 195v1182q-1 106 -45.5 150.5t-142.5 44.5q-189 0 -189 -195v-1182q0 -195 189 -195zM1456 2624h868q250 0 422 -30.5t278.5 -99.5t153.5 -180.5t47 -270.5l1 -1458q-1 -163 -48 -274.5t-153 -180.5t-278.5 -99.5t-422.5 -30.5h-1327
q-250 0 -421.5 30.5t-276 97.5t-152 178.5t-46.5 278.5l-1 2741h1356v-702z" />
    <glyph glyph-name="c" unicode="c" 
d="M3225 589q0 -168 -47 -280.5t-153.5 -184t-278.5 -102t-422 -30.5h-1327q-250 0 -422 30.5t-276.5 100t-151.5 184t-47 282.5v1431q0 332 197 466q102 66 279 99q85 16 279.5 24t501.5 8h967q250 0 422 -30.5t278.5 -102t153.5 -186t47 -278.5l1 -401h-1376l-1 291
q0 200 -188 200q-99 0 -144 -47t-45 -153v-1215q0 -200 189 -200q98 0 143 47t45 153v421h1376v-527z" />
    <glyph glyph-name="d" unicode="d" 
d="M1854 692l-1 1180q0 195 -188 195q-99 0 -143.5 -44.5t-45.5 -150.5l1 -1180q0 -195 189 -195q188 0 188 195zM1870 3326h1356v-2739q-1 -167 -47.5 -278.5t-151 -178.5t-276.5 -97.5t-422 -30.5h-1327q-250 0 -422 30.5t-278.5 99.5t-154 180.5t-46.5 274.5v1456
q-1 159 46.5 270.5t154 180.5t278.5 99.5t422 30.5h868v702z" />
    <glyph glyph-name="e" unicode="e" 
d="M3225 589q0 -168 -47 -280.5t-153.5 -184t-278.5 -102t-422 -30.5h-1327q-250 0 -422 30.5t-276.5 100t-151.5 184t-47 282.5v1431q0 168 47 282.5t151.5 184t276.5 100t422 30.5h1327q250 0 422 -30.5t278.5 -102t153.5 -186t47 -278.5v-789h-1753v-536q0 -200 189 -200
q98 0 143 47t45 153v336h1376v-442zM1460 1910l1 -209h405l-1 209q0 221 -204 221q-107 0 -154 -51.5t-47 -169.5z" />
    <glyph glyph-name="f" unicode="f" horiz-adv-x="2268" 
d="M448 2628q1 168 47.5 332.5t151 234.5t276.5 100.5t426 30.5h819v-489h-36q-189 0 -258.5 -33t-69.5 -111l1 -96h364l-1 -500h-364v-2097h-1356v2097h-348l1 500h348z" />
    <glyph glyph-name="g" unicode="g" horiz-adv-x="3308" 
d="M3209 -75q0 -243 -48 -358t-152.5 -187t-275.5 -103t-421 -31h-1686l1 502h1014q240 -1 218 252q-304 2 -505 2h-308q-469 0 -707.5 187.5t-238.5 561.5v1126q1 374 239 569.5t694 179.5h2175zM1851 1832q1 107 -44 154.5t-144 47.5q-193 0 -194 -202l1 -1036
q-1 -107 44 -154t152 -47q99 0 142 47t44 154z" />
    <glyph glyph-name="h" unicode="h" horiz-adv-x="3288" 
d="M100 0v3326h1356v-700l790 -5q467 0 704.5 -194.5t237.5 -566.5v-1860h-1355v1823q0 200 -189 200q-98 0 -143 -47t-45 -153v-1823h-1356z" />
    <glyph glyph-name="i" unicode="i" horiz-adv-x="1552" 
d="M100 0v2626h1352v-2626h-1352zM100 2759v564h1352v-564h-1352z" />
    <glyph glyph-name="j" unicode="j" horiz-adv-x="1552" 
d="M100 -750v3376h1352v-3376h-1352zM100 2759v564h1352v-564h-1352z" />
    <glyph glyph-name="k" unicode="k" horiz-adv-x="3313" 
d="M100 0v3326h1327v-1749l148 1049h1380l-385 -1250l643 -1376h-1376l-410 1221v-1221h-1327z" />
    <glyph glyph-name="l" unicode="l" horiz-adv-x="1552" 
d="M100 0v3326h1352v-3326h-1352z" />
    <glyph glyph-name="m" unicode="m" horiz-adv-x="4964" 
d="M100 0v2624h3843q446 16 683.5 -178.5t237.5 -566.5v-1879h-1342v1834q0 200 -189 200q-98 0 -143 -47t-45 -153v-1834h-1326v1834q0 200 -188 200q-99 0 -144 -47t-45 -153v-1834h-1342z" />
    <glyph glyph-name="n" unicode="n" horiz-adv-x="3286" 
d="M100 0v2624h2153q458 16 695.5 -178.5t237.5 -566.5v-1879h-1355v1834q0 200 -188 200q-98 0 -143 -47t-45 -153v-1834h-1355z" />
    <glyph glyph-name="o" unicode="o" horiz-adv-x="3319" 
d="M1469 1914v-1215q0 -200 188 -200q99 0 143.5 47t44.5 153v1215q0 200 -188 200q-98 0 -143 -47t-45 -153zM100 2024q0 168 47 282.5t151 184t276 100t421 30.5h1325q249 0 420.5 -30.5t278 -102.5t153.5 -186.5t47 -277.5v-1431q0 -168 -47 -280.5t-153.5 -184
t-278 -102t-420.5 -30.5h-1325q-249 0 -421 30.5t-276 100t-151 184t-47 282.5v1431z" />
    <glyph glyph-name="p" unicode="p" 
d="M1472 1935v-1190q0 -195 189 -195q98 0 143 45t45 150v1190q0 195 -188 195q-189 0 -189 -195zM1456 -754h-1356v2795q1 166 47.5 278t151 179t276.5 97.5t422 30.5h1327q250 0 422 -30.5t278.5 -99.5t154 -181t46.5 -274l1 -1467q-1 -158 -48 -270t-153 -181
t-278.5 -99.5t-422.5 -30.5h-868v-747z" />
    <glyph glyph-name="q" unicode="q" 
d="M1665 2130q-189 0 -189 -195v-1190q0 -105 45 -150t144 -45q188 0 188 195v1190q0 195 -188 195zM1868 -7h-868q-250 0 -422 30.5t-278.5 99.5t-153.5 181t-47 270v1467q1 162 47.5 274t153 181t278.5 99.5t422 30.5h1327q250 0 422 -30.5t276.5 -97.5t151.5 -179
t47 -278l1 -2795h-1356z" />
    <glyph glyph-name="r" unicode="r" horiz-adv-x="2246" 
d="M100 0v2616h1316v-205q226 246 730 209v-742q-652 -4 -689 -480v-1398h-1357z" />
    <glyph glyph-name="s" unicode="s" 
d="M3225 589q-1 -168 -48 -280.5t-153.5 -184t-278.5 -102t-422 -30.5h-1327q-250 0 -422 30.5t-276.5 100t-151.5 184t-46 282.5l-1 323h1372v-217q0 -200 189 -200q98 0 143.5 47t44.5 153v70q0 176 -314 257l-788 193q-368 94 -495 208.5t-126 351.5l-1 245
q0 168 47.5 282.5t153.5 184t278 100t422 30.5h1298q250 0 422 -30.5t278.5 -102t153.5 -186t47 -278.5l1 -176h-1360v66q-1 200 -189 200q-82 0 -135 -41t-53 -106q1 -41 13 -73.5t50.5 -61.5t112 -55.5t196.5 -54.5l590 -148q459 -118 615 -257q160 -135 160 -409v-315z
" />
    <glyph glyph-name="t" unicode="t" horiz-adv-x="2281" 
d="M448 2601l1 725h1356v-725h376v-500h-376v-2101h-1357v2101h-348v500h348z" />
    <glyph glyph-name="u" unicode="u" horiz-adv-x="3316" 
d="M3216 2625v-2625l-2167 2q-470 0 -709.5 186t-239.5 561v1876h1366v-1831q0 -202 190 -202q99 0 144.5 47.5t45.5 154.5v1831h1370z" />
    <glyph glyph-name="v" unicode="v" horiz-adv-x="3213" 
d="M2566 0h-1913l-553 2625h1279l228 -1480l232 1480h1274z" />
    <glyph glyph-name="w" unicode="w" horiz-adv-x="5023" 
d="M1049 2q-470 0 -709.5 186t-239.5 561v1876h1366v-1831q0 -196 179 -202q179 6 179 202v1831h1375v-1831q0 -196 179 -202q179 6 179 202v1831h1366v-2623h-3874z" />
    <glyph glyph-name="x" unicode="x" horiz-adv-x="3615" 
d="M2156 2625h1359l-569 -1284l561 -1341h-1417l-278 1107l-287 -1107h-1417l561 1341l-569 1284h1359l344 -983z" />
    <glyph glyph-name="y" unicode="y" horiz-adv-x="3309" 
d="M1853 2626h1356v-2700q0 -245 -47 -360t-153.5 -186.5t-276.5 -102.5t-420 -31h-2060v500h1273q189 0 259 33t77 209q-307 -4 -508 -4h-307q-471 0 -708.5 196.5t-237.5 569.5v1876h1368l1 -1831q-1 -107 44 -154t152 -47q98 0 143 47t46 154z" />
    <glyph glyph-name="z" unicode="z" horiz-adv-x="2731" 
d="M100 0v479l983 1597h-889v549h2371v-483l-982 -1606h1048v-536h-2531z" />
    <glyph glyph-name="braceleft" unicode="{" horiz-adv-x="2330" 
d="M2229 3468h-123q-123 0 -200 -12.5t-125 -48t-66.5 -98t-18.5 -162.5v-937q0 -137 -30.5 -228.5t-102 -154t-188.5 -98t-289 -60.5q184 -20 297 -60t178 -98q136 -121 135 -379v-918q0 -100 18.5 -160t63.5 -95.5t125 -48t199 -12.5h127v-674h-225q-197 0 -340.5 4
t-254 16.5t-190.5 29t-145 41.5q-164 54 -234 171q-69 121 -69 379v970q0 258 -131 364t-402 102h-139v737h151q259 -4 390 102t131 364l1 1013q-1 137 15.5 229t53 154t94 102t140.5 69q68 25 148 41.5t188.5 29t252.5 16.5t341 4h225z" />
    <glyph glyph-name="bar" unicode="|" horiz-adv-x="986" 
d="M886 4137v-5104h-786v5104h786z" />
    <glyph glyph-name="braceright" unicode="}" horiz-adv-x="2330" 
d="M100 4162h225q197 0 340.5 -4t252 -16.5t188 -29t149.5 -41.5q82 -29 139.5 -69t94 -102t53 -154t16.5 -229v-1013q0 -258 131 -364t390 -102h151l1 -737h-139q-272 4 -403 -102t-131 -364v-970q0 -258 -69 -379q-70 -117 -234 -171q-65 -25 -145 -41.5t-190.5 -29
t-254 -16.5t-340.5 -4h-225v674h127q119 0 199 12.5t125 48t63 95.5t18 160v918q0 258 136 379q65 58 177.5 98t297.5 60q-172 25 -289 60.5t-188.5 98t-102.5 154t-31 228.5v937q0 100 -18 162.5t-65.5 98t-125 48t-200.5 12.5h-123v694z" />
    <glyph glyph-name="asciitilde" unicode="~" horiz-adv-x="2269" 
d="M2169 1548q-478 -306 -1028 -113t-1041 -224v732q514 423 1064 233t1005 105v-733z" />
    <glyph glyph-name="Adieresis" unicode="&#xc4;" horiz-adv-x="3478" 
d="M1618 1454h239l-120 1131zM100 0l635 3326h2008l635 -3326h-1358l-83 721h-403l-79 -721h-1355zM1523 3606h-844v707h844v-707zM2883 3606h-844v707h844v-707z" />
    <glyph glyph-name="Aring" unicode="&#xc5;" horiz-adv-x="3478" 
d="M1738 3950q-78 0 -135 -57q-56 -56 -56 -134q0 -79 56 -135t135 -56t135 56q57 57 57 135t-56 134q-57 57 -136 57zM2106 3326h637l635 -3326h-1358l-83 721h-403l-79 -721h-1355l635 3326h634q-17 15 -33 32q-166 165 -166 401q0 233 165 398q169 169 402 169
q237 0 405 -169q166 -165 166 -398t-169 -402q-16 -16 -33 -31zM1618 1454h239l-120 1131z" />
    <glyph glyph-name="Ccedilla" unicode="&#xc7;" horiz-adv-x="3234" 
d="M1457 2h-549q-421 0 -614.5 172t-193.5 545l1 1860q-1 217 43 368.5t139 245.5t249 137t375 43h1384q236 0 402 -43t255 -133q186 -180 187 -618l-1 -438h-1348v241q0 131 -40.5 186.5t-130.5 55.5q-89 0 -128 -57.5t-39 -184.5l1 -1384q-1 -127 38 -184.5t128 -57.5
q171 0 172 242l-1 385h1348v-664q0 -192 -46.5 -327.5t-147.5 -221.5t-261 -127t-387 -41h-398l-40 -219q139 -15 228 -82q114 -86 134 -210q23 -150 -117 -261q-300 -237 -905 -150l53 207l103 -1q152 0 284 43q84 26 108.5 63t18.5 76q-8 52 -61.5 89t-166.5 37
q-57 0 -158 -17z" />
    <glyph glyph-name="Eacute" unicode="&#xc9;" horiz-adv-x="2857" 
d="M1863 4407l-432 -802h-646l432 802h646zM100 0v3326h2447v-758h-1106v-524h983v-758h-983v-528h1106v-758h-2447z" />
    <glyph glyph-name="Ntilde" unicode="&#xd1;" horiz-adv-x="3619" 
d="M100 0v3326h1471l588 -1372v1372h1360v-3326h-1407l-655 1565v-1565h-1357zM2779 3983q-299 -393 -655 -393q-172 0 -451 131q-124 55 -197 55q-150 0 -354 -198l-282 376q308 336 630 336q183 0 419 -112q153 -74 227 -74q165 0 382 250z" />
    <glyph glyph-name="Odieresis" unicode="&#xd6;" horiz-adv-x="3320" 
d="M1486 2355l1 -1384q-1 -127 39.5 -182.5t132.5 -55.5t133 55.5t42 182.5l-1 1384q0 242 -175 242q-92 0 -132 -57.5t-40 -184.5zM931 -25q-228 0 -386.5 43t-257 139.5t-143 248t-44.5 368.5v1864q1 373 199 540.5t632 167.5h1423q233 0 397 -38.5t268.5 -124.5
t153 -221.5t47.5 -323.5v-1864q0 -442 -191 -622q-92 -91 -262 -134t-413 -43h-1423zM1386 3606h-844v707h844v-707zM2746 3606h-844v707h844v-707z" />
    <glyph glyph-name="Udieresis" unicode="&#xdc;" horiz-adv-x="3322" 
d="M1833 3346h1389l-2 -708v-1864q0 -442 -191 -622q-92 -91 -262.5 -134t-413.5 -43h-1423q-228 0 -386 43t-256.5 139.5t-143 248t-44.5 368.5v2573l830 -1h556l1 -2375q-1 -127 39 -182.5t132 -55.5t133.5 55.5t42.5 182.5zM1419 3606h-844v707h844v-707zM2779 3606h-844
v707h844v-707z" />
    <glyph glyph-name="aacute" unicode="&#xe1;" horiz-adv-x="3309" 
d="M1874 759v406l-184 -62q-132 -45 -182.5 -106.5t-51.5 -180.5v-57q0 -209 205 -209q106 0 159.5 49t53.5 160zM1864 1694l1 230q1 119 -48.5 164t-155.5 45q-107 0 -153.5 -49t-47.5 -160v-86h-1315l1 188q0 169 47 283.5t153 184.5t278 100.5t422 30.5h1262
q250 0 422 -30.5t279 -102.5t153.5 -187t47.5 -279l-1 -2026h-2151q-458 -8 -693.5 182.5t-264.5 711.5q68 777 946 800h818zM2373 3689l-432 -802h-646l432 802h646z" />
    <glyph glyph-name="agrave" unicode="&#xe0;" horiz-adv-x="3309" 
d="M1874 759v406l-184 -62q-132 -45 -182.5 -106.5t-51.5 -180.5v-57q0 -209 205 -209q106 0 159.5 49t53.5 160zM1864 1694l1 230q1 119 -48.5 164t-155.5 45q-107 0 -153.5 -49t-47.5 -160v-86h-1315l1 188q0 169 47 283.5t153 184.5t278 100.5t422 30.5h1262
q250 0 422 -30.5t279 -102.5t153.5 -187t47.5 -279l-1 -2026h-2151q-458 -8 -693.5 182.5t-264.5 711.5q68 777 946 800h818zM1581 3689l432 -802h-646l-432 802h646z" />
    <glyph glyph-name="acircumflex" unicode="&#xe2;" horiz-adv-x="3309" 
d="M1874 759v406l-184 -62q-132 -45 -182.5 -106.5t-51.5 -180.5v-57q0 -209 205 -209q106 0 159.5 49t53.5 160zM1864 1694l1 230q1 119 -48.5 164t-155.5 45q-107 0 -153.5 -49t-47.5 -160v-86h-1315l1 188q0 169 47 283.5t153 184.5t278 100.5t422 30.5h1262
q250 0 422 -30.5t279 -102.5t153.5 -187t47.5 -279l-1 -2026h-2151q-458 -8 -693.5 182.5t-264.5 711.5q68 777 946 800h818zM1846 2889l-191 306l-191 -306h-586l519 808l516 1v-1l519 -808h-586z" />
    <glyph glyph-name="adieresis" unicode="&#xe4;" horiz-adv-x="3309" 
d="M1874 759v406l-184 -62q-132 -45 -182.5 -106.5t-51.5 -180.5v-57q0 -209 205 -209q106 0 159.5 49t53.5 160zM1864 1694l1 230q1 119 -48.5 164t-155.5 45q-107 0 -153.5 -49t-47.5 -160v-86h-1315l1 188q0 169 47 283.5t153 184.5t278 100.5t422 30.5h1262
q250 0 422 -30.5t279 -102.5t153.5 -187t47.5 -279l-1 -2026h-2151q-458 -8 -693.5 182.5t-264.5 711.5q68 777 946 800h818zM1458 2890h-844v707h844v-707zM2818 2890h-844v707h844v-707z" />
    <glyph glyph-name="atilde" unicode="&#xe3;" horiz-adv-x="3309" 
d="M1874 759v406l-184 -62q-132 -45 -182.5 -106.5t-51.5 -180.5v-57q0 -209 205 -209q106 0 159.5 49t53.5 160zM1864 1694l1 230q1 119 -48.5 164t-155.5 45q-107 0 -153.5 -49t-47.5 -160v-86h-1315l1 188q0 169 47 283.5t153 184.5t278 100.5t422 30.5h1262
q250 0 422 -30.5t279 -102.5t153.5 -187t47.5 -279l-1 -2026h-2151q-458 -8 -693.5 182.5t-264.5 711.5q68 777 946 800h818zM2732 3265q-299 -393 -656 -393q-172 0 -450 131q-124 55 -198 55q-149 0 -354 -198l-282 376q309 336 630 336q183 0 420 -112q153 -74 226 -74
q166 0 383 250z" />
    <glyph glyph-name="aring" unicode="&#xe5;" horiz-adv-x="3309" 
d="M1874 759v406l-184 -62q-132 -45 -182.5 -106.5t-51.5 -180.5v-57q0 -209 205 -209q106 0 159.5 49t53.5 160zM1654 3299q-78 0 -136 -57q-55 -56 -55 -134q0 -79 55.5 -135t134.5 -56q80 0 135 56q57 57 57 135t-55 134q-56 57 -136 57zM1954 2625h354q250 0 422 -30.5
t279 -102.5t153.5 -187t47.5 -279l-1 -2026h-2151q-458 -8 -693.5 182.5t-264.5 711.5q68 777 946 800h818l1 230q1 119 -48.5 164t-155.5 45q-107 0 -153.5 -49t-47.5 -160v-86h-1315l1 188q0 169 47 283.5t153 184.5t278 100.5t422 30.5h306q-53 34 -101 82
q-166 165 -166 401q0 233 165 398q169 169 402 169q237 0 405 -169q166 -165 166 -398q1 -233 -168 -402q-47 -47 -101 -81z" />
    <glyph glyph-name="ccedilla" unicode="&#xe7;" 
d="M1455 -8h-458q-250 0 -422 30.5t-276.5 100t-151.5 184t-47 282.5v1431q0 332 197 466q102 66 279 99q85 16 279.5 24t501.5 8h967q250 0 422 -30.5t278.5 -102t153.5 -186t47 -278.5l1 -401h-1376l-1 291q0 200 -188 200q-99 0 -144 -47t-45 -153v-1215q0 -200 189 -200
q98 0 143 47t45 153v421h1376v-527q0 -168 -47 -280.5t-153.5 -184t-278.5 -102t-422 -30.5h-432l-38 -209q139 -15 228 -82q114 -86 134 -210q23 -150 -117 -261q-300 -237 -905 -150l53 207l103 -1q152 0 284 43q84 26 108.5 63t18.5 76q-8 52 -61.5 89t-166.5 37
q-57 0 -158 -17z" />
    <glyph glyph-name="eacute" unicode="&#xe9;" 
d="M3225 589q0 -168 -47 -280.5t-153.5 -184t-278.5 -102t-422 -30.5h-1327q-250 0 -422 30.5t-276.5 100t-151.5 184t-47 282.5v1431q0 168 47 282.5t151.5 184t276.5 100t422 30.5h1327q250 0 422 -30.5t278.5 -102t153.5 -186t47 -278.5v-789h-1753v-536q0 -200 189 -200
q98 0 143 47t45 153v336h1376v-442zM1460 1910l1 -209h405l-1 209q0 221 -204 221q-107 0 -154 -51.5t-47 -169.5zM2381 3688l-432 -802h-646l432 802h646z" />
    <glyph glyph-name="egrave" unicode="&#xe8;" 
d="M3225 589q0 -168 -47 -280.5t-153.5 -184t-278.5 -102t-422 -30.5h-1327q-250 0 -422 30.5t-276.5 100t-151.5 184t-47 282.5v1431q0 168 47 282.5t151.5 184t276.5 100t422 30.5h1327q250 0 422 -30.5t278.5 -102t153.5 -186t47 -278.5v-789h-1753v-536q0 -200 189 -200
q98 0 143 47t45 153v336h1376v-442zM1460 1910l1 -209h405l-1 209q0 221 -204 221q-107 0 -154 -51.5t-47 -169.5zM1557 3688l432 -802h-646l-432 802h646z" />
    <glyph glyph-name="ecircumflex" unicode="&#xea;" 
d="M3225 589q0 -168 -47 -280.5t-153.5 -184t-278.5 -102t-422 -30.5h-1327q-250 0 -422 30.5t-276.5 100t-151.5 184t-47 282.5v1431q0 168 47 282.5t151.5 184t276.5 100t422 30.5h1327q250 0 422 -30.5t278.5 -102t153.5 -186t47 -278.5v-789h-1753v-536q0 -200 189 -200
q98 0 143 47t45 153v336h1376v-442zM1460 1910l1 -209h405l-1 209q0 221 -204 221q-107 0 -154 -51.5t-47 -169.5zM1849 2890l-191 306l-191 -306h-586l519 808l516 1v-1l519 -808h-586z" />
    <glyph glyph-name="edieresis" unicode="&#xeb;" 
d="M3225 589q0 -168 -47 -280.5t-153.5 -184t-278.5 -102t-422 -30.5h-1327q-250 0 -422 30.5t-276.5 100t-151.5 184t-47 282.5v1431q0 168 47 282.5t151.5 184t276.5 100t422 30.5h1327q250 0 422 -30.5t278.5 -102t153.5 -186t47 -278.5v-789h-1753v-536q0 -200 189 -200
q98 0 143 47t45 153v336h1376v-442zM1460 1910l1 -209h405l-1 209q0 221 -204 221q-107 0 -154 -51.5t-47 -169.5zM1413 2890h-844v707h844v-707zM2773 2890h-844v707h844v-707z" />
    <glyph glyph-name="iacute" unicode="&#xed;" horiz-adv-x="1595" 
d="M100 0v2626h1352v-2626h-1352zM1495 3688l-432 -802h-646l432 802h646z" />
    <glyph glyph-name="igrave" unicode="&#xec;" horiz-adv-x="1552" 
d="M100 0v2626h1352v-2626h-1352zM746 3688l432 -802h-646l-432 802h646z" />
    <glyph glyph-name="icircumflex" unicode="&#xee;" horiz-adv-x="1552" 
d="M100 0v2626h1352v-2626h-1352zM978 2889l-191 306l-191 -306h-586l519 808l516 1v-1l519 -808h-586z" />
    <glyph glyph-name="idieresis" unicode="&#xef;" horiz-adv-x="1552" 
d="M100 0v2625h1352v-2625h-1352zM525 2890h-844v707h844v-707zM1885 2890h-844v707h844v-707z" />
    <glyph glyph-name="ntilde" unicode="&#xf1;" horiz-adv-x="3286" 
d="M100 0v2624h2153q458 16 695.5 -178.5t237.5 -566.5v-1879h-1355v1834q0 200 -188 200q-98 0 -143 -47t-45 -153v-1834h-1355zM2593 3269q-299 -393 -656 -393q-172 0 -450 131q-124 55 -198 55q-149 0 -354 -198l-282 376q309 336 630 336q184 0 420 -112
q153 -74 226 -74q166 0 383 250z" />
    <glyph glyph-name="oacute" unicode="&#xf3;" horiz-adv-x="3319" 
d="M1469 1914v-1215q0 -200 188 -200q99 0 143.5 47t44.5 153v1215q0 200 -188 200q-98 0 -143 -47t-45 -153zM100 2024q0 168 47 282.5t151 184t276 100t421 30.5h1325q249 0 420.5 -30.5t278 -102.5t153.5 -186.5t47 -277.5v-1431q0 -168 -47 -280.5t-153.5 -184
t-278 -102t-420.5 -30.5h-1325q-249 0 -421 30.5t-276 100t-151 184t-47 282.5v1431zM2378 3688l-432 -802h-646l432 802h646z" />
    <glyph glyph-name="ograve" unicode="&#xf2;" horiz-adv-x="3319" 
d="M1469 1914v-1215q0 -200 188 -200q99 0 143.5 47t44.5 153v1215q0 200 -188 200q-98 0 -143 -47t-45 -153zM100 2024q0 168 47 282.5t151 184t276 100t421 30.5h1325q249 0 420.5 -30.5t278 -102.5t153.5 -186.5t47 -277.5v-1431q0 -168 -47 -280.5t-153.5 -184
t-278 -102t-420.5 -30.5h-1325q-249 0 -421 30.5t-276 100t-151 184t-47 282.5v1431zM1587 3687l432 -802h-646l-432 802h646z" />
    <glyph glyph-name="ocircumflex" unicode="&#xf4;" horiz-adv-x="3319" 
d="M1469 1914v-1215q0 -200 188 -200q99 0 143.5 47t44.5 153v1215q0 200 -188 200q-98 0 -143 -47t-45 -153zM100 2024q0 168 47 282.5t151 184t276 100t421 30.5h1325q249 0 420.5 -30.5t278 -102.5t153.5 -186.5t47 -277.5v-1431q0 -168 -47 -280.5t-153.5 -184
t-278 -102t-420.5 -30.5h-1325q-249 0 -421 30.5t-276 100t-151 184t-47 282.5v1431zM1870 2890l-191 306l-191 -306h-586l519 808l516 1v-1l519 -808h-586z" />
    <glyph glyph-name="odieresis" unicode="&#xf6;" horiz-adv-x="3319" 
d="M1469 1914v-1215q0 -200 188 -200q99 0 143.5 47t44.5 153v1215q0 200 -188 200q-98 0 -143 -47t-45 -153zM100 2024q0 168 47 282.5t151 184t276 100t421 30.5h1325q249 0 420.5 -30.5t278 -102.5t153.5 -186.5t47 -277.5v-1431q0 -168 -47 -280.5t-153.5 -184
t-278 -102t-420.5 -30.5h-1325q-249 0 -421 30.5t-276 100t-151 184t-47 282.5v1431zM1422 2890h-844v707h844v-707zM2782 2890h-844v707h844v-707z" />
    <glyph glyph-name="otilde" unicode="&#xf5;" horiz-adv-x="3319" 
d="M1469 1914v-1215q0 -200 188 -200q99 0 143.5 47t44.5 153v1215q0 200 -188 200q-98 0 -143 -47t-45 -153zM100 2024q0 168 47 282.5t151 184t276 100t421 30.5h1325q249 0 420.5 -30.5t278 -102.5t153.5 -186.5t47 -277.5v-1431q0 -168 -47 -280.5t-153.5 -184
t-278 -102t-420.5 -30.5h-1325q-249 0 -421 30.5t-276 100t-151 184t-47 282.5v1431zM2672 3265q-299 -393 -655 -393q-172 0 -451 131q-124 55 -197 55q-150 0 -355 -198l-282 376q309 336 631 336q183 0 419 -112q153 -74 227 -74q165 0 382 250z" />
    <glyph glyph-name="uacute" unicode="&#xfa;" horiz-adv-x="3316" 
d="M3216 2625v-2625l-2167 2q-470 0 -709.5 186t-239.5 561v1876h1366v-1831q0 -202 190 -202q99 0 144.5 47.5t45.5 154.5v1831h1370zM2377 3687l-432 -802h-646l432 802h646z" />
    <glyph glyph-name="ugrave" unicode="&#xf9;" horiz-adv-x="3316" 
d="M3216 2625v-2625l-2167 2q-470 0 -709.5 186t-239.5 561v1876h1366v-1831q0 -202 190 -202q99 0 144.5 47.5t45.5 154.5v1831h1370zM1585 3687l432 -802h-646l-432 802h646z" />
    <glyph glyph-name="ucircumflex" unicode="&#xfb;" horiz-adv-x="3316" 
d="M3216 2625v-2625l-2167 2q-470 0 -709.5 186t-239.5 561v1876h1366v-1831q0 -202 190 -202q99 0 144.5 47.5t45.5 154.5v1831h1370zM1869 2890l-191 306l-191 -306h-586l519 808l516 1v-1l519 -808h-586z" />
    <glyph glyph-name="udieresis" unicode="&#xfc;" horiz-adv-x="3316" 
d="M3216 2625v-2625l-2167 2q-470 0 -709.5 186t-239.5 561v1876h1366v-1831q0 -202 190 -202q99 0 144.5 47.5t45.5 154.5v1831h1370zM1407 2890h-844v707h844v-707zM2767 2890h-844v707h844v-707z" />
    <glyph glyph-name="dagger" unicode="&#x2020;" horiz-adv-x="1995" 
d="M1252 2962h643v-508h-643v-2611h-509v2611h-643v508h643l1 643h509z" />
    <glyph glyph-name="degree" unicode="&#xb0;" horiz-adv-x="1338" 
d="M1072 4570q166 -165 166 -398q1 -233 -168 -402q-165 -165 -402 -165q-236 0 -402 165.5t-166 401.5q0 233 165 398q169 169 402 169q237 0 405 -169zM669 4490q-131 0 -225 -95q-94 -93 -94 -223q0 -132 93 -225t225 -93t226 93q93 95 93 225t-91 223q-95 95 -227 95z
" />
    <glyph glyph-name="cent" unicode="&#xa2;" 
d="M1380 2617v269h566v-269h378q250 0 422 -30.5t278.5 -102t153.5 -186t47 -278.5l1 -401h-1376l-1 291q0 200 -188 200q-99 0 -144 -47t-45 -153v-1215q0 -200 189 -200q98 0 143 47t45 153v421h1376v-527q0 -168 -47 -280.5t-153.5 -184t-278.5 -102t-422 -30.5h-378
v-269h-566v269h-383q-250 0 -422 30.5t-276.5 100t-151.5 184t-47 282.5v1431q0 332 197 466q102 66 279 99q85 16 279.5 24t501.5 8h23z" />
    <glyph glyph-name="sterling" unicode="&#xa3;" horiz-adv-x="2978" 
d="M1698 1122q-8 -176 -89 -362l1269 1v-761h-2666l1 756h1l-3 2q178 189 214 364h-325v516h160q-118 249 -155 535h-1v427q0 405 171 565q172 160 616 160h1220q207 0 351 -39t232 -127q89 -87 130 -225q40 -137 40 -334v-569h-1204v390q0 116 -38 166q-37 50 -118 50
q-86 0 -124 -50t-38 -166v-246h1q-8 -157 215 -537h417v-516h-277z" />
    <glyph glyph-name="section" unicode="&#xa7;" horiz-adv-x="2380" 
d="M243 1584q-144 330 46 680q41 59 69 92q-67 77 -115 169q-143 334 46 679q241 376 764 401l1044 -1v-599l-994 -2q-242 -9 -293 -112q-63 -145 301 -229q318 -56 582.5 -162t456.5 -431l14 -53v-3q111 -377 -125 -700q-7 7 7 -9q7 -9 119 -229l-1 -3q116 -387 -112 -728
t-768 -344l-1011 2l1 597h1105q168 31 198 179q26 114 -83 174q-20 14 -43 23h-2l-728 208q-24 3 -187 92.5t-291 308.5zM980 2048l-67 -12v0q-49 -14 -102 -86q-27 -60 5 -122q11 -14 36 -28l30 -9l22 -10l605 -164l15 -3l4 -2q35 33 49 107q27 114 -81 176
q-24 12 -249.5 77.5t-238.5 68.5q-6 4 -21 4z" />
    <glyph glyph-name="bullet" unicode="&#x2022;" horiz-adv-x="995" 
d="M778.5 1978.5q116.5 -116.5 116.5 -281.5q0 -164 -116.5 -280.5t-281.5 -116.5q-164 0 -280.5 116.5t-116.5 280.5q0 165 116.5 281.5t280.5 116.5q165 0 281.5 -116.5z" />
    <glyph glyph-name="paragraph" unicode="&#xb6;" horiz-adv-x="2490" 
d="M1015 -455v1618h-33q-280 0 -545 235q-320 286 -326 738q-11 497 291 797q388 385 1244 385h744v-3773h-501v3352h-374v-3352h-500z" />
    <glyph glyph-name="germandbls" unicode="&#xdf;" horiz-adv-x="3321" 
d="M100 2706q0 302 215 461q206 159 604 159h1487q401 0 608 -159q206 -159 206 -461v-274q0 -254 -124 -411t-409 -254q150 -35 251 -92q100 -56 164 -143q63 -86 91 -213t28 -300l-1 -314q0 -367 -196 -536t-618 -169h-682v751q20 -2 21 -2q84 0 122 55q38 54 38 179v193
q0 234 -219 234v741q55 18 110 56q109 75 109 169q1 90 -47 147q-41 51 -169 60q-140 9 -216 -59q-45 -41 -46 -144v-2378l-1326 1z" />
    <glyph glyph-name="registered" unicode="&#xae;" horiz-adv-x="3206" 
d="M1791.5 1964q-69.5 72 -184.5 72q-147 0 -229 -143.5t-82 -401.5q0 -524 328 -524q237 0 254 286h495q-12 -299 -219 -475t-543 -176q-393 0 -613.5 231.5t-221.5 641.5q0 401 221 646.5t578 245.5q356 0 558.5 -159.5t219.5 -442.5h-484q-8 127 -77.5 199zM2711 1941.5
q-88 217.5 -260 389.5q-352 352 -848 352q-246 0 -461 -86t-378 -258q-172 -176 -264.5 -395.5t-92.5 -456.5q0 -238 90 -455t262 -389q353 -352 844 -352q238 0 457 92t395 264q172 172 258 383t86 457q0 237 -88 454.5zM2184.5 2873.5q274.5 -112.5 487.5 -325.5
q209 -209 321.5 -483.5t112.5 -581.5t-110.5 -575.5t-323.5 -477.5q-221 -221 -499.5 -335.5t-573.5 -114.5q-299 0 -567 112.5t-490 333.5q-221 213 -331.5 485.5t-110.5 571.5q0 307 112.5 579.5t333.5 493.5q209 209 477.5 319.5t575.5 110.5q311 0 585.5 -112.5z" />
    <glyph glyph-name="copyright" unicode="&#xa9;" horiz-adv-x="3206" 
d="M1464 2011v-385h106q238 0 239 197q-1 188 -267 188h-78zM2150 2208q182 -123 182 -357q0 -155 -86 -270t-241 -168l356 -708h-557l-291 622h-49v-622h-512v1626h668q348 0 530 -123zM2711 1941.5q-88 217.5 -260 389.5q-352 352 -848 352q-246 0 -461 -86t-378 -258
q-172 -176 -264.5 -395.5t-92.5 -456.5q0 -238 90 -455t262 -389q353 -352 844 -352q238 0 457 92t395 264q172 172 258 383t86 457q0 237 -88 454.5zM2184.5 2873.5q274.5 -112.5 487.5 -325.5q209 -209 321.5 -483.5t112.5 -581.5t-110.5 -575.5t-323.5 -477.5
q-221 -221 -499.5 -335.5t-573.5 -114.5q-299 0 -567 112.5t-490 333.5q-221 213 -331.5 485.5t-110.5 571.5q0 307 112.5 579.5t333.5 493.5q209 209 477.5 319.5t575.5 110.5q311 0 585.5 -112.5z" />
    <glyph glyph-name="trademark" unicode="&#x2122;" horiz-adv-x="3679" 
d="M428 1996v1027h-328v303h1292v-303h-329v-1027h-635zM2333 1996l-254 732v-732h-607v1330h863l189 -552l188 552h867v-1330h-610v732l-252 -732h-384z" />
    <glyph glyph-name="acute" unicode="&#xb4;" horiz-adv-x="1278" 
d="M1178 4407l-432 -802h-646l432 802h646z" />
    <glyph glyph-name="dieresis" unicode="&#xa8;" horiz-adv-x="2404" 
d="M944 3606h-844v707h844v-707zM2304 3606h-844v707h844v-707z" />
    <glyph glyph-name="AE" unicode="&#xc6;" horiz-adv-x="4731" 
d="M1777 1454h298l6 1123zM2028 0l3 721h-403l-173 -721h-1355l1067 3326h3464v-758h-1317v-364h1193v-758h-1193v-688h1317v-758h-2603z" />
    <glyph glyph-name="Oslash" unicode="&#xd8;" horiz-adv-x="3320" 
d="M1834 1846l-347 -754v-121q-1 -127 39.5 -182.5t132.5 -55.5t133 55.5t42 182.5v875zM2317 3346l144 312h207l-146 -318q127 -9 229 -32q164 -39 268.5 -125t153 -221.5t47.5 -323.5v-1864q0 -442 -191 -622q-92 -91 -262 -134t-413 -43h-1381l-144 -312h-206l145 318
q-125 10 -223 37q-159 43 -257.5 139.5t-143 248t-44.5 368.5v1864q1 373 199 540.5t632 167.5h1386zM1486 1541l347 754v60q0 242 -175 242q-92 0 -132 -57.5t-40 -184.5v-814z" />
    <glyph glyph-name="plusminus" unicode="&#xb1;" horiz-adv-x="2066" 
d="M654 1554h-554v758h554v554h758v-554h554v-758h-554v-425h554v-758h-1866v758h554v425z" />
    <glyph glyph-name="yen" unicode="&#xa5;" horiz-adv-x="3603" 
d="M1097 1297h-368v516h115l-744 1515h1337l364 -799l368 799h1334l-744 -1515h115v-516h-368l-19 -38v-166h387v-516h-387v-575h-1371v575h-387v516h387v166z" />
    <glyph glyph-name="mu" unicode="&#xb5;" horiz-adv-x="3292" 
d="M101 0h-1l1 2605h1378l-2 -1925q11 -27 28 -45q45 -47 143 -47q189 0 189 200l1 1817h1355l-1 -1862q0 -371 -237 -556t-704 -185l-774 -1v-760h-1376v759z" />
    <glyph glyph-name="ae" unicode="&#xe6;" horiz-adv-x="5100" 
d="M1874 759v406l-184 -62q-132 -45 -182.5 -106.5t-51.5 -180.5v-57q0 -209 205 -209q106 0 159.5 49t53.5 160zM3235 1910l1 -209h405l-1 209q0 221 -204 221q-107 0 -154 -51.5t-47 -169.5zM1058 0q-458 -8 -693.5 182.5t-264.5 711.5q16 693 946 800l819 -4v234
q1 119 -48.5 164t-155.5 45q-107 0 -153.5 -49t-47.5 -160v-86h-1315l1 188q0 169 47 283.5t153 184.5t278 100.5t422 30.5h3053q250 -8 422 -38.5t278.5 -102t153.5 -186t47 -278.5v-789h-1753v-536q0 -200 189 -200q98 0 143 47t45 153v336h1376v-442q0 -168 -47 -280.5
t-153.5 -184t-278.5 -97t-422 -25.5z" />
    <glyph glyph-name="oslash" unicode="&#xf8;" 
d="M814 1q-135 7 -239 26q-172 30 -277 100t-152 184.5t-46 282.5v1434q-1 167 46.5 282t152 184.5t276 100.5t421.5 31h1261l201 363h197l-202 -365q167 -6 293 -29q172 -31 278.5 -102.5t153 -186.5t47.5 -278v-1434q-1 -168 -48 -280.5t-153 -184.5t-278 -102.5
t-422 -30.5h-1315l-172 -312h-197zM1848 1524l-377 -686v-138q0 -200 189 -200q98 0 143.5 47t44.5 153v824zM1471 1197l377 685v35q1 201 -187 201q-99 0 -144 -47.5t-46 -153.5v-720z" />
    <glyph glyph-name="questiondown" unicode="&#xbf;" horiz-adv-x="3203" 
d="M908 3326h1330v-823h-1330v823zM1409 1002.5q0 -140.5 39 -198t167 -57.5q90 0 130.5 55.5t40.5 186.5v241h1309l1 -438q-1 -438 -187 -618q-89 -90 -255 -133t-402 -43h-1384q-221 0 -375 43t-249 137t-139 245.5t-43 368.5q0 702 423.5 871t423.5 391v271h1330v-406
q0 -350 -415 -563t-415 -353.5z" />
    <glyph glyph-name="exclamdown" unicode="&#xa1;" horiz-adv-x="1412" 
d="M1312 -2h-1212v2329h1212v-2329zM1312 2503h-1212v823h1212v-823z" />
    <glyph glyph-name="guillemotleft" unicode="&#xab;" horiz-adv-x="2674" 
d="M1461 79l-1361 1168l1361 1315v-674l-640 -625l640 -510v-674zM2574 79l-1361 1168l1361 1315v-674l-641 -625l641 -510v-674z" />
    <glyph glyph-name="guillemotright" unicode="&#xbb;" horiz-adv-x="2674" 
d="M1214 753l640 510l-640 625l-1 674l1362 -1315l-1362 -1168zM101 753l640 510l-640 625l-1 674l1362 -1315l-1362 -1168z" />
    <glyph glyph-name="ellipsis" unicode="&#x2026;" horiz-adv-x="3261" 
d="M944 -3h-844v707h844v-707zM2053 0h-844v707h844v-707zM3161 0h-844v707h844v-707z" />
    <glyph glyph-name="uni00A0" unicode="&#xa0;" horiz-adv-x="200" 
 />
    <glyph glyph-name="Agrave" unicode="&#xc0;" horiz-adv-x="3478" 
d="M100 0l635 3326h2008l635 -3326h-1358l-83 721h-403l-79 -721h-1355zM1667 4404l432 -802h-646l-432 802h646zM1618 1454h239l-120 1131z" />
    <glyph glyph-name="Atilde" unicode="&#xc3;" horiz-adv-x="3478" 
d="M1618 1454h239l-120 1131zM100 0l635 3326h2008l635 -3326h-1358l-83 721h-403l-79 -721h-1355zM2670 3981q-300 -393 -656 -393q-172 0 -451 131q-123 55 -197 55q-150 0 -354 -198l-282 376q308 336 630 336q183 0 419 -112q153 -74 227 -74q165 0 382 250z" />
    <glyph glyph-name="Otilde" unicode="&#xd5;" horiz-adv-x="3320" 
d="M1486 2355l1 -1384q-1 -127 39.5 -182.5t132.5 -55.5t133 55.5t42 182.5l-1 1384q0 242 -175 242q-92 0 -132 -57.5t-40 -184.5zM931 -25q-228 0 -386.5 43t-257 139.5t-143 248t-44.5 368.5v1864q1 373 199 540.5t632 167.5h1423q233 0 397 -38.5t268.5 -124.5
t153 -221.5t47.5 -323.5v-1864q0 -442 -191 -622q-92 -91 -262 -134t-413 -43h-1423zM2659 3981q-299 -393 -656 -393q-172 0 -450 131q-124 55 -198 55q-149 0 -354 -198l-282 376q309 336 630 336q184 0 420 -112q153 -74 226 -74q166 0 383 250z" />
    <glyph glyph-name="OE" unicode="&#x152;" horiz-adv-x="4648" 
d="M1485 2380l1 -1384q-1 -127 39.5 -182.5t132.5 -55.5t133 55.5t42 182.5l-1 1384q0 242 -175 242q-92 0 -132 -57.5t-40 -184.5zM930 0q-228 0 -386.5 43t-257 139.5t-143 248t-44.5 368.5v1819q0 373 198.5 540.5t632.5 167.5h3618l-1 -733h-1316v-364h1192v-758h-1192
v-688h1316l1 -783h-3618z" />
    <glyph glyph-name="oe" unicode="&#x153;" horiz-adv-x="5096" 
d="M1471 1930v-1217q0 -200 189 -200q98 0 143.5 47t44.5 153v1217q1 201 -187 201q-99 0 -144 -47.5t-46 -153.5zM3229 1922v-208h406v208q0 221 -205 221q-106 0 -153 -51t-48 -170zM996 2q-249 7 -421 37.5t-277 100.5t-152 184.5t-46 282.5v1434q-1 167 46.5 282
t152 184.5t276 100.5t421.5 31l3090 -1q258 -8 430 -38.5t278.5 -102t154 -186.5t46.5 -278l1 -789h-1753l-1 -536q1 -201 189 -201q98 0 143 47.5t44 153.5v335h1377l1 -441q0 -168 -47.5 -280.5t-154 -184t-278.5 -102.5t-421 -31z" />
    <glyph glyph-name="endash" unicode="&#x2013;" horiz-adv-x="2397" 
d="M100 2044h2197v-758h-2197v758z" />
    <glyph glyph-name="emdash" unicode="&#x2014;" horiz-adv-x="3172" 
d="M100 2044h2972v-758h-2972v758z" />
    <glyph glyph-name="quotedblleft" unicode="&#x201c;" horiz-adv-x="2402" 
d="M1735 2954h567v-823h-982v823l225 370h403zM515 2954h567v-823h-982v823l225 370h403z" />
    <glyph glyph-name="quotedblright" unicode="&#x201d;" horiz-adv-x="2402" 
d="M667 2501h-567v823h982v-823l-225 -370h-403zM1887 2501h-567v823h982v-823l-225 -370h-403z" />
    <glyph glyph-name="quoteleft" unicode="&#x2018;" horiz-adv-x="1182" 
d="M515 2954h567v-823h-982v823l225 370h403z" />
    <glyph glyph-name="quoteright" unicode="&#x2019;" horiz-adv-x="1182" 
d="M667 2501h-567v823h982v-823l-225 -370h-403z" />
    <glyph glyph-name="divide" unicode="&#xf7;" horiz-adv-x="2066" 
d="M100 2044h1866v-758h-1866v758zM1298 1097q109 -108 109 -261t-111 -264q-109 -109 -264 -109t-263.5 108.5t-108.5 264.5q0 153 109 261q110 111 263 111q155 0 266 -111zM1298 2757q109 -108 109 -261t-111 -264q-109 -109 -264 -109t-263.5 108.5t-108.5 264.5
q0 153 109 261q110 111 263 111q155 0 266 -111z" />
    <glyph glyph-name="ydieresis" unicode="&#xff;" horiz-adv-x="3309" 
d="M1853 2626h1356v-2700q0 -245 -47 -360t-153.5 -186.5t-276.5 -102.5t-420 -31h-2060v500h1273q189 0 259 33t77 209q-307 -4 -508 -4h-307q-471 0 -708.5 196.5t-237.5 569.5v1876h1368l1 -1831q-1 -107 44 -154t152 -47q98 0 143 47t46 154zM1396 2902h-844v707h844
v-707zM2756 2902h-844v707h844v-707z" />
    <glyph glyph-name="Ydieresis" unicode="&#x178;" horiz-adv-x="3603" 
d="M1116 2v1257l-1016 2069h1337l364 -799l368 799h1334l-1016 -2069v-1257h-1371zM1544 3606h-844v708h844v-708zM2904 3606h-844v708h844v-708z" />
    <glyph glyph-name="Euro" unicode="&#x20ac;" horiz-adv-x="2757" 
d="M1622 966v-103q0 -114 37 -163q34 -48 110 -49h888v-655h-1529q-404 0 -574 160q-163 155 -163 550v260h-291v516h291l1 353h-291l-1 516h291v335q0 329 176 482t561 153h1529v-677h-885q-85 0 -118 -50q-32 -48 -31 -166l-1 -77h353l1 -516h-353l-1 -353h353v-516h-353z
" />
    <glyph glyph-name="guilsinglleft" unicode="&#x2039;" horiz-adv-x="1561" 
d="M1461 79l-1361 1168l1361 1315v-674l-640 -625l640 -510v-674z" />
    <glyph glyph-name="guilsinglright" unicode="&#x203a;" horiz-adv-x="1561" 
d="M101 753l640 510l-640 625l-1 674l1362 -1315l-1362 -1168z" />
    <glyph glyph-name="daggerdbl" unicode="&#x2021;" horiz-adv-x="1995" 
d="M742 2454h-643l1 508h643l-1 643h509l1 -643h643l-1 -508h-643v-1460h643v-508h-643l1 -643h-509l-1 643h-643v508h643v1460z" />
    <glyph glyph-name="quotesinglbase" unicode="&#x201a;" horiz-adv-x="1182" 
d="M667 -2h-567v823h982v-823l-225 -370h-403z" />
    <glyph glyph-name="quotedblbase" unicode="&#x201e;" horiz-adv-x="2402" 
d="M667 -2h-567v823h982v-823l-225 -370h-403zM1887 -2h-567v823h982v-823l-225 -370h-403z" />
    <glyph glyph-name="perthousand" unicode="&#x2030;" horiz-adv-x="4832" 
d="M3454 3745l-2950 -3923h-404l2950 3923h404zM629 2060q-180 0 -255 71q-73 70 -73 246v735q0 147 78.5 215t249.5 68h563q93 0 158 -16.5t106 -50.5t60 -88t19 -128v-735q0 -178 -77 -247q-74 -70 -266 -70h-563zM849 2997v-551q0 -50 16 -72t52 -22q37 0 53.5 22
t16.5 72v551q0 96 -70 96q-36 0 -52 -22.5t-16 -73.5zM2489 264q-180 0 -255 71q-73 70 -73 246v735q0 147 78.5 215t249.5 68h563q93 0 158 -16.5t106 -50.5t60 -88t19 -128v-735q0 -178 -77 -247q-74 -70 -266 -70h-563zM2709 1201v-551q0 -50 16 -72t52 -22q37 0 53.5 22
t16.5 72v551q0 96 -70 96q-36 0 -52 -22.5t-16 -73.5zM3826 264q-180 0 -255 71q-73 70 -73 246v735q0 147 78.5 215t249.5 68h563q93 0 158 -16.5t106 -50.5t60 -88t19 -128v-735q0 -178 -77 -247q-74 -70 -266 -70h-563zM4046 1201v-551q0 -50 16 -72t52 -22q37 0 53.5 22
t16.5 72v551q0 96 -70 96q-36 0 -52 -22.5t-16 -73.5z" />
    <glyph glyph-name="Acircumflex" unicode="&#xc2;" horiz-adv-x="3478" 
d="M1620 1454h239l-120 1131zM100 0l635 3326h2008l635 -3326h-1358l-83 721h-403l-79 -721h-1355zM1930 3606l-191 306l-191 -306h-586l519 808l516 1v-1l519 -808h-586z" />
    <glyph glyph-name="Ecircumflex" unicode="&#xca;" horiz-adv-x="2857" 
d="M100 0v3326h2657v-758h-1316v-524h1193v-758h-1193v-528h1316v-758h-2657zM1620 3606l-191 306l-191 -306h-586l519 808l516 1v-1l519 -808h-586z" />
    <glyph glyph-name="Aacute" unicode="&#xc1;" horiz-adv-x="3478" 
d="M100 0l635 3326h2008l635 -3326h-1358l-83 721h-403l-79 -721h-1355zM2457 4403l-432 -802h-646l432 802h646zM1618 1454h239l-120 1131z" />
    <glyph glyph-name="Edieresis" unicode="&#xcb;" horiz-adv-x="2857" 
d="M100 0v3326h2657v-758h-1316v-524h1193v-758h-1193v-528h1316v-758h-2657zM1196 3606h-844v707h844v-707zM2556 3606h-844v707h844v-707z" />
    <glyph glyph-name="Egrave" unicode="&#xc8;" horiz-adv-x="2857" 
d="M100 0v3326h2657v-758h-1316v-524h1193v-758h-1193v-528h1316v-758h-2657zM1356 4403l432 -802h-646l-432 802h646z" />
    <glyph glyph-name="Iacute" unicode="&#xcd;" horiz-adv-x="1594" 
d="M100 0v3326h1352v-3326h-1352zM1494 4403l-432 -802h-646l432 802h646z" />
    <glyph glyph-name="Icircumflex" unicode="&#xce;" horiz-adv-x="1552" 
d="M100 0v3326h1352v-3326h-1352zM992 3606l-191 306l-191 -306h-586l519 808l516 1v-1l519 -808h-586z" />
    <glyph glyph-name="Idieresis" unicode="&#xcf;" horiz-adv-x="1552" 
d="M100 0v3326h1352v-3326h-1352zM543 3606h-844v707h844v-707zM1903 3606h-844v707h844v-707z" />
    <glyph glyph-name="Igrave" unicode="&#xcc;" horiz-adv-x="1595" 
d="M143 0v3326h1352v-3326h-1352zM746 4402l432 -802h-646l-432 802h646z" />
    <glyph glyph-name="Oacute" unicode="&#xd3;" horiz-adv-x="3320" 
d="M1486 2355l1 -1384q-1 -127 39.5 -182.5t132.5 -55.5t133 55.5t42 182.5l-1 1384q0 242 -175 242q-92 0 -132 -57.5t-40 -184.5zM931 -25q-228 0 -386.5 43t-257 139.5t-143 248t-44.5 368.5v1864q1 373 199 540.5t632 167.5h1423q233 0 397 -38.5t268.5 -124.5
t153 -221.5t47.5 -323.5v-1864q0 -442 -191 -622q-92 -91 -262 -134t-413 -43h-1423zM2379 4403l-432 -802h-646l432 802h646z" />
    <glyph glyph-name="Ocircumflex" unicode="&#xd4;" horiz-adv-x="3320" 
d="M1486 2355l1 -1384q-1 -127 39.5 -182.5t132.5 -55.5t133 55.5t42 182.5l-1 1384q0 242 -175 242q-92 0 -132 -57.5t-40 -184.5zM931 -25q-228 0 -386.5 43t-257 139.5t-143 248t-44.5 368.5v1864q1 373 199 540.5t632 167.5h1423q233 0 397 -38.5t268.5 -124.5
t153 -221.5t47.5 -323.5v-1864q0 -442 -191 -622q-92 -91 -262 -134t-413 -43h-1423zM1851 3602l-191 306l-191 -306h-586l519 808l516 1v-1l519 -808h-586z" />
    <glyph glyph-name="Ograve" unicode="&#xd2;" horiz-adv-x="3320" 
d="M1486 2355l1 -1384q-1 -127 39.5 -182.5t132.5 -55.5t133 55.5t42 182.5l-1 1384q0 242 -175 242q-92 0 -132 -57.5t-40 -184.5zM931 -25q-228 0 -386.5 43t-257 139.5t-143 248t-44.5 368.5v1864q1 373 199 540.5t632 167.5h1423q233 0 397 -38.5t268.5 -124.5
t153 -221.5t47.5 -323.5v-1864q0 -442 -191 -622q-92 -91 -262 -134t-413 -43h-1423zM1588 4403l432 -802h-646l-432 802h646z" />
    <glyph glyph-name="Uacute" unicode="&#xda;" horiz-adv-x="3322" 
d="M1833 3346h1389l-2 -708v-1864q0 -442 -191 -622q-92 -91 -262.5 -134t-413.5 -43h-1423q-228 0 -386 43t-256.5 139.5t-143 248t-44.5 368.5v2573l830 -1h556l1 -2375q-1 -127 39 -182.5t132 -55.5t133.5 55.5t42.5 182.5zM2340 4403l-432 -802h-646l432 802h646z" />
    <glyph glyph-name="Ucircumflex" unicode="&#xdb;" horiz-adv-x="3322" 
d="M1833 3346h1389l-2 -708v-1864q0 -442 -191 -622q-92 -91 -262.5 -134t-413.5 -43h-1423q-228 0 -386 43t-256.5 139.5t-143 248t-44.5 368.5v2573l830 -1h556l1 -2375q-1 -127 39 -182.5t132 -55.5t133.5 55.5t42.5 182.5zM1852 3602l-191 306l-191 -306h-586l519 808
l516 1v-1l519 -808h-586z" />
    <glyph glyph-name="Ugrave" unicode="&#xd9;" horiz-adv-x="3322" 
d="M1833 3346h1389l-2 -708v-1864q0 -442 -191 -622q-92 -91 -262.5 -134t-413.5 -43h-1423q-228 0 -386 43t-256.5 139.5t-143 248t-44.5 368.5v2573l830 -1h556l1 -2375q-1 -127 39 -182.5t132 -55.5t133.5 55.5t42.5 182.5zM1548 4403l432 -802h-646l-432 802h646z" />
    <glyph glyph-name="circumflex" unicode="&#x2c6;" horiz-adv-x="1754" 
d="M1068 3605l-191 306l-191 -306h-586l519 808l516 1v-1l519 -808h-586z" />
    <glyph glyph-name="tilde" unicode="&#x2dc;" horiz-adv-x="2139" 
d="M2039 3953q-299 -393 -655 -393q-172 0 -451 131q-124 55 -197 55q-150 0 -354 -198l-282 376q308 336 630 336q183 0 419 -112q153 -74 227 -74q165 0 382 250z" />
    <glyph glyph-name="cedilla" unicode="&#xb8;" horiz-adv-x="1246" 
d="M760 -217q139 -15 228 -82q115 -86 134 -210q24 -150 -117 -261q-299 -237 -905 -150l53 207l103 -1q152 0 285 43q83 26 108 63t18 76q-8 52 -61 89t-166 37q-57 0 -159 -17l101 523h436z" />
    <glyph glyph-name="Scaron" unicode="&#x160;" horiz-adv-x="3345" 
d="M961 -1q-427 0 -644 155t-209 514v583h1406v-226q0 -230 170 -230q90 0 132 57.5t42 192.5q0 75 -8 124.5t-32.5 85.5t-71 63.5t-124.5 55.5l-953 353q-332 123 -446 262q-115 146 -115 388v346q0 297 217 449.5t644 152.5h1415q428 0 644.5 -152.5t216.5 -449.5v-381
h-1397v39q0 219 -179 219q-74 0 -119 -44t-45 -115q0 -36 7.5 -61.5t34 -49.5t74.5 -50t131 -57l1109 -429q105 -43 178 -98.5t119.5 -135t66.5 -190.5t20 -262v-357q-8 -422 -214 -587t-655 -165h-1415zM2453 4414l-519 -808v-1l-516 1l-519 808h586l191 -306l191 306h586z
" />
    <glyph glyph-name="scaron" unicode="&#x161;" 
d="M3225 589q-1 -168 -48 -280.5t-153.5 -184t-278.5 -102t-422 -30.5h-1327q-250 0 -422 30.5t-276.5 100t-151.5 184t-46 282.5l-1 323h1372v-217q0 -200 189 -200q98 0 143.5 47t44.5 153v70q0 176 -314 257l-788 193q-368 94 -495 208.5t-126 351.5l-1 245
q0 168 47.5 282.5t153.5 184t278 100t422 30.5h1298q250 0 422 -30.5t278.5 -102t153.5 -186t47 -278.5l1 -176h-1360v66q-1 200 -189 200q-82 0 -135 -41t-53 -106q1 -41 13 -73.5t50.5 -61.5t112 -55.5t196.5 -54.5l590 -148q459 -118 615 -257q160 -135 160 -409v-315z
M2484 3699l-519 -808v-1l-516 1l-519 808h586l191 -306l191 306h586z" />
    <glyph glyph-name="Zcaron" unicode="&#x17d;" horiz-adv-x="2832" 
d="M2732 3328v-696l-1005 -1872h1005v-758h-2632v713l1001 1855h-912v758h2543zM2193 4414l-519 -808v-1l-516 1l-519 808h586l191 -306l191 306h586z" />
    <glyph glyph-name="zcaron" unicode="&#x17e;" horiz-adv-x="2731" 
d="M100 0v479l983 1597h-889v549h2371v-483l-982 -1606h1048v-536h-2531zM2143 3699l-519 -808v-1l-516 1l-519 808h586l191 -306l191 306h586z" />
    <glyph glyph-name="brokenbar" unicode="&#xa6;" horiz-adv-x="717" 
d="M617 1061v-1828h-517v1828h517zM617 4129v-1828h-517v1828h517z" />
    <glyph glyph-name="Eth" unicode="&#xd0;" horiz-adv-x="3513" 
d="M346 1921l1 1405h2209q231 0 394 -41t266 -127t150.5 -223t46.5 -326v-1806q0 -447 -188 -627q-91 -90 -260.5 -133t-409.5 -43h-2209v1405h-246v516h246zM1697 1921h245v-516h-245v-645h149q113 0 154 51t41 186l1 1332q0 135 -41.5 186t-154.5 51h-149v-645z" />
    <glyph glyph-name="Eth" unicode="&#x110;" horiz-adv-x="3513" 
d="M346 1921l1 1405h2209q231 0 394 -41t266 -127t150.5 -223t46.5 -326v-1806q0 -447 -188 -627q-91 -90 -260.5 -133t-409.5 -43h-2209v1405h-246v516h246zM1697 1921h245v-516h-245v-645h149q113 0 154 51t41 186l1 1332q0 135 -41.5 186t-154.5 51h-149v-645z" />
    <glyph glyph-name="eth" unicode="&#xf0;" horiz-adv-x="3319" 
d="M1469 1918q0 106 45 153t143 47q188 0 188 -200v-1215q0 -106 -45 -153q-44 -47 -143 -47q-188 0 -188 200v1215zM995 2625q-249 0 -421 -30q-172 -31 -276 -101q-104 -69 -151 -184q-47 -114 -47 -282v-1431q0 -168 47 -283q47 -114 151 -184q104 -69 276 -99
q171 -31 421 -31h1325q250 0 420 31q171 30 279 101q106 72 153 184q47 113 47 281v1286q0 469 -380 900.5t-1405 648.5l70 201l-388 111l-90 -257q-128 8 -246 8l-163 -355q115 -7 277 -43l-90 -260l389 -111l85 247q299 -135 473 -348h-756z" />
    <glyph glyph-name="Yacute" unicode="&#xdd;" horiz-adv-x="3603" 
d="M1116 2v1257l-1016 2069h1337l364 -799l368 799h1334l-1016 -2069v-1257h-1371zM2521 4404l-432 -802h-646l432 802h646z" />
    <glyph glyph-name="yacute" unicode="&#xfd;" horiz-adv-x="3309" 
d="M1853 2626h1356v-2700q0 -245 -47 -360t-153.5 -186.5t-276.5 -102.5t-420 -31h-2060v500h1273q189 0 259 33t77 209q-307 -4 -508 -4h-307q-471 0 -708.5 196.5t-237.5 569.5v1876h1368l1 -1831q-1 -107 44 -154t152 -47q98 0 143 47t46 154zM2374 3693l-432 -802h-646
l432 802h646z" />
    <glyph glyph-name="Thorn" unicode="&#xde;" horiz-adv-x="3283" 
d="M1641 2136h-183v-934h177q101 0 145.5 53.5t44.5 184.5v455q0 131 -43 186t-141 55zM100 0v3326l1362 1l-1 -441h859q233 0 396.5 -41t267.5 -127t151.5 -223t47.5 -326v-917q0 -451 -193 -627q-186 -176 -670 -176h-862v-449h-1358z" />
    <glyph glyph-name="thorn" unicode="&#xfe;" 
d="M1472 1935v-1190q0 -195 189 -195q98 0 143 45t45 150v1190q0 195 -188 195q-189 0 -189 -195zM1446 2626h878q250 0 422 -30.5t278.5 -99.5t153.5 -181t47 -274v-1467q0 -158 -47 -270t-153.5 -181t-278.5 -99.5t-422 -30.5h-868v-747h-1356l1 4080h1345v-700z" />
    <glyph glyph-name="multiply" unicode="&#xd7;" horiz-adv-x="2056" 
d="M1028 1129l-392 -392l-536 536l393 392l-393 392l536 536l392 -392l392 392l536 -536l-391 -392l391 -392l-536 -536z" />
    <glyph glyph-name="uni00B9" unicode="&#xb9;" horiz-adv-x="852" 
d="M213 1947v851h-113v480h652v-1331h-539z" />
    <glyph glyph-name="uni00B2" unicode="&#xb2;" horiz-adv-x="1417" 
d="M100 1948v283l628 545q21 21 34.5 46.5t12.5 52.5q0 47 -14.5 69.5t-49.5 22.5q-31 0 -50 -22.5t-18 -58.5v-78h-542v222q0 121 84.5 184.5t247.5 63.5h551q165 0 249.5 -63.5t84.5 -184.5l-1 -225q1 -87 -19.5 -141t-67.5 -94l-375 -323h462v-299h-1217z" />
    <glyph glyph-name="uni00B3" unicode="&#xb3;" horiz-adv-x="1407" 
d="M1307 2235q1 -149 -79 -218t-252 -69h-546q-164 0 -247 65t-83 188l1 231h542l-1 -84q0 -49 15 -72t50 -23q34 0 50 22t15 73l1 79q0 95 -90 95h-117l-1 301h108q99 0 99 92q1 36 -18 60t-48 24q-31 0 -50.5 -23t-18.5 -59l-1 -25h-536l1 133q-1 123 83 188t246 65h546
q163 0 247 -65t85 -188v-87q0 -103 -51 -167t-167 -103q62 -15 102.5 -38t66.5 -58t37 -87t12 -122z" />
    <glyph glyph-name="onehalf" unicode="&#xbd;" horiz-adv-x="3554" 
d="M3454 3745l-2950 -3923h-404l2950 3923h404zM2102 258v283l628 545q21 21 34 46.5t13 52.5q0 47 -14.5 69.5t-49.5 22.5q-31 0 -50 -22.5t-19 -58.5v-78h-542v222q0 121 85 184.5t248 63.5h551q165 0 249 -63.5t84 -184.5v-225q0 -87 -20.5 -141t-67.5 -94l-374 -323h462
v-299h-1217zM788 2019v851h-112v480h652v-1331h-540z" />
    <glyph glyph-name="onequarter" unicode="&#xbc;" horiz-adv-x="3554" 
d="M3454 3745l-2950 -3923h-404l2950 3923h404zM788 2019v851h-112v480h652v-1331h-540zM2334 827h162v359zM2496 265v261h-629v268l366 785h801v-752h177v-301h-177v-261h-538z" />
    <glyph glyph-name="threequarters" unicode="&#xbe;" horiz-adv-x="3554" 
d="M3454 3745l-2950 -3923h-404l2950 3923h404zM2355 827h162v359zM2517 265v261h-629v268l366 785h801v-752h177v-301h-177v-261h-538zM1530 2292q0 -149 -79.5 -218t-251.5 -69h-546q-164 0 -247 65t-83 188v231h542v-84q0 -49 15 -72t50 -23q34 0 49.5 22t15.5 73v79
q0 95 -90 95h-117v301h108q99 0 99 92q0 36 -19 60t-47 24q-31 0 -50.5 -23t-19.5 -59v-25h-536v133q0 123 84 188t246 65h546q163 0 247 -65t84 -188v-87q0 -103 -50.5 -167t-165.5 -103q60 -15 101.5 -38t67 -58t36.5 -87t11 -122v-128z" />
    <glyph glyph-name="macron" unicode="&#xaf;" horiz-adv-x="2066" 
d="M100 4359h1866v-758h-1866v758z" />
    <glyph glyph-name="periodcentered" unicode="&#xb7;" horiz-adv-x="1182" 
d="M1082 2056h-982v-823h982v823z" />
    <glyph glyph-name="Edotaccent" unicode="&#x116;" horiz-adv-x="2647" 
d="M1746 4313h-845v-707h845v707zM100 0v3326h2447v-758h-1106v-524h983v-758h-983v-528h1106v-758h-2447z" />
    <glyph glyph-name="uni013B" unicode="&#x13b;" horiz-adv-x="2369" 
d="M100 0v3326h1342v-2568h827v-758h-2169zM1016 -1219l172 300h-459v667h796v-667l-183 -300h-326z" />
    <glyph glyph-name="uni013C" unicode="&#x13c;" horiz-adv-x="1552" 
d="M100 0v3326h1352v-3326h-1352zM665 -1219l172 300h-459v667h796v-667l-183 -300h-326z" />
    <glyph glyph-name="utilde" unicode="&#x169;" horiz-adv-x="3316" 
d="M3216 2625v-2625l-2167 2q-470 0 -709.5 186t-239.5 561v1876h1366v-1831q0 -202 190 -202q99 0 144.5 47.5t45.5 154.5v1831h1370zM2693 3265q-299 -393 -655 -393q-172 0 -451 131q-124 55 -197 55q-150 0 -354 -198l-282 376q308 336 630 336q183 0 419 -112
q153 -74 227 -74q165 0 382 250z" />
    <glyph glyph-name="tonos" unicode="&#x384;" horiz-adv-x="1278" 
d="M1178 4407l-432 -802h-646l432 802h646z" />
    <glyph glyph-name="currency" unicode="&#xa4;" horiz-adv-x="3103" 
d="M107 373l454 454q-185 262 -185 612q0 355 185 613l-461 460l369 370l462 -459q264 185 634 185q341 0 603 -181l454 452l370 -367l-455 -455q191 -279 192 -618q0 -346 -185 -608l459 -458l-365 -370l-459 457q-269 -190 -628 -190q-340 0 -622 188l-458 -453z
M2106 1439q0 229 -161.5 392.5t-394.5 163.5q-225 0 -387.5 -163t-162.5 -393t163 -393t388 -163q229 0 392 163t163 393z" />
    <glyph glyph-name="ordfeminine" unicode="&#xaa;" horiz-adv-x="2252" 
d="M1271 2206v244l-122 -37q-87 -27 -120.5 -64t-33.5 -108v-35q0 -125 135 -125q70 0 105.5 29.5t35.5 95.5zM1264 2767l1 138q0 72 -32.5 99t-102.5 27t-101 -29.5t-31 -96.5v-51h-868v113q0 101 31 169.5t101 110.5t183.5 60.5t278.5 18.5h833q165 0 278.5 -18.5
t184.5 -61.5t101.5 -112t30.5 -167v-1216h-1420q-302 -5 -457.5 109.5t-174.5 426.5q44 467 624 480h540z" />
    <glyph glyph-name="logicalnot" unicode="&#xac;" horiz-adv-x="2751" 
d="M1900 2094h-1801v698h2551v-1188h-750v490z" />
    <glyph glyph-name="ordmasculine" unicode="&#xba;" horiz-adv-x="1962" 
d="M873 2919v-687q0 -113 107 -113q56 0 81 26.5t25 86.5v687q0 113 -106 113q-56 0 -81.5 -27t-25.5 -86zM100 2981q0 95 26.5 159.5t85.5 104t156 56.5t238 17h748q141 0 238 -17t157 -58t86.5 -105.5t26.5 -156.5v-809q0 -95 -26.5 -158.5t-86.5 -104t-157 -57.5
t-238 -17h-748q-141 0 -238 17t-156 56.5t-85.5 104t-26.5 159.5v809z" />
    <glyph glyph-name="florin" unicode="&#x192;" horiz-adv-x="2633" 
d="M1031 2168h235q104 399 310 607.5t620 208.5q146 0 337 -31l-140 -513q-111 26 -187 26q-140 0 -198.5 -54t-103.5 -244h364l-143 -526h-362l-408 -1475q-85 -310 -193.5 -463.5t-312.5 -239.5t-448 -86q-89 0 -301 21l145 525q141 -20 197 -20q101 0 154 29.5t77 69.5
t60 174l389 1465h-249z" />
  </font>
</defs>
</svg>
