<?xml version="1.0" standalone="no"?>
<!DOCTYPE svg PUBLIC "-//W3C//DTD SVG 1.1//EN" "http://www.w3.org/Graphics/SVG/1.1/DTD/svg11.dtd" >
<svg xmlns="http://www.w3.org/2000/svg" xmlns:xlink="http://www.w3.org/1999/xlink" version="1.1">
<metadata>
Created by FontForge 20170910 at Thu Oct 16 13:53:10 2014
 By Jimmy Wärting
</metadata>
<defs>
<font id="NikeTotal90" horiz-adv-x="369" >
  <font-face 
    font-family="Nike Total 90"
    font-weight="400"
    font-stretch="normal"
    units-per-em="1024"
    panose-1="2 0 5 8 0 0 0 2 0 3"
    ascent="819"
    descent="-205"
    x-height="455"
    cap-height="697"
    bbox="-44 -202 1145 898"
    underline-thickness="0"
    underline-position="0"
    unicode-range="U+0020-017D"
  />
<missing-glyph horiz-adv-x="1195" 
d="M1145 348q0 -228 -159 -389t-386 -161t-388.5 161t-161.5 389q0 227 161.5 388.5t388.5 161.5t386 -161.5t159 -388.5zM124 348q0 -196 137.5 -336t336.5 -140q198 0 338 140t140 336t-140 336t-338 140q-199 0 -336.5 -140t-137.5 -336z" />
    <glyph glyph-name=".notdef" horiz-adv-x="1195" 
d="M1145 348q0 -228 -159 -389t-386 -161t-388.5 161t-161.5 389q0 227 161.5 388.5t388.5 161.5t386 -161.5t159 -388.5zM124 348q0 -196 137.5 -336t336.5 -140q198 0 338 140t140 336t-140 336t-338 140q-199 0 -336.5 -140t-137.5 -336z" />
    <glyph glyph-name="space" unicode=" " horiz-adv-x="165" 
 />
    <glyph glyph-name="numbersign" unicode="#" horiz-adv-x="1195" 
d="M1145 348q0 -228 -159 -389t-386 -161t-388.5 161t-161.5 389q0 227 161.5 388.5t388.5 161.5t386 -161.5t159 -388.5zM124 348q0 -196 137.5 -336t336.5 -140q198 0 338 140t140 336t-140 336t-338 140q-199 0 -336.5 -140t-137.5 -336z" />
    <glyph glyph-name="quotesingle" unicode="'" horiz-adv-x="250" 
d="M200 697l-91 -102h-59l59 102h91z" />
    <glyph glyph-name="hyphen" unicode="-" horiz-adv-x="319" 
d="M50 379h219v-65h-219v65z" />
    <glyph glyph-name="period" unicode="." horiz-adv-x="159" 
d="M109 -2h-59v59l59 1v-60z" />
    <glyph glyph-name="zero" unicode="0" horiz-adv-x="418" 
d="M209 697q63 0 111 -42.5t48 -121.5v-376q0 -74 -48 -116.5t-111 -42.5q-64 0 -111.5 42.5t-47.5 116.5v376q0 79 47.5 121.5t111.5 42.5zM161 141q0 -48 48 -48t48 48v413q0 48 -48 48t-48 -48v-413z" />
    <glyph glyph-name="one" unicode="1" horiz-adv-x="211" 
d="M50 697h111v-699h-111v699z" />
    <glyph glyph-name="two" unicode="2" horiz-adv-x="418" 
d="M357 485q0 -74 -37 -137l-143 -249h191v-101h-318v101l175 301q21 43 21 75v79q0 48 -37 48t-37 -48v-69h-111v48q0 79 45 122q42 39 100 42h6q58 -3 100 -42q45 -43 45 -122v-48z" />
    <glyph glyph-name="three" unicode="3" horiz-adv-x="417" 
d="M61 469v64q0 79 45 122q42 38 99 42h7q57 -4 99 -42q45 -43 45 -122v-69q0 -64 -27 -101q38 -47 38 -111v-95q0 -74 -45.5 -116.5t-113.5 -42.5q-67 0 -112.5 42.5t-45.5 116.5v69h113v-85q0 -48 45 -48q46 0 46 48v122q0 46 -46 47h-36v96h34q38 2 38 48v100
q0 46 -38 48q-34 -4 -34 -48v-85h-111z" />
    <glyph glyph-name="four" unicode="4" horiz-adv-x="418" 
d="M209 114h-158v1h-1v116l143 466h127v-482h48v-101h-48v-116h-111v116zM209 215v201l-64 -201h64z" />
    <glyph glyph-name="five" unicode="5" horiz-adv-x="417" 
d="M215 501q62 -1 107 -42q45 -43 45 -117v-185q0 -74 -45.5 -116.5t-112.5 -42.5q-68 0 -113.5 42.5t-45.5 116.5v85h113v-101q0 -48 46 -48q45 0 45 48v217q0 47 -41 48q-41 -1 -41 -48v-21h-111v360h295v-101h-184v-100q20 5 40 5h3z" />
    <glyph glyph-name="six" unicode="6" horiz-adv-x="417" 
d="M209 -2h-1q-64 0 -111 43t-47 119v111q0 22 3 34l85 392h111l-59 -266q10 1 18 1q65 0 112 -42.5t47 -118.5v-111q0 -76 -47 -119t-111 -43zM208 93q19 0 34 13q14 13 14 36v148q0 23 -14.5 36t-32.5 13q-19 0 -33.5 -13t-14.5 -36v-148q0 -23 15 -36q14 -13 32 -13z" />
    <glyph glyph-name="seven" unicode="7" horiz-adv-x="418" 
d="M331 538q-32 -74 -64 -227.5t-32 -312.5h-111q0 355 133 598h-207v101h318v-85z" />
    <glyph glyph-name="eight" unicode="8" horiz-adv-x="417" 
d="M212 697q57 -4 99 -42q45 -43 45 -122v-69q0 -64 -27 -101q38 -47 38 -111v-95q0 -74 -45.5 -116.5t-112.5 -42.5q-68 0 -113.5 42.5t-45.5 116.5v95q0 64 38 111q-27 37 -27 101v69q0 79 45 122q42 38 99 42h7zM163 263v-122q0 -48 46 -48q45 0 45 48v122q0 46 -45 47
q-46 -1 -46 -47zM173 454q0 -46 38 -48q34 4 34 48v100q0 44 -34 48q-38 -2 -38 -48v-100z" />
    <glyph glyph-name="nine" unicode="9" horiz-adv-x="417" 
d="M208 697h1q64 0 111 -43t47 -119v-111q0 -22 -3 -34l-85 -392h-111l59 266q-10 -1 -18 -1q-65 0 -112 42.5t-47 118.5v111q0 76 47 119t111 43zM209 602q-19 0 -33 -13q-15 -13 -15 -36v-148q0 -23 14.5 -36t32.5 -13q19 0 33.5 13t14.5 36v148q0 23 -14 36
q-15 13 -33 13z" />
    <glyph glyph-name="at" unicode="@" horiz-adv-x="1196" 
d="M782 697q63 0 111 -42.5t48 -121.5v-376q0 -74 -48 -116.5t-111 -42.5q-64 0 -111.5 42.5t-47.5 116.5v376q0 79 47.5 121.5t111.5 42.5zM734 141q0 -48 48 -48t48 48v413q0 48 -48 48t-48 -48v-413zM1145 348q0 -228 -159 -389t-386 -161t-388.5 161t-161.5 389
q0 227 161.5 388.5t388.5 161.5t386 -161.5t159 -388.5zM122 348q0 -196 137.5 -336t336.5 -140q198 0 338 140t140 336t-140 336t-338 140q-199 0 -336.5 -140t-137.5 -336zM412 697h1q64 0 111 -43t47 -119v-111q0 -22 -3 -34l-85 -392h-111l59 266q-10 -1 -18 -1
q-65 0 -112 42.5t-47 118.5v111q0 76 47 119t111 43zM413 602q-19 0 -33 -13q-15 -13 -15 -36v-148q0 -23 14.5 -36t32.5 -13q19 0 33.5 13t14.5 36v148q0 23 -14 36q-15 13 -33 13z" />
    <glyph glyph-name="A" unicode="A" 
d="M226 197l-41 297l-42 -297h83zM235 132h-101l-19 -134h-65l97 699h75l97 -699h-65z" />
    <glyph glyph-name="B" unicode="B" 
d="M185 345h-70v-282h70q28 0 48 20q19 20 20 46v150q-1 26 -20 46q-20 20 -48 20zM50 697h135q54 0 94 -40t40 -93v-86q0 -53 -40 -93q-4 -4 -8 -7l8 -8q40 -40 40 -93v-146q0 -53 -40 -93t-94 -40h-135v699zM115 410h70q28 0 48 20q19 20 20 46v90q-1 26 -20 46
q-20 20 -48 20h-70v-222z" />
    <glyph glyph-name="C" unicode="C" horiz-adv-x="368" 
d="M318 202v-71q0 -53 -40 -93t-94 -40t-94 40t-40 93v433q0 53 40 93t94 40t94 -40t40 -93v-71h-65v73q-1 26 -20 46q-20 20 -49 20q-28 0 -48 -20q-19 -20 -20 -46v-434q0 -28 20 -48.5t48 -20.5q29 0 49 20.5t20 48.5v70h65z" />
    <glyph glyph-name="D" unicode="D" 
d="M253 566q-1 26 -20 46q-20 20 -48 20h-70v-569h70q28 0 48 20q19 20 20 46v437zM185 697q54 0 94 -40t40 -93v-433q0 -53 -40 -93t-94 -40h-135v699h135z" />
    <glyph glyph-name="E" unicode="E" 
d="M319 63v-65h-269v699h269v-65h-204v-222h182v-65h-182v-282h204z" />
    <glyph glyph-name="F" unicode="F" 
d="M115 -2h-65v699h269v-65h-204v-222h182v-65h-182v-347z" />
    <glyph glyph-name="G" unicode="G" horiz-adv-x="368" 
d="M253 18q-31 -20 -69 -20q-54 0 -94 40t-40 93v433q0 53 40 93t94 40t94 -40t40 -93v-71h-65v73q-1 26 -20 46q-20 20 -49 20q-28 0 -48 -20q-19 -20 -20 -46v-434q0 -28 20 -48.5t48 -20.5q29 0 49 20.5t20 48.5v183h-80v65h145v-382h-65v20z" />
    <glyph glyph-name="H" unicode="H" 
d="M109 345v-347h-59v699h59v-287h151v287h59v-699h-59v347h-151z" />
    <glyph glyph-name="I" unicode="I" horiz-adv-x="165" 
d="M50 697h65v-699h-65v699z" />
    <glyph glyph-name="J" unicode="J" horiz-adv-x="368" 
d="M318 697v-566q0 -53 -40 -93t-94 -40t-94 40t-40 93v71h65v-70q0 -28 20 -48.5t49 -20.5q28 0 48 20.5t20 48.5v565h66z" />
    <glyph glyph-name="K" unicode="K" 
d="M115 187v-189h-65v699h65v-334l20 49l39 98l75 187h70l-116 -289l116 -410h-68l-87 311z" />
    <glyph glyph-name="L" unicode="L" 
d="M115 63h204v-65h-269v699h65v-634z" />
    <glyph glyph-name="M" unicode="M" horiz-adv-x="455" 
d="M228 130l96 567h81v-699h-65v406l-69 -406h-87l-69 406v-406h-65v699h81z" />
    <glyph glyph-name="N" unicode="N" 
d="M135 697l119 -490v490h65v-699h-81l-123 508v-508h-65v699h85z" />
    <glyph glyph-name="O" unicode="O" horiz-adv-x="368" 
d="M252 566q-1 26 -20 46q-20 20 -48 20q-29 0 -49 -20q-19 -20 -20 -46v-434q0 -28 20 -48.5t49 -20.5q28 0 48 20.5t20 48.5v434zM318 131q0 -53 -40 -93t-94 -40t-94 40t-40 93v433q0 53 40 93t94 40t94 -40t40 -93v-433z" />
    <glyph glyph-name="P" unicode="P" horiz-adv-x="337" 
d="M287 448q0 -53 -40 -93t-94 -40h-38v-317h-65v699h103q54 0 94 -40t40 -93v-116zM221 566q-1 26 -20 46q-20 20 -48 20h-38v-252h38q28 0 48 20q19 20 20 46v120z" />
    <glyph glyph-name="Q" unicode="Q" 
d="M257 563q0 32 -18.5 53.5t-51.5 21.5q-32 0 -53.5 -21.5t-21.5 -53.5v-431q0 -32 21.5 -53.5t53.5 -21.5q33 0 51.5 21.5t18.5 53.5v431zM279 39l68 -64l-44 -47l-80 76q-18 -6 -39 -6q-54 0 -94 40t-40 93v433q0 53 40 93t94 40t94 -40t40 -93v-433q0 -52 -39 -92z" />
    <glyph glyph-name="R" unicode="R" 
d="M115 632v-252h38q28 0 48 20.5t20 48.5v117q-1 26 -20 46q-20 20 -48 20h-38zM115 315v-317h-65v699h103q54 0 94 -40t40 -93v-116q0 -53 -40 -93q-16 -16 -34 -26l106 -331h-68l-102 317h-34z" />
    <glyph glyph-name="S" unicode="S" 
d="M117 517q5 -25 25 -53q25 -36 75 -76q102 -84 102 -143v-113q0 -59 -40 -96q-38 -35 -87 -38h-8q-54 0 -94 40t-40 93v135h65v-137q1 -26 20 -46q20 -20 49 -20q28 0 48 20q19 20 20 46v94q0 10 -3 20q-16 51 -97 116q-102 80 -102 142v62q0 53 40.5 93.5t94.5 40.5
t94 -40t40 -93v-71h-65v73q-1 26 -20 46q-20 20 -49 20q-28 0 -48 -20q-19 -20 -20 -46v-49z" />
    <glyph glyph-name="T" unicode="T" 
d="M319 697v-65h-102v-634h-65v634h-102v65h269z" />
    <glyph glyph-name="U" unicode="U" horiz-adv-x="368" 
d="M318 697v-566q0 -53 -40 -93t-94 -40t-94 40t-40 93v566h66v-565q0 -28 20 -48.5t48 -20.5q29 0 49 20.5t20 48.5v565h65z" />
    <glyph glyph-name="V" unicode="V" 
d="M142 -2l-92 699h65l70 -522l69 522h65l-92 -699h-85z" />
    <glyph glyph-name="W" unicode="W" horiz-adv-x="595" 
d="M115 697l70 -529l70 529h85l70 -529l70 529h65l-92 -699h-86l-69 528l-70 -528h-86l-92 699h65z" />
    <glyph glyph-name="X" unicode="X" 
d="M252 -2l-67 234l-68 -234h-67l101 351l-100 348h67l67 -231l66 231h67l-100 -348l101 -351h-67z" />
    <glyph glyph-name="Y" unicode="Y" 
d="M319 697l-102 -415v-284h-65v286l-102 413h67l67 -276l68 276h67z" />
    <glyph glyph-name="Z" unicode="Z" 
d="M249 632h-199v65h269v-65l-199 -569h199v-65h-269v65z" />
    <glyph glyph-name="c" unicode="c" horiz-adv-x="309" 
d="M107 106q0 -20 14 -34t33 -14q20 0 34 14t14 34v58h57v-62q0 -43 -31 -73.5t-74 -30.5t-73.5 30.5t-30.5 73.5v249q0 43 30.5 73.5t73.5 30.5t74 -30.5t31 -73.5v-62h-57v58q0 20 -14 34t-34 14q-19 0 -33 -14t-14 -34v-241z" />
    <glyph glyph-name="v" unicode="v" horiz-adv-x="304" 
d="M152 154l43 301h59l-59 -457h-86l-59 457h59z" />
    <glyph glyph-name="Agrave" unicode="&#xc0;" 
d="M143 838l65 -102h-65l-85 102h85zM226 197l-41 297l-42 -297h83zM235 132h-101l-19 -134h-65l97 699h75l97 -699h-65z" />
    <glyph glyph-name="Aacute" unicode="&#xc1;" 
d="M311 838l-85 -102h-65l65 102h85zM226 197l-41 297l-42 -297h83zM235 132h-101l-19 -134h-65l97 699h75l97 -699h-65z" />
    <glyph glyph-name="Acircumflex" unicode="&#xc2;" 
d="M219 838l76 -102h-60l-48 65l-54 -65h-59l76 102h69zM226 197l-41 297l-42 -297h83zM235 132h-101l-19 -134h-65l97 699h75l97 -699h-65z" />
    <glyph glyph-name="Atilde" unicode="&#xc3;" 
d="M226 197l-41 297l-42 -297h83zM235 132h-101l-19 -134h-65l97 699h75l97 -699h-65zM153 820q10 -2 20 -7t21 -13.5t17 -11.5q10 -6 18 -6q4 0 8 2q5 3 9 7t6.5 7.5t6 9t4.5 8.5l35 -26q-13 -20 -20 -27q-25 -27 -53 -27h-2q-23 2 -57 28q-15 12 -26 12q-4 0 -8 -2
q-6 -2 -9.5 -6.5t-9.5 -11.5t-7 -10l-34 23q13 19 17 23q25 28 53 28h11z" />
    <glyph glyph-name="Adieresis" unicode="&#xc4;" 
d="M226 197l-41 297l-42 -297h83zM235 132h-101l-19 -134h-65l97 699h75l97 -699h-65zM169 801v-65h-65v65h65zM264 801v-65h-65v65h65z" />
    <glyph glyph-name="Ccedilla" unicode="&#xc7;" horiz-adv-x="368" 
d="M159 -102q13 -8 28 -8q13 0 23 9q8 8 9 18q-1 11 -9 18q-10 8 -23 8t-25 -6v63q-40 6 -72 38q-40 40 -40 93v433q0 53 40 93t94 40t94 -40t40 -93v-71h-65v73q-1 26 -20 46q-20 20 -49 20q-28 0 -48 -20q-19 -20 -20 -46v-434q0 -28 20 -48.5t48 -20.5q29 0 49 20.5
t20 48.5v70h65v-71q0 -53 -40 -93q-32 -32 -72 -38v-26q20 -4 35 -16q21 -17 22 -41q-1 -24 -22 -41q-22 -18 -54 -18q-31 0 -53 18q-4 3 -7 7l26 21z" />
    <glyph glyph-name="Egrave" unicode="&#xc8;" 
d="M156 838l59 -102h-59l-92 102h92zM319 63v-65h-269v699h269v-65h-204v-222h182v-65h-182v-282h204z" />
    <glyph glyph-name="Eacute" unicode="&#xc9;" 
d="M306 838l-92 -102h-59l59 102h92zM319 63v-65h-269v699h269v-65h-204v-222h182v-65h-182v-282h204z" />
    <glyph glyph-name="Ecircumflex" unicode="&#xca;" 
d="M219 838l76 -102h-60l-48 65l-54 -65h-59l76 102h69zM319 63v-65h-269v699h269v-65h-204v-222h182v-65h-182v-282h204z" />
    <glyph glyph-name="Edieresis" unicode="&#xcb;" 
d="M319 63v-65h-269v699h269v-65h-204v-222h182v-65h-182v-282h204zM169 801v-65h-65v65h65zM264 801v-65h-65v65h65z" />
    <glyph glyph-name="Igrave" unicode="&#xcc;" horiz-adv-x="165" 
d="M50 697h65v-699h-65v699zM41 838l65 -102h-65l-85 102h85z" />
    <glyph glyph-name="Iacute" unicode="&#xcd;" horiz-adv-x="165" 
d="M115 -2h-65v699h65v-699zM209 838l-85 -102h-65l65 102h85z" />
    <glyph glyph-name="Icircumflex" unicode="&#xce;" horiz-adv-x="165" 
d="M115 -2h-65v699h65v-699zM117 838l76 -102h-60l-48 65l-54 -65h-59l76 102h69z" />
    <glyph glyph-name="Idieresis" unicode="&#xcf;" horiz-adv-x="165" 
d="M50 697h65v-699h-65v699zM67 801v-65h-65v65h65zM162 801v-65h-65v65h65z" />
    <glyph glyph-name="Ntilde" unicode="&#xd1;" 
d="M147 820q10 -2 20 -7t21 -13.5t17 -11.5q10 -6 18 -6q4 0 8 2q5 3 9 7t6.5 7.5t6 9t4.5 8.5l35 -26q-13 -20 -20 -27q-25 -27 -53 -27h-2q-23 2 -57 28q-15 12 -26 12q-4 0 -8 -2q-6 -2 -9.5 -6.5t-9.5 -11.5t-7 -10l-34 23q13 19 17 23q25 28 53 28h11zM135 697
l119 -490v490h65v-699h-81l-123 508v-508h-65v699h85z" />
    <glyph glyph-name="Ograve" unicode="&#xd2;" horiz-adv-x="368" 
d="M150 838l64 -102h-64l-86 102h86zM252 566q-1 26 -20 46q-20 20 -48 20q-29 0 -49 -20q-19 -20 -20 -46v-434q0 -28 20 -48.5t49 -20.5q28 0 48 20.5t20 48.5v434zM318 131q0 -53 -40 -93t-94 -40t-94 40t-40 93v433q0 53 40 93t94 40t94 -40t40 -93v-433z" />
    <glyph glyph-name="Oacute" unicode="&#xd3;" horiz-adv-x="368" 
d="M304 838l-86 -102h-64l64 102h86zM252 566q-1 26 -20 46q-20 20 -48 20q-29 0 -49 -20q-19 -20 -20 -46v-434q0 -28 20 -48.5t49 -20.5q28 0 48 20.5t20 48.5v434zM318 131q0 -53 -40 -93t-94 -40t-94 40t-40 93v433q0 53 40 93t94 40t94 -40t40 -93v-433z" />
    <glyph glyph-name="Ocircumflex" unicode="&#xd4;" horiz-adv-x="368" 
d="M218 838l76 -102h-60l-48 65l-54 -65h-59l76 102h69zM252 566q-1 26 -20 46q-20 20 -48 20q-29 0 -49 -20q-19 -20 -20 -46v-434q0 -28 20 -48.5t49 -20.5q28 0 48 20.5t20 48.5v434zM318 131q0 -53 -40 -93t-94 -40t-94 40t-40 93v433q0 53 40 93t94 40t94 -40t40 -93
v-433z" />
    <glyph glyph-name="Otilde" unicode="&#xd5;" horiz-adv-x="368" 
d="M152 820q10 -2 20 -7t21 -13.5t17 -11.5q10 -6 18 -6q4 0 8 2q5 3 9 7t6.5 7.5t6 9t4.5 8.5l35 -26q-13 -20 -20 -27q-25 -27 -53 -27h-2q-23 2 -57 28q-15 12 -26 12q-4 0 -8 -2q-6 -2 -9.5 -6.5t-9.5 -11.5t-7 -10l-34 23q13 19 17 23q25 28 53 28h11zM252 566
q-1 26 -20 46q-20 20 -48 20q-29 0 -49 -20q-19 -20 -20 -46v-434q0 -28 20 -48.5t49 -20.5q28 0 48 20.5t20 48.5v434zM318 131q0 -53 -40 -93t-94 -40t-94 40t-40 93v433q0 53 40 93t94 40t94 -40t40 -93v-433z" />
    <glyph glyph-name="Odieresis" unicode="&#xd6;" horiz-adv-x="368" 
d="M252 566q-1 26 -20 46q-20 20 -48 20q-29 0 -49 -20q-19 -20 -20 -46v-434q0 -28 20 -48.5t49 -20.5q28 0 48 20.5t20 48.5v434zM318 131q0 -53 -40 -93t-94 -40t-94 40t-40 93v433q0 53 40 93t94 40t94 -40t40 -93v-433zM169 801v-65h-65v65h65zM264 801v-65h-65v65h65z
" />
    <glyph glyph-name="Oslash" unicode="&#xd8;" horiz-adv-x="368" 
d="M141 79q18 -16 44 -16q28 0 48 20.5t20 48.5v336zM116 231l112 386q-19 15 -43 15q-29 0 -49 -20q-19 -20 -20 -46v-335zM121 14l-7 -26l-63 18l17 59v1q-18 29 -18 65v433q0 53 40 93t94 40q34 0 63 -16l7 26l63 -18l-17 -59v-1q18 -29 18 -65v-433q0 -53 -40 -93
t-94 -40q-34 0 -63 16z" />
    <glyph glyph-name="Ugrave" unicode="&#xd9;" horiz-adv-x="368" 
d="M149 838l64 -102h-64l-86 102h86zM318 697v-566q0 -53 -40 -93t-94 -40t-94 40t-40 93v566h66v-565q0 -28 20 -48.5t48 -20.5q29 0 49 20.5t20 48.5v565h65z" />
    <glyph glyph-name="Uacute" unicode="&#xda;" horiz-adv-x="368" 
d="M304 838l-86 -102h-64l64 102h86zM318 697v-566q0 -53 -40 -93t-94 -40t-94 40t-40 93v566h66v-565q0 -28 20 -48.5t48 -20.5q29 0 49 20.5t20 48.5v565h65z" />
    <glyph glyph-name="Ucircumflex" unicode="&#xdb;" horiz-adv-x="368" 
d="M218 838l76 -102h-60l-48 65l-54 -65h-59l76 102h69zM318 697v-566q0 -53 -40 -93t-94 -40t-94 40t-40 93v566h66v-565q0 -28 20 -48.5t48 -20.5q29 0 49 20.5t20 48.5v565h65z" />
    <glyph glyph-name="Udieresis" unicode="&#xdc;" horiz-adv-x="368" 
d="M169 801v-65h-65v65h65zM318 697v-566q0 -53 -40 -93t-94 -40t-94 40t-40 93v566h66v-565q0 -28 20 -48.5t48 -20.5q29 0 49 20.5t20 48.5v565h65zM264 801v-65h-65v65h65z" />
    <glyph glyph-name="Yacute" unicode="&#xdd;" 
d="M311 838l-85 -102h-65l65 102h85zM319 697l-102 -415v-284h-65v286l-102 413h67l67 -276l68 276h67z" />
    <glyph glyph-name="eacute" unicode="&#xe9;" 
d="M319 63v-65h-269v699h269v-65h-204v-222h182v-65h-182v-282h204zM63 783l209 66l20 -62l-209 -66z" />
    <glyph glyph-name="Cacute" unicode="&#x106;" horiz-adv-x="368" 
d="M305 838l-86 -102h-64l64 102h86zM318 202v-71q0 -53 -40 -93t-94 -40t-94 40t-40 93v433q0 53 40 93t94 40t94 -40t40 -93v-71h-65v73q-1 26 -20 46q-20 20 -49 20q-28 0 -48 -20q-19 -20 -20 -46v-434q0 -28 20 -48.5t48 -20.5q29 0 49 20.5t20 48.5v70h65z" />
    <glyph glyph-name="Ccaron" unicode="&#x10c;" horiz-adv-x="368" 
d="M136 838l49 -65l48 65h64l-80 -102h-65l-80 102h64zM318 202v-71q0 -53 -40 -93t-94 -40t-94 40t-40 93v433q0 53 40 93t94 40t94 -40t40 -93v-71h-65v73q-1 26 -20 46q-20 20 -49 20q-28 0 -48 -20q-19 -20 -20 -46v-434q0 -28 20 -48.5t48 -20.5q29 0 49 20.5t20 48.5
v70h65z" />
    <glyph glyph-name="Scaron" unicode="&#x160;" 
d="M136 838l49 -65l48 65h64l-80 -102h-65l-80 102h64zM117 517q5 -25 25 -53q25 -36 75 -76q102 -84 102 -143v-113q0 -59 -40 -96q-38 -35 -87 -38h-8q-54 0 -94 40t-40 93v135h65v-137q1 -26 20 -46q20 -20 49 -20q28 0 48 20q19 20 20 46v94q0 10 -3 20q-16 51 -97 116
q-102 80 -102 142v62q0 53 40.5 93.5t94.5 40.5t94 -40t40 -93v-71h-65v73q-1 26 -20 46q-20 20 -49 20q-28 0 -48 -20q-19 -20 -20 -46v-49z" />
    <glyph glyph-name="Zcaron" unicode="&#x17d;" 
d="M136 838l49 -65l48 65h64l-80 -102h-65l-80 102h64zM50 -2v65l199 569h-199v65h269v-65l-199 -569h199v-65h-269z" />
    </font>
</defs>
</svg>
