<?xml version="1.0" standalone="no"?>
<!DOCTYPE svg PUBLIC "-//W3C//DTD SVG 1.1//EN" "http://www.w3.org/Graphics/SVG/1.1/DTD/svg11.dtd" >
<svg xmlns="http://www.w3.org/2000/svg" xmlns:xlink="http://www.w3.org/1999/xlink" version="1.1">
<metadata>
Created by FontForge 20170910 at Wed Jan  9 07:50:33 2019
 By Jimmy Wärting
(c)woodcutter manero MMXIX
</metadata>
<defs>
<font id="MadridGrunge" horiz-adv-x="1014" >
  <font-face 
    font-family="Madrid Grunge"
    font-weight="400"
    font-stretch="normal"
    units-per-em="2048"
    panose-1="2 0 5 0 0 0 0 0 0 0"
    ascent="1638"
    descent="-410"
    x-height="1572"
    cap-height="1576"
    bbox="-10 -395 2745 1700"
    underline-thickness="150"
    underline-position="-292"
    unicode-range="U+001D-F002"
  />
<missing-glyph horiz-adv-x="1024" 
d="M100 0v1434h824v-1434h-824zM150 50h724v1334h-724v-1334zM325 1148q31 28 58 43q53 30 112 30q92 0 148 -47.5t56 -127.5q0 -49 -23 -98.5t-87 -129.5q-63 -80 -99 -132t-36 -99q0 -38 24 -133h-32q-35 97 -35 148q0 76 81.5 218t81.5 217q0 57 -33 90t-91 33
q-38 0 -69 -17q-26 -15 -56 -40v45zM389 334l57 58q11 10 20 10q10 0 22 -11l56 -60q9 -11 9 -20q0 -11 -10 -22l-56 -62q-14 -14 -21 -14q-11 0 -20 10l-61 71q-7 9 -7 18q0 10 11 22z" />
    <glyph glyph-name=".notdef" horiz-adv-x="1024" 
d="M100 0v1434h824v-1434h-824zM150 50h724v1334h-724v-1334zM325 1148q31 28 58 43q53 30 112 30q92 0 148 -47.5t56 -127.5q0 -49 -23 -98.5t-87 -129.5q-63 -80 -99 -132t-36 -99q0 -38 24 -133h-32q-35 97 -35 148q0 76 81.5 218t81.5 217q0 57 -33 90t-91 33
q-38 0 -69 -17q-26 -15 -56 -40v45zM389 334l57 58q11 10 20 10q10 0 22 -11l56 -60q9 -11 9 -20q0 -11 -10 -22l-56 -62q-14 -14 -21 -14q-11 0 -20 10l-61 71q-7 9 -7 18q0 10 11 22z" />
    <glyph glyph-name=".null" horiz-adv-x="0" 
 />
    <glyph glyph-name=".null" horiz-adv-x="0" 
 />
    <glyph glyph-name="nonmarkingreturn" horiz-adv-x="508" 
 />
    <glyph glyph-name="space" unicode=" " horiz-adv-x="584" 
 />
    <glyph glyph-name="space" unicode="&#xa0;" horiz-adv-x="584" 
 />
    <glyph glyph-name="exclam" unicode="!" horiz-adv-x="564" 
d="M218 1576q58 -8 60 -8q7 0 44 8q52 -8 76 -8q4 0 64 8q54 0 56 -68v-32q-8 -68 -8 -76v-80l-16 -156q4 -64 4 -76q-8 -46 -24 -296v-60q0 -13 -12 -88v-124q0 -144 -72 -144h-188q-96 0 -96 60v100q0 37 4 104q-11 0 -32 340q0 71 -4 84q4 21 4 48v20q-20 91 -20 264
q-7 0 -8 60v72q0 48 120 48h48zM130 356h240q112 0 112 -48v-4q0 -52 4 -80q-4 -44 -4 -80q0 -15 4 -100q0 -35 -68 -40h-28q-22 0 -60 8q-26 -8 -216 -12q-36 15 -36 52v252q0 52 52 52z" />
    <glyph glyph-name="quotedbl" unicode="&#x22;" horiz-adv-x="729" 
d="M189 1638h8q95 0 120 -36q20 -37 20 -44q-4 -40 -4 -60q12 -36 12 -60v-32q0 -28 -28 -96q-31 -112 -124 -168q-51 -28 -84 -28q-34 0 -72 84q7 48 40 48h8l28 -8v8q0 60 -56 60q-20 22 -20 48q0 127 12 184q-4 34 -4 56q0 40 108 40q0 4 36 4zM421 1630q6 0 56 -4
q136 4 152 4q56 -6 56 -48v-20q0 -47 8 -64l-20 -68v-4q0 -13 8 -56q-66 -196 -104 -196q-39 -32 -56 -32q-27 4 -44 4q-20 -30 -40 -40h-24q-24 13 -24 44v52q0 23 44 68v16q-44 31 -44 112q4 74 4 108q-4 80 -4 88q8 25 32 36z" />
    <glyph glyph-name="numbersign" unicode="#" horiz-adv-x="2807" 
d="M1667 1663q278 -7 278 -29q67 -38 67 -127v-42q0 -97 -42 -114q-6 0 -12 -12q54 -31 54 -97v-139q-8 -10 -8 -17q8 -14 8 -25v-38q-6 -21 -54 -21h-93q-30 0 -30 29v9q0 24 5 29q-5 23 -5 38v17q0 17 5 46l-5 9q9 17 9 29q-11 76 -25 76h-5q-8 0 -12 -51q4 -28 4 -46
q0 -46 -9 -114q9 -52 9 -59q-15 -12 -30 -12l-25 4l-21 -4l-29 4q-26 -4 -64 -4q-19 8 -21 17v54q0 10 5 17q-5 8 -5 17q0 22 5 38q-5 23 -5 38l5 25q-5 17 -5 30l5 8l-5 9q0 5 5 42q-5 37 -5 46q3 25 9 25q-9 17 -9 47v126l5 25q-5 7 -5 21v55q0 16 51 21zM75 1659h59
q22 0 38 -4q22 4 42 4h30q63 0 63 -51l25 -160h4q21 207 38 207q36 4 59 4h30q44 0 134 -4l5 -9l-5 -29q5 -23 5 -38l-5 -9q5 -4 9 -63q0 -42 -26 -71l22 -34q-5 -30 -5 -34q5 -50 9 -55l-9 -67q0 -2 5 -17q0 -14 -9 -67q9 -14 9 -25v-17q0 -4 -5 -4q9 -19 9 -55v-4
q0 -49 -21 -55l-55 12q-24 -8 -80 -12q-17 17 -17 50q0 16 4 38q-4 22 -4 42q8 27 8 43l-4 8q0 4 4 4q-4 29 -4 89h-4q-11 -127 -42 -127q17 -25 17 -38q0 -109 -42 -109h-68q-33 0 -33 67q-13 49 -26 169q38 14 38 21q-8 4 -12 4l-21 -4l-9 12v9q0 14 72 38l8 12h-4
q-93 -8 -93 -38q0 -8 -8 -8h-4q-12 0 -26 8q-89 -33 -96 -33q-19 21 -22 33q5 21 9 21q-9 19 -9 55v13q0 7 13 38q-7 0 -13 21q0 9 5 17q-5 59 -5 101v76q3 25 13 25zM757 1659h26q29 0 33 -4q29 4 47 4h122q14 0 38 -207l63 -408q-10 -42 -42 -42h-131q-21 0 -21 109
q-15 9 -34 9q-13 0 -16 -93q-32 -25 -51 -25h-131q-10 0 -12 17q11 139 34 139q-9 15 -9 38q51 436 63 459zM1271 1659l21 -4l25 4l59 -9l21 5q106 -19 106 -43q33 0 50 -105q-8 -25 -12 -25q12 -23 12 -38q0 -14 -4 -21q4 -30 4 -51q0 -54 -4 -117q4 -29 4 -47
q-4 -37 -8 -46l4 -25v-5q0 -130 -156 -130h-240q-12 2 -12 34v143q0 8 12 33q-12 22 -12 43v155q0 49 8 68q-8 19 -8 54v93q0 23 16 30h9q42 0 105 4zM2088 1659h30q24 0 42 -17q11 0 59 17h21q21 -8 21 -47q0 -63 -9 -63l5 -8q4 -80 4 -135q0 -34 -9 -34q5 -6 9 -42l-4 -8
q4 -29 8 -38q0 -106 -55 -147v-5q15 0 34 17h4q6 0 13 -12v-13q0 -36 -4 -114q-14 -8 -26 -8h-33q-18 0 -47 17q-23 -13 -59 -17q-21 7 -21 21q0 29 4 29q-4 50 -4 72v303q1 42 9 42q-9 19 -9 55v105q0 23 17 30zM2463 1659l21 -4l25 4l59 -9l21 5q105 -19 105 -43
q34 0 51 -105q-8 -25 -13 -25q13 -23 13 -38q0 -14 -4 -21q4 -30 4 -51q0 -54 -4 -117q4 -29 4 -47q-4 -37 -8 -46l4 -25v-5q0 -130 -156 -130h-240q-13 2 -13 34v143q0 8 13 33q-13 22 -13 43v155q0 49 9 68q-9 19 -9 54v93q0 23 17 30h9q42 0 105 4zM1806 1528l-4 -8v-38
q0 -4 -5 -4l9 -34l-4 -25v-13h21q7 0 17 30q-5 28 -5 46v34q0 9 -29 12zM1334 1524q0 -13 -8 -34q4 -57 4 -84q0 -23 -4 -59q4 -26 4 -63q0 -21 -8 -21q8 -17 8 -46v-72q0 -6 13 -13q14 0 25 76q-4 23 -4 34q0 21 29 46v4q-25 0 -33 17l4 21q0 33 -4 59q4 24 4 68v4
q0 11 46 17q8 0 34 -9q21 6 21 13q0 8 -9 8h-21q-17 0 -46 -4q-16 0 -42 38h-13zM2526 1524q0 -13 -8 -34q4 -57 4 -84q0 -23 -4 -59q4 -26 4 -63q0 -21 -9 -21q9 -17 9 -46v-72q0 -6 12 -13q15 0 26 76q-5 23 -5 34q0 21 30 46v4q-25 0 -34 17l4 21q0 33 -4 59q4 24 4 68v4
q0 11 47 17q8 0 34 -9q21 6 21 13q0 8 -9 8h-21q-17 0 -46 -4q-16 0 -42 38h-13zM2155 1507v-8h17v12q-7 -4 -17 -4zM753 1436q4 0 4 -5q18 6 26 21h-9q-19 -8 -21 -16zM429 1372v-33h4q0 18 34 38v12q-4 0 -4 4q-34 -14 -34 -21zM867 1393q-13 -82 -17 -138l13 -9h8
q6 0 13 13q-13 111 -13 134h-4zM324 1330h4q25 5 25 13h-4q-25 -3 -25 -13zM176 1276q51 -12 51 -34l4 -30q-4 -57 -4 -71q8 -62 8 -93q0 -37 -21 -46h-8q-30 0 -34 4q-29 -4 -46 -4h-47q-6 0 -17 17v206q0 18 114 51zM1275 1259v-9h5q8 0 8 9h-13zM2467 1259v-9h4q9 0 9 9
h-13zM273 800q156 -8 194 -114q4 -7 4 -21v-8q0 -10 -4 -17q12 -21 12 -34v-46q0 -22 -12 -26h-72q-20 0 -42 5q-16 -5 -38 -5h-8q-21 0 -21 106v12q0 21 -17 26l-21 -59q0 -11 8 -38q-3 -17 -8 -17l4 -9v-21q0 -4 -4 -4q8 -16 8 -50q0 -25 -4 -101l4 -9q-3 -17 -8 -17
q12 -109 25 -109h4q21 0 21 109q0 19 -33 42v55q0 4 4 4l-4 9v17q0 6 12 12h9q14 0 21 -4l17 4q80 -2 80 -12q9 4 63 8l12 -17v-126q0 -23 -4 -59q4 -5 4 -30q0 -4 -4 -4l4 -21v-4q0 -17 -4 -34q4 -16 4 -33q-5 -30 -16 -30h-97q-21 12 -21 25q-50 -42 -97 -42q-17 7 -17 13
l-8 -4h-22q-56 0 -117 88q-17 51 -17 131v33q0 45 4 64q-4 32 -4 71v55q0 169 84 210q70 26 122 26zM2126 800q156 -8 194 -114q4 -7 4 -21v-8q0 -10 -4 -17q12 -21 12 -34v-46q0 -22 -12 -26h-72q-20 0 -42 5q-16 -5 -38 -5h-8q-21 0 -21 106v12q0 21 -17 26l-21 -59
q0 -11 8 -38q-3 -17 -8 -17l4 -9v-21q0 -4 -4 -4q8 -16 8 -50q0 -25 -4 -101l4 -9q-3 -17 -8 -17q12 -109 25 -109h4q21 0 21 109q0 19 -33 42v55q0 4 4 4l-4 9v17q0 6 12 12h9q14 0 21 -4l16 4q81 -2 81 -12q8 4 63 8l12 -17v-126q0 -23 -4 -59q4 -5 4 -30q0 -4 -4 -4
l4 -21v-4q0 -17 -4 -34q4 -16 4 -33q-5 -30 -17 -30h-96q-21 12 -21 25q-50 -42 -97 -42q-17 7 -17 13l-9 -4h-21q-56 0 -118 88q-16 51 -16 131v33q0 45 4 64q-4 32 -4 71v55q0 169 84 210q70 26 122 26zM1027 783h92q59 0 59 -17v-118q0 -43 -12 -109q12 -28 12 -38v-42
q0 -14 -4 -21l4 -26v-4q0 -58 -4 -152q8 -19 17 -21h4q13 5 13 26v67q0 36 8 55q-8 136 -8 227l4 9q-4 8 -8 46q4 52 4 101q9 17 21 17q23 0 46 -4q41 4 80 4h21q7 0 17 -17v-38l-8 -29q8 -27 8 -34l-4 -59l4 -42q0 -3 -4 -55q4 -101 8 -122q-5 -126 -21 -135l5 -21v-8
q0 -50 -97 -97q-52 -13 -114 -13q-80 10 -147 63q-34 53 -34 139q8 14 8 21q-8 14 -8 26v130q0 31 4 47q-4 27 -4 54v173q6 17 38 17zM597 774q278 -7 278 -29q68 -37 68 -126v-42q0 -98 -42 -114q-7 0 -13 -13q55 -30 55 -97v-139q-9 -10 -9 -16q9 -14 9 -26v-38
q-7 -21 -55 -21h-93q-29 0 -29 30v8q0 24 4 30q-4 22 -4 38v16q0 18 4 47l-4 8q8 17 8 30q-11 75 -25 75h-4q-9 0 -13 -50q4 -29 4 -46q0 -47 -8 -114q8 -53 8 -59q-15 -13 -29 -13l-25 4l-22 -4l-29 4q-26 -4 -63 -4q-19 8 -21 17v55q0 9 4 17q-4 7 -4 17q0 22 4 37
q-4 23 -4 38l4 26q-4 16 -4 29l4 9l-4 8q4 37 4 42q-4 37 -4 46q3 26 8 26q-8 16 -8 46v126l4 26q-4 7 -4 21v54q0 16 50 21zM1469 770h13q26 0 63 -4l21 4q14 -8 25 -8l9 4q24 0 54 -131q30 -71 34 -71l4 8v51q0 40 -4 97q0 42 42 42q0 8 34 8q7 0 25 -8q17 8 30 8
q33 -5 33 -17v-33q0 -23 -4 -38l4 -30q-4 -101 -8 -101q8 -15 8 -38q0 -63 -8 -118l8 -50q-4 -69 -4 -135l4 -17q-6 0 -17 -17q6 0 17 -21v-29q-4 -13 -25 -13h-118q-34 0 -46 85q-35 122 -47 122v-51q0 -4 -4 -4l4 -9v-80l-4 -25q4 -7 4 -21v-4q-4 -13 -25 -13h-122
q-6 0 -13 13v632q0 6 13 12zM2417 770h261q29 0 29 -38v-80q0 -22 -13 -25h-75q-27 0 -47 -50h5q21 0 21 -59l29 4q56 0 72 -17l-5 -25q5 -40 5 -76q0 -23 -30 -25l-38 4q-38 -4 -38 -17v-97q2 -8 9 -8h80q38 0 38 -30l-4 -25q4 -16 4 -34q0 -9 -4 -17q4 -7 4 -16v-9
q0 -6 -17 -17q-30 0 -34 4q-70 -4 -109 -4h-139q-7 0 -17 17v42q0 14 4 21l-4 26v88q0 14 4 21l-4 25v59q0 29 4 51q-4 20 -4 55q0 37 4 50q-4 40 -4 76v101q3 25 13 25zM1734 741v-9q7 -19 26 -29h4v12q-11 19 -30 26zM197 707v-8h4v8h-4zM2050 707v-8h4v8h-4zM1747 678
v-13h4v13h-4zM736 640l-4 -9v-38q0 -4 -4 -4l8 -34l-4 -25v-12h21q7 0 17 29q-4 29 -4 46v34q0 10 -30 13zM1751 635l-4 -21v-8q0 -6 13 -13h4q11 0 17 34v4q-13 0 -30 4zM1764 568v-8q0 -8 21 -55q-6 0 -17 -21h4q30 0 30 29v13l-21 21q4 8 4 13q-14 8 -21 8zM1494 467v-8
l9 4h21v12q0 9 -9 9q-19 -8 -21 -17zM345 446v-8h4q8 0 8 8v8h-4q-8 -1 -8 -8zM2198 446v-8h4q8 0 8 8v8h-4q-8 -1 -8 -8zM1503 416v-8q1 -8 8 -8q9 0 9 8v8h-17zM1768 387q4 -23 4 -34q-8 -13 -8 -25q15 -25 21 -25q0 4 4 4l-4 51v29h-17zM1680 374q1 -8 8 -8q0 4 4 4
q-4 8 -4 13q-8 -2 -8 -9zM1557 256v-4q5 -8 5 -12h4v12zM441 -30h34q73 0 83 -89v-8q0 -8 -4 -26l4 -10l-4 -14l2 -12l-4 -14q6 -2 6 -12q0 -8 -2 -8l2 -14v-26q0 -44 -34 -71q-10 -6 -16 -6h-2l-4 2q0 -14 -39 -14q-23 0 -50 12q-19 0 -30 44v12q-4 0 -14 6l2 11
q-4 51 -4 62q5 4 8 4q4 -2 6 -2q10 35 10 38l-2 12q4 8 4 14q-12 5 -12 8v4l8 10l-2 10l6 19v2q-14 4 -14 8v2q13 9 14 24q7 10 16 12q3 -2 8 -2q7 12 24 12zM648 -30h33q74 0 84 -89v-8q0 -8 -4 -26l4 -10l-4 -14l2 -12l-4 -14q6 -2 6 -12q0 -8 -2 -8l2 -14v-26
q0 -44 -34 -71q-10 -6 -16 -6h-2l-4 2q0 -14 -40 -14q-22 0 -49 12q-19 0 -30 44v12q-4 0 -14 6l2 11q-4 51 -4 62q5 4 8 4q4 -2 6 -2q10 35 10 38l-2 12q4 8 4 14q-12 5 -12 8v4q0 1 8 10l-2 10l6 19v2q-14 4 -14 8v2q12 9 14 24q7 10 16 12q3 -2 8 -2q7 12 24 12z
M1101 -30h10q79 0 99 -52q4 -18 4 -29l-2 -4q4 -10 4 -18l-2 -10q2 -11 2 -20q0 -10 -6 -12h-15q-21 0 -64 2l-4 6v2q0 15 2 28q-2 10 -2 20q0 1 2 12q0 15 -14 15q-8 -8 -8 -33l2 -12l-2 -12q0 -5 2 -16l-2 -14q2 -25 2 -26q0 -5 -4 -26l4 -22l-2 -12q2 -29 8 -29h6
q6 2 6 12v55q0 8 28 8h48q10 0 13 -8v-2q0 -17 -2 -53q-15 -11 -15 -16q4 -13 4 -16q0 -17 -64 -40h-18q-64 0 -82 30q-21 16 -21 91q4 16 6 16q-4 6 -6 40q2 19 2 36v28q0 58 71 79q3 2 10 2zM2599 -30h12q72 0 91 -34q8 -23 8 -51v-14q0 -3 -6 -6h-73q-2 0 -6 6l2 20v14
q0 2 -6 5q-12 -4 -12 -19q0 -31 49 -50q56 -32 56 -84q2 -17 2 -28q0 -56 -38 -67q-16 -14 -43 -14h-10q-12 0 -12 8q2 10 14 10v2q0 4 -4 4q-19 -22 -24 -22q-30 0 -60 34q-12 20 -12 53v26q6 10 14 10q7 0 42 -2q1 0 12 2q16 -4 16 -8v-43q1 -12 6 -12h6q8 3 8 14v13
q0 28 -46 50q-58 39 -58 70q-2 2 -4 32q7 81 76 81zM1262 -36h44q28 0 28 -8v-55q0 -21 -6 -52q6 -13 6 -18v-20q0 -7 -2 -10l2 -12v-2q0 -27 -2 -71q4 -9 8 -10h2q6 2 6 12v31q0 17 4 26q-4 65 -4 108l2 4q-2 4 -4 22q2 24 2 47q4 8 10 8q11 0 22 -2q19 2 37 2h10q3 0 8 -8
v-18l-4 -14q4 -12 4 -15l-2 -28l2 -20q0 -1 -2 -26q2 -48 4 -58q-2 -59 -10 -63l2 -10v-4q0 -24 -45 -46q-25 -6 -54 -6q-38 4 -70 30q-16 24 -16 65q4 7 4 10q-4 7 -4 12v62q0 15 2 22q-2 13 -2 26v81q3 8 18 8zM93 -40q28 0 28 -24l7 -99q-1 -8 -4 -8l2 -4v-2q0 -5 -3 -12
q2 0 5 -2q4 8 8 24l-2 10q10 115 20 115q9 0 12 2q72 0 72 -12q2 -11 2 -16l-2 -8q7 -12 14 -107h2q10 139 26 139l10 -2q13 4 23 4h18q2 0 2 -2l4 2h6q14 0 14 -12q-26 -240 -36 -240l4 -8q0 -50 -12 -50h-15q-12 0 -12 10h-4q0 -5 -2 -8q-2 0 -6 2q-25 -4 -42 -4h-6
q-18 0 -22 50q0 8 -10 67h-2q-5 -45 -12 -47q2 -15 2 -16q0 -52 -22 -52q-13 -2 -22 -2h-57q-18 0 -18 50q-8 46 -14 123q-7 28 -16 133q7 4 12 4h18q12 0 30 2zM2056 -40q131 -3 131 -14q32 -17 32 -59v-20q0 -46 -20 -54q-3 0 -6 -6q26 -14 26 -46v-65q-4 -5 -4 -8
q4 -7 4 -12v-18q-3 -10 -26 -10h-44q-14 0 -14 14v4q0 11 2 14q-2 11 -2 18v8q0 8 2 22l-2 3q4 8 4 14q-5 36 -12 36h-2q-4 0 -6 -24q2 -13 2 -22q0 -22 -4 -53q4 -25 4 -28q-7 -6 -13 -6l-12 2l-10 -2l-14 2q-12 -2 -30 -2q-9 4 -10 8v26q0 4 2 8q-2 3 -2 8q0 10 2 18
q-2 10 -2 17l2 12q-2 8 -2 14l2 4l-2 4q0 3 2 20q-2 18 -2 22q1 12 4 12q-4 8 -4 22v60l2 11q-2 4 -2 10v26q0 8 24 10zM854 -42l10 -2l12 2l28 -4l10 2q50 -9 50 -20q16 0 24 -49q-4 -12 -6 -12q6 -11 6 -18t-2 -10q2 -14 2 -24q0 -26 -2 -56q2 -13 2 -22q-2 -17 -4 -21
l2 -12v-2q0 -62 -74 -62h-113q-6 1 -6 16v67q0 4 6 16q-6 11 -6 20v74q0 23 4 32q-4 9 -4 26v43q0 11 8 14h4q20 0 49 2zM1465 -42h18q14 0 24 -2q10 2 24 2h2q11 0 14 -2q10 2 18 2h57q16 0 16 -36v-2l-4 -13l2 -12q-5 -4 -6 -4h-24q-20 0 -20 -16l2 -20q-2 -8 -8 -8
q-3 2 -6 2v-4l14 -10v-2q0 -7 -2 -18q2 -3 2 -8q-4 -6 -4 -12q4 0 4 -4q-2 -20 -2 -24q2 -22 4 -22l-2 -10q0 -12 2 -29l-2 -12l2 -10q-2 -11 -2 -20l2 -4q0 -12 -14 -12h-63q-14 0 -14 18v50q0 23 4 31q-2 3 -4 22q0 12 2 14q-2 26 -2 42v60q0 4 -4 4h-36q-3 0 -8 8v6
q0 4 2 7l-2 4q2 21 2 32v6q2 6 12 6zM1660 -42h18q13 0 24 -2q10 2 24 2h2q11 0 14 -2q10 2 17 2h58q16 0 16 -36v-2q-4 -12 -4 -13l2 -12l-6 -4h-24q-20 0 -20 -16l2 -20q-2 -8 -8 -8q-3 2 -6 2v-4l14 -10v-2q0 -7 -2 -18q2 -3 2 -8q-4 -6 -4 -12q4 0 4 -4q0 -3 -2 -24
q1 -22 4 -22l-2 -10q0 -12 2 -29l-2 -12l2 -10q-2 -11 -2 -20l2 -4q0 -12 -14 -12h-63q-14 0 -14 18v50q0 23 4 31q-2 3 -4 22q0 12 2 14q-2 26 -2 42v60q0 4 -4 4h-36q-3 0 -8 8v6q0 4 2 7l-2 4q2 21 2 32v6q2 6 12 6zM1861 -42h123q14 0 14 -18v-37q0 -11 -6 -12h-36
q-12 0 -22 -24h2q10 0 10 -28l14 2q27 0 34 -8l-2 -12q2 -19 2 -36q0 -11 -14 -12l-18 2q-18 -2 -18 -8v-45q1 -4 4 -4h38q18 0 18 -14l-2 -12q2 -8 2 -16q0 -5 -2 -8q2 -4 2 -8v-4q0 -3 -8 -8q-14 0 -16 2q-33 -2 -51 -2h-66q-3 0 -8 8v20q0 6 2 10l-2 12v41q0 7 2 10
l-2 12v28q0 14 2 24q-2 10 -2 26q0 18 2 24q-2 19 -2 36v47q1 12 6 12zM2362 -42h123q14 0 14 -18v-37q0 -11 -6 -12h-35q-13 0 -22 -24h2q10 0 10 -28l14 2q26 0 33 -8l-2 -12q2 -19 2 -36q0 -11 -14 -12l-17 2q-18 -2 -18 -8v-45q0 -4 4 -4h37q18 0 18 -14l-2 -12
q2 -8 2 -16q0 -5 -2 -8q2 -4 2 -8v-4q0 -3 -8 -8q-14 0 -16 2q-33 -2 -51 -2h-66q-3 0 -8 8v20q0 6 2 10l-2 12v41q0 7 2 10l-2 12v28q0 14 2 24q-2 10 -2 26q0 18 2 24q-2 19 -2 36v47q1 12 6 12zM415 -58v-4q1 -4 4 -4v8h-4zM622 -58v-4q0 -4 4 -4v8h-4zM419 -78l-2 -4v-8
h2q4 0 4 4v4q0 4 -4 4zM626 -78l-2 -4v-8h2q4 0 4 4v4q0 4 -4 4zM377 -88h2q6 0 6 -7q-6 -10 -6 -12q2 -4 2 -6l-4 -2h-4q-4 0 -4 4v6q0 15 8 17zM451 -115l4 -36l-6 -28q4 -13 4 -18v-12q0 -11 -2 -28l2 -4q0 -2 -2 -2q2 -11 2 -16q0 -12 -4 -29q13 -4 18 -4q0 12 10 23v2
q-8 8 -8 22q0 17 2 36q-2 13 -2 28q0 2 2 6l-2 12q0 7 2 10l-2 14q0 5 2 30q-3 19 -8 19h-2q-4 0 -10 -25zM584 -88h2q6 0 6 -7q-6 -10 -6 -12q2 -4 2 -6l-4 -2h-4q-4 0 -4 4v6q0 15 8 17zM658 -115l4 -36l-6 -28q4 -13 4 -18v-12q0 -11 -2 -28l2 -4q0 -2 -2 -2q2 -11 2 -16
q0 -12 -4 -29q12 -4 17 -4q0 12 10 23v2q-8 8 -8 22q0 17 2 36q-2 13 -2 28q0 2 2 6l-2 12q0 7 2 10l-2 14q0 5 2 30q-2 19 -8 19h-2q-3 0 -9 -25zM2121 -103l-2 -4v-18q0 -2 -2 -2l4 -16l-2 -12v-6h10q4 0 8 14q-2 13 -2 22v16q0 4 -14 6zM884 -105q0 -6 -4 -16
q2 -27 2 -40q0 -11 -2 -28q2 -12 2 -30q0 -10 -4 -10q4 -8 4 -22v-33q0 -3 6 -6q7 0 12 35q-2 11 -2 16q0 10 14 22v2q-12 0 -16 8l2 10q0 16 -2 28q2 11 2 32v2q0 5 22 8q4 0 16 -4q10 2 10 6t-4 4h-10q-8 0 -22 -2q-7 0 -20 18h-6zM492 -147v-4q4 0 4 4v4q-4 -1 -4 -4z
M699 -147v-4q4 0 4 4v4q-4 -1 -4 -4zM1561 -211v-2h8q3 0 3 4v2h-7q-4 0 -4 -4zM1755 -211v-2h8q4 0 4 4v2h-8q-4 0 -4 -4zM421 -223q0 -3 8 -6v2q0 4 -4 4h-4zM628 -223q0 -3 8 -6v2q0 4 -4 4h-4zM856 -231v-4h2q4 0 4 4h-6zM399 -272v-2h4q12 0 18 33v2h-4q-3 0 -12 -28
q-3 0 -6 -5zM606 -272v-2h4q12 0 18 33v2h-4q-4 0 -12 -28q-3 0 -6 -5zM381 -251q-4 -4 -4 -8q2 -3 2 -6h2q4 0 4 4v6q0 4 -4 4zM588 -251q-4 -4 -4 -8q2 -3 2 -6h2q4 0 4 4v6q0 4 -4 4zM2257 -282q11 0 14 -2q10 2 18 2h21q8 -3 8 -18v-2q0 -48 -8 -48q-18 0 -51 -2
q-8 3 -8 6v58q0 2 6 6zM485 -288v-8l3 -2v2q-2 3 -2 8h-1zM691 -288v-8l4 -2v2q-2 3 -2 8h-2zM488 -322v-2q4 -8 12 -8v4q0 3 -6 6h-6zM695 -322v-2q4 -8 12 -8v4q0 3 -6 6h-6z" />
    <glyph glyph-name="dollar" unicode="$" horiz-adv-x="1097" 
d="M498 1616h12q36 0 68 -8l40 8q44 0 44 -72t84 -72q28 -21 96 -44q44 -35 44 -56q0 -10 -8 -40q4 -16 16 -16q24 16 36 16h12q48 -33 48 -132q16 -25 16 -48v-100q0 -64 -80 -64q-78 0 -128 28q-73 -24 -88 -24q-112 0 -112 44q-16 87 -20 160q-23 20 -40 20h-4
q-39 0 -52 -76q17 -128 52 -128q17 -17 236 -152q63 -88 100 -88q89 0 164 -200q0 -23 16 -84q-5 -25 -24 -44v-8q28 -28 28 -44v-92q0 -13 -28 -56q-19 -148 -48 -148q-67 -121 -272 -180q-52 0 -52 -56q8 -42 8 -64q-15 -32 -40 -32q-20 0 -60 4q-57 -8 -64 -8
q-60 5 -60 48v60q0 49 -72 64q-61 37 -128 52q-16 9 -52 52q-44 0 -108 140q0 31 -16 92v44q0 22 4 56q-8 21 -8 32q0 17 88 80q15 8 32 8h4q6 0 12 -12v-12l-8 -28h4q15 8 32 8h12q20 -10 20 -32v-20q-7 -16 -48 -32q4 -40 4 -60v-28l16 -24v-20q-36 -31 -36 -48v-4
q0 -6 12 -12h4q29 8 32 8h8q18 0 44 -24h8q8 26 8 36q-7 63 -64 116v8q0 11 44 88v12q0 10 -12 48v4q0 38 56 44h8q88 -6 88 -64q52 -40 52 -68v-4q0 -34 -8 -52l16 -84q-4 -41 -4 -64q0 -7 8 -20q48 31 100 48v8q-8 45 -8 68l4 24q-17 181 -44 184q-44 30 -44 76h-28
l-76 36q-26 0 -96 64q-134 61 -176 164q0 8 -32 76v8q12 24 28 24v12q0 4 -8 32v32l-28 -4h-12q-20 9 -20 40v24q0 16 12 68l-4 48q0 67 76 172l20 4h8q24 -14 24 -36v-40q0 -5 -8 -44v-4q1 -8 8 -8q32 16 44 40q0 10 -20 120q0 32 56 44q0 33 156 56q16 0 20 104
q27 28 56 28zM222 72q4 -8 4 -12h8q56 7 56 44l-8 4q-60 -14 -60 -36z" />
    <glyph glyph-name="percent" unicode="%" horiz-adv-x="1610" 
 />
    <glyph glyph-name="ampersand" unicode="&#x26;" horiz-adv-x="1311" 
d="M514 1558h9q53 0 108 -5q24 5 46 5q12 -1 63 -41q52 0 91 -27q85 0 135 -163l-18 -45q0 -22 50 -41l5 -23q0 -52 -55 -86q41 -17 41 -63v-50q0 -64 -100 -172q0 -71 59 -104q33 -85 77 -118h9q15 0 154 91l28 4h9q45 0 45 -68q0 -20 4 -195q0 -38 -95 -117v-14
q109 -203 109 -231v-23q-18 -36 -63 -36h-227q-163 0 -163 50l-27 23h-9q-231 -109 -362 -109q-239 0 -363 208q-54 117 -54 172q0 10 9 68q-9 58 -9 68q36 177 63 177q33 59 127 118v13q-127 163 -127 290v54q0 117 77 177q0 71 59 109q131 95 209 95q54 9 86 9zM871 1309
v-9q7 0 14 13v5h-5q-9 -2 -9 -9zM523 1227q0 -119 54 -140h5q56 64 67 154q10 0 10 22l-14 14q-9 -4 -14 -4q-15 0 -77 4q-31 -12 -31 -50zM849 1209q27 -37 27 -54t-23 -64q5 -13 9 -13l82 54q-33 24 -59 82l-23 4zM518 525q-36 -41 -36 -77v-31q10 -77 72 -77q68 12 68 36
q-68 149 -104 149z" />
    <glyph glyph-name="quotesingle" unicode="'" horiz-adv-x="388" 
d="M159 1663h48q136 -5 136 -32q8 -15 8 -32q-8 -55 -8 -60q8 -57 8 -80v-20q0 -150 -148 -272q-69 -36 -92 -36q-39 0 -52 112q32 53 32 64v8q-48 40 -48 64v72q0 47 28 108q-28 51 -28 60q0 44 116 44z" />
    <glyph glyph-name="parenleft" unicode="(" horiz-adv-x="635" 
d="M338 1568q64 -16 64 -68q40 -31 40 -56q-4 -22 -4 -32q0 -18 28 -32q13 4 16 16q-13 69 -24 104q-8 15 -48 32v12q8 15 24 20q57 -28 60 -28h4l48 12q34 0 48 -160q0 -60 -56 -60q-43 8 -56 8q-38 -37 -44 -56q0 -20 8 -124l-28 -152q-16 -14 -16 -32q40 -17 40 -72
q0 -24 -16 -68v-4q20 -24 20 -48v-48q-24 -59 -24 -64v-8q24 -37 24 -52q-4 -50 -4 -52q0 -22 4 -44q-4 -65 -4 -128v-64q0 -57 72 -84q0 -4 4 -4h40q36 0 36 -68v-12q-5 -144 -32 -144q-15 -8 -32 -8l-80 12l-64 -4l-28 4q-21 -4 -48 -4q-117 16 -168 52q-92 67 -92 224
v768q0 25 12 64q-12 55 -12 80v40q0 132 36 168q0 8 4 8l-4 8v28q0 71 144 108q35 0 108 12z" />
    <glyph glyph-name="parenright" unicode=")" horiz-adv-x="613" 
d="M258 1564q51 0 88 -48h8q38 24 48 24q72 -16 72 -68q0 -2 -4 -16q6 -16 12 -16l40 4q35 -41 48 -136v-60l-12 -44q12 -42 12 -52v-184q8 -90 8 -96q0 -15 -8 -84q8 -57 8 -80v-16q0 -20 -24 -96q12 -44 12 -68q0 -44 -44 -60v-8q4 0 12 -4l8 4q22 -4 32 -20
q-4 -47 -4 -68v-80q0 -58 -44 -132q-1 -25 -44 -76q0 -44 -52 -44h-36q-11 0 -60 -36l-24 -4h-88q-18 0 -120 12l-24 -4q-48 16 -48 60v12q0 19 52 96q0 49 52 68l20 4h8q34 0 56 -48h32q8 -1 8 -8v-4q0 -6 -12 -12h-4l-20 4l-20 -28v-8q22 4 32 4q19 0 32 -48h8q16 4 16 40
q0 16 -24 48l4 40v24q0 40 -64 108q-24 0 -24 168v12q0 81 4 132q-4 48 -4 144v28q0 18 16 80q-16 49 -16 60v12q0 100 40 100q27 4 44 4h12v4q0 20 -68 24q-19 13 -24 36q4 22 4 36v8q-23 103 -40 104q-8 0 -44 56q-4 0 -12 4q-4 0 -32 -24h-12q-16 0 -16 48v32q0 13 20 60
v4q0 10 -8 40q0 32 96 32h116zM274 808v-8q0 -6 12 -12q8 0 8 8v12q0 8 -8 8h-4q-8 -1 -8 -8zM318 760q0 -48 56 -100q0 -12 8 -12h12q0 4 4 12q-59 93 -72 100h-8zM430 340h-4l-24 4q-24 -6 -24 -24q6 -16 12 -16h4q66 22 68 32v12q-4 0 -32 -8zM402 116v-4l4 -8
q20 5 20 12v8l-4 8q-18 -8 -20 -16z" />
    <glyph glyph-name="asterisk" unicode="*" horiz-adv-x="601" 
d="M330 1656q56 -12 56 -84q0 -52 40 -52h4q52 12 56 12h16q48 0 64 -104q0 -33 -100 -76l-4 -8v-4q0 -11 40 -72q8 -15 8 -32q-65 -84 -112 -84q-8 0 -84 80h-16l-76 -84h-20q-31 0 -100 76q0 4 -4 12q0 23 52 96v16q0 8 -96 52l-8 28v4q0 83 64 108h16q14 0 76 -20
q20 3 20 24v36q0 72 48 72q20 0 60 4z" />
    <glyph glyph-name="plus" unicode="+" horiz-adv-x="1063" 
d="M497 1264l24 -4l28 4q112 0 112 -56v-12q-24 -51 -24 -56v-4q28 -64 28 -68q0 -15 -12 -116q0 -34 148 -64q92 32 104 32h52q56 -5 56 -48v-28q8 -68 8 -76v-32q0 -96 -64 -96h-24q-14 0 -68 8q-8 0 -48 -8q-55 4 -68 4l-20 -4q-39 8 -44 8l-56 -32q-52 -4 -52 -12v-8
l8 -48q0 -8 -28 -56v-12h16q39 44 60 44q24 0 32 -40l-8 -52q4 -38 4 -72v-16q-5 -36 -36 -36h-4q-20 0 -48 36h-12q-7 0 -24 -8l-44 20q-57 -36 -72 -36q-28 0 -32 44v188q0 66 96 80l40 -12v4q-25 44 -48 44q-10 0 -48 -40h-12q-22 0 -104 52h-8q-97 -40 -148 -40h-48
q-72 0 -72 64q12 51 12 76v80q0 68 60 68q36 -8 48 -8l64 4q30 -8 56 -8h84q32 0 40 44q-4 41 -4 64q0 7 8 24q-8 30 -8 36q0 18 40 28l4 8q0 13 -20 40v16q25 88 76 88zM525 732q0 -19 60 -40q1 8 8 8q0 68 -40 68q-16 0 -28 -36z" />
    <glyph glyph-name="comma" unicode="," horiz-adv-x="557" 
d="M349 323h16q44 0 44 -32q0 -27 -52 -40h-16l-68 24q-28 -57 -28 -80q32 -62 32 -68v-40q0 -49 100 -76q12 -20 12 -40v-20q0 -35 -100 -116q-65 -40 -112 -40q-36 0 -40 48v16q0 68 40 108v8q-40 23 -40 60v124q0 23 56 68q0 44 68 56h12q0 24 76 40zM401 175h4
q28 0 28 -84v-16q-10 -24 -32 -24h-16q-40 31 -40 60q20 64 56 64z" />
    <glyph glyph-name="hyphen" unicode="-" horiz-adv-x="1049" 
d="M119 843q71 -8 88 -8h28q23 0 80 8q51 -8 64 -8t116 4q27 -11 48 -32h4q10 36 80 36q71 -8 88 -8h16q11 0 108 8h36q83 0 112 -84q20 -14 20 -44v-100q0 -48 -64 -48q-9 0 -44 -4q-48 4 -72 4q-6 0 -48 -4q-41 20 -96 20h-16q-45 -16 -64 -16q-16 0 -64 40h-24
q-34 -34 -60 -44q-40 4 -60 4h-32q-52 0 -72 -8l-132 16l-56 -12h-28q-32 15 -32 52v156q0 72 68 72h8zM839 675l-4 -8q1 -8 8 -8h4q8 0 8 8v4q-14 4 -16 4z" />
    <glyph glyph-name="hyphen" unicode="&#xad;" horiz-adv-x="1049" 
d="M119 843q71 -8 88 -8h28q23 0 80 8q51 -8 64 -8t116 4q27 -11 48 -32h4q10 36 80 36q71 -8 88 -8h16q11 0 108 8h36q83 0 112 -84q20 -14 20 -44v-100q0 -48 -64 -48q-9 0 -44 -4q-48 4 -72 4q-6 0 -48 -4q-41 20 -96 20h-16q-45 -16 -64 -16q-16 0 -64 40h-24
q-34 -34 -60 -44q-40 4 -60 4h-32q-52 0 -72 -8l-132 16l-56 -12h-28q-32 15 -32 52v156q0 72 68 72h8zM839 675l-4 -8q1 -8 8 -8h4q8 0 8 8v4q-14 4 -16 4z" />
    <glyph glyph-name="period" unicode="." horiz-adv-x="557" 
d="M154 356h8q11 0 56 -16q45 16 56 16h132q44 0 44 -96q-4 -116 -4 -192q0 -60 -52 -60h-112q-90 -8 -96 -8h-4q-72 0 -72 56v244q6 56 44 56z" />
    <glyph glyph-name="slash" unicode="/" horiz-adv-x="824" 
d="M532 1644q71 -4 116 -4h28q32 0 76 4q56 -5 56 -40v-4q-36 -74 -48 -148q-8 -64 -56 -204q-20 -32 -44 -32h-24l-4 -20v-12q0 -14 4 -36q-4 -21 -20 -44v-8q28 -17 28 -52q0 -17 -52 -180q-56 -216 -80 -216q0 -9 -4 -16l4 -24q0 -22 -20 -32q-35 4 -44 4l-4 -8v-8
q27 0 36 -40v-4q0 -65 -120 -472q-29 -40 -72 -40h-84q-23 0 -80 -8q-100 7 -100 36q-4 7 -4 16q76 280 136 468q20 108 68 108l4 8v12q-12 37 -12 52q37 172 64 172q43 0 56 52v4q0 9 -12 52q4 50 4 52q-8 32 -8 48q0 27 80 252q0 57 80 288q19 19 52 24zM504 900l-4 -20
v-16l4 -28h8l4 40q0 21 -12 24z" />
    <glyph glyph-name="zero" unicode="0" horiz-adv-x="1086" 
d="M468 1624h88q60 0 60 -100q1 -8 8 -8q7 7 16 68q20 24 40 24h12q116 -22 196 -100q51 -29 96 -124q28 -72 40 -184v-68q0 -3 -8 -80q16 -49 16 -60t-12 -48l4 -28q-4 -127 -12 -172q12 -68 12 -188v-68q0 -3 -8 -80l4 -16q-8 -91 -52 -200q-29 -54 -100 -108
q-92 -80 -220 -80q-27 4 -36 8q-34 -12 -48 -12h-28q-26 0 -52 4l-24 -4q-38 0 -120 32q-38 0 -64 32q-46 0 -116 80q-44 56 -68 156q-15 0 -24 92v24q0 22 12 64q-20 66 -20 96l12 92q-8 26 -8 32q4 96 12 112q-8 20 -8 60q0 20 32 56q0 11 -36 60v20l20 108q-4 41 -4 64v4
q0 9 4 16q-4 4 -8 52q57 280 172 280q36 56 96 56q66 36 124 36zM484 1540q4 -8 4 -12h12l-4 20h-4q-8 -1 -8 -8zM464 1348q28 -47 28 -56v-12q0 -18 -40 -64v-12q44 -33 44 -76q-8 -40 -8 -72v-32q0 -22 -20 -32h-4q-28 8 -32 8h-4v-16q0 -36 -56 -36v-28q0 -13 12 -28
q24 8 84 16q24 -8 24 -32q0 -25 -4 -60q8 -42 8 -52q-4 -33 -16 -60q20 -116 20 -224q0 -37 -4 -68q0 -144 48 -144q0 -3 16 -8q20 0 32 72v76q16 116 16 136v24q16 45 16 56q-24 49 -24 100q7 36 12 36l-4 20v168l-16 108q8 46 8 64v92q0 104 -44 132q-23 9 -56 36h-4
q-32 -4 -32 -32zM384 1120l-8 -12q1 -8 8 -8q8 0 8 8v4q0 8 -8 8zM920 640q12 -68 24 -68q12 4 12 24v4q-13 48 -28 48q-8 -1 -8 -8zM308 408v-4q0 -6 12 -12q15 8 32 8h8l48 -16q32 11 32 20v4l-4 20h-4q-14 0 -36 -4q-35 28 -48 28q-40 -15 -40 -44z" />
    <glyph glyph-name="one" unicode="1" horiz-adv-x="784" 
d="M508 1576h20q60 0 108 -40q40 32 56 32q32 0 32 -68v-136q-5 -148 -36 -148h-4l-24 4q-24 0 -44 -36v-16q1 -8 8 -8h4q8 0 48 24h16q32 -16 32 -84v-348q0 -93 -8 -192q4 -28 4 -48l-12 -28q7 0 12 -120q-36 -42 -36 -56q0 -6 32 -72q0 -2 -4 -16q4 -55 4 -68
q-8 -40 -8 -48q12 -42 12 -60q0 -44 -140 -44h-4q-38 4 -72 4q-3 0 -24 -4q-42 20 -52 20q-69 -20 -80 -20q-51 0 -60 72l16 84q-8 38 -8 60q0 7 40 52q-44 74 -44 96l-4 24q8 59 8 88v92q0 6 -8 112q8 85 8 100v144q-8 168 -56 168q-48 12 -88 12h-76q-56 0 -56 84v72
q0 88 84 88q137 42 272 132q63 96 132 96zM356 1004l-4 -8v-8q0 -9 32 -60q0 -48 36 -48q0 4 4 4q0 10 -32 44q0 76 -36 76zM576 860l36 -40v-8l-4 -16q4 -8 4 -12h12l8 64q-10 32 -36 32q-11 0 -20 -20zM452 588q19 -24 40 -24h4l4 20q0 25 -32 28q-16 -4 -16 -24zM588 556
q0 -8 -36 -68v-4q23 -76 28 -76h4q36 33 36 56q-20 14 -20 44v40q0 8 -8 8h-4z" />
    <glyph glyph-name="two" unicode="2" 
d="M432 1604h92q211 -23 268 -68q119 -68 176 -260q8 -45 8 -64v-32q0 -134 -80 -284q-36 -100 -92 -164q0 -24 -248 -392v-12q0 -8 52 -28q0 -7 24 -16q44 16 84 24q80 -13 116 -48h4q27 36 44 36h4q56 0 56 -120v-36q0 -136 -44 -136h-140q-40 0 -72 24h-8
q-32 -24 -52 -24q-4 0 -52 16q-20 -12 -32 -12h-36q-4 0 -4 4q-39 -12 -52 -12h-88q-13 0 -88 12h-48q-22 0 -56 -4q-40 12 -48 12q-2 0 -52 -4q-28 12 -28 40v16q0 31 48 92q3 16 8 16q0 6 -36 36v12q40 31 40 116q9 22 68 72q22 32 56 140q63 95 132 212q18 13 92 136
q20 80 92 152v40q0 21 28 64q4 16 4 32v8q-12 120 -56 120q-76 0 -76 -104q-10 -69 -28 -108q16 -24 16 -36v-20q0 -44 -100 -44h-8l-56 4q-60 -8 -100 -8h-40q-84 0 -84 64v120q0 278 256 392z" />
    <glyph glyph-name="three" unicode="3" horiz-adv-x="1060" 
d="M438 1624h12q43 0 60 -4q31 4 68 4h28q97 -2 240 -64q98 -67 140 -216q20 -93 20 -144q0 -185 -116 -280q0 -19 76 -92q48 -131 48 -204v-212q-19 -189 -64 -248q-45 -79 -152 -124q-93 -40 -152 -40h-44q-32 0 -52 4q-25 -4 -56 -4h-4q-157 0 -248 64q-55 0 -152 160
q-15 0 -20 120q-9 0 -20 176q8 68 8 92v24q0 36 44 36h204q24 0 48 -20h8q25 20 48 20h16q60 0 60 -72v-20q0 -81 4 -172q-4 -28 -4 -48q10 -80 36 -80h8q52 0 52 124q8 0 8 48v36q-13 216 -32 216q0 21 -176 40q-32 24 -32 60v8q0 20 12 68q-8 34 -8 60q0 68 72 68
q156 0 156 28l-4 40q20 32 20 96q-20 172 -52 172h-4q-56 0 -56 -144v-68q0 -52 -72 -52q-60 -4 -88 -4q-35 4 -44 4q-51 -12 -72 -12q-148 0 -148 44q-12 45 -12 88v32q0 72 32 140q0 144 156 208q28 27 200 44zM614 788v-4q1 -8 8 -8h8v4q0 8 -8 8h-8zM222 216
q-12 0 -36 16l-4 -8v-4q18 -28 40 -28h8q36 8 36 20v16q0 8 -8 8q-21 -20 -36 -20z" />
    <glyph glyph-name="four" unicode="4" horiz-adv-x="1049" 
d="M426 1576h188q34 0 84 -8q40 8 68 8q26 0 84 -12q21 4 40 4q34 0 36 -92v-268q0 -32 -12 -108q8 -54 8 -68v-4q0 -24 -28 -72q24 -35 24 -56v-16q0 -25 -4 -60q8 -35 8 -56l-24 -100q14 -84 48 -84q68 0 68 -68q20 -68 20 -92v-12q-9 -144 -48 -144h-4q-22 4 -32 4
q-24 0 -24 -28v-160q0 -80 -44 -80q-6 0 -48 4q-15 -8 -32 -8h-4q-100 14 -100 36q-11 28 -24 28q-42 -24 -64 -24h-4q-21 0 -28 16v16q16 45 16 56v4l-4 20h-8q-5 0 -16 -64q-4 0 -20 -20q12 -20 12 -32q0 -28 -28 -28t-28 28q8 26 8 32q-10 0 -16 32q20 78 20 88
q-17 100 -64 100q-47 -16 -64 -16l-60 12l-52 -12q-27 4 -56 16q-36 -12 -144 -20q-44 0 -44 52v88q0 52 4 108q-4 21 -4 48q20 80 80 220q28 86 44 164q35 105 56 144q27 84 52 84q0 8 4 8q-8 18 -8 40q97 344 120 344q28 8 48 8zM706 1268l12 -8h4q44 8 44 40
q-7 20 -32 20q-16 0 -28 -52zM634 1136l-4 -20v-12h12q0 6 8 16v16h-16zM366 680q5 -104 40 -104q0 -6 32 -20q52 19 52 52v100q0 36 20 92q-9 32 -12 32l4 28v20q0 5 -8 44v4q8 70 8 72q-10 8 -12 8q-19 -20 -84 -280q-40 -41 -40 -48zM594 844q8 -24 16 -24h8q28 21 56 24
v20q-40 43 -40 92q-10 8 -12 8q-28 0 -28 -120zM602 688q24 -45 24 -52q0 -8 -28 -56q0 -5 -4 -40q16 -28 16 -40l-4 -40q4 -22 4 -32q-8 -15 -8 -32q0 -14 64 -32q0 -4 20 -12l4 8l-40 44q-4 8 -4 12q0 79 40 100h4q5 0 44 -8q8 0 8 8v8q0 6 -16 12q-7 0 -40 -16
q-36 7 -36 24q0 27 72 76q-24 0 -28 64q-37 40 -56 40q-12 0 -36 -36zM458 432v-16q0 -12 16 -12q11 0 28 28v24q-21 0 -44 -24zM650 276q26 -57 40 -64h4v32q0 4 8 32q0 24 -24 24q-28 0 -28 -24z" />
    <glyph glyph-name="five" unicode="5" horiz-adv-x="1071" 
d="M126 1604h140q68 -1 68 -8q23 8 64 8q14 0 44 -20h12l40 12q17 0 44 -4q32 8 52 8q35 0 76 -32q37 28 52 28q10 0 32 -4q43 12 64 12h80q60 0 60 -76q4 -28 4 -92v-48q0 -72 -56 -72h-356q-84 0 -84 -32v-12q0 -14 12 -48q-4 -27 -4 -44v-8q3 -24 12 -24q75 36 80 36h4
q3 0 52 -20q23 40 64 40h56q103 0 204 -88q88 -118 88 -280v-76q0 -32 -8 -72q8 -40 8 -80v-144q-7 -172 -36 -172q0 -9 -60 -16v-8q44 -23 44 -48v-4q-9 -48 -56 -48q-20 0 -28 -44q-67 -96 -132 -96q-28 -16 -168 -28q-52 8 -140 8h-16q-45 0 -148 48q-56 0 -164 120
l-36 108q-36 80 -36 204q-4 0 -4 16q4 81 4 112q12 36 52 36h28q39 0 40 -4q34 4 56 4h208q52 0 52 -48v-44q0 -47 -8 -64q9 -93 28 -188q21 -16 36 -16h16q32 19 32 60q0 119 8 220q-8 32 -8 76v192q0 80 -44 80h-8q-47 0 -56 -88q0 -41 -104 -48q-43 8 -92 8h-188
q-44 0 -44 56v20q0 37 24 76q-24 51 -24 100q12 157 12 248v176q5 132 36 132z" />
    <glyph glyph-name="six" unicode="6" horiz-adv-x="1063" 
d="M466 1632q10 0 44 -8q30 8 56 8h16q125 0 236 -48q128 -66 176 -208q24 -75 24 -116q-10 -108 -52 -108h-172q-22 0 -56 4q-7 -4 -16 -4l-20 4q-35 -4 -60 -4h-8q-48 0 -48 72v60q-4 60 -60 60q-52 0 -52 -72q8 -54 8 -68v-144q0 -6 12 -12h4q113 52 156 52q36 0 72 -32
q28 16 40 16h8q54 -25 112 -40q112 -100 112 -148q20 -45 20 -72q0 -118 -28 -156q36 -51 36 -68q-7 -140 -28 -140q20 -27 20 -48v-44q0 -216 -228 -324q-92 -24 -112 -24q-21 0 -28 16v20q-8 58 -8 64v16q0 8 -8 8q-26 -27 -48 -44v-4q12 -20 12 -32v-12q0 -40 -68 -52
q-154 0 -228 48q-67 0 -152 92q-100 167 -100 264v224q0 15 24 68q-24 56 -24 84v88q0 21 4 36q-4 21 -4 40v72l16 68q-16 51 -16 76v12q12 187 40 236q72 124 172 168q152 56 204 56zM482 716v-124q0 -50 -52 -60q-16 0 -16 -24q0 -23 64 -132q0 -78 52 -92q39 0 68 96
q17 16 32 16h28l20 -4l4 8v8q0 6 -12 12h-4q-17 0 -32 -8q-39 0 -48 136q0 21 16 124q-10 91 -32 120q-16 16 -44 16q-36 0 -44 -92zM694 684q6 -16 12 -16h12q28 24 68 32q8 13 8 20l-8 4h-32q-38 0 -60 -40zM494 168q47 -72 56 -72q7 0 24 8q-11 76 -32 76q0 7 -28 12
q-20 -2 -20 -24z" />
    <glyph glyph-name="seven" unicode="7" horiz-adv-x="869" 
d="M196 1576h40q25 0 64 -12q102 12 128 12h344q60 -6 60 -56v-40q-8 -68 -8 -76v-60q8 -68 8 -76q-56 -313 -76 -384q-56 -320 -84 -408l-32 -148q0 -23 -32 -132q0 -35 -28 -96q0 -96 -76 -96q-14 0 -84 4q-28 -8 -48 -8l-44 12q-51 -12 -112 -12h-16q-48 0 -48 48
q27 142 56 184q-8 34 -8 40q24 46 36 148q9 0 20 108q44 114 44 200q15 36 28 128q36 75 36 92l-4 28q32 129 40 200q10 12 20 52q0 28 -72 28h-240q-54 0 -64 68v4l4 28q-8 40 -8 72v88q5 52 40 52q5 0 40 -16q39 24 76 24zM444 420q-16 -44 -16 -60q0 -52 12 -52h4
q11 0 20 52q-13 60 -20 60z" />
    <glyph glyph-name="eight" unicode="8" horiz-adv-x="1049" 
d="M524 1624h40q206 -20 260 -56q48 -22 96 -96q27 -17 56 -120q24 -127 24 -152v-20q0 -133 -72 -200q0 -11 -64 -56v-8q10 -33 64 -64q72 -69 72 -160q-8 -37 -8 -64q12 -39 12 -48l-16 -68q16 -63 16 -68v-8q0 -6 -20 -56q8 -30 8 -56l-28 -64q4 -28 4 -48q0 -44 -64 -76
q0 -58 -108 -84q-36 9 -36 20v12q20 54 20 64q-8 24 -16 24h-8q-16 -63 -16 -72v-4q0 -14 16 -32v-8q0 -44 -136 -56h-48q-5 0 -52 48l-32 -44q-7 -4 -20 -4q-199 0 -288 96q-136 80 -136 324q-4 26 -4 52v140q0 160 84 260q36 20 36 44q-108 95 -108 316q18 252 148 296
q8 0 68 48q83 40 132 40q48 -7 48 -12q47 20 76 20zM468 1268q12 -70 12 -88v-60q0 -96 36 -96h12q36 0 36 52v224q0 36 -44 36q-45 0 -52 -68zM252 780v-16q0 -8 12 -8q16 4 16 24v4q0 8 -12 8q-16 -6 -16 -12zM472 596v-72q0 -11 -16 -56v-8q28 -86 28 -156q33 -40 64 -40
q32 16 32 84v136q0 22 -8 60q8 38 8 60v16q0 104 -68 104q-40 0 -40 -128zM888 412v-12q0 -6 20 -16q20 5 20 12v12h-20zM720 276v-4q4 -12 24 -12h4q6 0 16 16q0 31 -20 48q-10 0 -24 -48z" />
    <glyph glyph-name="nine" unicode="9" horiz-adv-x="1083" 
d="M442 1624h164q131 0 256 -88q85 -54 120 -160q0 -19 32 -88v-8q0 -46 -4 -84l8 -84q0 -3 -4 -24q4 -105 16 -148q-5 -92 -12 -92q16 -72 16 -104q-8 -54 -8 -68v-8q0 -34 4 -72l-8 -44q4 -21 4 -40q0 -21 -12 -64q4 -60 4 -88q-20 -62 -28 -120q-29 -33 -68 -100
q-5 0 -52 -52q-52 -32 -80 -32h-12q-10 3 -36 44q0 -100 -108 -100h-188q-109 0 -224 72q-25 23 -72 80q-84 42 -100 248q0 80 72 80h44q17 0 88 -8q46 8 64 8h56q68 0 104 -60q-4 -40 -4 -60v-84q0 -6 12 -12q104 10 104 72l4 20q-8 30 -8 56q0 8 8 48q-8 30 -8 56
q0 10 4 60q-10 8 -16 8q-68 -48 -148 -48q-29 -8 -60 -8q-93 7 -184 72q-57 20 -80 72q-48 121 -48 164q0 41 -4 208q0 24 4 84q-4 39 -4 128q24 157 84 232q156 136 308 136zM474 1136q0 -4 8 -64q0 -21 -4 -36q4 -54 4 -92v-76q0 -52 48 -52h16q36 0 48 76q0 13 4 20
q-4 129 -12 192v84q0 22 8 60q-15 100 -60 100h-4q-52 -28 -52 -184q-4 0 -4 -28zM126 756v-8q0 -5 28 -24q8 4 12 4v8q0 5 -20 20h-20zM774 652q0 -7 40 -32q0 -10 20 -100q0 -10 -12 -28l12 -40l-16 -32q0 -6 16 -16l8 4h24q21 0 60 -48q0 4 4 12q0 18 -44 56l-4 20
q16 37 16 52v48q0 19 36 48q-8 18 -16 20h-8q-8 -28 -16 -28h-16q-49 0 -56 100h-8q-37 -20 -40 -36zM754 516v-4q6 -28 16 -28h8v12q0 5 -20 20h-4zM886 280q4 -8 4 -12h8q32 0 32 44l-4 20q-25 -25 -40 -52z" />
    <glyph glyph-name="colon" unicode=":" horiz-adv-x="557" 
d="M311 1298h16q104 0 104 -48q-8 -28 -8 -48v-4q16 -49 16 -60v-160q-5 -36 -36 -36h-252q-48 0 -48 68v80q0 14 8 68q-8 48 -8 76v4q0 34 24 48h16q46 -16 52 -16q69 28 116 28zM147 606h236q56 0 56 -136v-4q-4 -50 -4 -60q4 -27 4 -44q-54 -104 -108 -104q-27 12 -44 12
q-47 -16 -116 -16q-68 0 -68 72v224q6 56 44 56zM287 354v-8h8v8h-8z" />
    <glyph glyph-name="semicolon" unicode=";" horiz-adv-x="557" 
 />
    <glyph glyph-name="semicolon" unicode="&#x37e;" horiz-adv-x="557" 
 />
    <glyph glyph-name="less" unicode="&#x3c;" 
 />
    <glyph glyph-name="equal" unicode="=" horiz-adv-x="1049" 
d="M839 1083q5 0 56 -28q53 20 68 20h8q32 0 36 -40q0 -3 -24 -56q12 -49 12 -56q0 -108 -40 -108q-32 8 -40 8q-59 -16 -116 -16h-104q-103 0 -128 24q-3 0 -56 -24h-60q-30 0 -56 12q-42 -12 -52 -12q-33 0 -36 4q-44 -4 -76 -4h-140q-48 4 -48 44v120q0 28 20 88
q15 12 28 12q9 0 48 -36q31 27 112 44h116q11 0 56 -28h4q12 28 108 28h188q45 0 116 4zM871 987q0 -20 20 -40h4q12 0 12 16q-7 18 -28 32q-8 -1 -8 -8zM119 723q71 -8 88 -8h28q23 0 80 8q51 -8 64 -8t116 4q27 -11 48 -32h4q10 36 80 36q71 -8 88 -8h16q11 0 108 8h36
q83 0 112 -84q20 -14 20 -44v-100q0 -48 -64 -48q-9 0 -44 -4q-48 4 -72 4q-6 0 -48 -4q-41 20 -96 20h-16q-45 -16 -64 -16q-16 0 -64 40h-24q-34 -34 -60 -44q-40 4 -60 4h-32q-52 0 -72 -8l-132 16l-56 -12h-28q-32 15 -32 52v156q0 72 68 72h8zM839 555l-4 -8q1 -8 8 -8
h4q8 0 8 8v4q-14 4 -16 4z" />
    <glyph glyph-name="greater" unicode="&#x3e;" 
 />
    <glyph glyph-name="question" unicode="?" horiz-adv-x="1023" 
d="M418 1604q21 0 68 -4q26 4 52 4q39 -20 48 -20q39 20 48 20q166 -46 260 -148q92 -133 92 -260q4 0 8 -36q-4 -47 -4 -68q8 -87 8 -120v-132q0 -142 -80 -280q-109 -120 -268 -120h-28q-38 0 -132 52h-12q-14 -14 -32 -68q-50 -32 -76 -32h-92q-24 0 -52 20h-16
q-52 -20 -64 -20q-84 0 -84 48v20q0 9 12 52q-12 29 -16 52q0 281 64 284q7 4 20 4q28 0 68 -32q26 8 36 8h8q24 -15 32 -44q-8 -25 -20 -28q-36 12 -40 12q-12 -42 -12 -52v-8h4q4 0 104 40q32 0 52 -64h8v36q0 14 -12 48q15 76 48 76q31 0 48 -68l16 -12h20q52 0 52 156
q8 0 8 144q-12 95 -12 112v112q-7 60 -44 60q-40 -11 -40 -24v-20q0 -72 -40 -84q-16 0 -24 32h-8q-31 0 -36 -16q0 -11 44 -32q20 -31 20 -80q-31 -42 -96 -84h-4q-26 0 -44 28v20h-4q-31 -40 -56 -40h-12q-31 0 -44 24v8q0 18 32 40v4q0 7 -60 20h-4q-42 -40 -52 -40
q-24 4 -24 12v12q0 13 12 28v20q0 8 -16 64q22 120 76 120v4l-24 28v8q0 27 72 72q16 -2 36 -52q68 0 68 -40q-8 -13 -8 -24q4 0 4 -4q20 6 20 28v28q0 44 -28 44q-44 0 -44 32q0 28 28 28q16 0 36 -28q16 4 16 20q-20 27 -20 40q0 40 136 60zM134 736q8 -1 8 -8q16 6 16 12
v16h-8q-8 -2 -16 -20zM378 616q6 -16 12 -16h8v16q0 6 -12 12q-8 0 -8 -12zM338 348h76q52 0 52 -56v-72q0 -17 -12 -116q4 -56 4 -72q-10 -28 -40 -28q-38 8 -48 8q-31 -8 -144 -12q-131 0 -156 60q0 9 4 44q-4 34 -4 56q16 30 16 56q-16 30 -20 48q8 76 36 76h28
q39 -8 44 -8h4q6 0 64 8q16 0 48 -36h8q8 44 40 44z" />
    <glyph glyph-name="at" unicode="@" horiz-adv-x="2019" 
 />
    <glyph glyph-name="A" unicode="A" horiz-adv-x="1131" 
d="M392 1576q32 -8 68 -8h12q6 0 96 8h256q56 0 56 -96q8 -26 36 -252q-4 -41 -4 -48q15 -21 36 -140q24 -120 36 -280q15 -3 20 -160q5 -2 16 -36q-4 -27 -4 -44q18 0 28 -220q36 -42 36 -140q8 0 8 -28v-24q-18 -108 -108 -108h-292q-48 0 -48 104q-12 69 -12 104v48
q0 22 -84 24q-28 -8 -28 -32v-76q-13 -136 -40 -136q-75 -36 -84 -36h-32q-44 0 -56 4q-38 -4 -72 -4h-152q-40 6 -40 36v8q17 152 36 248q13 51 48 76v8q-20 32 -20 68v76l52 408q24 93 36 260q32 192 40 316q11 68 68 68t92 4zM292 1040v-4q4 0 12 -4q31 0 60 40v8
q-44 0 -72 -40zM564 944q-19 -90 -40 -328q0 -16 20 -28h20q44 0 44 32v8l-28 240v44q0 30 -12 32h-4z" />
    <glyph glyph-name="B" unicode="B" horiz-adv-x="1177" 
d="M138 1568h8q98 0 128 -28h16q24 20 36 20l44 -16q36 8 44 8q35 -12 52 -12q68 24 112 24h44q20 0 64 -12q54 4 68 4q134 -27 188 -84q96 -118 96 -200q-8 -44 -8 -60q20 -41 20 -60v-28q0 -19 -4 -40q4 -15 4 -32q0 -103 -88 -176q-31 -15 -36 -28v-8q41 -57 100 -84
q52 -97 52 -180q0 -12 -20 -52q24 -35 24 -48q0 -26 -4 -52q8 -36 8 -52q-9 -139 -32 -204q-35 -92 -112 -128q-140 -40 -240 -40h-232q-68 0 -156 4q-18 -4 -64 -4q-100 0 -100 36v36q0 17 20 96q-8 50 -8 68q12 45 16 92q23 13 32 28v4q-15 56 -24 56h-12q-5 0 -48 -48h-4
q-11 0 -20 20q20 44 20 72q-8 71 -8 88q18 188 72 188q16 0 16 12v16q0 4 -8 32v12q0 6 16 12q75 -22 92 -32h8v4l-4 20l12 48q-34 26 -60 28q-6 -44 -20 -44h-8l-28 8q0 -10 -48 -56q-11 -40 -24 -40h-12q-14 5 -24 36q10 87 20 96l20 4h16q14 0 52 -24q17 32 44 32v36
q0 48 -56 48q0 2 -24 28v20q66 40 128 40q60 33 60 64v8q0 31 -16 36h-8q-9 -35 -24 -40h-20q-32 0 -52 52q-15 8 -36 8q-13 0 -68 -40h-8q-20 6 -20 28v20q0 11 16 56q-24 50 -24 112v108q0 84 44 84zM198 1476v-20q64 0 64 -52q14 -12 28 -12h16q25 0 48 20q-17 39 -24 40
q-23 -20 -40 -20q-11 0 -56 36q-24 7 -24 12q-8 -4 -12 -4zM442 1376v-4q0 -6 12 -12q7 4 12 4v8q0 6 -12 12h-4q-8 -1 -8 -8zM542 1244q0 -9 4 -44q-8 -57 -8 -64q8 -50 8 -84v-44q0 -31 16 -36h20q48 0 48 108v64q0 112 -56 112q-14 4 -16 4q-12 -3 -16 -16zM190 1160
q40 0 52 -56q0 -24 -32 -28h-44q-20 12 -20 28q7 56 44 56zM150 956h12q28 0 28 -28q0 -24 -28 -24t-28 28v8q0 6 16 16zM546 644v-288q0 -31 20 -40h12q52 0 52 88v212q-8 64 -64 64q-20 0 -20 -36z" />
    <glyph glyph-name="C" unicode="C" horiz-adv-x="1168" 
d="M498 1632h132q209 -24 260 -68q124 -68 180 -248q0 -18 8 -68q0 -10 -8 -48l20 -84l-16 -64q16 -35 16 -48q0 -108 -36 -108h-108q-36 0 -80 4q-14 -4 -52 -4l-52 16l-92 -8q-32 10 -32 64v4q0 50 12 116q-12 58 -12 72q0 23 8 80q-7 88 -48 88h-12q-46 0 -52 -120v-8
q0 -18 4 -92q0 -21 -4 -68q4 -54 4 -76q0 -34 -4 -72q4 -65 4 -148q0 -60 -16 -124q16 -50 16 -112q-4 -60 -4 -84q15 -124 36 -124h24q38 0 44 56v264q0 60 40 60h24q68 8 76 8h208q104 0 104 -56v-44q0 -60 -12 -148v-40q0 -62 -68 -84q-11 -15 -16 -40q0 -2 24 -56v-4
q0 -59 -112 -128q-13 0 -144 -72q-51 -16 -168 -16h-44q-248 31 -248 56q-36 0 -92 80q-108 104 -108 232q-7 0 -8 60v96q0 23 -8 80q0 29 24 100q-16 45 -16 56v68q-8 70 -8 72q8 192 8 252v72q0 99 64 208q21 20 72 88q121 80 160 80q61 32 108 32zM254 1000l-4 -8l8 -4
l4 8z" />
    <glyph glyph-name="D" unicode="D" horiz-adv-x="1146" 
d="M374 1576q47 -8 88 -12q43 12 64 12q57 -16 140 -20q34 8 44 8q216 -43 216 -72q116 -82 116 -132q16 0 32 -152l-24 -64q28 -53 28 -88q-8 -37 -8 -64q2 -48 8 -48l-4 -20q4 -115 4 -148q-8 -85 -8 -108q0 -61 4 -168q-4 -90 -16 -124q12 -26 12 -56v-20
q-26 -156 -48 -156q-65 -108 -120 -108q-79 -36 -196 -36h-220q-60 0 -100 4q-28 -4 -92 -4h-156q-36 0 -40 48v248q0 55 -4 144q8 31 32 56q-28 62 -28 76v224q-8 97 -8 108v48q8 147 20 188l-20 100q8 47 8 80q0 26 -4 68q4 34 4 56l-4 64q10 56 56 56q224 4 224 12z
M530 1132q8 -43 8 -56v-152q0 -50 -4 -124q12 -52 12 -80v-20q0 -27 -20 -76v-4q20 -66 20 -116v-44q0 -14 -8 -68q0 -76 36 -76q43 0 52 136q11 13 16 48q-16 48 -16 60v8q23 92 52 92l24 32v8q-35 -4 -40 -4q-40 21 -40 56q8 38 8 60v12q-8 68 -8 76v60q8 68 8 76v8
q0 17 -4 44q0 48 116 48q12 0 68 -12h16q44 12 44 24v12q-42 16 -52 16l-104 -12h-20q-60 0 -80 56q0 25 -36 32h-16q-15 0 -32 -120zM414 612v-20h4q21 0 24 12v4q0 8 -8 8z" />
    <glyph glyph-name="E" unicode="E" horiz-adv-x="906" 
d="M150 1576h204q46 0 84 -4q22 4 80 4q54 0 88 -4q31 4 96 4h16q92 0 92 -56v-252q-5 -40 -40 -40h-180q-47 0 -56 -60q-40 -24 -40 -44v-12q48 -2 48 -48v-52q3 -40 20 -40q56 4 96 4q128 -7 128 -24q8 -20 8 -28l-12 -64q16 -74 16 -140q0 -80 -60 -80h-20q-41 0 -64 4
q-112 0 -112 -44v-208q0 -44 36 -44h220q40 0 48 -72q-8 -42 -8 -64q8 -48 8 -56q0 -16 -8 -52l8 -48q-11 -52 -44 -52h-48q-22 0 -80 12q-37 -12 -68 -12h-20q-42 0 -128 -4v4l-8 -4q-22 0 -56 4q-41 -4 -48 -4q-14 0 -36 4q-65 -4 -116 -4h-56q-48 0 -48 100q4 64 12 100
q-8 30 -8 56v204q0 26 8 56q-8 40 -8 72v184q0 16 12 68v4q0 6 -16 52q4 134 12 216v4q-8 68 -8 76v188q0 19 -4 40q4 15 4 36v56q0 64 56 64z" />
    <glyph glyph-name="F" unicode="F" horiz-adv-x="883" 
d="M264 1576q127 -12 140 -12q31 0 188 12h44q49 0 120 -4q16 4 28 4q44 0 52 -60v-64q-16 -122 -16 -148q12 -20 12 -32v-8q-5 -36 -36 -36h-40q-12 0 -48 12q-22 -4 -32 -4q-20 12 -32 12q-35 -16 -88 -32q-43 -42 -52 -100q-6 0 -16 -16v-8q0 -12 48 -28q10 -18 20 -76
q16 -13 88 -20q60 8 64 8q92 -8 92 -44v-96q0 -72 8 -140q0 -56 -56 -56h-168q-36 -5 -36 -36v-32q0 -56 -36 -56q-17 0 -128 28q-6 0 -12 -12v-8q0 -14 148 -52q32 0 32 -128q0 -50 -4 -124l12 -60q-9 -148 -36 -148q0 -12 -116 -12h-248q-52 0 -52 44v432q0 51 4 116
q-4 15 -4 88v48q0 36 -8 68q0 70 108 108q27 21 52 72q36 20 56 20q51 -20 64 -20h24q21 0 24 12q-16 28 -16 40v4q0 9 12 52q-3 12 -16 16q-15 -1 -32 -40q-12 -9 -68 -20q-39 -32 -156 -68h-4q-40 5 -40 40v464q0 92 64 92q21 0 92 8zM200 572q1 -8 8 -8h12v8q0 8 -8 8h-4
q-8 -1 -8 -8z" />
    <glyph glyph-name="G" unicode="G" horiz-adv-x="1160" 
d="M522 1640h120q170 0 344 -152q66 -93 76 -176q-12 -33 -12 -56q28 -46 28 -96v-84q0 -68 -44 -68h-196q-9 0 -52 12q-51 -12 -76 -12h-36q-48 0 -48 124q-4 0 -4 36v124q-8 56 -44 56h-4q-16 0 -36 -112q-20 -27 -20 -48q20 -42 20 -60v-8q0 -12 -12 -48q8 -30 8 -40
q-8 -36 -8 -40q20 -66 20 -120q-12 -175 -12 -224q4 -21 4 -40q-12 -30 -12 -44q11 0 24 -216q14 -36 40 -36q56 0 56 228q4 0 4 36q0 55 -60 72q-20 10 -20 32v120l4 24q-12 26 -12 48q17 36 48 36q15 0 60 -8q46 8 56 8q51 -8 96 -8h28q6 0 52 -20l40 12l40 -4q5 0 44 8
q52 0 52 -76v-312q0 -29 -12 -68v-8l12 -60l-8 -52q8 -42 8 -64q-8 -54 -8 -68q0 -16 8 -48q-7 -96 -40 -96q-22 -8 -80 -8q-26 0 -52 4q-23 -4 -64 -4h-12q-44 0 -72 60q-8 4 -12 4q-91 -84 -136 -84q-67 -16 -76 -16q-7 0 -56 28q-40 -12 -56 -12q-81 0 -228 128
q-96 125 -96 284v184q0 45 -4 116q12 48 12 64q-16 67 -16 128q0 36 8 60l-4 36q0 296 24 296q12 91 44 148q137 168 316 168q21 11 44 12zM398 1404h8q8 0 8 8v16q-16 -4 -16 -24zM750 784v-16h4q30 15 36 28v12q0 6 -16 12q-24 -10 -24 -36z" />
    <glyph glyph-name="H" unicode="H" horiz-adv-x="1143" 
d="M694 1576h76q276 -13 276 -24q16 -17 16 -60l-12 -104q0 -9 12 -72q-12 -80 -40 -80v-4q16 -21 16 -36v-12q0 -8 -8 -40q28 -69 28 -80q0 -17 -4 -44l12 -52q0 -149 -24 -224q0 -15 16 -80q-16 -44 -16 -56q20 -49 28 -116q0 -3 -12 -64q4 -97 4 -148q0 -12 4 -28
q-4 -71 -12 -112q8 -40 8 -72q0 -68 -60 -68h-276q-62 28 -88 28q-24 21 -24 64v200q0 30 36 72q-24 33 -28 48q0 9 4 16q0 26 -12 148v40q0 11 -32 56v12h-4q-23 0 -52 -36l12 -56l-12 -36q4 -71 4 -116v-44q0 -22 12 -60v-32q0 -20 -12 -68q8 -32 8 -68v-24
q-7 -136 -44 -136q-16 -8 -44 -8h-136q-11 0 -60 16q-38 -12 -48 -12q-108 4 -108 48q-8 16 -8 44v144q0 19 8 64q-8 139 -8 212v116q0 24 16 72v8q0 14 -16 60q0 3 4 24q-4 66 -4 100q0 3 20 56q-20 55 -20 68v156q0 21 8 84q-8 57 -8 80v12q0 37 24 72q-24 43 -24 64v32
q7 52 44 52q48 -2 48 -8l48 4h112q45 0 116 4q84 -9 84 -60q0 -14 -4 -36l4 -36q-4 -188 -16 -244q4 -8 16 -56l-20 -84q0 -36 32 -36h8q52 5 52 40v68q0 134 -4 384q25 64 84 64zM978 1240v-4q0 -8 12 -8q24 4 24 12l-16 12h-8q-6 0 -12 -12z" />
    <glyph glyph-name="I" unicode="I" horiz-adv-x="630" 
d="M142 1576q136 -4 136 -24q21 -20 36 -20h8q14 0 104 40q7 4 20 4h12q80 0 80 -80q4 -18 4 -64q0 -21 -16 -124q8 -54 8 -68l-4 -40q12 -48 12 -76v-60q0 -31 -4 -56q4 -19 4 -52v-8q0 -11 -16 -60v-8q16 -65 16 -80q-8 -36 -8 -40q16 -79 16 -100q-8 -38 -8 -60v-68
q0 -97 -116 -196v-24q4 0 12 -4q24 9 64 44h8q32 -7 32 -52v-16q0 -32 -4 -52q4 -25 4 -56v-8q0 -20 -12 -68q4 -26 4 -52q0 -33 -40 -48l-48 4h-76q-49 0 -76 40h-8q-67 -32 -80 -32q-51 -8 -64 -8q-47 0 -52 56q8 36 12 124q-12 27 -12 44v688q0 17 8 88q-8 48 -8 52
q20 64 20 72q-12 30 -20 132v20q0 8 8 76q-8 63 -8 84v20q0 116 52 116zM286 1204v-12h28q21 0 24 12v8q0 8 -8 8q-37 -16 -44 -16z" />
    <glyph glyph-name="J" unicode="J" horiz-adv-x="744" 
d="M432 1572l48 -8q54 4 92 4h16q42 0 60 -80v-36q0 -52 -8 -72l8 -48q0 -13 -4 -20q4 -71 4 -116v-140q0 -67 -56 -96v-8q56 -41 56 -80v-136q-8 -39 -8 -44q0 -13 8 -56q-8 -68 -12 -168l12 -32l-4 -40q4 -67 4 -104q-9 -140 -64 -140l-4 -8q8 -13 8 -24v-4q0 -38 -80 -80
q-41 -24 -172 -36h-232q-60 0 -60 56v124q0 32 -4 76q0 27 40 44q46 -16 52 -16h8q37 42 68 56q4 7 4 16q-16 49 -16 60v532l12 60q0 6 -12 60v56q0 41 4 64q-4 23 -4 64v52q12 52 12 56v4q0 4 -12 56v64q0 75 96 84h4q53 0 136 4zM564 492q-16 -31 -16 -40v-8h4q21 0 32 20
l-8 28h-12z" />
    <glyph glyph-name="K" unicode="K" horiz-adv-x="1165" 
d="M156 1576l64 -4q56 4 72 4q51 -8 60 -8q57 8 80 8h44q84 0 84 -68v-92q-8 -118 -8 -128v-28q0 -5 -16 -64v-4q2 -25 24 -48q18 46 68 72q-24 25 -24 40q78 312 120 312q15 8 32 8h252q72 0 72 -96l4 -20q-48 -97 -48 -116q-12 -95 -56 -188q-15 0 -24 -92
q-13 -53 -72 -116v-12q10 -106 28 -172q49 -144 64 -216q76 -231 76 -272q0 -26 28 -72q40 -95 40 -140v-8q0 -56 -56 -56h-8q-49 0 -60 4q-44 -4 -80 -4h-200q-64 16 -64 144q0 13 -24 76q-4 22 -4 32q0 39 48 64v4q-35 -4 -40 -4q-36 0 -40 48v16q0 10 12 36q0 6 -44 44
h-4q0 -26 -24 -116v-28q0 -4 20 -48v-44q0 -16 -12 -68v-8q12 -96 12 -108q-17 -36 -56 -36q-33 4 -40 8q-22 -4 -36 -4h-4q-14 0 -36 4q-26 -12 -48 -12l-64 12q-8 -4 -12 -4q-35 16 -40 16q-13 -8 -20 -8q-68 3 -68 20v8l20 28v4q0 10 -40 68v72q0 28 -8 76q0 59 44 68
q28 3 28 12q0 7 -16 48l24 72l-8 4q-28 -8 -32 -8q-32 2 -32 32q0 14 4 36l-4 64q4 64 4 76q-8 30 -8 56q0 29 8 52q-4 74 -4 124v80q0 38 4 76l-8 100l8 288q-4 11 -4 60q0 31 48 44zM724 552q16 8 16 24q-16 -8 -16 -24zM388 220v-4q1 -8 8 -8q16 4 16 20l-8 4h-4
q-6 0 -12 -12z" />
    <glyph glyph-name="L" unicode="L" horiz-adv-x="806" 
d="M286 1576q44 0 80 -4q38 4 104 4h16q56 -6 56 -44l-4 -48l12 -72l-12 -68q0 -14 4 -36q-4 -46 -4 -88q0 -10 4 -32l-4 -20q0 -5 4 -40q0 -14 -4 -36q4 -50 4 -60q0 -26 -4 -80q4 -50 4 -100q0 -4 -4 -12q4 -8 4 -12q0 -30 -8 -148l8 -108q-4 -22 -4 -36q0 -12 4 -28
q0 -128 -44 -128q-28 0 -28 -8q0 -6 16 -16l8 4h8l84 -20q17 8 64 8h84q56 0 56 -108v-24q0 -16 -4 -72l4 -20q0 -124 -56 -124h-4q-32 0 -32 4q-60 -4 -88 -4h-464q-50 0 -56 60v120q0 41 44 76v20q-24 30 -24 44q4 50 4 56q-16 30 -16 40q3 24 80 64q4 7 4 16v12l-20 4
q-25 -8 -40 -8q-28 0 -32 124v136q0 23 8 80q-8 48 -8 76v68q0 17 8 88q-8 46 -8 64v212q0 19 8 64q-8 38 -8 60v28q0 64 64 64h28q100 8 104 8z" />
    <glyph glyph-name="M" unicode="M" horiz-adv-x="1442" 
d="M132 1576l40 -4q66 4 100 4q68 -8 68 -12q90 12 136 12h4q160 -5 160 -40q56 -175 56 -324q16 -70 28 -144h4q19 0 40 252q20 52 20 160q11 88 48 88h36q6 0 96 8h12q71 0 116 -4q35 4 92 4q19 0 48 -12q41 4 64 4h32q36 -5 36 -36v-20q-8 -28 -8 -32v-16q0 -11 8 -24
q-4 -70 -4 -84q12 -84 12 -108v-24q0 -160 -52 -160q0 -4 -8 -4v-4q0 -27 52 -88q0 -10 -8 -108q16 -101 16 -124q-12 -128 -12 -140v-8q0 -32 4 -84q-8 -15 -8 -32t4 -44q-12 -26 -12 -48q16 -26 16 -52q0 -23 -4 -64q12 -48 12 -76v-92q0 -96 -56 -96q-107 32 -128 32
q-31 -24 -132 -24q0 -8 -28 -8h-4q-56 0 -56 132q0 16 8 84q-8 50 -8 84v4q0 40 24 72v16q-12 42 -12 44q12 26 12 36q-20 40 -20 48q0 17 4 44q-4 46 -4 88l-8 4l-24 -92v-12q0 -9 4 -16q-16 -148 -40 -148q0 -8 -36 -36l-4 -8q40 -58 40 -80v-32q-27 -216 -52 -216
q-29 -16 -96 -16h-120q-47 0 -64 60q-20 155 -36 236q-12 128 -32 252q0 40 48 40q21 0 40 24q0 6 -16 16h-8l-40 -12q-32 0 -40 44q0 30 88 68q57 0 108 56h-20q-60 0 -136 -24h-44q-14 0 -32 -68q-21 -16 -36 -16h-4q-6 0 -52 20h-4q-26 0 -132 -52l-84 -24q-35 0 -56 68
v16q0 14 12 48q-12 32 -20 144q0 52 36 88v4q-28 25 -28 52v12q0 43 4 68q-12 180 -12 228v132q0 96 52 96zM952 872v-32q0 -30 16 -32q16 50 52 68q26 0 32 36v12q0 6 -16 12q-84 -30 -84 -64zM700 788h8q68 4 68 24v8h-4q-37 0 -72 -32zM356 652q15 0 40 -20h28
q52 0 52 -84q12 -62 12 -72q-16 -72 -16 -96v-68l16 -112v-100q0 -100 -64 -100h-28q-11 0 -76 12q-36 -12 -48 -12h-140q-52 0 -52 76v416q0 96 92 96q28 32 184 64z" />
    <glyph glyph-name="N" unicode="N" horiz-adv-x="1106" 
d="M126 1576q117 -4 164 -12l52 8q16 0 68 -24l20 12h8q30 0 56 -84q44 -94 44 -144v-24q64 -133 64 -144q29 -88 40 -92q13 0 20 68v4q0 32 -8 72q8 40 8 68q-12 111 -12 136q4 124 32 124h8l40 -4q32 36 96 36l64 -24q40 20 64 20q84 -7 84 -48v-56q0 -51 -12 -116
q12 -36 12 -48v-64q0 -34 -16 -80q0 -6 4 -64q-4 -38 -8 -44q20 -60 20 -72q0 -136 -20 -304q16 -83 20 -176q0 -20 -16 -128q4 -145 12 -168q0 -21 -40 -48l40 -44l4 -24v-32q0 -56 -56 -56h-292q-55 0 -76 96q0 35 -28 104q0 31 -52 168q0 20 -48 132h-8l-4 -20v-40
q0 -23 -8 -80q8 -38 8 -60v-128q0 -28 -12 -76q8 -21 12 -52q0 -37 -56 -44h-272q-56 0 -56 52v1128q0 32 8 72q-8 40 -8 72v204q0 27 36 48zM750 1500q0 -29 60 -92q17 6 24 20v8q-43 64 -76 64h-8zM786 1348q0 -4 -4 -12q4 -7 4 -16h12v28h-12zM782 1200v-16
q24 -40 48 -40q44 55 44 92q-8 0 -8 8l-28 -4h-12l-20 16h-4q-10 0 -20 -56zM822 1092v-4q5 -69 48 -124q0 -2 4 -16q0 -10 -36 -48v-8q1 -8 8 -8q72 9 72 68q4 7 4 20v20q0 5 -48 32v16l8 28q-48 24 -56 24h-4zM762 1028v-8h4v8h-4zM174 840v-4q0 -8 12 -8q20 12 32 12
l28 -4q8 10 8 12v16q0 21 -12 24h-4q-64 -19 -64 -48zM202 720v-12q0 -21 16 -28h4q6 0 24 32v16l-20 4q-24 -2 -24 -12zM834 632q12 -20 12 -40v-8q0 -5 -24 -60v-12q45 -56 48 -56h8q6 0 12 12v12q0 15 -16 108l8 52q-8 18 -16 20h-4q-28 0 -28 -28zM626 620v-4
q0 -6 12 -12h4q12 4 12 24q-6 16 -12 16h-4q-12 -4 -12 -24zM330 344v-8q9 -36 20 -36q8 0 8 8v12q-10 17 -28 24z" />
    <glyph glyph-name="O" unicode="O" horiz-adv-x="1049" 
d="M458 1636h116q186 0 336 -160q43 -72 72 -232q12 -12 12 -52v-92q0 -24 -16 -76v-4q0 -12 16 -56q-16 -72 -16 -88l12 -48q0 -14 -24 -60q28 -37 28 -56q0 -54 -4 -64q4 -60 4 -100v-132q0 -74 -52 -196q-59 -64 -80 -108q-82 -52 -116 -52q-15 8 -32 8q0 -49 -88 -56
q-58 -12 -72 -12h-52q-196 22 -196 52q-7 0 -20 8l-20 -4q-94 0 -124 168q-16 0 -32 60q8 28 8 44q-2 15 -72 40l-4 20v4q0 4 16 48q-12 50 -20 124q8 46 8 64q-16 26 -16 60v8q0 54 28 68h8q7 0 36 -12q24 57 32 136q15 13 24 60q-12 47 -12 56v8q16 45 16 56v4
q0 28 -48 28q-12 15 -12 28q0 26 48 60q-11 21 -16 44q1 32 32 100q0 25 -68 44q-8 10 -8 12q0 30 56 52q0 104 92 140h12q13 -4 32 -4q32 56 128 56q12 4 48 4zM282 1544q0 -31 -8 -56v-16q3 -24 12 -24h8v8q0 13 -8 56l4 28zM282 1368v-32l8 -12q24 10 24 36q0 22 -16 32
h-4q-12 -4 -12 -24zM78 1344h4q36 0 36 -44q-7 -18 -28 -40q4 -27 4 -44q0 -6 -16 -16h-16q-19 0 -24 56q21 88 40 88zM446 1180q16 -34 16 -44v-12q0 -38 8 -104q-16 -92 -32 -136v-4q28 -81 28 -104q-8 -51 -8 -60q8 -42 8 -44l-16 -64q0 -5 8 -44l-4 -28q8 -30 8 -36
q-5 -164 -24 -164v-12q9 0 72 -24h16q9 0 28 84q36 33 36 52q-40 30 -40 84v116q0 17 12 88q-12 49 -12 68v24q0 50 4 92q-4 28 -4 48t4 60q-4 53 -4 112q0 12 8 80q-12 128 -40 128h-16q-22 0 -48 -140q-5 0 -8 -16zM678 1188v-8q1 -8 8 -8l4 8v8h-12zM666 1036v-8
q1 -8 8 -8h8l4 20v20h-8q-12 -4 -12 -24zM298 652v-4q17 -20 48 -20l4 8v4q0 11 -40 16q-8 -4 -12 -4zM186 404q4 -8 4 -12h16q14 0 60 40q11 0 20 20q-4 22 -4 36q0 20 28 68v4q-10 20 -32 20h-4q-7 0 -20 -56q-11 -2 -32 -88q-36 -26 -36 -32zM82 496q0 -56 16 -56h4
q24 16 24 40q-5 32 -24 32q-18 -8 -20 -16zM622 312v-12q0 -22 24 -36l4 8q-12 40 -12 52h-4q-6 0 -12 -12zM646 156l-4 -8q0 -31 68 -52v12q0 43 -64 48z" />
    <glyph glyph-name="P" unicode="P" horiz-adv-x="1026" 
d="M292 1576q57 0 116 -24q48 20 80 20q287 -17 332 -48q99 -43 140 -128q27 -89 36 -232v-68q0 -47 -8 -64q8 -36 8 -52q-9 -123 -28 -176q0 -79 -104 -120q-43 -64 -172 -64q-27 0 -72 12q-35 -15 -92 -24q-8 -12 -8 -28q0 -58 4 -176l-12 -28q20 -59 20 -72v-200
q-13 -104 -72 -104h-188q-40 0 -100 4q-14 -4 -44 -4q-42 0 -48 52v224q0 32 8 72q-8 40 -8 80v60q0 64 4 92q-4 40 -4 100v140q12 54 12 60q-12 50 -12 64l20 60q-20 44 -20 60v188q0 40 8 80q-8 32 -8 68v84q0 88 80 88q22 0 76 -4q43 8 56 8zM528 1228q0 -18 4 -52
q-8 -80 -8 -152v-4q0 -96 16 -96h8q50 0 56 60v212q-8 60 -52 60q-24 -9 -24 -28z" />
    <glyph glyph-name="Q" unicode="Q" horiz-adv-x="1069" 
d="M488 1626h64q14 0 88 -16q3 0 24 4q152 -41 196 -84q84 -44 128 -180q18 -31 32 -152v-12q0 -34 -60 -64v-8q56 -29 56 -68l-4 -36q8 -34 8 -40q0 -8 -16 -48q20 -49 20 -76v-100q-8 -90 -8 -96v-268q0 -83 -84 -200q-91 -51 -148 -72l-4 -8v-16q0 -21 184 -32
q52 0 52 -60q8 -18 8 -64q-24 -80 -80 -80h-48q-16 0 -68 -12h-12q-78 0 -132 12q-38 -8 -60 -8h-20q-160 0 -160 172q-162 38 -224 76q-93 57 -132 160q-44 189 -44 292v180q0 49 16 116q-20 79 -20 152q5 136 12 136q-4 27 -4 44v8q0 21 16 76q0 6 -4 56q5 41 88 164
q45 56 96 68q26 48 96 48q0 12 96 24q8 10 52 12zM492 1234v-192q0 -64 -48 -76q-18 -8 -20 -16v-4q0 -5 44 -20l12 -16v-4q0 -7 -16 -44q28 -22 28 -52v-148q0 -47 -8 -64q8 -30 8 -56v-112q5 -128 24 -128q8 0 8 -4q48 0 48 128q4 41 4 140v120q0 70 -4 88q4 45 4 104v340
q0 100 -44 100q-40 -17 -40 -84zM352 826v-4h4q44 12 44 24v4q0 8 -8 8h-8q-32 0 -32 -32z" />
    <glyph glyph-name="R" unicode="R" horiz-adv-x="1083" 
d="M228 1580q94 -4 128 -4q4 0 12 4q22 -4 36 -4h68q68 -8 76 -8h68q166 -14 192 -24q17 0 84 -52q43 0 104 -120q32 -105 32 -172v-144q-27 -188 -64 -188l-64 -52v-4q55 -44 60 -52q60 -92 60 -108q8 -93 8 -100v-292q0 -22 -28 -56v-4q28 -23 28 -56v-84q0 -56 -104 -56
q-12 0 -28 -4q-54 4 -92 4h-140q-56 0 -56 64v28q0 23 8 80q-8 46 -8 64v68q0 36 8 68q-4 35 -4 60l16 48v12l-32 152q-17 32 -44 32q-20 -6 -20 -28v-24q0 -17 -8 -88q8 -63 8 -84v-56q-9 -175 -24 -236q20 -50 20 -128q-12 -32 -48 -32h-28q-32 0 -52 4q-27 -4 -44 -4
q-41 0 -64 4q-53 -4 -112 -4h-44q-56 0 -56 60q5 148 12 148q-8 17 -8 64v20q8 58 8 60q-8 43 -8 56v20q0 22 8 60q-8 40 -8 48q4 38 8 44q-4 4 -8 48q8 38 8 60v32q0 25 -12 80q8 39 20 76q-16 55 -16 76v332q0 26 8 56q-8 25 -12 160q0 72 64 72q60 4 84 4zM520 1224
l4 -48q0 -5 -8 -44q12 -54 12 -84q-8 -43 -8 -56q0 -25 32 -28q58 0 64 88q-12 84 -12 100q4 54 4 76t-68 36q-20 -9 -20 -40z" />
    <glyph glyph-name="S" unicode="S" horiz-adv-x="1037" 
d="M422 1636h4q296 0 396 -68q116 -76 116 -120q40 -85 40 -312q-7 -24 -36 -40q-74 4 -108 4h-108q-52 0 -136 -4q-18 0 -40 36q4 54 4 80v96q-10 20 -32 20h-4q-47 0 -56 -100q18 -116 40 -116q92 -92 144 -92q143 -93 248 -180q50 -60 80 -140q20 -46 28 -116l-4 -24
l8 -132q-15 -266 -88 -296q-128 -88 -136 -88q-109 -44 -184 -44h-60q-32 0 -48 28v4q0 52 64 60v16q0 6 -12 12h-4q-36 0 -84 -92q-22 -16 -40 -16q-149 26 -212 84q-60 24 -120 152q-16 53 -28 140l4 48q-8 38 -8 60v60q0 76 80 76h72q34 0 100 -12l76 12q92 -4 92 -44
q4 0 4 -4q-4 -56 -4 -72q0 -24 4 -84q-4 -22 -4 -36q4 -84 36 -84h20q56 14 56 104v16q0 75 -48 152q0 4 -372 260q-100 127 -116 240q-4 63 -16 120q28 229 80 296q59 67 160 108q90 32 152 32z" />
    <glyph glyph-name="T" unicode="T" horiz-adv-x="986" 
d="M84 1572h152q14 0 68 -8q46 8 64 8h80q47 0 64 -8q32 8 68 8h316q64 0 64 -92q4 -60 4 -100q0 -22 -20 -56v-8l12 -40v-8q0 -36 -48 -40h-12q-40 0 -100 4q-88 -7 -88 -72q-4 0 -4 -16v-12q0 -13 12 -52q-10 -72 -28 -72q-14 0 -32 16h-12l-4 -20q0 -25 52 -32
q24 -13 24 -44v-4q0 -19 -12 -68q8 -28 8 -44q0 -3 -20 -56q24 -19 24 -56q0 -11 -12 -56q4 -129 16 -148q-4 -67 -4 -104v-12q0 -28 8 -76q-8 -38 -8 -60v-12q0 -26 8 -56q-8 -30 -8 -56v-32l4 -24q-6 -64 -60 -64h-332q-60 0 -60 80v324q0 48 16 100q-16 58 -16 100v40
q0 28 8 76q-8 48 -8 76v408q0 18 -72 20q-50 -8 -84 -8h-28q-55 0 -64 68q8 32 8 48q0 17 -4 32q4 38 4 72v80q0 56 56 56zM572 708l8 -4h36q20 10 20 32l-20 4h-12q-32 0 -32 -32zM528 612q-8 -13 -8 -24h4q7 0 12 20z" />
    <glyph glyph-name="U" unicode="U" horiz-adv-x="1089" 
d="M176 1608q22 -4 36 -4h28q52 0 108 -4q22 4 44 4q112 -8 112 -28q8 0 8 -28v-328q-20 -140 -20 -168q-8 -1 -12 -28v-4q32 -68 32 -76v-104q0 -36 -8 -68q8 -30 8 -56v-172q-8 -90 -8 -96v-100q5 -52 40 -52h16q18 8 28 44q-4 104 -4 164v20q13 90 24 136q4 7 4 16v8
q-16 41 -20 100q8 65 8 84q0 4 -4 32q4 21 4 40q-16 53 -16 68q5 200 12 200q-11 37 -20 152q8 32 8 76v100q0 72 80 72q54 -12 72 -12h44q60 8 196 12q52 -16 52 -56v-80q0 -13 -24 -72q24 -55 24 -68v-40q-12 -88 -12 -108v-28q12 -75 12 -80v-8q-8 -58 -8 -64v-56
q0 -32 -4 -76q12 -38 12 -72v-64q0 -17 8 -88q-8 -57 -8 -80v-92q0 -42 -40 -152l12 -56q-17 -82 -100 -160q-115 -100 -292 -100q0 -8 -28 -8h-68q-61 0 -148 36q-88 0 -216 120q-70 97 -76 184v60q-8 68 -8 76q0 26 24 52v8q-28 21 -28 108v16q0 12 4 28q-4 80 -4 140v136
l16 68l-16 48v220q0 13 4 20l-4 24v188q0 72 88 72q23 0 28 4z" />
    <glyph glyph-name="V" unicode="V" horiz-adv-x="1120" 
d="M1010 1580q84 0 84 -64q-18 -126 -40 -160q4 -56 4 -96q-20 -85 -48 -352l-48 -276q-3 -1 -24 -36l16 -44l-16 -88l4 -36q-8 -58 -48 -228q0 -13 8 -64q-21 -136 -68 -136h-64q-47 0 -64 8q-32 -8 -68 -8h-36q-16 0 -68 12h-4q-52 -12 -56 -12h-196q-64 0 -64 116
q4 45 4 104q-48 141 -48 188q-40 255 -56 388q-4 64 -24 136q0 40 -8 112q0 30 68 56l4 8v4h-4q-26 -8 -36 -8h-4q-68 0 -68 136q-16 26 -32 244q0 88 48 88h24q61 -1 112 -24q26 17 140 24h56q88 0 88 -112q16 -179 44 -396q4 -77 4 -136q-16 -44 -16 -52q21 -58 36 -60
l4 8v32q48 335 56 480v80q5 152 40 152l24 4q55 -8 60 -8q40 8 52 8q40 -8 52 -8zM890 1304q6 -20 28 -20h4q6 0 16 16v8q-6 16 -28 16q-11 0 -20 -20z" />
    <glyph glyph-name="W" unicode="W" horiz-adv-x="1676" 
d="M274 1580h16q160 0 160 -72q0 -84 12 -112q-4 -41 -4 -48q20 -170 32 -376v-4q0 -17 -16 -52q8 -30 8 -36q0 -11 -20 -48q26 -16 36 -16q25 52 36 128l-8 52q58 540 72 540q0 44 108 44q4 0 92 -8h136q116 0 116 -72q4 -7 4 -20q0 -21 -4 -80q0 -17 36 -124
q0 -125 12 -168q-4 -93 -4 -96q14 -40 28 -172q12 0 24 192q8 0 20 184q20 59 20 164q27 188 72 188h8q36 -16 48 -16q57 20 84 20h40q52 0 108 -4q21 4 48 4q46 0 56 -60v-4q0 -12 -76 -652q-20 -137 -28 -224l-20 -120v-44q-26 -172 -52 -172v-8q20 -46 20 -52v-16
l-16 -72v-68q0 -80 -64 -80h-64q-60 10 -60 52l-8 4h-4q-7 0 -12 -36q-10 -8 -16 -8q-26 8 -36 8h-8q-46 -12 -140 -20h-84q-65 0 -84 136q0 19 -32 208q0 5 8 44q-32 65 -32 148q-8 64 -20 64h-4q-34 -240 -56 -240q-12 -15 -12 -28q16 -36 16 -56q-19 -252 -60 -252
q-111 -24 -132 -24h-328q-58 0 -68 84q-16 163 -56 468q0 38 -16 148l-8 76q4 55 4 68q-35 62 -64 452q-7 0 -8 44q0 24 4 72q0 19 -24 104v4q0 52 56 52h112q6 0 96 8z" />
    <glyph glyph-name="X" unicode="X" horiz-adv-x="1086" 
d="M136 1580q85 -8 100 -8h24q60 0 140 4q58 0 68 -44q0 -10 -36 -96l12 -8q3 0 24 4q17 -5 24 -20v-12q0 -17 -4 -44q40 -73 40 -84h12q21 84 68 84h12q4 0 32 -8h16q6 0 16 16v16q-14 4 -16 4l-20 -4q-72 13 -72 56q0 25 44 60v8q0 4 -8 32v12q16 24 36 24q32 -8 48 -8
l80 12q65 -4 116 -4h36q56 -5 56 -48q-52 -177 -64 -288q-40 -210 -72 -288q-8 -28 -8 -48v-32q56 -200 56 -220q-4 -35 -4 -44q40 -80 68 -200q73 -264 92 -360q0 -44 -60 -44q-29 0 -44 4q-44 -4 -80 -4h-116q-35 0 -52 28v8q0 27 52 48q4 7 4 16v4h-4q-28 -16 -40 -16h-8
q-34 0 -44 52q8 32 8 40v4q-75 40 -80 56q-17 30 -48 180q-10 0 -24 -168q-10 -31 -68 -76q32 -32 32 -52v-8q-35 -92 -80 -92h-12q-4 0 -28 28h-28q-10 0 -36 12q-8 0 -36 -52h-4q-19 0 -40 4q-60 -16 -92 -16h-16q-64 9 -64 60v8q0 21 40 192q20 146 60 348q12 58 48 84v4
q-15 49 -16 92q0 19 8 84l-12 92q12 36 12 48q-38 29 -60 144l-32 188q-15 39 -52 188q0 48 96 48zM304 1436v-12q7 -16 28 -16h20q8 0 8 8v8q0 22 -20 32h-16q-5 0 -20 -20zM384 1276q4 -7 4 -16h4q22 0 40 28v4l-4 20h-8q-36 -6 -36 -36zM704 1244v-12q2 -8 20 -16
q28 3 28 20q-15 30 -24 32q-6 0 -24 -24zM552 1196v-20q0 -6 12 -12h4q36 12 40 12l24 -4q32 11 32 48q-10 8 -16 8q-7 0 -64 -32h-32zM360 1112q0 -6 12 -12h8q24 0 44 44q4 0 12 4q16 -8 24 -8l4 8q0 15 -56 24h-8q-40 -6 -40 -60zM384 476l12 -8h16q31 0 36 16v4
q0 8 -12 8q-36 0 -52 -20zM752 152q0 -29 12 -32l12 16v8q0 6 -12 12q-8 -4 -12 -4z" />
    <glyph glyph-name="Y" unicode="Y" horiz-adv-x="960" 
d="M114 1572q38 -8 60 -8q46 8 64 8h8l132 -20q46 -56 76 -324q15 -80 24 -80q16 47 72 360q19 64 72 64h72q47 0 64 -8l24 4h4q26 0 52 -4q30 8 56 8h24q52 0 52 -56q0 -44 -60 -172q0 -50 -56 -188q0 -58 -120 -404q0 -24 -40 -144q-12 -42 -12 -84v-244q0 -63 -4 -128
q4 -15 4 -88q0 -64 -72 -64h-296q-52 4 -52 52v172q0 28 12 76q-8 52 -12 112q8 30 12 88q-4 35 -4 44q4 28 4 48q-25 0 -104 300q-10 8 -12 52v40q0 10 -32 60q-84 270 -84 356q-22 0 -36 96q-3 0 -16 24v16q4 32 28 32l40 -4q13 0 56 8z" />
    <glyph glyph-name="Z" unicode="Z" horiz-adv-x="906" 
d="M130 1576q86 -4 128 -4h112l104 -20q82 20 128 20h68q47 0 64 -8q27 4 44 4h16q52 -34 52 -84v-80q0 -176 -32 -260l-116 -344q-28 -25 -28 -104q-74 -174 -104 -324v-8q0 -6 12 -12h184q84 0 84 -56v-240q0 -56 -104 -56h-628q-48 0 -48 76q-16 29 -16 52v4
q12 65 16 164q32 50 84 268l200 640q-8 16 -20 16q-47 0 -96 -4q-124 11 -124 56q0 20 -20 88v24q12 52 12 68q0 19 -4 92q0 12 32 32z" />
    <glyph glyph-name="bracketleft" unicode="[" horiz-adv-x="758" 
 />
    <glyph glyph-name="backslash" unicode="\" horiz-adv-x="569" 
 />
    <glyph glyph-name="bracketright" unicode="]" horiz-adv-x="758" 
 />
    <glyph glyph-name="asciicircum" unicode="^" 
 />
    <glyph glyph-name="underscore" unicode="_" horiz-adv-x="1024" 
 />
    <glyph glyph-name="grave" unicode="`" horiz-adv-x="1024" 
 />
    <glyph glyph-name="a" unicode="a" horiz-adv-x="1131" 
d="M392 1576q32 -8 68 -8h12q6 0 96 8h256q56 0 56 -96q8 -26 36 -252q-4 -41 -4 -48q15 -21 36 -140q24 -120 36 -280q15 -3 20 -160q5 -2 16 -36q-4 -27 -4 -44q18 0 28 -220q36 -42 36 -140q8 0 8 -28v-24q-18 -108 -108 -108h-292q-48 0 -48 104q-12 69 -12 104v48
q0 22 -84 24q-28 -8 -28 -32v-76q-13 -136 -40 -136q-75 -36 -84 -36h-32q-44 0 -56 4q-38 -4 -72 -4h-152q-40 6 -40 36v8q17 152 36 248q13 51 48 76v8q-20 32 -20 68v76l52 408q24 93 36 260q32 192 40 316q11 68 68 68t92 4zM292 1040v-4q4 0 12 -4q31 0 60 40v8
q-44 0 -72 -40zM564 944q-19 -90 -40 -328q0 -16 20 -28h20q44 0 44 32v8l-28 240v44q0 30 -12 32h-4z" />
    <glyph glyph-name="b" unicode="b" horiz-adv-x="1177" 
d="M138 1568h8q98 0 128 -28h16q24 20 36 20l44 -16q36 8 44 8q35 -12 52 -12q68 24 112 24h44q20 0 64 -12q54 4 68 4q134 -27 188 -84q96 -118 96 -200q-8 -44 -8 -60q20 -41 20 -60v-28q0 -19 -4 -40q4 -15 4 -32q0 -103 -88 -176q-31 -15 -36 -28v-8q41 -57 100 -84
q52 -97 52 -180q0 -12 -20 -52q24 -35 24 -48q0 -26 -4 -52q8 -36 8 -52q-9 -139 -32 -204q-35 -92 -112 -128q-140 -40 -240 -40h-232q-68 0 -156 4q-18 -4 -64 -4q-100 0 -100 36v36q0 17 20 96q-8 50 -8 68q12 45 16 92q23 13 32 28v4q-15 56 -24 56h-12q-5 0 -48 -48h-4
q-11 0 -20 20q20 44 20 72q-8 71 -8 88q18 188 72 188q16 0 16 12v16q0 4 -8 32v12q0 6 16 12q75 -22 92 -32h8v4l-4 20l12 48q-34 26 -60 28q-6 -44 -20 -44h-8l-28 8q0 -10 -48 -56q-11 -40 -24 -40h-12q-14 5 -24 36q10 87 20 96l20 4h16q14 0 52 -24q17 32 44 32v36
q0 48 -56 48q0 2 -24 28v20q66 40 128 40q60 33 60 64v8q0 31 -16 36h-8q-9 -35 -24 -40h-20q-32 0 -52 52q-15 8 -36 8q-13 0 -68 -40h-8q-20 6 -20 28v20q0 11 16 56q-24 50 -24 112v108q0 84 44 84zM198 1476v-20q64 0 64 -52q14 -12 28 -12h16q25 0 48 20q-17 39 -24 40
q-23 -20 -40 -20q-11 0 -56 36q-24 7 -24 12q-8 -4 -12 -4zM442 1376v-4q0 -6 12 -12q7 4 12 4v8q0 6 -12 12h-4q-8 -1 -8 -8zM542 1244q0 -9 4 -44q-8 -57 -8 -64q8 -50 8 -84v-44q0 -31 16 -36h20q48 0 48 108v64q0 112 -56 112q-14 4 -16 4q-12 -3 -16 -16zM190 1160
q40 0 52 -56q0 -24 -32 -28h-44q-20 12 -20 28q7 56 44 56zM150 956h12q28 0 28 -28q0 -24 -28 -24t-28 28v8q0 6 16 16zM546 644v-288q0 -31 20 -40h12q52 0 52 88v212q-8 64 -64 64q-20 0 -20 -36z" />
    <glyph glyph-name="c" unicode="c" horiz-adv-x="1168" 
d="M498 1632h132q209 -24 260 -68q124 -68 180 -248q0 -18 8 -68q0 -10 -8 -48l20 -84l-16 -64q16 -35 16 -48q0 -108 -36 -108h-108q-36 0 -80 4q-14 -4 -52 -4l-52 16l-92 -8q-32 10 -32 64v4q0 50 12 116q-12 58 -12 72q0 23 8 80q-7 88 -48 88h-12q-46 0 -52 -120v-8
q0 -18 4 -92q0 -21 -4 -68q4 -54 4 -76q0 -34 -4 -72q4 -65 4 -148q0 -60 -16 -124q16 -50 16 -112q-4 -60 -4 -84q15 -124 36 -124h24q38 0 44 56v264q0 60 40 60h24q68 8 76 8h208q104 0 104 -56v-44q0 -60 -12 -148v-40q0 -62 -68 -84q-11 -15 -16 -40q0 -2 24 -56v-4
q0 -59 -112 -128q-13 0 -144 -72q-51 -16 -168 -16h-44q-248 31 -248 56q-36 0 -92 80q-108 104 -108 232q-7 0 -8 60v96q0 23 -8 80q0 29 24 100q-16 45 -16 56v68q-8 70 -8 72q8 192 8 252v72q0 99 64 208q21 20 72 88q121 80 160 80q61 32 108 32zM254 1000l-4 -8l8 -4
l4 8z" />
    <glyph glyph-name="d" unicode="d" horiz-adv-x="1146" 
d="M374 1576q47 -8 88 -12q43 12 64 12q57 -16 140 -20q34 8 44 8q216 -43 216 -72q116 -82 116 -132q16 0 32 -152l-24 -64q28 -53 28 -88q-8 -37 -8 -64q2 -48 8 -48l-4 -20q4 -115 4 -148q-8 -85 -8 -108q0 -61 4 -168q-4 -90 -16 -124q12 -26 12 -56v-20
q-26 -156 -48 -156q-65 -108 -120 -108q-79 -36 -196 -36h-220q-60 0 -100 4q-28 -4 -92 -4h-156q-36 0 -40 48v248q0 55 -4 144q8 31 32 56q-28 62 -28 76v224q-8 97 -8 108v48q8 147 20 188l-20 100q8 47 8 80q0 26 -4 68q4 34 4 56l-4 64q10 56 56 56q224 4 224 12z
M530 1132q8 -43 8 -56v-152q0 -50 -4 -124q12 -52 12 -80v-20q0 -27 -20 -76v-4q20 -66 20 -116v-44q0 -14 -8 -68q0 -76 36 -76q43 0 52 136q11 13 16 48q-16 48 -16 60v8q23 92 52 92l24 32v8q-35 -4 -40 -4q-40 21 -40 56q8 38 8 60v12q-8 68 -8 76v60q8 68 8 76v8
q0 17 -4 44q0 48 116 48q12 0 68 -12h16q44 12 44 24v12q-42 16 -52 16l-104 -12h-20q-60 0 -80 56q0 25 -36 32h-16q-15 0 -32 -120zM414 612v-20h4q21 0 24 12v4q0 8 -8 8z" />
    <glyph glyph-name="e" unicode="e" horiz-adv-x="906" 
d="M150 1576h204q46 0 84 -4q22 4 80 4q54 0 88 -4q31 4 96 4h16q92 0 92 -56v-252q-5 -40 -40 -40h-180q-47 0 -56 -60q-40 -24 -40 -44v-12q48 -2 48 -48v-52q3 -40 20 -40q56 4 96 4q128 -7 128 -24q8 -20 8 -28l-12 -64q16 -74 16 -140q0 -80 -60 -80h-20q-41 0 -64 4
q-112 0 -112 -44v-208q0 -44 36 -44h220q40 0 48 -72q-8 -42 -8 -64q8 -48 8 -56q0 -16 -8 -52l8 -48q-11 -52 -44 -52h-48q-22 0 -80 12q-37 -12 -68 -12h-20q-42 0 -128 -4v4l-8 -4q-22 0 -56 4q-41 -4 -48 -4q-14 0 -36 4q-65 -4 -116 -4h-56q-48 0 -48 100q4 64 12 100
q-8 30 -8 56v204q0 26 8 56q-8 40 -8 72v184q0 16 12 68v4q0 6 -16 52q4 134 12 216v4q-8 68 -8 76v188q0 19 -4 40q4 15 4 36v56q0 64 56 64z" />
    <glyph glyph-name="f" unicode="f" horiz-adv-x="883" 
d="M264 1576q127 -12 140 -12q31 0 188 12h44q49 0 120 -4q16 4 28 4q44 0 52 -60v-64q-16 -122 -16 -148q12 -20 12 -32v-8q-5 -36 -36 -36h-40q-12 0 -48 12q-22 -4 -32 -4q-20 12 -32 12q-35 -16 -88 -32q-43 -42 -52 -100q-6 0 -16 -16v-8q0 -12 48 -28q10 -18 20 -76
q16 -13 88 -20q60 8 64 8q92 -8 92 -44v-96q0 -72 8 -140q0 -56 -56 -56h-168q-36 -5 -36 -36v-32q0 -56 -36 -56q-17 0 -128 28q-6 0 -12 -12v-8q0 -14 148 -52q32 0 32 -128q0 -50 -4 -124l12 -60q-9 -148 -36 -148q0 -12 -116 -12h-248q-52 0 -52 44v432q0 51 4 116
q-4 15 -4 88v48q0 36 -8 68q0 70 108 108q27 21 52 72q36 20 56 20q51 -20 64 -20h24q21 0 24 12q-16 28 -16 40v4q0 9 12 52q-3 12 -16 16q-15 -1 -32 -40q-12 -9 -68 -20q-39 -32 -156 -68h-4q-40 5 -40 40v464q0 92 64 92q21 0 92 8zM200 572q1 -8 8 -8h12v8q0 8 -8 8h-4
q-8 -1 -8 -8z" />
    <glyph glyph-name="g" unicode="g" horiz-adv-x="1160" 
d="M522 1640h120q170 0 344 -152q66 -93 76 -176q-12 -33 -12 -56q28 -46 28 -96v-84q0 -68 -44 -68h-196q-9 0 -52 12q-51 -12 -76 -12h-36q-48 0 -48 124q-4 0 -4 36v124q-8 56 -44 56h-4q-16 0 -36 -112q-20 -27 -20 -48q20 -42 20 -60v-8q0 -12 -12 -48q8 -30 8 -40
q-8 -36 -8 -40q20 -66 20 -120q-12 -175 -12 -224q4 -21 4 -40q-12 -30 -12 -44q11 0 24 -216q14 -36 40 -36q56 0 56 228q4 0 4 36q0 55 -60 72q-20 10 -20 32v120l4 24q-12 26 -12 48q17 36 48 36q15 0 60 -8q46 8 56 8q51 -8 96 -8h28q6 0 52 -20l40 12l40 -4q5 0 44 8
q52 0 52 -76v-312q0 -29 -12 -68v-8l12 -60l-8 -52q8 -42 8 -64q-8 -54 -8 -68q0 -16 8 -48q-7 -96 -40 -96q-22 -8 -80 -8q-26 0 -52 4q-23 -4 -64 -4h-12q-44 0 -72 60q-8 4 -12 4q-91 -84 -136 -84q-67 -16 -76 -16q-7 0 -56 28q-40 -12 -56 -12q-81 0 -228 128
q-96 125 -96 284v184q0 45 -4 116q12 48 12 64q-16 67 -16 128q0 36 8 60l-4 36q0 296 24 296q12 91 44 148q137 168 316 168q21 11 44 12zM398 1404h8q8 0 8 8v16q-16 -4 -16 -24zM750 784v-16h4q30 15 36 28v12q0 6 -16 12q-24 -10 -24 -36z" />
    <glyph glyph-name="h" unicode="h" horiz-adv-x="1143" 
d="M694 1576h76q276 -13 276 -24q16 -17 16 -60l-12 -104q0 -9 12 -72q-12 -80 -40 -80v-4q16 -21 16 -36v-12q0 -8 -8 -40q28 -69 28 -80q0 -17 -4 -44l12 -52q0 -149 -24 -224q0 -15 16 -80q-16 -44 -16 -56q20 -49 28 -116q0 -3 -12 -64q4 -97 4 -148q0 -12 4 -28
q-4 -71 -12 -112q8 -40 8 -72q0 -68 -60 -68h-276q-62 28 -88 28q-24 21 -24 64v200q0 30 36 72q-24 33 -28 48q0 9 4 16q0 26 -12 148v40q0 11 -32 56v12h-4q-23 0 -52 -36l12 -56l-12 -36q4 -71 4 -116v-44q0 -22 12 -60v-32q0 -20 -12 -68q8 -32 8 -68v-24
q-7 -136 -44 -136q-16 -8 -44 -8h-136q-11 0 -60 16q-38 -12 -48 -12q-108 4 -108 48q-8 16 -8 44v144q0 19 8 64q-8 139 -8 212v116q0 24 16 72v8q0 14 -16 60q0 3 4 24q-4 66 -4 100q0 3 20 56q-20 55 -20 68v156q0 21 8 84q-8 57 -8 80v12q0 37 24 72q-24 43 -24 64v32
q7 52 44 52q48 -2 48 -8l48 4h112q45 0 116 4q84 -9 84 -60q0 -14 -4 -36l4 -36q-4 -188 -16 -244q4 -8 16 -56l-20 -84q0 -36 32 -36h8q52 5 52 40v68q0 134 -4 384q25 64 84 64zM978 1240v-4q0 -8 12 -8q24 4 24 12l-16 12h-8q-6 0 -12 -12z" />
    <glyph glyph-name="i" unicode="i" horiz-adv-x="630" 
d="M142 1576q136 -4 136 -24q21 -20 36 -20h8q14 0 104 40q7 4 20 4h12q80 0 80 -80q4 -18 4 -64q0 -21 -16 -124q8 -54 8 -68l-4 -40q12 -48 12 -76v-60q0 -31 -4 -56q4 -19 4 -52v-8q0 -11 -16 -60v-8q16 -65 16 -80q-8 -36 -8 -40q16 -79 16 -100q-8 -38 -8 -60v-68
q0 -97 -116 -196v-24q4 0 12 -4q24 9 64 44h8q32 -7 32 -52v-16q0 -32 -4 -52q4 -25 4 -56v-8q0 -20 -12 -68q4 -26 4 -52q0 -33 -40 -48l-48 4h-76q-49 0 -76 40h-8q-67 -32 -80 -32q-51 -8 -64 -8q-47 0 -52 56q8 36 12 124q-12 27 -12 44v688q0 17 8 88q-8 48 -8 52
q20 64 20 72q-12 30 -20 132v20q0 8 8 76q-8 63 -8 84v20q0 116 52 116zM286 1204v-12h28q21 0 24 12v8q0 8 -8 8q-37 -16 -44 -16z" />
    <glyph glyph-name="j" unicode="j" horiz-adv-x="744" 
d="M432 1572l48 -8q54 4 92 4h16q42 0 60 -80v-36q0 -52 -8 -72l8 -48q0 -13 -4 -20q4 -71 4 -116v-140q0 -67 -56 -96v-8q56 -41 56 -80v-136q-8 -39 -8 -44q0 -13 8 -56q-8 -68 -12 -168l12 -32l-4 -40q4 -67 4 -104q-9 -140 -64 -140l-4 -8q8 -13 8 -24v-4q0 -38 -80 -80
q-41 -24 -172 -36h-232q-60 0 -60 56v124q0 32 -4 76q0 27 40 44q46 -16 52 -16h8q37 42 68 56q4 7 4 16q-16 49 -16 60v532l12 60q0 6 -12 60v56q0 41 4 64q-4 23 -4 64v52q12 52 12 56v4q0 4 -12 56v64q0 75 96 84h4q53 0 136 4zM564 492q-16 -31 -16 -40v-8h4q21 0 32 20
l-8 28h-12z" />
    <glyph glyph-name="k" unicode="k" horiz-adv-x="1165" 
d="M156 1576l64 -4q56 4 72 4q51 -8 60 -8q57 8 80 8h44q84 0 84 -68v-92q-8 -118 -8 -128v-28q0 -5 -16 -64v-4q2 -25 24 -48q18 46 68 72q-24 25 -24 40q78 312 120 312q15 8 32 8h252q72 0 72 -96l4 -20q-48 -97 -48 -116q-12 -95 -56 -188q-15 0 -24 -92
q-13 -53 -72 -116v-12q10 -106 28 -172q49 -144 64 -216q76 -231 76 -272q0 -26 28 -72q40 -95 40 -140v-8q0 -56 -56 -56h-8q-49 0 -60 4q-44 -4 -80 -4h-200q-64 16 -64 144q0 13 -24 76q-4 22 -4 32q0 39 48 64v4q-35 -4 -40 -4q-36 0 -40 48v16q0 10 12 36q0 6 -44 44
h-4q0 -26 -24 -116v-28q0 -4 20 -48v-44q0 -16 -12 -68v-8q12 -96 12 -108q-17 -36 -56 -36q-33 4 -40 8q-22 -4 -36 -4h-4q-14 0 -36 4q-26 -12 -48 -12l-64 12q-8 -4 -12 -4q-35 16 -40 16q-13 -8 -20 -8q-68 3 -68 20v8l20 28v4q0 10 -40 68v72q0 28 -8 76q0 59 44 68
q28 3 28 12q0 7 -16 48l24 72l-8 4q-28 -8 -32 -8q-32 2 -32 32q0 14 4 36l-4 64q4 64 4 76q-8 30 -8 56q0 29 8 52q-4 74 -4 124v80q0 38 4 76l-8 100l8 288q-4 11 -4 60q0 31 48 44zM724 552q16 8 16 24q-16 -8 -16 -24zM388 220v-4q1 -8 8 -8q16 4 16 20l-8 4h-4
q-6 0 -12 -12z" />
    <glyph glyph-name="l" unicode="l" horiz-adv-x="806" 
d="M286 1576q44 0 80 -4q38 4 104 4h16q56 -6 56 -44l-4 -48l12 -72l-12 -68q0 -14 4 -36q-4 -46 -4 -88q0 -10 4 -32l-4 -20q0 -5 4 -40q0 -14 -4 -36q4 -50 4 -60q0 -26 -4 -80q4 -50 4 -100q0 -4 -4 -12q4 -8 4 -12q0 -30 -8 -148l8 -108q-4 -22 -4 -36q0 -12 4 -28
q0 -128 -44 -128q-28 0 -28 -8q0 -6 16 -16l8 4h8l84 -20q17 8 64 8h84q56 0 56 -108v-24q0 -16 -4 -72l4 -20q0 -124 -56 -124h-4q-32 0 -32 4q-60 -4 -88 -4h-464q-50 0 -56 60v120q0 41 44 76v20q-24 30 -24 44q4 50 4 56q-16 30 -16 40q3 24 80 64q4 7 4 16v12l-20 4
q-25 -8 -40 -8q-28 0 -32 124v136q0 23 8 80q-8 48 -8 76v68q0 17 8 88q-8 46 -8 64v212q0 19 8 64q-8 38 -8 60v28q0 64 64 64h28q100 8 104 8z" />
    <glyph glyph-name="m" unicode="m" horiz-adv-x="1442" 
d="M132 1576l40 -4q66 4 100 4q68 -8 68 -12q90 12 136 12h4q160 -5 160 -40q56 -175 56 -324q16 -70 28 -144h4q19 0 40 252q20 52 20 160q11 88 48 88h36q6 0 96 8h12q71 0 116 -4q35 4 92 4q19 0 48 -12q41 4 64 4h32q36 -5 36 -36v-20q-8 -28 -8 -32v-16q0 -11 8 -24
q-4 -70 -4 -84q12 -84 12 -108v-24q0 -160 -52 -160q0 -4 -8 -4v-4q0 -27 52 -88q0 -10 -8 -108q16 -101 16 -124q-12 -128 -12 -140v-8q0 -32 4 -84q-8 -15 -8 -32t4 -44q-12 -26 -12 -48q16 -26 16 -52q0 -23 -4 -64q12 -48 12 -76v-92q0 -96 -56 -96q-107 32 -128 32
q-31 -24 -132 -24q0 -8 -28 -8h-4q-56 0 -56 132q0 16 8 84q-8 50 -8 84v4q0 40 24 72v16q-12 42 -12 44q12 26 12 36q-20 40 -20 48q0 17 4 44q-4 46 -4 88l-8 4l-24 -92v-12q0 -9 4 -16q-16 -148 -40 -148q0 -8 -36 -36l-4 -8q40 -58 40 -80v-32q-27 -216 -52 -216
q-29 -16 -96 -16h-120q-47 0 -64 60q-20 155 -36 236q-12 128 -32 252q0 40 48 40q21 0 40 24q0 6 -16 16h-8l-40 -12q-32 0 -40 44q0 30 88 68q57 0 108 56h-20q-60 0 -136 -24h-44q-14 0 -32 -68q-21 -16 -36 -16h-4q-6 0 -52 20h-4q-26 0 -132 -52l-84 -24q-35 0 -56 68
v16q0 14 12 48q-12 32 -20 144q0 52 36 88v4q-28 25 -28 52v12q0 43 4 68q-12 180 -12 228v132q0 96 52 96zM952 872v-32q0 -30 16 -32q16 50 52 68q26 0 32 36v12q0 6 -16 12q-84 -30 -84 -64zM700 788h8q68 4 68 24v8h-4q-37 0 -72 -32zM356 652q15 0 40 -20h28
q52 0 52 -84q12 -62 12 -72q-16 -72 -16 -96v-68l16 -112v-100q0 -100 -64 -100h-28q-11 0 -76 12q-36 -12 -48 -12h-140q-52 0 -52 76v416q0 96 92 96q28 32 184 64z" />
    <glyph glyph-name="n" unicode="n" horiz-adv-x="1106" 
d="M126 1576q117 -4 164 -12l52 8q16 0 68 -24l20 12h8q30 0 56 -84q44 -94 44 -144v-24q64 -133 64 -144q29 -88 40 -92q13 0 20 68v4q0 32 -8 72q8 40 8 68q-12 111 -12 136q4 124 32 124h8l40 -4q32 36 96 36l64 -24q40 20 64 20q84 -7 84 -48v-56q0 -51 -12 -116
q12 -36 12 -48v-64q0 -34 -16 -80q0 -6 4 -64q-4 -38 -8 -44q20 -60 20 -72q0 -136 -20 -304q16 -83 20 -176q0 -20 -16 -128q4 -145 12 -168q0 -21 -40 -48l40 -44l4 -24v-32q0 -56 -56 -56h-292q-55 0 -76 96q0 35 -28 104q0 31 -52 168q0 20 -48 132h-8l-4 -20v-40
q0 -23 -8 -80q8 -38 8 -60v-128q0 -28 -12 -76q8 -21 12 -52q0 -37 -56 -44h-272q-56 0 -56 52v1128q0 32 8 72q-8 40 -8 72v204q0 27 36 48zM750 1500q0 -29 60 -92q17 6 24 20v8q-43 64 -76 64h-8zM786 1348q0 -4 -4 -12q4 -7 4 -16h12v28h-12zM782 1200v-16
q24 -40 48 -40q44 55 44 92q-8 0 -8 8l-28 -4h-12l-20 16h-4q-10 0 -20 -56zM822 1092v-4q5 -69 48 -124q0 -2 4 -16q0 -10 -36 -48v-8q1 -8 8 -8q72 9 72 68q4 7 4 20v20q0 5 -48 32v16l8 28q-48 24 -56 24h-4zM762 1028v-8h4v8h-4zM174 840v-4q0 -8 12 -8q20 12 32 12
l28 -4q8 10 8 12v16q0 21 -12 24h-4q-64 -19 -64 -48zM202 720v-12q0 -21 16 -28h4q6 0 24 32v16l-20 4q-24 -2 -24 -12zM834 632q12 -20 12 -40v-8q0 -5 -24 -60v-12q45 -56 48 -56h8q6 0 12 12v12q0 15 -16 108l8 52q-8 18 -16 20h-4q-28 0 -28 -28zM626 620v-4
q0 -6 12 -12h4q12 4 12 24q-6 16 -12 16h-4q-12 -4 -12 -24zM330 344v-8q9 -36 20 -36q8 0 8 8v12q-10 17 -28 24z" />
    <glyph glyph-name="o" unicode="o" horiz-adv-x="1049" 
d="M458 1636h116q186 0 336 -160q43 -72 72 -232q12 -12 12 -52v-92q0 -24 -16 -76v-4q0 -12 16 -56q-16 -72 -16 -88l12 -48q0 -14 -24 -60q28 -37 28 -56q0 -54 -4 -64q4 -60 4 -100v-132q0 -74 -52 -196q-59 -64 -80 -108q-82 -52 -116 -52q-15 8 -32 8q0 -49 -88 -56
q-58 -12 -72 -12h-52q-196 22 -196 52q-7 0 -20 8l-20 -4q-94 0 -124 168q-16 0 -32 60q8 28 8 44q-2 15 -72 40l-4 20v4q0 4 16 48q-12 50 -20 124q8 46 8 64q-16 26 -16 60v8q0 54 28 68h8q7 0 36 -12q24 57 32 136q15 13 24 60q-12 47 -12 56v8q16 45 16 56v4
q0 28 -48 28q-12 15 -12 28q0 26 48 60q-11 21 -16 44q1 32 32 100q0 25 -68 44q-8 10 -8 12q0 30 56 52q0 104 92 140h12q13 -4 32 -4q32 56 128 56q12 4 48 4zM282 1544q0 -31 -8 -56v-16q3 -24 12 -24h8v8q0 13 -8 56l4 28zM282 1368v-32l8 -12q24 10 24 36q0 22 -16 32
h-4q-12 -4 -12 -24zM78 1344h4q36 0 36 -44q-7 -18 -28 -40q4 -27 4 -44q0 -6 -16 -16h-16q-19 0 -24 56q21 88 40 88zM446 1180q16 -34 16 -44v-12q0 -38 8 -104q-16 -92 -32 -136v-4q28 -81 28 -104q-8 -51 -8 -60q8 -42 8 -44l-16 -64q0 -5 8 -44l-4 -28q8 -30 8 -36
q-5 -164 -24 -164v-12q9 0 72 -24h16q9 0 28 84q36 33 36 52q-40 30 -40 84v116q0 17 12 88q-12 49 -12 68v24q0 50 4 92q-4 28 -4 48t4 60q-4 53 -4 112q0 12 8 80q-12 128 -40 128h-16q-22 0 -48 -140q-5 0 -8 -16zM678 1188v-8q1 -8 8 -8l4 8v8h-12zM666 1036v-8
q1 -8 8 -8h8l4 20v20h-8q-12 -4 -12 -24zM298 652v-4q17 -20 48 -20l4 8v4q0 11 -40 16q-8 -4 -12 -4zM186 404q4 -8 4 -12h16q14 0 60 40q11 0 20 20q-4 22 -4 36q0 20 28 68v4q-10 20 -32 20h-4q-7 0 -20 -56q-11 -2 -32 -88q-36 -26 -36 -32zM82 496q0 -56 16 -56h4
q24 16 24 40q-5 32 -24 32q-18 -8 -20 -16zM622 312v-12q0 -22 24 -36l4 8q-12 40 -12 52h-4q-6 0 -12 -12zM646 156l-4 -8q0 -31 68 -52v12q0 43 -64 48z" />
    <glyph glyph-name="p" unicode="p" horiz-adv-x="1026" 
d="M292 1576q57 0 116 -24q48 20 80 20q287 -17 332 -48q99 -43 140 -128q27 -89 36 -232v-68q0 -47 -8 -64q8 -36 8 -52q-9 -123 -28 -176q0 -79 -104 -120q-43 -64 -172 -64q-27 0 -72 12q-35 -15 -92 -24q-8 -12 -8 -28q0 -58 4 -176l-12 -28q20 -59 20 -72v-200
q-13 -104 -72 -104h-188q-40 0 -100 4q-14 -4 -44 -4q-42 0 -48 52v224q0 32 8 72q-8 40 -8 80v60q0 64 4 92q-4 40 -4 100v140q12 54 12 60q-12 50 -12 64l20 60q-20 44 -20 60v188q0 40 8 80q-8 32 -8 68v84q0 88 80 88q22 0 76 -4q43 8 56 8zM528 1228q0 -18 4 -52
q-8 -80 -8 -152v-4q0 -96 16 -96h8q50 0 56 60v212q-8 60 -52 60q-24 -9 -24 -28z" />
    <glyph glyph-name="q" unicode="q" horiz-adv-x="1069" 
d="M488 1626h64q14 0 88 -16q3 0 24 4q152 -41 196 -84q84 -44 128 -180q18 -31 32 -152v-12q0 -34 -60 -64v-8q56 -29 56 -68l-4 -36q8 -34 8 -40q0 -8 -16 -48q20 -49 20 -76v-100q-8 -90 -8 -96v-268q0 -83 -84 -200q-91 -51 -148 -72l-4 -8v-16q0 -21 184 -32
q52 0 52 -60q8 -18 8 -64q-24 -80 -80 -80h-48q-16 0 -68 -12h-12q-78 0 -132 12q-38 -8 -60 -8h-20q-160 0 -160 172q-162 38 -224 76q-93 57 -132 160q-44 189 -44 292v180q0 49 16 116q-20 79 -20 152q5 136 12 136q-4 27 -4 44v8q0 21 16 76q0 6 -4 56q5 41 88 164
q45 56 96 68q26 48 96 48q0 12 96 24q8 10 52 12zM492 1234v-192q0 -64 -48 -76q-18 -8 -20 -16v-4q0 -5 44 -20l12 -16v-4q0 -7 -16 -44q28 -22 28 -52v-148q0 -47 -8 -64q8 -30 8 -56v-112q5 -128 24 -128q8 0 8 -4q48 0 48 128q4 41 4 140v120q0 70 -4 88q4 45 4 104v340
q0 100 -44 100q-40 -17 -40 -84zM352 826v-4h4q44 12 44 24v4q0 8 -8 8h-8q-32 0 -32 -32z" />
    <glyph glyph-name="r" unicode="r" horiz-adv-x="1083" 
d="M228 1580q94 -4 128 -4q4 0 12 4q22 -4 36 -4h68q68 -8 76 -8h68q166 -14 192 -24q17 0 84 -52q43 0 104 -120q32 -105 32 -172v-144q-27 -188 -64 -188l-64 -52v-4q55 -44 60 -52q60 -92 60 -108q8 -93 8 -100v-292q0 -22 -28 -56v-4q28 -23 28 -56v-84q0 -56 -104 -56
q-12 0 -28 -4q-54 4 -92 4h-140q-56 0 -56 64v28q0 23 8 80q-8 46 -8 64v68q0 36 8 68q-4 35 -4 60l16 48v12l-32 152q-17 32 -44 32q-20 -6 -20 -28v-24q0 -17 -8 -88q8 -63 8 -84v-56q-9 -175 -24 -236q20 -50 20 -128q-12 -32 -48 -32h-28q-32 0 -52 4q-27 -4 -44 -4
q-41 0 -64 4q-53 -4 -112 -4h-44q-56 0 -56 60q5 148 12 148q-8 17 -8 64v20q8 58 8 60q-8 43 -8 56v20q0 22 8 60q-8 40 -8 48q4 38 8 44q-4 4 -8 48q8 38 8 60v32q0 25 -12 80q8 39 20 76q-16 55 -16 76v332q0 26 8 56q-8 25 -12 160q0 72 64 72q60 4 84 4zM520 1224
l4 -48q0 -5 -8 -44q12 -54 12 -84q-8 -43 -8 -56q0 -25 32 -28q58 0 64 88q-12 84 -12 100q4 54 4 76t-68 36q-20 -9 -20 -40z" />
    <glyph glyph-name="s" unicode="s" horiz-adv-x="1037" 
d="M422 1636h4q296 0 396 -68q116 -76 116 -120q40 -85 40 -312q-7 -24 -36 -40q-74 4 -108 4h-108q-52 0 -136 -4q-18 0 -40 36q4 54 4 80v96q-10 20 -32 20h-4q-47 0 -56 -100q18 -116 40 -116q92 -92 144 -92q143 -93 248 -180q50 -60 80 -140q20 -46 28 -116l-4 -24
l8 -132q-15 -266 -88 -296q-128 -88 -136 -88q-109 -44 -184 -44h-60q-32 0 -48 28v4q0 52 64 60v16q0 6 -12 12h-4q-36 0 -84 -92q-22 -16 -40 -16q-149 26 -212 84q-60 24 -120 152q-16 53 -28 140l4 48q-8 38 -8 60v60q0 76 80 76h72q34 0 100 -12l76 12q92 -4 92 -44
q4 0 4 -4q-4 -56 -4 -72q0 -24 4 -84q-4 -22 -4 -36q4 -84 36 -84h20q56 14 56 104v16q0 75 -48 152q0 4 -372 260q-100 127 -116 240q-4 63 -16 120q28 229 80 296q59 67 160 108q90 32 152 32z" />
    <glyph glyph-name="t" unicode="t" horiz-adv-x="986" 
d="M84 1572h152q14 0 68 -8q46 8 64 8h80q47 0 64 -8q32 8 68 8h316q64 0 64 -92q4 -60 4 -100q0 -22 -20 -56v-8l12 -40v-8q0 -36 -48 -40h-12q-40 0 -100 4q-88 -7 -88 -72q-4 0 -4 -16v-12q0 -13 12 -52q-10 -72 -28 -72q-14 0 -32 16h-12l-4 -20q0 -25 52 -32
q24 -13 24 -44v-4q0 -19 -12 -68q8 -28 8 -44q0 -3 -20 -56q24 -19 24 -56q0 -11 -12 -56q4 -129 16 -148q-4 -67 -4 -104v-12q0 -28 8 -76q-8 -38 -8 -60v-12q0 -26 8 -56q-8 -30 -8 -56v-32l4 -24q-6 -64 -60 -64h-332q-60 0 -60 80v324q0 48 16 100q-16 58 -16 100v40
q0 28 8 76q-8 48 -8 76v408q0 18 -72 20q-50 -8 -84 -8h-28q-55 0 -64 68q8 32 8 48q0 17 -4 32q4 38 4 72v80q0 56 56 56zM572 708l8 -4h36q20 10 20 32l-20 4h-12q-32 0 -32 -32zM528 612q-8 -13 -8 -24h4q7 0 12 20z" />
    <glyph glyph-name="u" unicode="u" horiz-adv-x="1089" 
d="M176 1608q22 -4 36 -4h28q52 0 108 -4q22 4 44 4q112 -8 112 -28q8 0 8 -28v-328q-20 -140 -20 -168q-8 -1 -12 -28v-4q32 -68 32 -76v-104q0 -36 -8 -68q8 -30 8 -56v-172q-8 -90 -8 -96v-100q5 -52 40 -52h16q18 8 28 44q-4 104 -4 164v20q13 90 24 136q4 7 4 16v8
q-16 41 -20 100q8 65 8 84q0 4 -4 32q4 21 4 40q-16 53 -16 68q5 200 12 200q-11 37 -20 152q8 32 8 76v100q0 72 80 72q54 -12 72 -12h44q60 8 196 12q52 -16 52 -56v-80q0 -13 -24 -72q24 -55 24 -68v-40q-12 -88 -12 -108v-28q12 -75 12 -80v-8q-8 -58 -8 -64v-56
q0 -32 -4 -76q12 -38 12 -72v-64q0 -17 8 -88q-8 -57 -8 -80v-92q0 -42 -40 -152l12 -56q-17 -82 -100 -160q-115 -100 -292 -100q0 -8 -28 -8h-68q-61 0 -148 36q-88 0 -216 120q-70 97 -76 184v60q-8 68 -8 76q0 26 24 52v8q-28 21 -28 108v16q0 12 4 28q-4 80 -4 140v136
l16 68l-16 48v220q0 13 4 20l-4 24v188q0 72 88 72q23 0 28 4z" />
    <glyph glyph-name="v" unicode="v" horiz-adv-x="1120" 
d="M1010 1580q84 0 84 -64q-18 -126 -40 -160q4 -56 4 -96q-20 -85 -48 -352l-48 -276q-3 -1 -24 -36l16 -44l-16 -88l4 -36q-8 -58 -48 -228q0 -13 8 -64q-21 -136 -68 -136h-64q-47 0 -64 8q-32 -8 -68 -8h-36q-16 0 -68 12h-4q-52 -12 -56 -12h-196q-64 0 -64 116
q4 45 4 104q-48 141 -48 188q-40 255 -56 388q-4 64 -24 136q0 40 -8 112q0 30 68 56l4 8v4h-4q-26 -8 -36 -8h-4q-68 0 -68 136q-16 26 -32 244q0 88 48 88h24q61 -1 112 -24q26 17 140 24h56q88 0 88 -112q16 -179 44 -396q4 -77 4 -136q-16 -44 -16 -52q21 -58 36 -60
l4 8v32q48 335 56 480v80q5 152 40 152l24 4q55 -8 60 -8q40 8 52 8q40 -8 52 -8zM890 1304q6 -20 28 -20h4q6 0 16 16v8q-6 16 -28 16q-11 0 -20 -20z" />
    <glyph glyph-name="w" unicode="w" horiz-adv-x="1676" 
d="M274 1580h16q160 0 160 -72q0 -84 12 -112q-4 -41 -4 -48q20 -170 32 -376v-4q0 -17 -16 -52q8 -30 8 -36q0 -11 -20 -48q26 -16 36 -16q25 52 36 128l-8 52q58 540 72 540q0 44 108 44q4 0 92 -8h136q116 0 116 -72q4 -7 4 -20q0 -21 -4 -80q0 -17 36 -124
q0 -125 12 -168q-4 -93 -4 -96q14 -40 28 -172q12 0 24 192q8 0 20 184q20 59 20 164q27 188 72 188h8q36 -16 48 -16q57 20 84 20h40q52 0 108 -4q21 4 48 4q46 0 56 -60v-4q0 -12 -76 -652q-20 -137 -28 -224l-20 -120v-44q-26 -172 -52 -172v-8q20 -46 20 -52v-16
l-16 -72v-68q0 -80 -64 -80h-64q-60 10 -60 52l-8 4h-4q-7 0 -12 -36q-10 -8 -16 -8q-26 8 -36 8h-8q-46 -12 -140 -20h-84q-65 0 -84 136q0 19 -32 208q0 5 8 44q-32 65 -32 148q-8 64 -20 64h-4q-34 -240 -56 -240q-12 -15 -12 -28q16 -36 16 -56q-19 -252 -60 -252
q-111 -24 -132 -24h-328q-58 0 -68 84q-16 163 -56 468q0 38 -16 148l-8 76q4 55 4 68q-35 62 -64 452q-7 0 -8 44q0 24 4 72q0 19 -24 104v4q0 52 56 52h112q6 0 96 8z" />
    <glyph glyph-name="x" unicode="x" horiz-adv-x="1086" 
d="M136 1580q85 -8 100 -8h24q60 0 140 4q58 0 68 -44q0 -10 -36 -96l12 -8q3 0 24 4q17 -5 24 -20v-12q0 -17 -4 -44q40 -73 40 -84h12q21 84 68 84h12q4 0 32 -8h16q6 0 16 16v16q-14 4 -16 4l-20 -4q-72 13 -72 56q0 25 44 60v8q0 4 -8 32v12q16 24 36 24q32 -8 48 -8
l80 12q65 -4 116 -4h36q56 -5 56 -48q-52 -177 -64 -288q-40 -210 -72 -288q-8 -28 -8 -48v-32q56 -200 56 -220q-4 -35 -4 -44q40 -80 68 -200q73 -264 92 -360q0 -44 -60 -44q-29 0 -44 4q-44 -4 -80 -4h-116q-35 0 -52 28v8q0 27 52 48q4 7 4 16v4h-4q-28 -16 -40 -16h-8
q-34 0 -44 52q8 32 8 40v4q-75 40 -80 56q-17 30 -48 180q-10 0 -24 -168q-10 -31 -68 -76q32 -32 32 -52v-8q-35 -92 -80 -92h-12q-4 0 -28 28h-28q-10 0 -36 12q-8 0 -36 -52h-4q-19 0 -40 4q-60 -16 -92 -16h-16q-64 9 -64 60v8q0 21 40 192q20 146 60 348q12 58 48 84v4
q-15 49 -16 92q0 19 8 84l-12 92q12 36 12 48q-38 29 -60 144l-32 188q-15 39 -52 188q0 48 96 48zM304 1436v-12q7 -16 28 -16h20q8 0 8 8v8q0 22 -20 32h-16q-5 0 -20 -20zM384 1276q4 -7 4 -16h4q22 0 40 28v4l-4 20h-8q-36 -6 -36 -36zM704 1244v-12q2 -8 20 -16
q28 3 28 20q-15 30 -24 32q-6 0 -24 -24zM552 1196v-20q0 -6 12 -12h4q36 12 40 12l24 -4q32 11 32 48q-10 8 -16 8q-7 0 -64 -32h-32zM360 1112q0 -6 12 -12h8q24 0 44 44q4 0 12 4q16 -8 24 -8l4 8q0 15 -56 24h-8q-40 -6 -40 -60zM384 476l12 -8h16q31 0 36 16v4
q0 8 -12 8q-36 0 -52 -20zM752 152q0 -29 12 -32l12 16v8q0 6 -12 12q-8 -4 -12 -4z" />
    <glyph glyph-name="y" unicode="y" horiz-adv-x="960" 
d="M114 1572q38 -8 60 -8q46 8 64 8h8l132 -20q46 -56 76 -324q15 -80 24 -80q16 47 72 360q19 64 72 64h72q47 0 64 -8l24 4h4q26 0 52 -4q30 8 56 8h24q52 0 52 -56q0 -44 -60 -172q0 -50 -56 -188q0 -58 -120 -404q0 -24 -40 -144q-12 -42 -12 -84v-244q0 -63 -4 -128
q4 -15 4 -88q0 -64 -72 -64h-296q-52 4 -52 52v172q0 28 12 76q-8 52 -12 112q8 30 12 88q-4 35 -4 44q4 28 4 48q-25 0 -104 300q-10 8 -12 52v40q0 10 -32 60q-84 270 -84 356q-22 0 -36 96q-3 0 -16 24v16q4 32 28 32l40 -4q13 0 56 8z" />
    <glyph glyph-name="z" unicode="z" horiz-adv-x="906" 
d="M130 1576q86 -4 128 -4h112l104 -20q82 20 128 20h68q47 0 64 -8q27 4 44 4h16q52 -34 52 -84v-80q0 -176 -32 -260l-116 -344q-28 -25 -28 -104q-74 -174 -104 -324v-8q0 -6 12 -12h184q84 0 84 -56v-240q0 -56 -104 -56h-628q-48 0 -48 76q-16 29 -16 52v4
q12 65 16 164q32 50 84 268l200 640q-8 16 -20 16q-47 0 -96 -4q-124 11 -124 56q0 20 -20 88v24q12 52 12 68q0 19 -4 92q0 12 32 32z" />
    <glyph glyph-name="braceleft" unicode="{" 
 />
    <glyph glyph-name="bar" unicode="|" 
 />
    <glyph glyph-name="braceright" unicode="}" 
 />
    <glyph glyph-name="asciitilde" unicode="~" 
 />
    <glyph glyph-name="exclamdown" unicode="&#xa1;" horiz-adv-x="672" 
 />
    <glyph glyph-name="cent" unicode="&#xa2;" horiz-adv-x="1139" 
 />
    <glyph glyph-name="sterling" unicode="&#xa3;" 
 />
    <glyph glyph-name="currency" unicode="&#xa4;" 
 />
    <glyph glyph-name="yen" unicode="&#xa5;" horiz-adv-x="1262" 
 />
    <glyph glyph-name="brokenbar" unicode="&#xa6;" 
 />
    <glyph glyph-name="section" unicode="&#xa7;" 
 />
    <glyph glyph-name="dieresis" unicode="&#xa8;" horiz-adv-x="1024" 
 />
    <glyph glyph-name="copyright" unicode="&#xa9;" horiz-adv-x="2807" 
d="M1667 1663q278 -7 278 -29q67 -38 67 -127v-42q0 -97 -42 -114q-6 0 -12 -12q54 -31 54 -97v-139q-8 -10 -8 -17q8 -14 8 -25v-38q-6 -21 -54 -21h-93q-30 0 -30 29v9q0 24 5 29q-5 23 -5 38v17q0 17 5 46l-5 9q9 17 9 29q-11 76 -25 76h-5q-8 0 -12 -51q4 -28 4 -46
q0 -46 -9 -114q9 -52 9 -59q-15 -12 -30 -12l-25 4l-21 -4l-29 4q-26 -4 -64 -4q-19 8 -21 17v54q0 10 5 17q-5 8 -5 17q0 22 5 38q-5 23 -5 38l5 25q-5 17 -5 30l5 8l-5 9q0 5 5 42q-5 37 -5 46q3 25 9 25q-9 17 -9 47v126l5 25q-5 7 -5 21v55q0 16 51 21zM75 1659h59
q22 0 38 -4q22 4 42 4h30q63 0 63 -51l25 -160h4q21 207 38 207q36 4 59 4h30q44 0 134 -4l5 -9l-5 -29q5 -23 5 -38l-5 -9q5 -4 9 -63q0 -42 -26 -71l22 -34q-5 -30 -5 -34q5 -50 9 -55l-9 -67q0 -2 5 -17q0 -14 -9 -67q9 -14 9 -25v-17q0 -4 -5 -4q9 -19 9 -55v-4
q0 -49 -21 -55l-55 12q-24 -8 -80 -12q-17 17 -17 50q0 16 4 38q-4 22 -4 42q8 27 8 43l-4 8q0 4 4 4q-4 29 -4 89h-4q-11 -127 -42 -127q17 -25 17 -38q0 -109 -42 -109h-68q-33 0 -33 67q-13 49 -26 169q38 14 38 21q-8 4 -12 4l-21 -4l-9 12v9q0 14 72 38l8 12h-4
q-93 -8 -93 -38q0 -8 -8 -8h-4q-12 0 -26 8q-89 -33 -96 -33q-19 21 -22 33q5 21 9 21q-9 19 -9 55v13q0 7 13 38q-7 0 -13 21q0 9 5 17q-5 59 -5 101v76q3 25 13 25zM757 1659h26q29 0 33 -4q29 4 47 4h122q14 0 38 -207l63 -408q-10 -42 -42 -42h-131q-21 0 -21 109
q-15 9 -34 9q-13 0 -16 -93q-32 -25 -51 -25h-131q-10 0 -12 17q11 139 34 139q-9 15 -9 38q51 436 63 459zM1271 1659l21 -4l25 4l59 -9l21 5q106 -19 106 -43q33 0 50 -105q-8 -25 -12 -25q12 -23 12 -38q0 -14 -4 -21q4 -30 4 -51q0 -54 -4 -117q4 -29 4 -47
q-4 -37 -8 -46l4 -25v-5q0 -130 -156 -130h-240q-12 2 -12 34v143q0 8 12 33q-12 22 -12 43v155q0 49 8 68q-8 19 -8 54v93q0 23 16 30h9q42 0 105 4zM2088 1659h30q24 0 42 -17q11 0 59 17h21q21 -8 21 -47q0 -63 -9 -63l5 -8q4 -80 4 -135q0 -34 -9 -34q5 -6 9 -42l-4 -8
q4 -29 8 -38q0 -106 -55 -147v-5q15 0 34 17h4q6 0 13 -12v-13q0 -36 -4 -114q-14 -8 -26 -8h-33q-18 0 -47 17q-23 -13 -59 -17q-21 7 -21 21q0 29 4 29q-4 50 -4 72v303q1 42 9 42q-9 19 -9 55v105q0 23 17 30zM2463 1659l21 -4l25 4l59 -9l21 5q105 -19 105 -43
q34 0 51 -105q-8 -25 -13 -25q13 -23 13 -38q0 -14 -4 -21q4 -30 4 -51q0 -54 -4 -117q4 -29 4 -47q-4 -37 -8 -46l4 -25v-5q0 -130 -156 -130h-240q-13 2 -13 34v143q0 8 13 33q-13 22 -13 43v155q0 49 9 68q-9 19 -9 54v93q0 23 17 30h9q42 0 105 4zM1806 1528l-4 -8v-38
q0 -4 -5 -4l9 -34l-4 -25v-13h21q7 0 17 30q-5 28 -5 46v34q0 9 -29 12zM1334 1524q0 -13 -8 -34q4 -57 4 -84q0 -23 -4 -59q4 -26 4 -63q0 -21 -8 -21q8 -17 8 -46v-72q0 -6 13 -13q14 0 25 76q-4 23 -4 34q0 21 29 46v4q-25 0 -33 17l4 21q0 33 -4 59q4 24 4 68v4
q0 11 46 17q8 0 34 -9q21 6 21 13q0 8 -9 8h-21q-17 0 -46 -4q-16 0 -42 38h-13zM2526 1524q0 -13 -8 -34q4 -57 4 -84q0 -23 -4 -59q4 -26 4 -63q0 -21 -9 -21q9 -17 9 -46v-72q0 -6 12 -13q15 0 26 76q-5 23 -5 34q0 21 30 46v4q-25 0 -34 17l4 21q0 33 -4 59q4 24 4 68v4
q0 11 47 17q8 0 34 -9q21 6 21 13q0 8 -9 8h-21q-17 0 -46 -4q-16 0 -42 38h-13zM2155 1507v-8h17v12q-7 -4 -17 -4zM753 1436q4 0 4 -5q18 6 26 21h-9q-19 -8 -21 -16zM429 1372v-33h4q0 18 34 38v12q-4 0 -4 4q-34 -14 -34 -21zM867 1393q-13 -82 -17 -138l13 -9h8
q6 0 13 13q-13 111 -13 134h-4zM324 1330h4q25 5 25 13h-4q-25 -3 -25 -13zM176 1276q51 -12 51 -34l4 -30q-4 -57 -4 -71q8 -62 8 -93q0 -37 -21 -46h-8q-30 0 -34 4q-29 -4 -46 -4h-47q-6 0 -17 17v206q0 18 114 51zM1275 1259v-9h5q8 0 8 9h-13zM2467 1259v-9h4q9 0 9 9
h-13zM273 800q156 -8 194 -114q4 -7 4 -21v-8q0 -10 -4 -17q12 -21 12 -34v-46q0 -22 -12 -26h-72q-20 0 -42 5q-16 -5 -38 -5h-8q-21 0 -21 106v12q0 21 -17 26l-21 -59q0 -11 8 -38q-3 -17 -8 -17l4 -9v-21q0 -4 -4 -4q8 -16 8 -50q0 -25 -4 -101l4 -9q-3 -17 -8 -17
q12 -109 25 -109h4q21 0 21 109q0 19 -33 42v55q0 4 4 4l-4 9v17q0 6 12 12h9q14 0 21 -4l17 4q80 -2 80 -12q9 4 63 8l12 -17v-126q0 -23 -4 -59q4 -5 4 -30q0 -4 -4 -4l4 -21v-4q0 -17 -4 -34q4 -16 4 -33q-5 -30 -16 -30h-97q-21 12 -21 25q-50 -42 -97 -42q-17 7 -17 13
l-8 -4h-22q-56 0 -117 88q-17 51 -17 131v33q0 45 4 64q-4 32 -4 71v55q0 169 84 210q70 26 122 26zM2126 800q156 -8 194 -114q4 -7 4 -21v-8q0 -10 -4 -17q12 -21 12 -34v-46q0 -22 -12 -26h-72q-20 0 -42 5q-16 -5 -38 -5h-8q-21 0 -21 106v12q0 21 -17 26l-21 -59
q0 -11 8 -38q-3 -17 -8 -17l4 -9v-21q0 -4 -4 -4q8 -16 8 -50q0 -25 -4 -101l4 -9q-3 -17 -8 -17q12 -109 25 -109h4q21 0 21 109q0 19 -33 42v55q0 4 4 4l-4 9v17q0 6 12 12h9q14 0 21 -4l16 4q81 -2 81 -12q8 4 63 8l12 -17v-126q0 -23 -4 -59q4 -5 4 -30q0 -4 -4 -4
l4 -21v-4q0 -17 -4 -34q4 -16 4 -33q-5 -30 -17 -30h-96q-21 12 -21 25q-50 -42 -97 -42q-17 7 -17 13l-9 -4h-21q-56 0 -118 88q-16 51 -16 131v33q0 45 4 64q-4 32 -4 71v55q0 169 84 210q70 26 122 26zM1027 783h92q59 0 59 -17v-118q0 -43 -12 -109q12 -28 12 -38v-42
q0 -14 -4 -21l4 -26v-4q0 -58 -4 -152q8 -19 17 -21h4q13 5 13 26v67q0 36 8 55q-8 136 -8 227l4 9q-4 8 -8 46q4 52 4 101q9 17 21 17q23 0 46 -4q41 4 80 4h21q7 0 17 -17v-38l-8 -29q8 -27 8 -34l-4 -59l4 -42q0 -3 -4 -55q4 -101 8 -122q-5 -126 -21 -135l5 -21v-8
q0 -50 -97 -97q-52 -13 -114 -13q-80 10 -147 63q-34 53 -34 139q8 14 8 21q-8 14 -8 26v130q0 31 4 47q-4 27 -4 54v173q6 17 38 17zM597 774q278 -7 278 -29q68 -37 68 -126v-42q0 -98 -42 -114q-7 0 -13 -13q55 -30 55 -97v-139q-9 -10 -9 -16q9 -14 9 -26v-38
q-7 -21 -55 -21h-93q-29 0 -29 30v8q0 24 4 30q-4 22 -4 38v16q0 18 4 47l-4 8q8 17 8 30q-11 75 -25 75h-4q-9 0 -13 -50q4 -29 4 -46q0 -47 -8 -114q8 -53 8 -59q-15 -13 -29 -13l-25 4l-22 -4l-29 4q-26 -4 -63 -4q-19 8 -21 17v55q0 9 4 17q-4 7 -4 17q0 22 4 37
q-4 23 -4 38l4 26q-4 16 -4 29l4 9l-4 8q4 37 4 42q-4 37 -4 46q3 26 8 26q-8 16 -8 46v126l4 26q-4 7 -4 21v54q0 16 50 21zM1469 770h13q26 0 63 -4l21 4q14 -8 25 -8l9 4q24 0 54 -131q30 -71 34 -71l4 8v51q0 40 -4 97q0 42 42 42q0 8 34 8q7 0 25 -8q17 8 30 8
q33 -5 33 -17v-33q0 -23 -4 -38l4 -30q-4 -101 -8 -101q8 -15 8 -38q0 -63 -8 -118l8 -50q-4 -69 -4 -135l4 -17q-6 0 -17 -17q6 0 17 -21v-29q-4 -13 -25 -13h-118q-34 0 -46 85q-35 122 -47 122v-51q0 -4 -4 -4l4 -9v-80l-4 -25q4 -7 4 -21v-4q-4 -13 -25 -13h-122
q-6 0 -13 13v632q0 6 13 12zM2417 770h261q29 0 29 -38v-80q0 -22 -13 -25h-75q-27 0 -47 -50h5q21 0 21 -59l29 4q56 0 72 -17l-5 -25q5 -40 5 -76q0 -23 -30 -25l-38 4q-38 -4 -38 -17v-97q2 -8 9 -8h80q38 0 38 -30l-4 -25q4 -16 4 -34q0 -9 -4 -17q4 -7 4 -16v-9
q0 -6 -17 -17q-30 0 -34 4q-70 -4 -109 -4h-139q-7 0 -17 17v42q0 14 4 21l-4 26v88q0 14 4 21l-4 25v59q0 29 4 51q-4 20 -4 55q0 37 4 50q-4 40 -4 76v101q3 25 13 25zM1734 741v-9q7 -19 26 -29h4v12q-11 19 -30 26zM197 707v-8h4v8h-4zM2050 707v-8h4v8h-4zM1747 678
v-13h4v13h-4zM736 640l-4 -9v-38q0 -4 -4 -4l8 -34l-4 -25v-12h21q7 0 17 29q-4 29 -4 46v34q0 10 -30 13zM1751 635l-4 -21v-8q0 -6 13 -13h4q11 0 17 34v4q-13 0 -30 4zM1764 568v-8q0 -8 21 -55q-6 0 -17 -21h4q30 0 30 29v13l-21 21q4 8 4 13q-14 8 -21 8zM1494 467v-8
l9 4h21v12q0 9 -9 9q-19 -8 -21 -17zM345 446v-8h4q8 0 8 8v8h-4q-8 -1 -8 -8zM2198 446v-8h4q8 0 8 8v8h-4q-8 -1 -8 -8zM1503 416v-8q1 -8 8 -8q9 0 9 8v8h-17zM1768 387q4 -23 4 -34q-8 -13 -8 -25q15 -25 21 -25q0 4 4 4l-4 51v29h-17zM1680 374q1 -8 8 -8q0 4 4 4
q-4 8 -4 13q-8 -2 -8 -9zM1557 256v-4q5 -8 5 -12h4v12zM441 -30h34q73 0 83 -89v-8q0 -8 -4 -26l4 -10l-4 -14l2 -12l-4 -14q6 -2 6 -12q0 -8 -2 -8l2 -14v-26q0 -44 -34 -71q-10 -6 -16 -6h-2l-4 2q0 -14 -39 -14q-23 0 -50 12q-19 0 -30 44v12q-4 0 -14 6l2 11
q-4 51 -4 62q5 4 8 4q4 -2 6 -2q10 35 10 38l-2 12q4 8 4 14q-12 5 -12 8v4l8 10l-2 10l6 19v2q-14 4 -14 8v2q13 9 14 24q7 10 16 12q3 -2 8 -2q7 12 24 12zM648 -30h33q74 0 84 -89v-8q0 -8 -4 -26l4 -10l-4 -14l2 -12l-4 -14q6 -2 6 -12q0 -8 -2 -8l2 -14v-26
q0 -44 -34 -71q-10 -6 -16 -6h-2l-4 2q0 -14 -40 -14q-22 0 -49 12q-19 0 -30 44v12q-4 0 -14 6l2 11q-4 51 -4 62q5 4 8 4q4 -2 6 -2q10 35 10 38l-2 12q4 8 4 14q-12 5 -12 8v4q0 1 8 10l-2 10l6 19v2q-14 4 -14 8v2q12 9 14 24q7 10 16 12q3 -2 8 -2q7 12 24 12z
M1101 -30h10q79 0 99 -52q4 -18 4 -29l-2 -4q4 -10 4 -18l-2 -10q2 -11 2 -20q0 -10 -6 -12h-15q-21 0 -64 2l-4 6v2q0 15 2 28q-2 10 -2 20q0 1 2 12q0 15 -14 15q-8 -8 -8 -33l2 -12l-2 -12q0 -5 2 -16l-2 -14q2 -25 2 -26q0 -5 -4 -26l4 -22l-2 -12q2 -29 8 -29h6
q6 2 6 12v55q0 8 28 8h48q10 0 13 -8v-2q0 -17 -2 -53q-15 -11 -15 -16q4 -13 4 -16q0 -17 -64 -40h-18q-64 0 -82 30q-21 16 -21 91q4 16 6 16q-4 6 -6 40q2 19 2 36v28q0 58 71 79q3 2 10 2zM2599 -30h12q72 0 91 -34q8 -23 8 -51v-14q0 -3 -6 -6h-73q-2 0 -6 6l2 20v14
q0 2 -6 5q-12 -4 -12 -19q0 -31 49 -50q56 -32 56 -84q2 -17 2 -28q0 -56 -38 -67q-16 -14 -43 -14h-10q-12 0 -12 8q2 10 14 10v2q0 4 -4 4q-19 -22 -24 -22q-30 0 -60 34q-12 20 -12 53v26q6 10 14 10q7 0 42 -2q1 0 12 2q16 -4 16 -8v-43q1 -12 6 -12h6q8 3 8 14v13
q0 28 -46 50q-58 39 -58 70q-2 2 -4 32q7 81 76 81zM1262 -36h44q28 0 28 -8v-55q0 -21 -6 -52q6 -13 6 -18v-20q0 -7 -2 -10l2 -12v-2q0 -27 -2 -71q4 -9 8 -10h2q6 2 6 12v31q0 17 4 26q-4 65 -4 108l2 4q-2 4 -4 22q2 24 2 47q4 8 10 8q11 0 22 -2q19 2 37 2h10q3 0 8 -8
v-18l-4 -14q4 -12 4 -15l-2 -28l2 -20q0 -1 -2 -26q2 -48 4 -58q-2 -59 -10 -63l2 -10v-4q0 -24 -45 -46q-25 -6 -54 -6q-38 4 -70 30q-16 24 -16 65q4 7 4 10q-4 7 -4 12v62q0 15 2 22q-2 13 -2 26v81q3 8 18 8zM93 -40q28 0 28 -24l7 -99q-1 -8 -4 -8l2 -4v-2q0 -5 -3 -12
q2 0 5 -2q4 8 8 24l-2 10q10 115 20 115q9 0 12 2q72 0 72 -12q2 -11 2 -16l-2 -8q7 -12 14 -107h2q10 139 26 139l10 -2q13 4 23 4h18q2 0 2 -2l4 2h6q14 0 14 -12q-26 -240 -36 -240l4 -8q0 -50 -12 -50h-15q-12 0 -12 10h-4q0 -5 -2 -8q-2 0 -6 2q-25 -4 -42 -4h-6
q-18 0 -22 50q0 8 -10 67h-2q-5 -45 -12 -47q2 -15 2 -16q0 -52 -22 -52q-13 -2 -22 -2h-57q-18 0 -18 50q-8 46 -14 123q-7 28 -16 133q7 4 12 4h18q12 0 30 2zM2056 -40q131 -3 131 -14q32 -17 32 -59v-20q0 -46 -20 -54q-3 0 -6 -6q26 -14 26 -46v-65q-4 -5 -4 -8
q4 -7 4 -12v-18q-3 -10 -26 -10h-44q-14 0 -14 14v4q0 11 2 14q-2 11 -2 18v8q0 8 2 22l-2 3q4 8 4 14q-5 36 -12 36h-2q-4 0 -6 -24q2 -13 2 -22q0 -22 -4 -53q4 -25 4 -28q-7 -6 -13 -6l-12 2l-10 -2l-14 2q-12 -2 -30 -2q-9 4 -10 8v26q0 4 2 8q-2 3 -2 8q0 10 2 18
q-2 10 -2 17l2 12q-2 8 -2 14l2 4l-2 4q0 3 2 20q-2 18 -2 22q1 12 4 12q-4 8 -4 22v60l2 11q-2 4 -2 10v26q0 8 24 10zM854 -42l10 -2l12 2l28 -4l10 2q50 -9 50 -20q16 0 24 -49q-4 -12 -6 -12q6 -11 6 -18t-2 -10q2 -14 2 -24q0 -26 -2 -56q2 -13 2 -22q-2 -17 -4 -21
l2 -12v-2q0 -62 -74 -62h-113q-6 1 -6 16v67q0 4 6 16q-6 11 -6 20v74q0 23 4 32q-4 9 -4 26v43q0 11 8 14h4q20 0 49 2zM1465 -42h18q14 0 24 -2q10 2 24 2h2q11 0 14 -2q10 2 18 2h57q16 0 16 -36v-2l-4 -13l2 -12q-5 -4 -6 -4h-24q-20 0 -20 -16l2 -20q-2 -8 -8 -8
q-3 2 -6 2v-4l14 -10v-2q0 -7 -2 -18q2 -3 2 -8q-4 -6 -4 -12q4 0 4 -4q-2 -20 -2 -24q2 -22 4 -22l-2 -10q0 -12 2 -29l-2 -12l2 -10q-2 -11 -2 -20l2 -4q0 -12 -14 -12h-63q-14 0 -14 18v50q0 23 4 31q-2 3 -4 22q0 12 2 14q-2 26 -2 42v60q0 4 -4 4h-36q-3 0 -8 8v6
q0 4 2 7l-2 4q2 21 2 32v6q2 6 12 6zM1660 -42h18q13 0 24 -2q10 2 24 2h2q11 0 14 -2q10 2 17 2h58q16 0 16 -36v-2q-4 -12 -4 -13l2 -12l-6 -4h-24q-20 0 -20 -16l2 -20q-2 -8 -8 -8q-3 2 -6 2v-4l14 -10v-2q0 -7 -2 -18q2 -3 2 -8q-4 -6 -4 -12q4 0 4 -4q0 -3 -2 -24
q1 -22 4 -22l-2 -10q0 -12 2 -29l-2 -12l2 -10q-2 -11 -2 -20l2 -4q0 -12 -14 -12h-63q-14 0 -14 18v50q0 23 4 31q-2 3 -4 22q0 12 2 14q-2 26 -2 42v60q0 4 -4 4h-36q-3 0 -8 8v6q0 4 2 7l-2 4q2 21 2 32v6q2 6 12 6zM1861 -42h123q14 0 14 -18v-37q0 -11 -6 -12h-36
q-12 0 -22 -24h2q10 0 10 -28l14 2q27 0 34 -8l-2 -12q2 -19 2 -36q0 -11 -14 -12l-18 2q-18 -2 -18 -8v-45q1 -4 4 -4h38q18 0 18 -14l-2 -12q2 -8 2 -16q0 -5 -2 -8q2 -4 2 -8v-4q0 -3 -8 -8q-14 0 -16 2q-33 -2 -51 -2h-66q-3 0 -8 8v20q0 6 2 10l-2 12v41q0 7 2 10
l-2 12v28q0 14 2 24q-2 10 -2 26q0 18 2 24q-2 19 -2 36v47q1 12 6 12zM2362 -42h123q14 0 14 -18v-37q0 -11 -6 -12h-35q-13 0 -22 -24h2q10 0 10 -28l14 2q26 0 33 -8l-2 -12q2 -19 2 -36q0 -11 -14 -12l-17 2q-18 -2 -18 -8v-45q0 -4 4 -4h37q18 0 18 -14l-2 -12
q2 -8 2 -16q0 -5 -2 -8q2 -4 2 -8v-4q0 -3 -8 -8q-14 0 -16 2q-33 -2 -51 -2h-66q-3 0 -8 8v20q0 6 2 10l-2 12v41q0 7 2 10l-2 12v28q0 14 2 24q-2 10 -2 26q0 18 2 24q-2 19 -2 36v47q1 12 6 12zM415 -58v-4q1 -4 4 -4v8h-4zM622 -58v-4q0 -4 4 -4v8h-4zM419 -78l-2 -4v-8
h2q4 0 4 4v4q0 4 -4 4zM626 -78l-2 -4v-8h2q4 0 4 4v4q0 4 -4 4zM377 -88h2q6 0 6 -7q-6 -10 -6 -12q2 -4 2 -6l-4 -2h-4q-4 0 -4 4v6q0 15 8 17zM451 -115l4 -36l-6 -28q4 -13 4 -18v-12q0 -11 -2 -28l2 -4q0 -2 -2 -2q2 -11 2 -16q0 -12 -4 -29q13 -4 18 -4q0 12 10 23v2
q-8 8 -8 22q0 17 2 36q-2 13 -2 28q0 2 2 6l-2 12q0 7 2 10l-2 14q0 5 2 30q-3 19 -8 19h-2q-4 0 -10 -25zM584 -88h2q6 0 6 -7q-6 -10 -6 -12q2 -4 2 -6l-4 -2h-4q-4 0 -4 4v6q0 15 8 17zM658 -115l4 -36l-6 -28q4 -13 4 -18v-12q0 -11 -2 -28l2 -4q0 -2 -2 -2q2 -11 2 -16
q0 -12 -4 -29q12 -4 17 -4q0 12 10 23v2q-8 8 -8 22q0 17 2 36q-2 13 -2 28q0 2 2 6l-2 12q0 7 2 10l-2 14q0 5 2 30q-2 19 -8 19h-2q-3 0 -9 -25zM2121 -103l-2 -4v-18q0 -2 -2 -2l4 -16l-2 -12v-6h10q4 0 8 14q-2 13 -2 22v16q0 4 -14 6zM884 -105q0 -6 -4 -16
q2 -27 2 -40q0 -11 -2 -28q2 -12 2 -30q0 -10 -4 -10q4 -8 4 -22v-33q0 -3 6 -6q7 0 12 35q-2 11 -2 16q0 10 14 22v2q-12 0 -16 8l2 10q0 16 -2 28q2 11 2 32v2q0 5 22 8q4 0 16 -4q10 2 10 6t-4 4h-10q-8 0 -22 -2q-7 0 -20 18h-6zM492 -147v-4q4 0 4 4v4q-4 -1 -4 -4z
M699 -147v-4q4 0 4 4v4q-4 -1 -4 -4zM1561 -211v-2h8q3 0 3 4v2h-7q-4 0 -4 -4zM1755 -211v-2h8q4 0 4 4v2h-8q-4 0 -4 -4zM421 -223q0 -3 8 -6v2q0 4 -4 4h-4zM628 -223q0 -3 8 -6v2q0 4 -4 4h-4zM856 -231v-4h2q4 0 4 4h-6zM399 -272v-2h4q12 0 18 33v2h-4q-3 0 -12 -28
q-3 0 -6 -5zM606 -272v-2h4q12 0 18 33v2h-4q-4 0 -12 -28q-3 0 -6 -5zM381 -251q-4 -4 -4 -8q2 -3 2 -6h2q4 0 4 4v6q0 4 -4 4zM588 -251q-4 -4 -4 -8q2 -3 2 -6h2q4 0 4 4v6q0 4 -4 4zM2257 -282q11 0 14 -2q10 2 18 2h21q8 -3 8 -18v-2q0 -48 -8 -48q-18 0 -51 -2
q-8 3 -8 6v58q0 2 6 6zM485 -288v-8l3 -2v2q-2 3 -2 8h-1zM691 -288v-8l4 -2v2q-2 3 -2 8h-2zM488 -322v-2q4 -8 12 -8v4q0 3 -6 6h-6zM695 -322v-2q4 -8 12 -8v4q0 3 -6 6h-6z" />
    <glyph glyph-name="ordfeminine" unicode="&#xaa;" horiz-adv-x="648" 
 />
    <glyph glyph-name="guillemotleft" unicode="&#xab;" horiz-adv-x="944" 
 />
    <glyph glyph-name="logicalnot" unicode="&#xac;" 
 />
    <glyph glyph-name="registered" unicode="&#xae;" horiz-adv-x="2807" 
d="M1667 1663q278 -7 278 -29q67 -38 67 -127v-42q0 -97 -42 -114q-6 0 -12 -12q54 -31 54 -97v-139q-8 -10 -8 -17q8 -14 8 -25v-38q-6 -21 -54 -21h-93q-30 0 -30 29v9q0 24 5 29q-5 23 -5 38v17q0 17 5 46l-5 9q9 17 9 29q-11 76 -25 76h-5q-8 0 -12 -51q4 -28 4 -46
q0 -46 -9 -114q9 -52 9 -59q-15 -12 -30 -12l-25 4l-21 -4l-29 4q-26 -4 -64 -4q-19 8 -21 17v54q0 10 5 17q-5 8 -5 17q0 22 5 38q-5 23 -5 38l5 25q-5 17 -5 30l5 8l-5 9q0 5 5 42q-5 37 -5 46q3 25 9 25q-9 17 -9 47v126l5 25q-5 7 -5 21v55q0 16 51 21zM75 1659h59
q22 0 38 -4q22 4 42 4h30q63 0 63 -51l25 -160h4q21 207 38 207q36 4 59 4h30q44 0 134 -4l5 -9l-5 -29q5 -23 5 -38l-5 -9q5 -4 9 -63q0 -42 -26 -71l22 -34q-5 -30 -5 -34q5 -50 9 -55l-9 -67q0 -2 5 -17q0 -14 -9 -67q9 -14 9 -25v-17q0 -4 -5 -4q9 -19 9 -55v-4
q0 -49 -21 -55l-55 12q-24 -8 -80 -12q-17 17 -17 50q0 16 4 38q-4 22 -4 42q8 27 8 43l-4 8q0 4 4 4q-4 29 -4 89h-4q-11 -127 -42 -127q17 -25 17 -38q0 -109 -42 -109h-68q-33 0 -33 67q-13 49 -26 169q38 14 38 21q-8 4 -12 4l-21 -4l-9 12v9q0 14 72 38l8 12h-4
q-93 -8 -93 -38q0 -8 -8 -8h-4q-12 0 -26 8q-89 -33 -96 -33q-19 21 -22 33q5 21 9 21q-9 19 -9 55v13q0 7 13 38q-7 0 -13 21q0 9 5 17q-5 59 -5 101v76q3 25 13 25zM757 1659h26q29 0 33 -4q29 4 47 4h122q14 0 38 -207l63 -408q-10 -42 -42 -42h-131q-21 0 -21 109
q-15 9 -34 9q-13 0 -16 -93q-32 -25 -51 -25h-131q-10 0 -12 17q11 139 34 139q-9 15 -9 38q51 436 63 459zM1271 1659l21 -4l25 4l59 -9l21 5q106 -19 106 -43q33 0 50 -105q-8 -25 -12 -25q12 -23 12 -38q0 -14 -4 -21q4 -30 4 -51q0 -54 -4 -117q4 -29 4 -47
q-4 -37 -8 -46l4 -25v-5q0 -130 -156 -130h-240q-12 2 -12 34v143q0 8 12 33q-12 22 -12 43v155q0 49 8 68q-8 19 -8 54v93q0 23 16 30h9q42 0 105 4zM2088 1659h30q24 0 42 -17q11 0 59 17h21q21 -8 21 -47q0 -63 -9 -63l5 -8q4 -80 4 -135q0 -34 -9 -34q5 -6 9 -42l-4 -8
q4 -29 8 -38q0 -106 -55 -147v-5q15 0 34 17h4q6 0 13 -12v-13q0 -36 -4 -114q-14 -8 -26 -8h-33q-18 0 -47 17q-23 -13 -59 -17q-21 7 -21 21q0 29 4 29q-4 50 -4 72v303q1 42 9 42q-9 19 -9 55v105q0 23 17 30zM2463 1659l21 -4l25 4l59 -9l21 5q105 -19 105 -43
q34 0 51 -105q-8 -25 -13 -25q13 -23 13 -38q0 -14 -4 -21q4 -30 4 -51q0 -54 -4 -117q4 -29 4 -47q-4 -37 -8 -46l4 -25v-5q0 -130 -156 -130h-240q-13 2 -13 34v143q0 8 13 33q-13 22 -13 43v155q0 49 9 68q-9 19 -9 54v93q0 23 17 30h9q42 0 105 4zM1806 1528l-4 -8v-38
q0 -4 -5 -4l9 -34l-4 -25v-13h21q7 0 17 30q-5 28 -5 46v34q0 9 -29 12zM1334 1524q0 -13 -8 -34q4 -57 4 -84q0 -23 -4 -59q4 -26 4 -63q0 -21 -8 -21q8 -17 8 -46v-72q0 -6 13 -13q14 0 25 76q-4 23 -4 34q0 21 29 46v4q-25 0 -33 17l4 21q0 33 -4 59q4 24 4 68v4
q0 11 46 17q8 0 34 -9q21 6 21 13q0 8 -9 8h-21q-17 0 -46 -4q-16 0 -42 38h-13zM2526 1524q0 -13 -8 -34q4 -57 4 -84q0 -23 -4 -59q4 -26 4 -63q0 -21 -9 -21q9 -17 9 -46v-72q0 -6 12 -13q15 0 26 76q-5 23 -5 34q0 21 30 46v4q-25 0 -34 17l4 21q0 33 -4 59q4 24 4 68v4
q0 11 47 17q8 0 34 -9q21 6 21 13q0 8 -9 8h-21q-17 0 -46 -4q-16 0 -42 38h-13zM2155 1507v-8h17v12q-7 -4 -17 -4zM753 1436q4 0 4 -5q18 6 26 21h-9q-19 -8 -21 -16zM429 1372v-33h4q0 18 34 38v12q-4 0 -4 4q-34 -14 -34 -21zM867 1393q-13 -82 -17 -138l13 -9h8
q6 0 13 13q-13 111 -13 134h-4zM324 1330h4q25 5 25 13h-4q-25 -3 -25 -13zM176 1276q51 -12 51 -34l4 -30q-4 -57 -4 -71q8 -62 8 -93q0 -37 -21 -46h-8q-30 0 -34 4q-29 -4 -46 -4h-47q-6 0 -17 17v206q0 18 114 51zM1275 1259v-9h5q8 0 8 9h-13zM2467 1259v-9h4q9 0 9 9
h-13zM273 800q156 -8 194 -114q4 -7 4 -21v-8q0 -10 -4 -17q12 -21 12 -34v-46q0 -22 -12 -26h-72q-20 0 -42 5q-16 -5 -38 -5h-8q-21 0 -21 106v12q0 21 -17 26l-21 -59q0 -11 8 -38q-3 -17 -8 -17l4 -9v-21q0 -4 -4 -4q8 -16 8 -50q0 -25 -4 -101l4 -9q-3 -17 -8 -17
q12 -109 25 -109h4q21 0 21 109q0 19 -33 42v55q0 4 4 4l-4 9v17q0 6 12 12h9q14 0 21 -4l17 4q80 -2 80 -12q9 4 63 8l12 -17v-126q0 -23 -4 -59q4 -5 4 -30q0 -4 -4 -4l4 -21v-4q0 -17 -4 -34q4 -16 4 -33q-5 -30 -16 -30h-97q-21 12 -21 25q-50 -42 -97 -42q-17 7 -17 13
l-8 -4h-22q-56 0 -117 88q-17 51 -17 131v33q0 45 4 64q-4 32 -4 71v55q0 169 84 210q70 26 122 26zM2126 800q156 -8 194 -114q4 -7 4 -21v-8q0 -10 -4 -17q12 -21 12 -34v-46q0 -22 -12 -26h-72q-20 0 -42 5q-16 -5 -38 -5h-8q-21 0 -21 106v12q0 21 -17 26l-21 -59
q0 -11 8 -38q-3 -17 -8 -17l4 -9v-21q0 -4 -4 -4q8 -16 8 -50q0 -25 -4 -101l4 -9q-3 -17 -8 -17q12 -109 25 -109h4q21 0 21 109q0 19 -33 42v55q0 4 4 4l-4 9v17q0 6 12 12h9q14 0 21 -4l16 4q81 -2 81 -12q8 4 63 8l12 -17v-126q0 -23 -4 -59q4 -5 4 -30q0 -4 -4 -4
l4 -21v-4q0 -17 -4 -34q4 -16 4 -33q-5 -30 -17 -30h-96q-21 12 -21 25q-50 -42 -97 -42q-17 7 -17 13l-9 -4h-21q-56 0 -118 88q-16 51 -16 131v33q0 45 4 64q-4 32 -4 71v55q0 169 84 210q70 26 122 26zM1027 783h92q59 0 59 -17v-118q0 -43 -12 -109q12 -28 12 -38v-42
q0 -14 -4 -21l4 -26v-4q0 -58 -4 -152q8 -19 17 -21h4q13 5 13 26v67q0 36 8 55q-8 136 -8 227l4 9q-4 8 -8 46q4 52 4 101q9 17 21 17q23 0 46 -4q41 4 80 4h21q7 0 17 -17v-38l-8 -29q8 -27 8 -34l-4 -59l4 -42q0 -3 -4 -55q4 -101 8 -122q-5 -126 -21 -135l5 -21v-8
q0 -50 -97 -97q-52 -13 -114 -13q-80 10 -147 63q-34 53 -34 139q8 14 8 21q-8 14 -8 26v130q0 31 4 47q-4 27 -4 54v173q6 17 38 17zM597 774q278 -7 278 -29q68 -37 68 -126v-42q0 -98 -42 -114q-7 0 -13 -13q55 -30 55 -97v-139q-9 -10 -9 -16q9 -14 9 -26v-38
q-7 -21 -55 -21h-93q-29 0 -29 30v8q0 24 4 30q-4 22 -4 38v16q0 18 4 47l-4 8q8 17 8 30q-11 75 -25 75h-4q-9 0 -13 -50q4 -29 4 -46q0 -47 -8 -114q8 -53 8 -59q-15 -13 -29 -13l-25 4l-22 -4l-29 4q-26 -4 -63 -4q-19 8 -21 17v55q0 9 4 17q-4 7 -4 17q0 22 4 37
q-4 23 -4 38l4 26q-4 16 -4 29l4 9l-4 8q4 37 4 42q-4 37 -4 46q3 26 8 26q-8 16 -8 46v126l4 26q-4 7 -4 21v54q0 16 50 21zM1469 770h13q26 0 63 -4l21 4q14 -8 25 -8l9 4q24 0 54 -131q30 -71 34 -71l4 8v51q0 40 -4 97q0 42 42 42q0 8 34 8q7 0 25 -8q17 8 30 8
q33 -5 33 -17v-33q0 -23 -4 -38l4 -30q-4 -101 -8 -101q8 -15 8 -38q0 -63 -8 -118l8 -50q-4 -69 -4 -135l4 -17q-6 0 -17 -17q6 0 17 -21v-29q-4 -13 -25 -13h-118q-34 0 -46 85q-35 122 -47 122v-51q0 -4 -4 -4l4 -9v-80l-4 -25q4 -7 4 -21v-4q-4 -13 -25 -13h-122
q-6 0 -13 13v632q0 6 13 12zM2417 770h261q29 0 29 -38v-80q0 -22 -13 -25h-75q-27 0 -47 -50h5q21 0 21 -59l29 4q56 0 72 -17l-5 -25q5 -40 5 -76q0 -23 -30 -25l-38 4q-38 -4 -38 -17v-97q2 -8 9 -8h80q38 0 38 -30l-4 -25q4 -16 4 -34q0 -9 -4 -17q4 -7 4 -16v-9
q0 -6 -17 -17q-30 0 -34 4q-70 -4 -109 -4h-139q-7 0 -17 17v42q0 14 4 21l-4 26v88q0 14 4 21l-4 25v59q0 29 4 51q-4 20 -4 55q0 37 4 50q-4 40 -4 76v101q3 25 13 25zM1734 741v-9q7 -19 26 -29h4v12q-11 19 -30 26zM197 707v-8h4v8h-4zM2050 707v-8h4v8h-4zM1747 678
v-13h4v13h-4zM736 640l-4 -9v-38q0 -4 -4 -4l8 -34l-4 -25v-12h21q7 0 17 29q-4 29 -4 46v34q0 10 -30 13zM1751 635l-4 -21v-8q0 -6 13 -13h4q11 0 17 34v4q-13 0 -30 4zM1764 568v-8q0 -8 21 -55q-6 0 -17 -21h4q30 0 30 29v13l-21 21q4 8 4 13q-14 8 -21 8zM1494 467v-8
l9 4h21v12q0 9 -9 9q-19 -8 -21 -17zM345 446v-8h4q8 0 8 8v8h-4q-8 -1 -8 -8zM2198 446v-8h4q8 0 8 8v8h-4q-8 -1 -8 -8zM1503 416v-8q1 -8 8 -8q9 0 9 8v8h-17zM1768 387q4 -23 4 -34q-8 -13 -8 -25q15 -25 21 -25q0 4 4 4l-4 51v29h-17zM1680 374q1 -8 8 -8q0 4 4 4
q-4 8 -4 13q-8 -2 -8 -9zM1557 256v-4q5 -8 5 -12h4v12zM441 -30h34q73 0 83 -89v-8q0 -8 -4 -26l4 -10l-4 -14l2 -12l-4 -14q6 -2 6 -12q0 -8 -2 -8l2 -14v-26q0 -44 -34 -71q-10 -6 -16 -6h-2l-4 2q0 -14 -39 -14q-23 0 -50 12q-19 0 -30 44v12q-4 0 -14 6l2 11
q-4 51 -4 62q5 4 8 4q4 -2 6 -2q10 35 10 38l-2 12q4 8 4 14q-12 5 -12 8v4l8 10l-2 10l6 19v2q-14 4 -14 8v2q13 9 14 24q7 10 16 12q3 -2 8 -2q7 12 24 12zM648 -30h33q74 0 84 -89v-8q0 -8 -4 -26l4 -10l-4 -14l2 -12l-4 -14q6 -2 6 -12q0 -8 -2 -8l2 -14v-26
q0 -44 -34 -71q-10 -6 -16 -6h-2l-4 2q0 -14 -40 -14q-22 0 -49 12q-19 0 -30 44v12q-4 0 -14 6l2 11q-4 51 -4 62q5 4 8 4q4 -2 6 -2q10 35 10 38l-2 12q4 8 4 14q-12 5 -12 8v4q0 1 8 10l-2 10l6 19v2q-14 4 -14 8v2q12 9 14 24q7 10 16 12q3 -2 8 -2q7 12 24 12z
M1101 -30h10q79 0 99 -52q4 -18 4 -29l-2 -4q4 -10 4 -18l-2 -10q2 -11 2 -20q0 -10 -6 -12h-15q-21 0 -64 2l-4 6v2q0 15 2 28q-2 10 -2 20q0 1 2 12q0 15 -14 15q-8 -8 -8 -33l2 -12l-2 -12q0 -5 2 -16l-2 -14q2 -25 2 -26q0 -5 -4 -26l4 -22l-2 -12q2 -29 8 -29h6
q6 2 6 12v55q0 8 28 8h48q10 0 13 -8v-2q0 -17 -2 -53q-15 -11 -15 -16q4 -13 4 -16q0 -17 -64 -40h-18q-64 0 -82 30q-21 16 -21 91q4 16 6 16q-4 6 -6 40q2 19 2 36v28q0 58 71 79q3 2 10 2zM2599 -30h12q72 0 91 -34q8 -23 8 -51v-14q0 -3 -6 -6h-73q-2 0 -6 6l2 20v14
q0 2 -6 5q-12 -4 -12 -19q0 -31 49 -50q56 -32 56 -84q2 -17 2 -28q0 -56 -38 -67q-16 -14 -43 -14h-10q-12 0 -12 8q2 10 14 10v2q0 4 -4 4q-19 -22 -24 -22q-30 0 -60 34q-12 20 -12 53v26q6 10 14 10q7 0 42 -2q1 0 12 2q16 -4 16 -8v-43q1 -12 6 -12h6q8 3 8 14v13
q0 28 -46 50q-58 39 -58 70q-2 2 -4 32q7 81 76 81zM1262 -36h44q28 0 28 -8v-55q0 -21 -6 -52q6 -13 6 -18v-20q0 -7 -2 -10l2 -12v-2q0 -27 -2 -71q4 -9 8 -10h2q6 2 6 12v31q0 17 4 26q-4 65 -4 108l2 4q-2 4 -4 22q2 24 2 47q4 8 10 8q11 0 22 -2q19 2 37 2h10q3 0 8 -8
v-18l-4 -14q4 -12 4 -15l-2 -28l2 -20q0 -1 -2 -26q2 -48 4 -58q-2 -59 -10 -63l2 -10v-4q0 -24 -45 -46q-25 -6 -54 -6q-38 4 -70 30q-16 24 -16 65q4 7 4 10q-4 7 -4 12v62q0 15 2 22q-2 13 -2 26v81q3 8 18 8zM93 -40q28 0 28 -24l7 -99q-1 -8 -4 -8l2 -4v-2q0 -5 -3 -12
q2 0 5 -2q4 8 8 24l-2 10q10 115 20 115q9 0 12 2q72 0 72 -12q2 -11 2 -16l-2 -8q7 -12 14 -107h2q10 139 26 139l10 -2q13 4 23 4h18q2 0 2 -2l4 2h6q14 0 14 -12q-26 -240 -36 -240l4 -8q0 -50 -12 -50h-15q-12 0 -12 10h-4q0 -5 -2 -8q-2 0 -6 2q-25 -4 -42 -4h-6
q-18 0 -22 50q0 8 -10 67h-2q-5 -45 -12 -47q2 -15 2 -16q0 -52 -22 -52q-13 -2 -22 -2h-57q-18 0 -18 50q-8 46 -14 123q-7 28 -16 133q7 4 12 4h18q12 0 30 2zM2056 -40q131 -3 131 -14q32 -17 32 -59v-20q0 -46 -20 -54q-3 0 -6 -6q26 -14 26 -46v-65q-4 -5 -4 -8
q4 -7 4 -12v-18q-3 -10 -26 -10h-44q-14 0 -14 14v4q0 11 2 14q-2 11 -2 18v8q0 8 2 22l-2 3q4 8 4 14q-5 36 -12 36h-2q-4 0 -6 -24q2 -13 2 -22q0 -22 -4 -53q4 -25 4 -28q-7 -6 -13 -6l-12 2l-10 -2l-14 2q-12 -2 -30 -2q-9 4 -10 8v26q0 4 2 8q-2 3 -2 8q0 10 2 18
q-2 10 -2 17l2 12q-2 8 -2 14l2 4l-2 4q0 3 2 20q-2 18 -2 22q1 12 4 12q-4 8 -4 22v60l2 11q-2 4 -2 10v26q0 8 24 10zM854 -42l10 -2l12 2l28 -4l10 2q50 -9 50 -20q16 0 24 -49q-4 -12 -6 -12q6 -11 6 -18t-2 -10q2 -14 2 -24q0 -26 -2 -56q2 -13 2 -22q-2 -17 -4 -21
l2 -12v-2q0 -62 -74 -62h-113q-6 1 -6 16v67q0 4 6 16q-6 11 -6 20v74q0 23 4 32q-4 9 -4 26v43q0 11 8 14h4q20 0 49 2zM1465 -42h18q14 0 24 -2q10 2 24 2h2q11 0 14 -2q10 2 18 2h57q16 0 16 -36v-2l-4 -13l2 -12q-5 -4 -6 -4h-24q-20 0 -20 -16l2 -20q-2 -8 -8 -8
q-3 2 -6 2v-4l14 -10v-2q0 -7 -2 -18q2 -3 2 -8q-4 -6 -4 -12q4 0 4 -4q-2 -20 -2 -24q2 -22 4 -22l-2 -10q0 -12 2 -29l-2 -12l2 -10q-2 -11 -2 -20l2 -4q0 -12 -14 -12h-63q-14 0 -14 18v50q0 23 4 31q-2 3 -4 22q0 12 2 14q-2 26 -2 42v60q0 4 -4 4h-36q-3 0 -8 8v6
q0 4 2 7l-2 4q2 21 2 32v6q2 6 12 6zM1660 -42h18q13 0 24 -2q10 2 24 2h2q11 0 14 -2q10 2 17 2h58q16 0 16 -36v-2q-4 -12 -4 -13l2 -12l-6 -4h-24q-20 0 -20 -16l2 -20q-2 -8 -8 -8q-3 2 -6 2v-4l14 -10v-2q0 -7 -2 -18q2 -3 2 -8q-4 -6 -4 -12q4 0 4 -4q0 -3 -2 -24
q1 -22 4 -22l-2 -10q0 -12 2 -29l-2 -12l2 -10q-2 -11 -2 -20l2 -4q0 -12 -14 -12h-63q-14 0 -14 18v50q0 23 4 31q-2 3 -4 22q0 12 2 14q-2 26 -2 42v60q0 4 -4 4h-36q-3 0 -8 8v6q0 4 2 7l-2 4q2 21 2 32v6q2 6 12 6zM1861 -42h123q14 0 14 -18v-37q0 -11 -6 -12h-36
q-12 0 -22 -24h2q10 0 10 -28l14 2q27 0 34 -8l-2 -12q2 -19 2 -36q0 -11 -14 -12l-18 2q-18 -2 -18 -8v-45q1 -4 4 -4h38q18 0 18 -14l-2 -12q2 -8 2 -16q0 -5 -2 -8q2 -4 2 -8v-4q0 -3 -8 -8q-14 0 -16 2q-33 -2 -51 -2h-66q-3 0 -8 8v20q0 6 2 10l-2 12v41q0 7 2 10
l-2 12v28q0 14 2 24q-2 10 -2 26q0 18 2 24q-2 19 -2 36v47q1 12 6 12zM2362 -42h123q14 0 14 -18v-37q0 -11 -6 -12h-35q-13 0 -22 -24h2q10 0 10 -28l14 2q26 0 33 -8l-2 -12q2 -19 2 -36q0 -11 -14 -12l-17 2q-18 -2 -18 -8v-45q0 -4 4 -4h37q18 0 18 -14l-2 -12
q2 -8 2 -16q0 -5 -2 -8q2 -4 2 -8v-4q0 -3 -8 -8q-14 0 -16 2q-33 -2 -51 -2h-66q-3 0 -8 8v20q0 6 2 10l-2 12v41q0 7 2 10l-2 12v28q0 14 2 24q-2 10 -2 26q0 18 2 24q-2 19 -2 36v47q1 12 6 12zM415 -58v-4q1 -4 4 -4v8h-4zM622 -58v-4q0 -4 4 -4v8h-4zM419 -78l-2 -4v-8
h2q4 0 4 4v4q0 4 -4 4zM626 -78l-2 -4v-8h2q4 0 4 4v4q0 4 -4 4zM377 -88h2q6 0 6 -7q-6 -10 -6 -12q2 -4 2 -6l-4 -2h-4q-4 0 -4 4v6q0 15 8 17zM451 -115l4 -36l-6 -28q4 -13 4 -18v-12q0 -11 -2 -28l2 -4q0 -2 -2 -2q2 -11 2 -16q0 -12 -4 -29q13 -4 18 -4q0 12 10 23v2
q-8 8 -8 22q0 17 2 36q-2 13 -2 28q0 2 2 6l-2 12q0 7 2 10l-2 14q0 5 2 30q-3 19 -8 19h-2q-4 0 -10 -25zM584 -88h2q6 0 6 -7q-6 -10 -6 -12q2 -4 2 -6l-4 -2h-4q-4 0 -4 4v6q0 15 8 17zM658 -115l4 -36l-6 -28q4 -13 4 -18v-12q0 -11 -2 -28l2 -4q0 -2 -2 -2q2 -11 2 -16
q0 -12 -4 -29q12 -4 17 -4q0 12 10 23v2q-8 8 -8 22q0 17 2 36q-2 13 -2 28q0 2 2 6l-2 12q0 7 2 10l-2 14q0 5 2 30q-2 19 -8 19h-2q-3 0 -9 -25zM2121 -103l-2 -4v-18q0 -2 -2 -2l4 -16l-2 -12v-6h10q4 0 8 14q-2 13 -2 22v16q0 4 -14 6zM884 -105q0 -6 -4 -16
q2 -27 2 -40q0 -11 -2 -28q2 -12 2 -30q0 -10 -4 -10q4 -8 4 -22v-33q0 -3 6 -6q7 0 12 35q-2 11 -2 16q0 10 14 22v2q-12 0 -16 8l2 10q0 16 -2 28q2 11 2 32v2q0 5 22 8q4 0 16 -4q10 2 10 6t-4 4h-10q-8 0 -22 -2q-7 0 -20 18h-6zM492 -147v-4q4 0 4 4v4q-4 -1 -4 -4z
M699 -147v-4q4 0 4 4v4q-4 -1 -4 -4zM1561 -211v-2h8q3 0 3 4v2h-7q-4 0 -4 -4zM1755 -211v-2h8q4 0 4 4v2h-8q-4 0 -4 -4zM421 -223q0 -3 8 -6v2q0 4 -4 4h-4zM628 -223q0 -3 8 -6v2q0 4 -4 4h-4zM856 -231v-4h2q4 0 4 4h-6zM399 -272v-2h4q12 0 18 33v2h-4q-3 0 -12 -28
q-3 0 -6 -5zM606 -272v-2h4q12 0 18 33v2h-4q-4 0 -12 -28q-3 0 -6 -5zM381 -251q-4 -4 -4 -8q2 -3 2 -6h2q4 0 4 4v6q0 4 -4 4zM588 -251q-4 -4 -4 -8q2 -3 2 -6h2q4 0 4 4v6q0 4 -4 4zM2257 -282q11 0 14 -2q10 2 18 2h21q8 -3 8 -18v-2q0 -48 -8 -48q-18 0 -51 -2
q-8 3 -8 6v58q0 2 6 6zM485 -288v-8l3 -2v2q-2 3 -2 8h-1zM691 -288v-8l4 -2v2q-2 3 -2 8h-2zM488 -322v-2q4 -8 12 -8v4q0 3 -6 6h-6zM695 -322v-2q4 -8 12 -8v4q0 3 -6 6h-6z" />
    <glyph glyph-name="macron" unicode="&#xaf;" horiz-adv-x="670" 
 />
    <glyph glyph-name="degree" unicode="&#xb0;" horiz-adv-x="674" 
 />
    <glyph glyph-name="plusminus" unicode="&#xb1;" 
 />
    <glyph glyph-name="uni00B2" unicode="&#xb2;" 
 />
    <glyph glyph-name="uni00B3" unicode="&#xb3;" 
 />
    <glyph glyph-name="acute" unicode="&#xb4;" horiz-adv-x="1024" 
 />
    <glyph glyph-name="mu" unicode="&#xb5;" horiz-adv-x="1180" 
 />
    <glyph glyph-name="paragraph" unicode="&#xb6;" horiz-adv-x="1024" 
 />
    <glyph glyph-name="periodcentered" unicode="&#xb7;" horiz-adv-x="508" 
 />
    <glyph glyph-name="periodcentered" unicode="&#x2219;" horiz-adv-x="508" 
 />
    <glyph glyph-name="cedilla" unicode="&#xb8;" horiz-adv-x="1024" 
 />
    <glyph glyph-name="uni00B9" unicode="&#xb9;" 
 />
    <glyph glyph-name="ordmasculine" unicode="&#xba;" horiz-adv-x="718" 
 />
    <glyph glyph-name="guillemotright" unicode="&#xbb;" horiz-adv-x="944" 
 />
    <glyph glyph-name="onequarter" unicode="&#xbc;" horiz-adv-x="1708" 
 />
    <glyph glyph-name="onehalf" unicode="&#xbd;" horiz-adv-x="1964" 
 />
    <glyph glyph-name="threequarters" unicode="&#xbe;" horiz-adv-x="1708" 
 />
    <glyph glyph-name="questiondown" unicode="&#xbf;" horiz-adv-x="748" 
 />
    <glyph glyph-name="Agrave" unicode="&#xc0;" horiz-adv-x="1131" 
d="M392 1576q32 -8 68 -8h12q6 0 96 8h256q56 0 56 -96q8 -26 36 -252q-4 -41 -4 -48q15 -21 36 -140q24 -120 36 -280q15 -3 20 -160q5 -2 16 -36q-4 -27 -4 -44q18 0 28 -220q36 -42 36 -140q8 0 8 -28v-24q-18 -108 -108 -108h-292q-48 0 -48 104q-12 69 -12 104v48
q0 22 -84 24q-28 -8 -28 -32v-76q-13 -136 -40 -136q-75 -36 -84 -36h-32q-44 0 -56 4q-38 -4 -72 -4h-152q-40 6 -40 36v8q17 152 36 248q13 51 48 76v8q-20 32 -20 68v76l52 408q24 93 36 260q32 192 40 316q11 68 68 68t92 4zM292 1040v-4q4 0 12 -4q31 0 60 40v8
q-44 0 -72 -40zM564 944q-19 -90 -40 -328q0 -16 20 -28h20q44 0 44 32v8l-28 240v44q0 30 -12 32h-4z" />
    <glyph glyph-name="Aacute" unicode="&#xc1;" horiz-adv-x="1131" 
d="M392 1576q32 -8 68 -8h12q6 0 96 8h256q56 0 56 -96q8 -26 36 -252q-4 -41 -4 -48q15 -21 36 -140q24 -120 36 -280q15 -3 20 -160q5 -2 16 -36q-4 -27 -4 -44q18 0 28 -220q36 -42 36 -140q8 0 8 -28v-24q-18 -108 -108 -108h-292q-48 0 -48 104q-12 69 -12 104v48
q0 22 -84 24q-28 -8 -28 -32v-76q-13 -136 -40 -136q-75 -36 -84 -36h-32q-44 0 -56 4q-38 -4 -72 -4h-152q-40 6 -40 36v8q17 152 36 248q13 51 48 76v8q-20 32 -20 68v76l52 408q24 93 36 260q32 192 40 316q11 68 68 68t92 4zM292 1040v-4q4 0 12 -4q31 0 60 40v8
q-44 0 -72 -40zM564 944q-19 -90 -40 -328q0 -16 20 -28h20q44 0 44 32v8l-28 240v44q0 30 -12 32h-4z" />
    <glyph glyph-name="Acircumflex" unicode="&#xc2;" horiz-adv-x="1131" 
d="M392 1576q32 -8 68 -8h12q6 0 96 8h256q56 0 56 -96q8 -26 36 -252q-4 -41 -4 -48q15 -21 36 -140q24 -120 36 -280q15 -3 20 -160q5 -2 16 -36q-4 -27 -4 -44q18 0 28 -220q36 -42 36 -140q8 0 8 -28v-24q-18 -108 -108 -108h-292q-48 0 -48 104q-12 69 -12 104v48
q0 22 -84 24q-28 -8 -28 -32v-76q-13 -136 -40 -136q-75 -36 -84 -36h-32q-44 0 -56 4q-38 -4 -72 -4h-152q-40 6 -40 36v8q17 152 36 248q13 51 48 76v8q-20 32 -20 68v76l52 408q24 93 36 260q32 192 40 316q11 68 68 68t92 4zM292 1040v-4q4 0 12 -4q31 0 60 40v8
q-44 0 -72 -40zM564 944q-19 -90 -40 -328q0 -16 20 -28h20q44 0 44 32v8l-28 240v44q0 30 -12 32h-4z" />
    <glyph glyph-name="Atilde" unicode="&#xc3;" horiz-adv-x="1131" 
d="M392 1576q32 -8 68 -8h12q6 0 96 8h256q56 0 56 -96q8 -26 36 -252q-4 -41 -4 -48q15 -21 36 -140q24 -120 36 -280q15 -3 20 -160q5 -2 16 -36q-4 -27 -4 -44q18 0 28 -220q36 -42 36 -140q8 0 8 -28v-24q-18 -108 -108 -108h-292q-48 0 -48 104q-12 69 -12 104v48
q0 22 -84 24q-28 -8 -28 -32v-76q-13 -136 -40 -136q-75 -36 -84 -36h-32q-44 0 -56 4q-38 -4 -72 -4h-152q-40 6 -40 36v8q17 152 36 248q13 51 48 76v8q-20 32 -20 68v76l52 408q24 93 36 260q32 192 40 316q11 68 68 68t92 4zM292 1040v-4q4 0 12 -4q31 0 60 40v8
q-44 0 -72 -40zM564 944q-19 -90 -40 -328q0 -16 20 -28h20q44 0 44 32v8l-28 240v44q0 30 -12 32h-4z" />
    <glyph glyph-name="Adieresis" unicode="&#xc4;" horiz-adv-x="1131" 
d="M392 1576q32 -8 68 -8h12q6 0 96 8h256q56 0 56 -96q8 -26 36 -252q-4 -41 -4 -48q15 -21 36 -140q24 -120 36 -280q15 -3 20 -160q5 -2 16 -36q-4 -27 -4 -44q18 0 28 -220q36 -42 36 -140q8 0 8 -28v-24q-18 -108 -108 -108h-292q-48 0 -48 104q-12 69 -12 104v48
q0 22 -84 24q-28 -8 -28 -32v-76q-13 -136 -40 -136q-75 -36 -84 -36h-32q-44 0 -56 4q-38 -4 -72 -4h-152q-40 6 -40 36v8q17 152 36 248q13 51 48 76v8q-20 32 -20 68v76l52 408q24 93 36 260q32 192 40 316q11 68 68 68t92 4zM292 1040v-4q4 0 12 -4q31 0 60 40v8
q-44 0 -72 -40zM564 944q-19 -90 -40 -328q0 -16 20 -28h20q44 0 44 32v8l-28 240v44q0 30 -12 32h-4z" />
    <glyph glyph-name="Aring" unicode="&#xc5;" horiz-adv-x="1131" 
d="M392 1576q32 -8 68 -8h12q6 0 96 8h256q56 0 56 -96q8 -26 36 -252q-4 -41 -4 -48q15 -21 36 -140q24 -120 36 -280q15 -3 20 -160q5 -2 16 -36q-4 -27 -4 -44q18 0 28 -220q36 -42 36 -140q8 0 8 -28v-24q-18 -108 -108 -108h-292q-48 0 -48 104q-12 69 -12 104v48
q0 22 -84 24q-28 -8 -28 -32v-76q-13 -136 -40 -136q-75 -36 -84 -36h-32q-44 0 -56 4q-38 -4 -72 -4h-152q-40 6 -40 36v8q17 152 36 248q13 51 48 76v8q-20 32 -20 68v76l52 408q24 93 36 260q32 192 40 316q11 68 68 68t92 4zM292 1040v-4q4 0 12 -4q31 0 60 40v8
q-44 0 -72 -40zM564 944q-19 -90 -40 -328q0 -16 20 -28h20q44 0 44 32v8l-28 240v44q0 30 -12 32h-4z" />
    <glyph glyph-name="AE" unicode="&#xc6;" horiz-adv-x="1459" 
d="M292 1040v-4q4 0 12 -4q31 0 60 40v8q-44 0 -72 -40zM564 944q-19 -90 -40 -328q0 -16 20 -28h20q44 0 44 32v8l-28 240v44q0 30 -12 32h-4zM688 0q-48 0 -48 104q-12 69 -12 104v48q0 22 -84 24q-28 -8 -28 -32v-76q-13 -136 -40 -136q-75 -36 -84 -36h-32q-44 0 -56 4
q-38 -4 -72 -4h-152q-40 6 -40 36v8q17 152 36 248q13 51 48 76v8q-20 32 -20 68v76l52 408q24 93 36 260q32 192 40 316q11 68 68 68t92 4q32 -8 68 -8h12q6 0 96 8h347q46 0 84 -4q22 4 80 4q54 0 88 -4q32 4 96 4h16q92 0 92 -56v-252q-5 -40 -40 -40h-180q-47 0 -56 -60
q-40 -24 -40 -44v-12q48 -2 48 -48v-52q3 -40 20 -40q57 4 96 4q128 -6 128 -24q8 -20 8 -28l-12 -64q16 -74 16 -140q0 -80 -60 -80h-20q-41 0 -64 4q-112 0 -112 -44v-208q0 -44 36 -44h220q40 0 48 -72q-8 -41 -8 -64q8 -47 8 -56q0 -16 -8 -52l8 -48q-11 -52 -44 -52
h-48q-22 0 -80 12q-37 -12 -68 -12h-20q-42 0 -128 -4v4l-8 -4q-8 0 -18 1q-6 -1 -13 -1h-292z" />
    <glyph glyph-name="Ccedilla" unicode="&#xc7;" horiz-adv-x="1168" 
d="M254 1000l-4 -8l8 -4l4 8zM449 14q-147 23 -147 42q-36 0 -92 80q-108 104 -108 232q-7 0 -8 60v96q0 23 -8 80q0 29 24 100q-16 45 -16 56v68q-8 70 -8 72q8 192 8 252v72q0 99 64 208q21 20 72 88q121 80 160 80q61 32 108 32h132q209 -24 260 -68q124 -68 180 -248
q0 -18 8 -68q0 -10 -8 -48l20 -84l-16 -64q16 -35 16 -48q0 -108 -36 -108h-108q-36 0 -80 4q-14 -4 -52 -4l-52 16l-92 -8q-32 10 -32 64v4q0 50 12 116q-12 58 -12 72q0 23 8 80q-7 88 -48 88h-12q-46 0 -52 -120v-8q0 -18 4 -92q0 -21 -4 -68q4 -54 4 -76q0 -34 -4 -72
q4 -65 4 -148q0 -60 -16 -124q16 -50 16 -112q-4 -60 -4 -84q15 -124 36 -124h24q38 0 44 56v264q0 60 40 60h24q68 8 76 8h208q104 0 104 -56v-44q0 -60 -12 -148v-40q0 -62 -68 -84q-11 -15 -16 -40q0 -2 24 -56v-4q0 -59 -112 -128q-13 0 -144 -72q-14 -4 -32 -7
q7 -54 7 -76v-20q0 -150 -148 -272q-69 -36 -92 -36q-39 0 -52 112q32 53 32 64v8q-48 40 -48 64v72q0 40 20 89z" />
    <glyph glyph-name="Egrave" unicode="&#xc8;" horiz-adv-x="906" 
d="M150 1576h204q46 0 84 -4q22 4 80 4q54 0 88 -4q31 4 96 4h16q92 0 92 -56v-252q-5 -40 -40 -40h-180q-47 0 -56 -60q-40 -24 -40 -44v-12q48 -2 48 -48v-52q3 -40 20 -40q56 4 96 4q128 -7 128 -24q8 -20 8 -28l-12 -64q16 -74 16 -140q0 -80 -60 -80h-20q-41 0 -64 4
q-112 0 -112 -44v-208q0 -44 36 -44h220q40 0 48 -72q-8 -42 -8 -64q8 -48 8 -56q0 -16 -8 -52l8 -48q-11 -52 -44 -52h-48q-22 0 -80 12q-37 -12 -68 -12h-20q-42 0 -128 -4v4l-8 -4q-22 0 -56 4q-41 -4 -48 -4q-14 0 -36 4q-65 -4 -116 -4h-56q-48 0 -48 100q4 64 12 100
q-8 30 -8 56v204q0 26 8 56q-8 40 -8 72v184q0 16 12 68v4q0 6 -16 52q4 134 12 216v4q-8 68 -8 76v188q0 19 -4 40q4 15 4 36v56q0 64 56 64z" />
    <glyph glyph-name="Eacute" unicode="&#xc9;" horiz-adv-x="906" 
d="M150 1576h204q46 0 84 -4q22 4 80 4q54 0 88 -4q31 4 96 4h16q92 0 92 -56v-252q-5 -40 -40 -40h-180q-47 0 -56 -60q-40 -24 -40 -44v-12q48 -2 48 -48v-52q3 -40 20 -40q56 4 96 4q128 -7 128 -24q8 -20 8 -28l-12 -64q16 -74 16 -140q0 -80 -60 -80h-20q-41 0 -64 4
q-112 0 -112 -44v-208q0 -44 36 -44h220q40 0 48 -72q-8 -42 -8 -64q8 -48 8 -56q0 -16 -8 -52l8 -48q-11 -52 -44 -52h-48q-22 0 -80 12q-37 -12 -68 -12h-20q-42 0 -128 -4v4l-8 -4q-22 0 -56 4q-41 -4 -48 -4q-14 0 -36 4q-65 -4 -116 -4h-56q-48 0 -48 100q4 64 12 100
q-8 30 -8 56v204q0 26 8 56q-8 40 -8 72v184q0 16 12 68v4q0 6 -16 52q4 134 12 216v4q-8 68 -8 76v188q0 19 -4 40q4 15 4 36v56q0 64 56 64z" />
    <glyph glyph-name="Ecircumflex" unicode="&#xca;" horiz-adv-x="906" 
d="M150 1576h204q46 0 84 -4q22 4 80 4q54 0 88 -4q31 4 96 4h16q92 0 92 -56v-252q-5 -40 -40 -40h-180q-47 0 -56 -60q-40 -24 -40 -44v-12q48 -2 48 -48v-52q3 -40 20 -40q56 4 96 4q128 -7 128 -24q8 -20 8 -28l-12 -64q16 -74 16 -140q0 -80 -60 -80h-20q-41 0 -64 4
q-112 0 -112 -44v-208q0 -44 36 -44h220q40 0 48 -72q-8 -42 -8 -64q8 -48 8 -56q0 -16 -8 -52l8 -48q-11 -52 -44 -52h-48q-22 0 -80 12q-37 -12 -68 -12h-20q-42 0 -128 -4v4l-8 -4q-22 0 -56 4q-41 -4 -48 -4q-14 0 -36 4q-65 -4 -116 -4h-56q-48 0 -48 100q4 64 12 100
q-8 30 -8 56v204q0 26 8 56q-8 40 -8 72v184q0 16 12 68v4q0 6 -16 52q4 134 12 216v4q-8 68 -8 76v188q0 19 -4 40q4 15 4 36v56q0 64 56 64z" />
    <glyph glyph-name="Edieresis" unicode="&#xcb;" horiz-adv-x="906" 
d="M150 1576h204q46 0 84 -4q22 4 80 4q54 0 88 -4q31 4 96 4h16q92 0 92 -56v-252q-5 -40 -40 -40h-180q-47 0 -56 -60q-40 -24 -40 -44v-12q48 -2 48 -48v-52q3 -40 20 -40q56 4 96 4q128 -7 128 -24q8 -20 8 -28l-12 -64q16 -74 16 -140q0 -80 -60 -80h-20q-41 0 -64 4
q-112 0 -112 -44v-208q0 -44 36 -44h220q40 0 48 -72q-8 -42 -8 -64q8 -48 8 -56q0 -16 -8 -52l8 -48q-11 -52 -44 -52h-48q-22 0 -80 12q-37 -12 -68 -12h-20q-42 0 -128 -4v4l-8 -4q-22 0 -56 4q-41 -4 -48 -4q-14 0 -36 4q-65 -4 -116 -4h-56q-48 0 -48 100q4 64 12 100
q-8 30 -8 56v204q0 26 8 56q-8 40 -8 72v184q0 16 12 68v4q0 6 -16 52q4 134 12 216v4q-8 68 -8 76v188q0 19 -4 40q4 15 4 36v56q0 64 56 64z" />
    <glyph glyph-name="Igrave" unicode="&#xcc;" horiz-adv-x="630" 
d="M142 1576q136 -4 136 -24q21 -20 36 -20h8q14 0 104 40q7 4 20 4h12q80 0 80 -80q4 -18 4 -64q0 -21 -16 -124q8 -54 8 -68l-4 -40q12 -48 12 -76v-60q0 -31 -4 -56q4 -19 4 -52v-8q0 -11 -16 -60v-8q16 -65 16 -80q-8 -36 -8 -40q16 -79 16 -100q-8 -38 -8 -60v-68
q0 -97 -116 -196v-24q4 0 12 -4q24 9 64 44h8q32 -7 32 -52v-16q0 -32 -4 -52q4 -25 4 -56v-8q0 -20 -12 -68q4 -26 4 -52q0 -33 -40 -48l-48 4h-76q-49 0 -76 40h-8q-67 -32 -80 -32q-51 -8 -64 -8q-47 0 -52 56q8 36 12 124q-12 27 -12 44v688q0 17 8 88q-8 48 -8 52
q20 64 20 72q-12 30 -20 132v20q0 8 8 76q-8 63 -8 84v20q0 116 52 116zM286 1204v-12h28q21 0 24 12v8q0 8 -8 8q-37 -16 -44 -16z" />
    <glyph glyph-name="Iacute" unicode="&#xcd;" horiz-adv-x="630" 
d="M142 1576q136 -4 136 -24q21 -20 36 -20h8q14 0 104 40q7 4 20 4h12q80 0 80 -80q4 -18 4 -64q0 -21 -16 -124q8 -54 8 -68l-4 -40q12 -48 12 -76v-60q0 -31 -4 -56q4 -19 4 -52v-8q0 -11 -16 -60v-8q16 -65 16 -80q-8 -36 -8 -40q16 -79 16 -100q-8 -38 -8 -60v-68
q0 -97 -116 -196v-24q4 0 12 -4q24 9 64 44h8q32 -7 32 -52v-16q0 -32 -4 -52q4 -25 4 -56v-8q0 -20 -12 -68q4 -26 4 -52q0 -33 -40 -48l-48 4h-76q-49 0 -76 40h-8q-67 -32 -80 -32q-51 -8 -64 -8q-47 0 -52 56q8 36 12 124q-12 27 -12 44v688q0 17 8 88q-8 48 -8 52
q20 64 20 72q-12 30 -20 132v20q0 8 8 76q-8 63 -8 84v20q0 116 52 116zM286 1204v-12h28q21 0 24 12v8q0 8 -8 8q-37 -16 -44 -16z" />
    <glyph glyph-name="Icircumflex" unicode="&#xce;" horiz-adv-x="630" 
d="M142 1576q136 -4 136 -24q21 -20 36 -20h8q14 0 104 40q7 4 20 4h12q80 0 80 -80q4 -18 4 -64q0 -21 -16 -124q8 -54 8 -68l-4 -40q12 -48 12 -76v-60q0 -31 -4 -56q4 -19 4 -52v-8q0 -11 -16 -60v-8q16 -65 16 -80q-8 -36 -8 -40q16 -79 16 -100q-8 -38 -8 -60v-68
q0 -97 -116 -196v-24q4 0 12 -4q24 9 64 44h8q32 -7 32 -52v-16q0 -32 -4 -52q4 -25 4 -56v-8q0 -20 -12 -68q4 -26 4 -52q0 -33 -40 -48l-48 4h-76q-49 0 -76 40h-8q-67 -32 -80 -32q-51 -8 -64 -8q-47 0 -52 56q8 36 12 124q-12 27 -12 44v688q0 17 8 88q-8 48 -8 52
q20 64 20 72q-12 30 -20 132v20q0 8 8 76q-8 63 -8 84v20q0 116 52 116zM286 1204v-12h28q21 0 24 12v8q0 8 -8 8q-37 -16 -44 -16z" />
    <glyph glyph-name="Idieresis" unicode="&#xcf;" horiz-adv-x="630" 
d="M142 1576q136 -4 136 -24q21 -20 36 -20h8q14 0 104 40q7 4 20 4h12q80 0 80 -80q4 -18 4 -64q0 -21 -16 -124q8 -54 8 -68l-4 -40q12 -48 12 -76v-60q0 -31 -4 -56q4 -19 4 -52v-8q0 -11 -16 -60v-8q16 -65 16 -80q-8 -36 -8 -40q16 -79 16 -100q-8 -38 -8 -60v-68
q0 -97 -116 -196v-24q4 0 12 -4q24 9 64 44h8q32 -7 32 -52v-16q0 -32 -4 -52q4 -25 4 -56v-8q0 -20 -12 -68q4 -26 4 -52q0 -33 -40 -48l-48 4h-76q-49 0 -76 40h-8q-67 -32 -80 -32q-51 -8 -64 -8q-47 0 -52 56q8 36 12 124q-12 27 -12 44v688q0 17 8 88q-8 48 -8 52
q20 64 20 72q-12 30 -20 132v20q0 8 8 76q-8 63 -8 84v20q0 116 52 116zM286 1204v-12h28q21 0 24 12v8q0 8 -8 8q-37 -16 -44 -16z" />
    <glyph glyph-name="Eth" unicode="&#xd0;" horiz-adv-x="1518" 
 />
    <glyph glyph-name="Ntilde" unicode="&#xd1;" horiz-adv-x="1106" 
d="M126 1351q117 -4 164 -12l52 8q16 0 68 -24l20 12h8q30 0 56 -84q44 -94 44 -144v-24q64 -133 64 -144q29 -88 40 -92q13 0 20 68v4q0 32 -8 72q8 40 8 68q-12 111 -12 136q4 124 32 124h8l40 -4q32 36 96 36l64 -24q40 20 64 20q84 -7 84 -48v-56q0 -51 -12 -116
q12 -36 12 -48v-64q0 -34 -16 -80q0 -6 4 -64q-4 -38 -8 -44q20 -60 20 -72q-11 -307 -4 -551q0 -21 -40 -48l40 -44l4 -24v-32q0 -56 -56 -56h-292q-55 0 -76 96q0 35 -28 104q0 31 -52 168q0 20 -30 -102t-42 -170q8 -21 12 -52q0 -37 -56 -44h-272q-56 0 -56 52v903
q0 32 8 72q-8 40 -8 72v204q0 27 36 48zM750 1275q0 -29 60 -92q17 6 24 20v8q-43 64 -76 64h-8zM786 1123q0 -4 -4 -12q4 -7 4 -16h12v28h-12zM782 975v-16q24 -40 48 -40q44 55 44 92q-8 0 -8 8l-28 -4h-12l-20 16h-4q-10 0 -20 -56zM822 867v-4q5 -69 48 -124q0 -2 4 -16
q0 -10 -36 -48v-8q1 -8 8 -8q72 9 72 68q4 7 4 20v20q0 5 -48 32v16l8 28q-48 24 -56 24h-4zM762 803v-8h4v8h-4zM174 615v-4q0 -8 12 -8q20 12 32 12l28 -4q8 10 8 12v16q0 21 -12 24h-4q-64 -19 -64 -48zM202 495v-12q0 -21 16 -28h4q6 0 24 32v16l-20 4q-24 -2 -24 -12z
M834 407q12 -20 12 -40v-8q0 -5 -24 -60v-12q45 -56 48 -56h8q6 0 12 12v12q0 15 -16 108l8 52q-8 18 -16 20h-4q-28 0 -28 -28zM626 395v-4q0 -6 12 -12h4q12 4 12 24q-6 16 -12 16h-4q-12 -4 -12 -24zM330 344v-8q9 -36 20 -36q8 0 8 8v12q-10 17 -28 24zM176 1700
q71 -8 88 -8h28q23 0 80 8q51 -8 64 -8t116 4q27 -11 48 -32h4q10 36 80 36q71 -8 88 -8h16q11 0 108 8h36q83 0 112 -84q20 -14 20 -44v-100q0 -48 -64 -48q-9 0 -44 -4q-48 4 -72 4q-6 0 -48 -4q-41 20 -96 20h-16q-45 -16 -64 -16q-16 0 -64 40h-24q-34 -34 -60 -44
q-40 4 -60 4h-32q-52 0 -72 -8l-132 16l-56 -12h-28q-32 15 -32 52v156q0 72 68 72h8zM896 1532l-4 -8q1 -8 8 -8h4q8 0 8 8v4q-14 4 -16 4z" />
    <glyph glyph-name="Ograve" unicode="&#xd2;" horiz-adv-x="1049" 
d="M458 1636h116q186 0 336 -160q43 -72 72 -232q12 -12 12 -52v-92q0 -24 -16 -76v-4q0 -12 16 -56q-16 -72 -16 -88l12 -48q0 -14 -24 -60q28 -37 28 -56q0 -54 -4 -64q4 -60 4 -100v-132q0 -74 -52 -196q-59 -64 -80 -108q-82 -52 -116 -52q-15 8 -32 8q0 -49 -88 -56
q-58 -12 -72 -12h-52q-196 22 -196 52q-7 0 -20 8l-20 -4q-94 0 -124 168q-16 0 -32 60q8 28 8 44q-2 15 -72 40l-4 20v4q0 4 16 48q-12 50 -20 124q8 46 8 64q-16 26 -16 60v8q0 54 28 68h8q7 0 36 -12q24 57 32 136q15 13 24 60q-12 47 -12 56v8q16 45 16 56v4
q0 28 -48 28q-12 15 -12 28q0 26 48 60q-11 21 -16 44q1 32 32 100q0 25 -68 44q-8 10 -8 12q0 30 56 52q0 104 92 140h12q13 -4 32 -4q32 56 128 56q12 4 48 4zM282 1544q0 -31 -8 -56v-16q3 -24 12 -24h8v8q0 13 -8 56l4 28zM282 1368v-32l8 -12q24 10 24 36q0 22 -16 32
h-4q-12 -4 -12 -24zM78 1344h4q36 0 36 -44q-7 -18 -28 -40q4 -27 4 -44q0 -6 -16 -16h-16q-19 0 -24 56q21 88 40 88zM446 1180q16 -34 16 -44v-12q0 -38 8 -104q-16 -92 -32 -136v-4q28 -81 28 -104q-8 -51 -8 -60q8 -42 8 -44l-16 -64q0 -5 8 -44l-4 -28q8 -30 8 -36
q-5 -164 -24 -164v-12q9 0 72 -24h16q9 0 28 84q36 33 36 52q-40 30 -40 84v116q0 17 12 88q-12 49 -12 68v24q0 50 4 92q-4 28 -4 48t4 60q-4 53 -4 112q0 12 8 80q-12 128 -40 128h-16q-22 0 -48 -140q-5 0 -8 -16zM678 1188v-8q1 -8 8 -8l4 8v8h-12zM666 1036v-8
q1 -8 8 -8h8l4 20v20h-8q-12 -4 -12 -24zM298 652v-4q17 -20 48 -20l4 8v4q0 11 -40 16q-8 -4 -12 -4zM186 404q4 -8 4 -12h16q14 0 60 40q11 0 20 20q-4 22 -4 36q0 20 28 68v4q-10 20 -32 20h-4q-7 0 -20 -56q-11 -2 -32 -88q-36 -26 -36 -32zM82 496q0 -56 16 -56h4
q24 16 24 40q-5 32 -24 32q-18 -8 -20 -16zM622 312v-12q0 -22 24 -36l4 8q-12 40 -12 52h-4q-6 0 -12 -12zM646 156l-4 -8q0 -31 68 -52v12q0 43 -64 48z" />
    <glyph glyph-name="Oacute" unicode="&#xd3;" horiz-adv-x="1049" 
d="M458 1636h116q186 0 336 -160q43 -72 72 -232q12 -12 12 -52v-92q0 -24 -16 -76v-4q0 -12 16 -56q-16 -72 -16 -88l12 -48q0 -14 -24 -60q28 -37 28 -56q0 -54 -4 -64q4 -60 4 -100v-132q0 -74 -52 -196q-59 -64 -80 -108q-82 -52 -116 -52q-15 8 -32 8q0 -49 -88 -56
q-58 -12 -72 -12h-52q-196 22 -196 52q-7 0 -20 8l-20 -4q-94 0 -124 168q-16 0 -32 60q8 28 8 44q-2 15 -72 40l-4 20v4q0 4 16 48q-12 50 -20 124q8 46 8 64q-16 26 -16 60v8q0 54 28 68h8q7 0 36 -12q24 57 32 136q15 13 24 60q-12 47 -12 56v8q16 45 16 56v4
q0 28 -48 28q-12 15 -12 28q0 26 48 60q-11 21 -16 44q1 32 32 100q0 25 -68 44q-8 10 -8 12q0 30 56 52q0 104 92 140h12q13 -4 32 -4q32 56 128 56q12 4 48 4zM282 1544q0 -31 -8 -56v-16q3 -24 12 -24h8v8q0 13 -8 56l4 28zM282 1368v-32l8 -12q24 10 24 36q0 22 -16 32
h-4q-12 -4 -12 -24zM78 1344h4q36 0 36 -44q-7 -18 -28 -40q4 -27 4 -44q0 -6 -16 -16h-16q-19 0 -24 56q21 88 40 88zM446 1180q16 -34 16 -44v-12q0 -38 8 -104q-16 -92 -32 -136v-4q28 -81 28 -104q-8 -51 -8 -60q8 -42 8 -44l-16 -64q0 -5 8 -44l-4 -28q8 -30 8 -36
q-5 -164 -24 -164v-12q9 0 72 -24h16q9 0 28 84q36 33 36 52q-40 30 -40 84v116q0 17 12 88q-12 49 -12 68v24q0 50 4 92q-4 28 -4 48t4 60q-4 53 -4 112q0 12 8 80q-12 128 -40 128h-16q-22 0 -48 -140q-5 0 -8 -16zM678 1188v-8q1 -8 8 -8l4 8v8h-12zM666 1036v-8
q1 -8 8 -8h8l4 20v20h-8q-12 -4 -12 -24zM298 652v-4q17 -20 48 -20l4 8v4q0 11 -40 16q-8 -4 -12 -4zM186 404q4 -8 4 -12h16q14 0 60 40q11 0 20 20q-4 22 -4 36q0 20 28 68v4q-10 20 -32 20h-4q-7 0 -20 -56q-11 -2 -32 -88q-36 -26 -36 -32zM82 496q0 -56 16 -56h4
q24 16 24 40q-5 32 -24 32q-18 -8 -20 -16zM622 312v-12q0 -22 24 -36l4 8q-12 40 -12 52h-4q-6 0 -12 -12zM646 156l-4 -8q0 -31 68 -52v12q0 43 -64 48z" />
    <glyph glyph-name="Ocircumflex" unicode="&#xd4;" horiz-adv-x="1049" 
d="M458 1636h116q186 0 336 -160q43 -72 72 -232q12 -12 12 -52v-92q0 -24 -16 -76v-4q0 -12 16 -56q-16 -72 -16 -88l12 -48q0 -14 -24 -60q28 -37 28 -56q0 -54 -4 -64q4 -60 4 -100v-132q0 -74 -52 -196q-59 -64 -80 -108q-82 -52 -116 -52q-15 8 -32 8q0 -49 -88 -56
q-58 -12 -72 -12h-52q-196 22 -196 52q-7 0 -20 8l-20 -4q-94 0 -124 168q-16 0 -32 60q8 28 8 44q-2 15 -72 40l-4 20v4q0 4 16 48q-12 50 -20 124q8 46 8 64q-16 26 -16 60v8q0 54 28 68h8q7 0 36 -12q24 57 32 136q15 13 24 60q-12 47 -12 56v8q16 45 16 56v4
q0 28 -48 28q-12 15 -12 28q0 26 48 60q-11 21 -16 44q1 32 32 100q0 25 -68 44q-8 10 -8 12q0 30 56 52q0 104 92 140h12q13 -4 32 -4q32 56 128 56q12 4 48 4zM282 1544q0 -31 -8 -56v-16q3 -24 12 -24h8v8q0 13 -8 56l4 28zM282 1368v-32l8 -12q24 10 24 36q0 22 -16 32
h-4q-12 -4 -12 -24zM78 1344h4q36 0 36 -44q-7 -18 -28 -40q4 -27 4 -44q0 -6 -16 -16h-16q-19 0 -24 56q21 88 40 88zM446 1180q16 -34 16 -44v-12q0 -38 8 -104q-16 -92 -32 -136v-4q28 -81 28 -104q-8 -51 -8 -60q8 -42 8 -44l-16 -64q0 -5 8 -44l-4 -28q8 -30 8 -36
q-5 -164 -24 -164v-12q9 0 72 -24h16q9 0 28 84q36 33 36 52q-40 30 -40 84v116q0 17 12 88q-12 49 -12 68v24q0 50 4 92q-4 28 -4 48t4 60q-4 53 -4 112q0 12 8 80q-12 128 -40 128h-16q-22 0 -48 -140q-5 0 -8 -16zM678 1188v-8q1 -8 8 -8l4 8v8h-12zM666 1036v-8
q1 -8 8 -8h8l4 20v20h-8q-12 -4 -12 -24zM298 652v-4q17 -20 48 -20l4 8v4q0 11 -40 16q-8 -4 -12 -4zM186 404q4 -8 4 -12h16q14 0 60 40q11 0 20 20q-4 22 -4 36q0 20 28 68v4q-10 20 -32 20h-4q-7 0 -20 -56q-11 -2 -32 -88q-36 -26 -36 -32zM82 496q0 -56 16 -56h4
q24 16 24 40q-5 32 -24 32q-18 -8 -20 -16zM622 312v-12q0 -22 24 -36l4 8q-12 40 -12 52h-4q-6 0 -12 -12zM646 156l-4 -8q0 -31 68 -52v12q0 43 -64 48z" />
    <glyph glyph-name="Otilde" unicode="&#xd5;" horiz-adv-x="1049" 
d="M458 1636h116q186 0 336 -160q43 -72 72 -232q12 -12 12 -52v-92q0 -24 -16 -76v-4q0 -12 16 -56q-16 -72 -16 -88l12 -48q0 -14 -24 -60q28 -37 28 -56q0 -54 -4 -64q4 -60 4 -100v-132q0 -74 -52 -196q-59 -64 -80 -108q-82 -52 -116 -52q-15 8 -32 8q0 -49 -88 -56
q-58 -12 -72 -12h-52q-196 22 -196 52q-7 0 -20 8l-20 -4q-94 0 -124 168q-16 0 -32 60q8 28 8 44q-2 15 -72 40l-4 20v4q0 4 16 48q-12 50 -20 124q8 46 8 64q-16 26 -16 60v8q0 54 28 68h8q7 0 36 -12q24 57 32 136q15 13 24 60q-12 47 -12 56v8q16 45 16 56v4
q0 28 -48 28q-12 15 -12 28q0 26 48 60q-11 21 -16 44q1 32 32 100q0 25 -68 44q-8 10 -8 12q0 30 56 52q0 104 92 140h12q13 -4 32 -4q32 56 128 56q12 4 48 4zM282 1544q0 -31 -8 -56v-16q3 -24 12 -24h8v8q0 13 -8 56l4 28zM282 1368v-32l8 -12q24 10 24 36q0 22 -16 32
h-4q-12 -4 -12 -24zM78 1344h4q36 0 36 -44q-7 -18 -28 -40q4 -27 4 -44q0 -6 -16 -16h-16q-19 0 -24 56q21 88 40 88zM446 1180q16 -34 16 -44v-12q0 -38 8 -104q-16 -92 -32 -136v-4q28 -81 28 -104q-8 -51 -8 -60q8 -42 8 -44l-16 -64q0 -5 8 -44l-4 -28q8 -30 8 -36
q-5 -164 -24 -164v-12q9 0 72 -24h16q9 0 28 84q36 33 36 52q-40 30 -40 84v116q0 17 12 88q-12 49 -12 68v24q0 50 4 92q-4 28 -4 48t4 60q-4 53 -4 112q0 12 8 80q-12 128 -40 128h-16q-22 0 -48 -140q-5 0 -8 -16zM678 1188v-8q1 -8 8 -8l4 8v8h-12zM666 1036v-8
q1 -8 8 -8h8l4 20v20h-8q-12 -4 -12 -24zM298 652v-4q17 -20 48 -20l4 8v4q0 11 -40 16q-8 -4 -12 -4zM186 404q4 -8 4 -12h16q14 0 60 40q11 0 20 20q-4 22 -4 36q0 20 28 68v4q-10 20 -32 20h-4q-7 0 -20 -56q-11 -2 -32 -88q-36 -26 -36 -32zM82 496q0 -56 16 -56h4
q24 16 24 40q-5 32 -24 32q-18 -8 -20 -16zM622 312v-12q0 -22 24 -36l4 8q-12 40 -12 52h-4q-6 0 -12 -12zM646 156l-4 -8q0 -31 68 -52v12q0 43 -64 48z" />
    <glyph glyph-name="Odieresis" unicode="&#xd6;" horiz-adv-x="1049" 
d="M458 1636h116q186 0 336 -160q43 -72 72 -232q12 -12 12 -52v-92q0 -24 -16 -76v-4q0 -12 16 -56q-16 -72 -16 -88l12 -48q0 -14 -24 -60q28 -37 28 -56q0 -54 -4 -64q4 -60 4 -100v-132q0 -74 -52 -196q-59 -64 -80 -108q-82 -52 -116 -52q-15 8 -32 8q0 -49 -88 -56
q-58 -12 -72 -12h-52q-196 22 -196 52q-7 0 -20 8l-20 -4q-94 0 -124 168q-16 0 -32 60q8 28 8 44q-2 15 -72 40l-4 20v4q0 4 16 48q-12 50 -20 124q8 46 8 64q-16 26 -16 60v8q0 54 28 68h8q7 0 36 -12q24 57 32 136q15 13 24 60q-12 47 -12 56v8q16 45 16 56v4
q0 28 -48 28q-12 15 -12 28q0 26 48 60q-11 21 -16 44q1 32 32 100q0 25 -68 44q-8 10 -8 12q0 30 56 52q0 104 92 140h12q13 -4 32 -4q32 56 128 56q12 4 48 4zM282 1544q0 -31 -8 -56v-16q3 -24 12 -24h8v8q0 13 -8 56l4 28zM282 1368v-32l8 -12q24 10 24 36q0 22 -16 32
h-4q-12 -4 -12 -24zM78 1344h4q36 0 36 -44q-7 -18 -28 -40q4 -27 4 -44q0 -6 -16 -16h-16q-19 0 -24 56q21 88 40 88zM446 1180q16 -34 16 -44v-12q0 -38 8 -104q-16 -92 -32 -136v-4q28 -81 28 -104q-8 -51 -8 -60q8 -42 8 -44l-16 -64q0 -5 8 -44l-4 -28q8 -30 8 -36
q-5 -164 -24 -164v-12q9 0 72 -24h16q9 0 28 84q36 33 36 52q-40 30 -40 84v116q0 17 12 88q-12 49 -12 68v24q0 50 4 92q-4 28 -4 48t4 60q-4 53 -4 112q0 12 8 80q-12 128 -40 128h-16q-22 0 -48 -140q-5 0 -8 -16zM678 1188v-8q1 -8 8 -8l4 8v8h-12zM666 1036v-8
q1 -8 8 -8h8l4 20v20h-8q-12 -4 -12 -24zM298 652v-4q17 -20 48 -20l4 8v4q0 11 -40 16q-8 -4 -12 -4zM186 404q4 -8 4 -12h16q14 0 60 40q11 0 20 20q-4 22 -4 36q0 20 28 68v4q-10 20 -32 20h-4q-7 0 -20 -56q-11 -2 -32 -88q-36 -26 -36 -32zM82 496q0 -56 16 -56h4
q24 16 24 40q-5 32 -24 32q-18 -8 -20 -16zM622 312v-12q0 -22 24 -36l4 8q-12 40 -12 52h-4q-6 0 -12 -12zM646 156l-4 -8q0 -31 68 -52v12q0 43 -64 48z" />
    <glyph glyph-name="multiply" unicode="&#xd7;" 
 />
    <glyph glyph-name="Oslash" unicode="&#xd8;" horiz-adv-x="1614" 
 />
    <glyph glyph-name="Ugrave" unicode="&#xd9;" horiz-adv-x="1089" 
d="M176 1608q22 -4 36 -4h28q52 0 108 -4q22 4 44 4q112 -8 112 -28q8 0 8 -28v-328q-20 -140 -20 -168q-8 -1 -12 -28v-4q32 -68 32 -76v-104q0 -36 -8 -68q8 -30 8 -56v-172q-8 -90 -8 -96v-100q5 -52 40 -52h16q18 8 28 44q-4 104 -4 164v20q13 90 24 136q4 7 4 16v8
q-16 41 -20 100q8 65 8 84q0 4 -4 32q4 21 4 40q-16 53 -16 68q5 200 12 200q-11 37 -20 152q8 32 8 76v100q0 72 80 72q54 -12 72 -12h44q60 8 196 12q52 -16 52 -56v-80q0 -13 -24 -72q24 -55 24 -68v-40q-12 -88 -12 -108v-28q12 -75 12 -80v-8q-8 -58 -8 -64v-56
q0 -32 -4 -76q12 -38 12 -72v-64q0 -17 8 -88q-8 -57 -8 -80v-92q0 -42 -40 -152l12 -56q-17 -82 -100 -160q-115 -100 -292 -100q0 -8 -28 -8h-68q-61 0 -148 36q-88 0 -216 120q-70 97 -76 184v60q-8 68 -8 76q0 26 24 52v8q-28 21 -28 108v16q0 12 4 28q-4 80 -4 140v136
l16 68l-16 48v220q0 13 4 20l-4 24v188q0 72 88 72q23 0 28 4z" />
    <glyph glyph-name="Uacute" unicode="&#xda;" horiz-adv-x="1089" 
d="M176 1608q22 -4 36 -4h28q52 0 108 -4q22 4 44 4q112 -8 112 -28q8 0 8 -28v-328q-20 -140 -20 -168q-8 -1 -12 -28v-4q32 -68 32 -76v-104q0 -36 -8 -68q8 -30 8 -56v-172q-8 -90 -8 -96v-100q5 -52 40 -52h16q18 8 28 44q-4 104 -4 164v20q13 90 24 136q4 7 4 16v8
q-16 41 -20 100q8 65 8 84q0 4 -4 32q4 21 4 40q-16 53 -16 68q5 200 12 200q-11 37 -20 152q8 32 8 76v100q0 72 80 72q54 -12 72 -12h44q60 8 196 12q52 -16 52 -56v-80q0 -13 -24 -72q24 -55 24 -68v-40q-12 -88 -12 -108v-28q12 -75 12 -80v-8q-8 -58 -8 -64v-56
q0 -32 -4 -76q12 -38 12 -72v-64q0 -17 8 -88q-8 -57 -8 -80v-92q0 -42 -40 -152l12 -56q-17 -82 -100 -160q-115 -100 -292 -100q0 -8 -28 -8h-68q-61 0 -148 36q-88 0 -216 120q-70 97 -76 184v60q-8 68 -8 76q0 26 24 52v8q-28 21 -28 108v16q0 12 4 28q-4 80 -4 140v136
l16 68l-16 48v220q0 13 4 20l-4 24v188q0 72 88 72q23 0 28 4z" />
    <glyph glyph-name="Ucircumflex" unicode="&#xdb;" horiz-adv-x="1089" 
d="M176 1608q22 -4 36 -4h28q52 0 108 -4q22 4 44 4q112 -8 112 -28q8 0 8 -28v-328q-20 -140 -20 -168q-8 -1 -12 -28v-4q32 -68 32 -76v-104q0 -36 -8 -68q8 -30 8 -56v-172q-8 -90 -8 -96v-100q5 -52 40 -52h16q18 8 28 44q-4 104 -4 164v20q13 90 24 136q4 7 4 16v8
q-16 41 -20 100q8 65 8 84q0 4 -4 32q4 21 4 40q-16 53 -16 68q5 200 12 200q-11 37 -20 152q8 32 8 76v100q0 72 80 72q54 -12 72 -12h44q60 8 196 12q52 -16 52 -56v-80q0 -13 -24 -72q24 -55 24 -68v-40q-12 -88 -12 -108v-28q12 -75 12 -80v-8q-8 -58 -8 -64v-56
q0 -32 -4 -76q12 -38 12 -72v-64q0 -17 8 -88q-8 -57 -8 -80v-92q0 -42 -40 -152l12 -56q-17 -82 -100 -160q-115 -100 -292 -100q0 -8 -28 -8h-68q-61 0 -148 36q-88 0 -216 120q-70 97 -76 184v60q-8 68 -8 76q0 26 24 52v8q-28 21 -28 108v16q0 12 4 28q-4 80 -4 140v136
l16 68l-16 48v220q0 13 4 20l-4 24v188q0 72 88 72q23 0 28 4z" />
    <glyph glyph-name="Udieresis" unicode="&#xdc;" horiz-adv-x="1089" 
d="M176 1608q22 -4 36 -4h28q52 0 108 -4q22 4 44 4q112 -8 112 -28q8 0 8 -28v-328q-20 -140 -20 -168q-8 -1 -12 -28v-4q32 -68 32 -76v-104q0 -36 -8 -68q8 -30 8 -56v-172q-8 -90 -8 -96v-100q5 -52 40 -52h16q18 8 28 44q-4 104 -4 164v20q13 90 24 136q4 7 4 16v8
q-16 41 -20 100q8 65 8 84q0 4 -4 32q4 21 4 40q-16 53 -16 68q5 200 12 200q-11 37 -20 152q8 32 8 76v100q0 72 80 72q54 -12 72 -12h44q60 8 196 12q52 -16 52 -56v-80q0 -13 -24 -72q24 -55 24 -68v-40q-12 -88 -12 -108v-28q12 -75 12 -80v-8q-8 -58 -8 -64v-56
q0 -32 -4 -76q12 -38 12 -72v-64q0 -17 8 -88q-8 -57 -8 -80v-92q0 -42 -40 -152l12 -56q-17 -82 -100 -160q-115 -100 -292 -100q0 -8 -28 -8h-68q-61 0 -148 36q-88 0 -216 120q-70 97 -76 184v60q-8 68 -8 76q0 26 24 52v8q-28 21 -28 108v16q0 12 4 28q-4 80 -4 140v136
l16 68l-16 48v220q0 13 4 20l-4 24v188q0 72 88 72q23 0 28 4z" />
    <glyph glyph-name="Yacute" unicode="&#xdd;" horiz-adv-x="960" 
d="M114 1572q38 -8 60 -8q46 8 64 8h8l132 -20q46 -56 76 -324q15 -80 24 -80q16 47 72 360q19 64 72 64h72q47 0 64 -8l24 4h4q26 0 52 -4q30 8 56 8h24q52 0 52 -56q0 -44 -60 -172q0 -50 -56 -188q0 -58 -120 -404q0 -24 -40 -144q-12 -42 -12 -84v-244q0 -63 -4 -128
q4 -15 4 -88q0 -64 -72 -64h-296q-52 4 -52 52v172q0 28 12 76q-8 52 -12 112q8 30 12 88q-4 35 -4 44q4 28 4 48q-25 0 -104 300q-10 8 -12 52v40q0 10 -32 60q-84 270 -84 356q-22 0 -36 96q-3 0 -16 24v16q4 32 28 32l40 -4q13 0 56 8z" />
    <glyph glyph-name="Thorn" unicode="&#xde;" horiz-adv-x="1120" 
 />
    <glyph glyph-name="germandbls" unicode="&#xdf;" horiz-adv-x="1251" 
 />
    <glyph glyph-name="agrave" unicode="&#xe0;" horiz-adv-x="1131" 
d="M392 1576q32 -8 68 -8h12q6 0 96 8h256q56 0 56 -96q8 -26 36 -252q-4 -41 -4 -48q15 -21 36 -140q24 -120 36 -280q15 -3 20 -160q5 -2 16 -36q-4 -27 -4 -44q18 0 28 -220q36 -42 36 -140q8 0 8 -28v-24q-18 -108 -108 -108h-292q-48 0 -48 104q-12 69 -12 104v48
q0 22 -84 24q-28 -8 -28 -32v-76q-13 -136 -40 -136q-75 -36 -84 -36h-32q-44 0 -56 4q-38 -4 -72 -4h-152q-40 6 -40 36v8q17 152 36 248q13 51 48 76v8q-20 32 -20 68v76l52 408q24 93 36 260q32 192 40 316q11 68 68 68t92 4zM292 1040v-4q4 0 12 -4q31 0 60 40v8
q-44 0 -72 -40zM564 944q-19 -90 -40 -328q0 -16 20 -28h20q44 0 44 32v8l-28 240v44q0 30 -12 32h-4z" />
    <glyph glyph-name="aacute" unicode="&#xe1;" horiz-adv-x="1131" 
d="M392 1576q32 -8 68 -8h12q6 0 96 8h256q56 0 56 -96q8 -26 36 -252q-4 -41 -4 -48q15 -21 36 -140q24 -120 36 -280q15 -3 20 -160q5 -2 16 -36q-4 -27 -4 -44q18 0 28 -220q36 -42 36 -140q8 0 8 -28v-24q-18 -108 -108 -108h-292q-48 0 -48 104q-12 69 -12 104v48
q0 22 -84 24q-28 -8 -28 -32v-76q-13 -136 -40 -136q-75 -36 -84 -36h-32q-44 0 -56 4q-38 -4 -72 -4h-152q-40 6 -40 36v8q17 152 36 248q13 51 48 76v8q-20 32 -20 68v76l52 408q24 93 36 260q32 192 40 316q11 68 68 68t92 4zM292 1040v-4q4 0 12 -4q31 0 60 40v8
q-44 0 -72 -40zM564 944q-19 -90 -40 -328q0 -16 20 -28h20q44 0 44 32v8l-28 240v44q0 30 -12 32h-4z" />
    <glyph glyph-name="acircumflex" unicode="&#xe2;" horiz-adv-x="1131" 
d="M392 1576q32 -8 68 -8h12q6 0 96 8h256q56 0 56 -96q8 -26 36 -252q-4 -41 -4 -48q15 -21 36 -140q24 -120 36 -280q15 -3 20 -160q5 -2 16 -36q-4 -27 -4 -44q18 0 28 -220q36 -42 36 -140q8 0 8 -28v-24q-18 -108 -108 -108h-292q-48 0 -48 104q-12 69 -12 104v48
q0 22 -84 24q-28 -8 -28 -32v-76q-13 -136 -40 -136q-75 -36 -84 -36h-32q-44 0 -56 4q-38 -4 -72 -4h-152q-40 6 -40 36v8q17 152 36 248q13 51 48 76v8q-20 32 -20 68v76l52 408q24 93 36 260q32 192 40 316q11 68 68 68t92 4zM292 1040v-4q4 0 12 -4q31 0 60 40v8
q-44 0 -72 -40zM564 944q-19 -90 -40 -328q0 -16 20 -28h20q44 0 44 32v8l-28 240v44q0 30 -12 32h-4z" />
    <glyph glyph-name="atilde" unicode="&#xe3;" horiz-adv-x="1131" 
d="M392 1576q32 -8 68 -8h12q6 0 96 8h256q56 0 56 -96q8 -26 36 -252q-4 -41 -4 -48q15 -21 36 -140q24 -120 36 -280q15 -3 20 -160q5 -2 16 -36q-4 -27 -4 -44q18 0 28 -220q36 -42 36 -140q8 0 8 -28v-24q-18 -108 -108 -108h-292q-48 0 -48 104q-12 69 -12 104v48
q0 22 -84 24q-28 -8 -28 -32v-76q-13 -136 -40 -136q-75 -36 -84 -36h-32q-44 0 -56 4q-38 -4 -72 -4h-152q-40 6 -40 36v8q17 152 36 248q13 51 48 76v8q-20 32 -20 68v76l52 408q24 93 36 260q32 192 40 316q11 68 68 68t92 4zM292 1040v-4q4 0 12 -4q31 0 60 40v8
q-44 0 -72 -40zM564 944q-19 -90 -40 -328q0 -16 20 -28h20q44 0 44 32v8l-28 240v44q0 30 -12 32h-4z" />
    <glyph glyph-name="adieresis" unicode="&#xe4;" horiz-adv-x="1131" 
d="M392 1576q32 -8 68 -8h12q6 0 96 8h256q56 0 56 -96q8 -26 36 -252q-4 -41 -4 -48q15 -21 36 -140q24 -120 36 -280q15 -3 20 -160q5 -2 16 -36q-4 -27 -4 -44q18 0 28 -220q36 -42 36 -140q8 0 8 -28v-24q-18 -108 -108 -108h-292q-48 0 -48 104q-12 69 -12 104v48
q0 22 -84 24q-28 -8 -28 -32v-76q-13 -136 -40 -136q-75 -36 -84 -36h-32q-44 0 -56 4q-38 -4 -72 -4h-152q-40 6 -40 36v8q17 152 36 248q13 51 48 76v8q-20 32 -20 68v76l52 408q24 93 36 260q32 192 40 316q11 68 68 68t92 4zM292 1040v-4q4 0 12 -4q31 0 60 40v8
q-44 0 -72 -40zM564 944q-19 -90 -40 -328q0 -16 20 -28h20q44 0 44 32v8l-28 240v44q0 30 -12 32h-4z" />
    <glyph glyph-name="aring" unicode="&#xe5;" horiz-adv-x="1131" 
d="M392 1576q32 -8 68 -8h12q6 0 96 8h256q56 0 56 -96q8 -26 36 -252q-4 -41 -4 -48q15 -21 36 -140q24 -120 36 -280q15 -3 20 -160q5 -2 16 -36q-4 -27 -4 -44q18 0 28 -220q36 -42 36 -140q8 0 8 -28v-24q-18 -108 -108 -108h-292q-48 0 -48 104q-12 69 -12 104v48
q0 22 -84 24q-28 -8 -28 -32v-76q-13 -136 -40 -136q-75 -36 -84 -36h-32q-44 0 -56 4q-38 -4 -72 -4h-152q-40 6 -40 36v8q17 152 36 248q13 51 48 76v8q-20 32 -20 68v76l52 408q24 93 36 260q32 192 40 316q11 68 68 68t92 4zM292 1040v-4q4 0 12 -4q31 0 60 40v8
q-44 0 -72 -40zM564 944q-19 -90 -40 -328q0 -16 20 -28h20q44 0 44 32v8l-28 240v44q0 30 -12 32h-4z" />
    <glyph glyph-name="ae" unicode="&#xe6;" horiz-adv-x="1459" 
d="M292 1040v-4q4 0 12 -4q31 0 60 40v8q-44 0 -72 -40zM564 944q-19 -90 -40 -328q0 -16 20 -28h20q44 0 44 32v8l-28 240v44q0 30 -12 32h-4zM688 0q-48 0 -48 104q-12 69 -12 104v48q0 22 -84 24q-28 -8 -28 -32v-76q-13 -136 -40 -136q-75 -36 -84 -36h-32q-44 0 -56 4
q-38 -4 -72 -4h-152q-40 6 -40 36v8q17 152 36 248q13 51 48 76v8q-20 32 -20 68v76l52 408q24 93 36 260q32 192 40 316q11 68 68 68t92 4q32 -8 68 -8h12q6 0 96 8h347q46 0 84 -4q22 4 80 4q54 0 88 -4q32 4 96 4h16q92 0 92 -56v-252q-5 -40 -40 -40h-180q-47 0 -56 -60
q-40 -24 -40 -44v-12q48 -2 48 -48v-52q3 -40 20 -40q57 4 96 4q128 -6 128 -24q8 -20 8 -28l-12 -64q16 -74 16 -140q0 -80 -60 -80h-20q-41 0 -64 4q-112 0 -112 -44v-208q0 -44 36 -44h220q40 0 48 -72q-8 -41 -8 -64q8 -47 8 -56q0 -16 -8 -52l8 -48q-11 -52 -44 -52
h-48q-22 0 -80 12q-37 -12 -68 -12h-20q-42 0 -128 -4v4l-8 -4q-8 0 -18 1q-6 -1 -13 -1h-292z" />
    <glyph glyph-name="ccedilla" unicode="&#xe7;" horiz-adv-x="1168" 
d="M254 1000l-4 -8l8 -4l4 8zM449 14q-147 23 -147 42q-36 0 -92 80q-108 104 -108 232q-7 0 -8 60v96q0 23 -8 80q0 29 24 100q-16 45 -16 56v68q-8 70 -8 72q8 192 8 252v72q0 99 64 208q21 20 72 88q121 80 160 80q61 32 108 32h132q209 -24 260 -68q124 -68 180 -248
q0 -18 8 -68q0 -10 -8 -48l20 -84l-16 -64q16 -35 16 -48q0 -108 -36 -108h-108q-36 0 -80 4q-14 -4 -52 -4l-52 16l-92 -8q-32 10 -32 64v4q0 50 12 116q-12 58 -12 72q0 23 8 80q-7 88 -48 88h-12q-46 0 -52 -120v-8q0 -18 4 -92q0 -21 -4 -68q4 -54 4 -76q0 -34 -4 -72
q4 -65 4 -148q0 -60 -16 -124q16 -50 16 -112q-4 -60 -4 -84q15 -124 36 -124h24q38 0 44 56v264q0 60 40 60h24q68 8 76 8h208q104 0 104 -56v-44q0 -60 -12 -148v-40q0 -62 -68 -84q-11 -15 -16 -40q0 -2 24 -56v-4q0 -59 -112 -128q-13 0 -144 -72q-14 -4 -32 -7
q7 -54 7 -76v-20q0 -150 -148 -272q-69 -36 -92 -36q-39 0 -52 112q32 53 32 64v8q-48 40 -48 64v72q0 40 20 89z" />
    <glyph glyph-name="egrave" unicode="&#xe8;" horiz-adv-x="906" 
d="M150 1576h204q46 0 84 -4q22 4 80 4q54 0 88 -4q31 4 96 4h16q92 0 92 -56v-252q-5 -40 -40 -40h-180q-47 0 -56 -60q-40 -24 -40 -44v-12q48 -2 48 -48v-52q3 -40 20 -40q56 4 96 4q128 -7 128 -24q8 -20 8 -28l-12 -64q16 -74 16 -140q0 -80 -60 -80h-20q-41 0 -64 4
q-112 0 -112 -44v-208q0 -44 36 -44h220q40 0 48 -72q-8 -42 -8 -64q8 -48 8 -56q0 -16 -8 -52l8 -48q-11 -52 -44 -52h-48q-22 0 -80 12q-37 -12 -68 -12h-20q-42 0 -128 -4v4l-8 -4q-22 0 -56 4q-41 -4 -48 -4q-14 0 -36 4q-65 -4 -116 -4h-56q-48 0 -48 100q4 64 12 100
q-8 30 -8 56v204q0 26 8 56q-8 40 -8 72v184q0 16 12 68v4q0 6 -16 52q4 134 12 216v4q-8 68 -8 76v188q0 19 -4 40q4 15 4 36v56q0 64 56 64z" />
    <glyph glyph-name="eacute" unicode="&#xe9;" horiz-adv-x="906" 
d="M150 1576h204q46 0 84 -4q22 4 80 4q54 0 88 -4q31 4 96 4h16q92 0 92 -56v-252q-5 -40 -40 -40h-180q-47 0 -56 -60q-40 -24 -40 -44v-12q48 -2 48 -48v-52q3 -40 20 -40q56 4 96 4q128 -7 128 -24q8 -20 8 -28l-12 -64q16 -74 16 -140q0 -80 -60 -80h-20q-41 0 -64 4
q-112 0 -112 -44v-208q0 -44 36 -44h220q40 0 48 -72q-8 -42 -8 -64q8 -48 8 -56q0 -16 -8 -52l8 -48q-11 -52 -44 -52h-48q-22 0 -80 12q-37 -12 -68 -12h-20q-42 0 -128 -4v4l-8 -4q-22 0 -56 4q-41 -4 -48 -4q-14 0 -36 4q-65 -4 -116 -4h-56q-48 0 -48 100q4 64 12 100
q-8 30 -8 56v204q0 26 8 56q-8 40 -8 72v184q0 16 12 68v4q0 6 -16 52q4 134 12 216v4q-8 68 -8 76v188q0 19 -4 40q4 15 4 36v56q0 64 56 64z" />
    <glyph glyph-name="ecircumflex" unicode="&#xea;" horiz-adv-x="906" 
d="M150 1576h204q46 0 84 -4q22 4 80 4q54 0 88 -4q31 4 96 4h16q92 0 92 -56v-252q-5 -40 -40 -40h-180q-47 0 -56 -60q-40 -24 -40 -44v-12q48 -2 48 -48v-52q3 -40 20 -40q56 4 96 4q128 -7 128 -24q8 -20 8 -28l-12 -64q16 -74 16 -140q0 -80 -60 -80h-20q-41 0 -64 4
q-112 0 -112 -44v-208q0 -44 36 -44h220q40 0 48 -72q-8 -42 -8 -64q8 -48 8 -56q0 -16 -8 -52l8 -48q-11 -52 -44 -52h-48q-22 0 -80 12q-37 -12 -68 -12h-20q-42 0 -128 -4v4l-8 -4q-22 0 -56 4q-41 -4 -48 -4q-14 0 -36 4q-65 -4 -116 -4h-56q-48 0 -48 100q4 64 12 100
q-8 30 -8 56v204q0 26 8 56q-8 40 -8 72v184q0 16 12 68v4q0 6 -16 52q4 134 12 216v4q-8 68 -8 76v188q0 19 -4 40q4 15 4 36v56q0 64 56 64z" />
    <glyph glyph-name="edieresis" unicode="&#xeb;" horiz-adv-x="906" 
d="M150 1576h204q46 0 84 -4q22 4 80 4q54 0 88 -4q31 4 96 4h16q92 0 92 -56v-252q-5 -40 -40 -40h-180q-47 0 -56 -60q-40 -24 -40 -44v-12q48 -2 48 -48v-52q3 -40 20 -40q56 4 96 4q128 -7 128 -24q8 -20 8 -28l-12 -64q16 -74 16 -140q0 -80 -60 -80h-20q-41 0 -64 4
q-112 0 -112 -44v-208q0 -44 36 -44h220q40 0 48 -72q-8 -42 -8 -64q8 -48 8 -56q0 -16 -8 -52l8 -48q-11 -52 -44 -52h-48q-22 0 -80 12q-37 -12 -68 -12h-20q-42 0 -128 -4v4l-8 -4q-22 0 -56 4q-41 -4 -48 -4q-14 0 -36 4q-65 -4 -116 -4h-56q-48 0 -48 100q4 64 12 100
q-8 30 -8 56v204q0 26 8 56q-8 40 -8 72v184q0 16 12 68v4q0 6 -16 52q4 134 12 216v4q-8 68 -8 76v188q0 19 -4 40q4 15 4 36v56q0 64 56 64z" />
    <glyph glyph-name="igrave" unicode="&#xec;" horiz-adv-x="630" 
d="M142 1576q136 -4 136 -24q21 -20 36 -20h8q14 0 104 40q7 4 20 4h12q80 0 80 -80q4 -18 4 -64q0 -21 -16 -124q8 -54 8 -68l-4 -40q12 -48 12 -76v-60q0 -31 -4 -56q4 -19 4 -52v-8q0 -11 -16 -60v-8q16 -65 16 -80q-8 -36 -8 -40q16 -79 16 -100q-8 -38 -8 -60v-68
q0 -97 -116 -196v-24q4 0 12 -4q24 9 64 44h8q32 -7 32 -52v-16q0 -32 -4 -52q4 -25 4 -56v-8q0 -20 -12 -68q4 -26 4 -52q0 -33 -40 -48l-48 4h-76q-49 0 -76 40h-8q-67 -32 -80 -32q-51 -8 -64 -8q-47 0 -52 56q8 36 12 124q-12 27 -12 44v688q0 17 8 88q-8 48 -8 52
q20 64 20 72q-12 30 -20 132v20q0 8 8 76q-8 63 -8 84v20q0 116 52 116zM286 1204v-12h28q21 0 24 12v8q0 8 -8 8q-37 -16 -44 -16z" />
    <glyph glyph-name="iacute" unicode="&#xed;" horiz-adv-x="630" 
d="M142 1576q136 -4 136 -24q21 -20 36 -20h8q14 0 104 40q7 4 20 4h12q80 0 80 -80q4 -18 4 -64q0 -21 -16 -124q8 -54 8 -68l-4 -40q12 -48 12 -76v-60q0 -31 -4 -56q4 -19 4 -52v-8q0 -11 -16 -60v-8q16 -65 16 -80q-8 -36 -8 -40q16 -79 16 -100q-8 -38 -8 -60v-68
q0 -97 -116 -196v-24q4 0 12 -4q24 9 64 44h8q32 -7 32 -52v-16q0 -32 -4 -52q4 -25 4 -56v-8q0 -20 -12 -68q4 -26 4 -52q0 -33 -40 -48l-48 4h-76q-49 0 -76 40h-8q-67 -32 -80 -32q-51 -8 -64 -8q-47 0 -52 56q8 36 12 124q-12 27 -12 44v688q0 17 8 88q-8 48 -8 52
q20 64 20 72q-12 30 -20 132v20q0 8 8 76q-8 63 -8 84v20q0 116 52 116zM286 1204v-12h28q21 0 24 12v8q0 8 -8 8q-37 -16 -44 -16z" />
    <glyph glyph-name="icircumflex" unicode="&#xee;" horiz-adv-x="630" 
d="M142 1576q136 -4 136 -24q21 -20 36 -20h8q14 0 104 40q7 4 20 4h12q80 0 80 -80q4 -18 4 -64q0 -21 -16 -124q8 -54 8 -68l-4 -40q12 -48 12 -76v-60q0 -31 -4 -56q4 -19 4 -52v-8q0 -11 -16 -60v-8q16 -65 16 -80q-8 -36 -8 -40q16 -79 16 -100q-8 -38 -8 -60v-68
q0 -97 -116 -196v-24q4 0 12 -4q24 9 64 44h8q32 -7 32 -52v-16q0 -32 -4 -52q4 -25 4 -56v-8q0 -20 -12 -68q4 -26 4 -52q0 -33 -40 -48l-48 4h-76q-49 0 -76 40h-8q-67 -32 -80 -32q-51 -8 -64 -8q-47 0 -52 56q8 36 12 124q-12 27 -12 44v688q0 17 8 88q-8 48 -8 52
q20 64 20 72q-12 30 -20 132v20q0 8 8 76q-8 63 -8 84v20q0 116 52 116zM286 1204v-12h28q21 0 24 12v8q0 8 -8 8q-37 -16 -44 -16z" />
    <glyph glyph-name="idieresis" unicode="&#xef;" horiz-adv-x="630" 
d="M142 1576q136 -4 136 -24q21 -20 36 -20h8q14 0 104 40q7 4 20 4h12q80 0 80 -80q4 -18 4 -64q0 -21 -16 -124q8 -54 8 -68l-4 -40q12 -48 12 -76v-60q0 -31 -4 -56q4 -19 4 -52v-8q0 -11 -16 -60v-8q16 -65 16 -80q-8 -36 -8 -40q16 -79 16 -100q-8 -38 -8 -60v-68
q0 -97 -116 -196v-24q4 0 12 -4q24 9 64 44h8q32 -7 32 -52v-16q0 -32 -4 -52q4 -25 4 -56v-8q0 -20 -12 -68q4 -26 4 -52q0 -33 -40 -48l-48 4h-76q-49 0 -76 40h-8q-67 -32 -80 -32q-51 -8 -64 -8q-47 0 -52 56q8 36 12 124q-12 27 -12 44v688q0 17 8 88q-8 48 -8 52
q20 64 20 72q-12 30 -20 132v20q0 8 8 76q-8 63 -8 84v20q0 116 52 116zM286 1204v-12h28q21 0 24 12v8q0 8 -8 8q-37 -16 -44 -16z" />
    <glyph glyph-name="eth" unicode="&#xf0;" horiz-adv-x="1139" 
 />
    <glyph glyph-name="ntilde" unicode="&#xf1;" horiz-adv-x="1106" 
d="M126 1351q117 -4 164 -12l52 8q16 0 68 -24l20 12h8q30 0 56 -84q44 -94 44 -144v-24q64 -133 64 -144q29 -88 40 -92q13 0 20 68v4q0 32 -8 72q8 40 8 68q-12 111 -12 136q4 124 32 124h8l40 -4q32 36 96 36l64 -24q40 20 64 20q84 -7 84 -48v-56q0 -51 -12 -116
q12 -36 12 -48v-64q0 -34 -16 -80q0 -6 4 -64q-4 -38 -8 -44q20 -60 20 -72q-11 -307 -4 -551q0 -21 -40 -48l40 -44l4 -24v-32q0 -56 -56 -56h-292q-55 0 -76 96q0 35 -28 104q0 31 -52 168q0 20 -30 -102t-42 -170q8 -21 12 -52q0 -37 -56 -44h-272q-56 0 -56 52v903
q0 32 8 72q-8 40 -8 72v204q0 27 36 48zM750 1275q0 -29 60 -92q17 6 24 20v8q-43 64 -76 64h-8zM786 1123q0 -4 -4 -12q4 -7 4 -16h12v28h-12zM782 975v-16q24 -40 48 -40q44 55 44 92q-8 0 -8 8l-28 -4h-12l-20 16h-4q-10 0 -20 -56zM822 867v-4q5 -69 48 -124q0 -2 4 -16
q0 -10 -36 -48v-8q1 -8 8 -8q72 9 72 68q4 7 4 20v20q0 5 -48 32v16l8 28q-48 24 -56 24h-4zM762 803v-8h4v8h-4zM174 615v-4q0 -8 12 -8q20 12 32 12l28 -4q8 10 8 12v16q0 21 -12 24h-4q-64 -19 -64 -48zM202 495v-12q0 -21 16 -28h4q6 0 24 32v16l-20 4q-24 -2 -24 -12z
M834 407q12 -20 12 -40v-8q0 -5 -24 -60v-12q45 -56 48 -56h8q6 0 12 12v12q0 15 -16 108l8 52q-8 18 -16 20h-4q-28 0 -28 -28zM626 395v-4q0 -6 12 -12h4q12 4 12 24q-6 16 -12 16h-4q-12 -4 -12 -24zM330 344v-8q9 -36 20 -36q8 0 8 8v12q-10 17 -28 24zM176 1700
q71 -8 88 -8h28q23 0 80 8q51 -8 64 -8t116 4q27 -11 48 -32h4q10 36 80 36q71 -8 88 -8h16q11 0 108 8h36q83 0 112 -84q20 -14 20 -44v-100q0 -48 -64 -48q-9 0 -44 -4q-48 4 -72 4q-6 0 -48 -4q-41 20 -96 20h-16q-45 -16 -64 -16q-16 0 -64 40h-24q-34 -34 -60 -44
q-40 4 -60 4h-32q-52 0 -72 -8l-132 16l-56 -12h-28q-32 15 -32 52v156q0 72 68 72h8zM896 1532l-4 -8q1 -8 8 -8h4q8 0 8 8v4q-14 4 -16 4z" />
    <glyph glyph-name="ograve" unicode="&#xf2;" horiz-adv-x="1049" 
d="M458 1636h116q186 0 336 -160q43 -72 72 -232q12 -12 12 -52v-92q0 -24 -16 -76v-4q0 -12 16 -56q-16 -72 -16 -88l12 -48q0 -14 -24 -60q28 -37 28 -56q0 -54 -4 -64q4 -60 4 -100v-132q0 -74 -52 -196q-59 -64 -80 -108q-82 -52 -116 -52q-15 8 -32 8q0 -49 -88 -56
q-58 -12 -72 -12h-52q-196 22 -196 52q-7 0 -20 8l-20 -4q-94 0 -124 168q-16 0 -32 60q8 28 8 44q-2 15 -72 40l-4 20v4q0 4 16 48q-12 50 -20 124q8 46 8 64q-16 26 -16 60v8q0 54 28 68h8q7 0 36 -12q24 57 32 136q15 13 24 60q-12 47 -12 56v8q16 45 16 56v4
q0 28 -48 28q-12 15 -12 28q0 26 48 60q-11 21 -16 44q1 32 32 100q0 25 -68 44q-8 10 -8 12q0 30 56 52q0 104 92 140h12q13 -4 32 -4q32 56 128 56q12 4 48 4zM282 1544q0 -31 -8 -56v-16q3 -24 12 -24h8v8q0 13 -8 56l4 28zM282 1368v-32l8 -12q24 10 24 36q0 22 -16 32
h-4q-12 -4 -12 -24zM78 1344h4q36 0 36 -44q-7 -18 -28 -40q4 -27 4 -44q0 -6 -16 -16h-16q-19 0 -24 56q21 88 40 88zM446 1180q16 -34 16 -44v-12q0 -38 8 -104q-16 -92 -32 -136v-4q28 -81 28 -104q-8 -51 -8 -60q8 -42 8 -44l-16 -64q0 -5 8 -44l-4 -28q8 -30 8 -36
q-5 -164 -24 -164v-12q9 0 72 -24h16q9 0 28 84q36 33 36 52q-40 30 -40 84v116q0 17 12 88q-12 49 -12 68v24q0 50 4 92q-4 28 -4 48t4 60q-4 53 -4 112q0 12 8 80q-12 128 -40 128h-16q-22 0 -48 -140q-5 0 -8 -16zM678 1188v-8q1 -8 8 -8l4 8v8h-12zM666 1036v-8
q1 -8 8 -8h8l4 20v20h-8q-12 -4 -12 -24zM298 652v-4q17 -20 48 -20l4 8v4q0 11 -40 16q-8 -4 -12 -4zM186 404q4 -8 4 -12h16q14 0 60 40q11 0 20 20q-4 22 -4 36q0 20 28 68v4q-10 20 -32 20h-4q-7 0 -20 -56q-11 -2 -32 -88q-36 -26 -36 -32zM82 496q0 -56 16 -56h4
q24 16 24 40q-5 32 -24 32q-18 -8 -20 -16zM622 312v-12q0 -22 24 -36l4 8q-12 40 -12 52h-4q-6 0 -12 -12zM646 156l-4 -8q0 -31 68 -52v12q0 43 -64 48z" />
    <glyph glyph-name="oacute" unicode="&#xf3;" horiz-adv-x="1049" 
d="M458 1636h116q186 0 336 -160q43 -72 72 -232q12 -12 12 -52v-92q0 -24 -16 -76v-4q0 -12 16 -56q-16 -72 -16 -88l12 -48q0 -14 -24 -60q28 -37 28 -56q0 -54 -4 -64q4 -60 4 -100v-132q0 -74 -52 -196q-59 -64 -80 -108q-82 -52 -116 -52q-15 8 -32 8q0 -49 -88 -56
q-58 -12 -72 -12h-52q-196 22 -196 52q-7 0 -20 8l-20 -4q-94 0 -124 168q-16 0 -32 60q8 28 8 44q-2 15 -72 40l-4 20v4q0 4 16 48q-12 50 -20 124q8 46 8 64q-16 26 -16 60v8q0 54 28 68h8q7 0 36 -12q24 57 32 136q15 13 24 60q-12 47 -12 56v8q16 45 16 56v4
q0 28 -48 28q-12 15 -12 28q0 26 48 60q-11 21 -16 44q1 32 32 100q0 25 -68 44q-8 10 -8 12q0 30 56 52q0 104 92 140h12q13 -4 32 -4q32 56 128 56q12 4 48 4zM282 1544q0 -31 -8 -56v-16q3 -24 12 -24h8v8q0 13 -8 56l4 28zM282 1368v-32l8 -12q24 10 24 36q0 22 -16 32
h-4q-12 -4 -12 -24zM78 1344h4q36 0 36 -44q-7 -18 -28 -40q4 -27 4 -44q0 -6 -16 -16h-16q-19 0 -24 56q21 88 40 88zM446 1180q16 -34 16 -44v-12q0 -38 8 -104q-16 -92 -32 -136v-4q28 -81 28 -104q-8 -51 -8 -60q8 -42 8 -44l-16 -64q0 -5 8 -44l-4 -28q8 -30 8 -36
q-5 -164 -24 -164v-12q9 0 72 -24h16q9 0 28 84q36 33 36 52q-40 30 -40 84v116q0 17 12 88q-12 49 -12 68v24q0 50 4 92q-4 28 -4 48t4 60q-4 53 -4 112q0 12 8 80q-12 128 -40 128h-16q-22 0 -48 -140q-5 0 -8 -16zM678 1188v-8q1 -8 8 -8l4 8v8h-12zM666 1036v-8
q1 -8 8 -8h8l4 20v20h-8q-12 -4 -12 -24zM298 652v-4q17 -20 48 -20l4 8v4q0 11 -40 16q-8 -4 -12 -4zM186 404q4 -8 4 -12h16q14 0 60 40q11 0 20 20q-4 22 -4 36q0 20 28 68v4q-10 20 -32 20h-4q-7 0 -20 -56q-11 -2 -32 -88q-36 -26 -36 -32zM82 496q0 -56 16 -56h4
q24 16 24 40q-5 32 -24 32q-18 -8 -20 -16zM622 312v-12q0 -22 24 -36l4 8q-12 40 -12 52h-4q-6 0 -12 -12zM646 156l-4 -8q0 -31 68 -52v12q0 43 -64 48z" />
    <glyph glyph-name="ocircumflex" unicode="&#xf4;" horiz-adv-x="1049" 
d="M458 1636h116q186 0 336 -160q43 -72 72 -232q12 -12 12 -52v-92q0 -24 -16 -76v-4q0 -12 16 -56q-16 -72 -16 -88l12 -48q0 -14 -24 -60q28 -37 28 -56q0 -54 -4 -64q4 -60 4 -100v-132q0 -74 -52 -196q-59 -64 -80 -108q-82 -52 -116 -52q-15 8 -32 8q0 -49 -88 -56
q-58 -12 -72 -12h-52q-196 22 -196 52q-7 0 -20 8l-20 -4q-94 0 -124 168q-16 0 -32 60q8 28 8 44q-2 15 -72 40l-4 20v4q0 4 16 48q-12 50 -20 124q8 46 8 64q-16 26 -16 60v8q0 54 28 68h8q7 0 36 -12q24 57 32 136q15 13 24 60q-12 47 -12 56v8q16 45 16 56v4
q0 28 -48 28q-12 15 -12 28q0 26 48 60q-11 21 -16 44q1 32 32 100q0 25 -68 44q-8 10 -8 12q0 30 56 52q0 104 92 140h12q13 -4 32 -4q32 56 128 56q12 4 48 4zM282 1544q0 -31 -8 -56v-16q3 -24 12 -24h8v8q0 13 -8 56l4 28zM282 1368v-32l8 -12q24 10 24 36q0 22 -16 32
h-4q-12 -4 -12 -24zM78 1344h4q36 0 36 -44q-7 -18 -28 -40q4 -27 4 -44q0 -6 -16 -16h-16q-19 0 -24 56q21 88 40 88zM446 1180q16 -34 16 -44v-12q0 -38 8 -104q-16 -92 -32 -136v-4q28 -81 28 -104q-8 -51 -8 -60q8 -42 8 -44l-16 -64q0 -5 8 -44l-4 -28q8 -30 8 -36
q-5 -164 -24 -164v-12q9 0 72 -24h16q9 0 28 84q36 33 36 52q-40 30 -40 84v116q0 17 12 88q-12 49 -12 68v24q0 50 4 92q-4 28 -4 48t4 60q-4 53 -4 112q0 12 8 80q-12 128 -40 128h-16q-22 0 -48 -140q-5 0 -8 -16zM678 1188v-8q1 -8 8 -8l4 8v8h-12zM666 1036v-8
q1 -8 8 -8h8l4 20v20h-8q-12 -4 -12 -24zM298 652v-4q17 -20 48 -20l4 8v4q0 11 -40 16q-8 -4 -12 -4zM186 404q4 -8 4 -12h16q14 0 60 40q11 0 20 20q-4 22 -4 36q0 20 28 68v4q-10 20 -32 20h-4q-7 0 -20 -56q-11 -2 -32 -88q-36 -26 -36 -32zM82 496q0 -56 16 -56h4
q24 16 24 40q-5 32 -24 32q-18 -8 -20 -16zM622 312v-12q0 -22 24 -36l4 8q-12 40 -12 52h-4q-6 0 -12 -12zM646 156l-4 -8q0 -31 68 -52v12q0 43 -64 48z" />
    <glyph glyph-name="otilde" unicode="&#xf5;" horiz-adv-x="1049" 
d="M458 1636h116q186 0 336 -160q43 -72 72 -232q12 -12 12 -52v-92q0 -24 -16 -76v-4q0 -12 16 -56q-16 -72 -16 -88l12 -48q0 -14 -24 -60q28 -37 28 -56q0 -54 -4 -64q4 -60 4 -100v-132q0 -74 -52 -196q-59 -64 -80 -108q-82 -52 -116 -52q-15 8 -32 8q0 -49 -88 -56
q-58 -12 -72 -12h-52q-196 22 -196 52q-7 0 -20 8l-20 -4q-94 0 -124 168q-16 0 -32 60q8 28 8 44q-2 15 -72 40l-4 20v4q0 4 16 48q-12 50 -20 124q8 46 8 64q-16 26 -16 60v8q0 54 28 68h8q7 0 36 -12q24 57 32 136q15 13 24 60q-12 47 -12 56v8q16 45 16 56v4
q0 28 -48 28q-12 15 -12 28q0 26 48 60q-11 21 -16 44q1 32 32 100q0 25 -68 44q-8 10 -8 12q0 30 56 52q0 104 92 140h12q13 -4 32 -4q32 56 128 56q12 4 48 4zM282 1544q0 -31 -8 -56v-16q3 -24 12 -24h8v8q0 13 -8 56l4 28zM282 1368v-32l8 -12q24 10 24 36q0 22 -16 32
h-4q-12 -4 -12 -24zM78 1344h4q36 0 36 -44q-7 -18 -28 -40q4 -27 4 -44q0 -6 -16 -16h-16q-19 0 -24 56q21 88 40 88zM446 1180q16 -34 16 -44v-12q0 -38 8 -104q-16 -92 -32 -136v-4q28 -81 28 -104q-8 -51 -8 -60q8 -42 8 -44l-16 -64q0 -5 8 -44l-4 -28q8 -30 8 -36
q-5 -164 -24 -164v-12q9 0 72 -24h16q9 0 28 84q36 33 36 52q-40 30 -40 84v116q0 17 12 88q-12 49 -12 68v24q0 50 4 92q-4 28 -4 48t4 60q-4 53 -4 112q0 12 8 80q-12 128 -40 128h-16q-22 0 -48 -140q-5 0 -8 -16zM678 1188v-8q1 -8 8 -8l4 8v8h-12zM666 1036v-8
q1 -8 8 -8h8l4 20v20h-8q-12 -4 -12 -24zM298 652v-4q17 -20 48 -20l4 8v4q0 11 -40 16q-8 -4 -12 -4zM186 404q4 -8 4 -12h16q14 0 60 40q11 0 20 20q-4 22 -4 36q0 20 28 68v4q-10 20 -32 20h-4q-7 0 -20 -56q-11 -2 -32 -88q-36 -26 -36 -32zM82 496q0 -56 16 -56h4
q24 16 24 40q-5 32 -24 32q-18 -8 -20 -16zM622 312v-12q0 -22 24 -36l4 8q-12 40 -12 52h-4q-6 0 -12 -12zM646 156l-4 -8q0 -31 68 -52v12q0 43 -64 48z" />
    <glyph glyph-name="odieresis" unicode="&#xf6;" horiz-adv-x="1049" 
d="M458 1636h116q186 0 336 -160q43 -72 72 -232q12 -12 12 -52v-92q0 -24 -16 -76v-4q0 -12 16 -56q-16 -72 -16 -88l12 -48q0 -14 -24 -60q28 -37 28 -56q0 -54 -4 -64q4 -60 4 -100v-132q0 -74 -52 -196q-59 -64 -80 -108q-82 -52 -116 -52q-15 8 -32 8q0 -49 -88 -56
q-58 -12 -72 -12h-52q-196 22 -196 52q-7 0 -20 8l-20 -4q-94 0 -124 168q-16 0 -32 60q8 28 8 44q-2 15 -72 40l-4 20v4q0 4 16 48q-12 50 -20 124q8 46 8 64q-16 26 -16 60v8q0 54 28 68h8q7 0 36 -12q24 57 32 136q15 13 24 60q-12 47 -12 56v8q16 45 16 56v4
q0 28 -48 28q-12 15 -12 28q0 26 48 60q-11 21 -16 44q1 32 32 100q0 25 -68 44q-8 10 -8 12q0 30 56 52q0 104 92 140h12q13 -4 32 -4q32 56 128 56q12 4 48 4zM282 1544q0 -31 -8 -56v-16q3 -24 12 -24h8v8q0 13 -8 56l4 28zM282 1368v-32l8 -12q24 10 24 36q0 22 -16 32
h-4q-12 -4 -12 -24zM78 1344h4q36 0 36 -44q-7 -18 -28 -40q4 -27 4 -44q0 -6 -16 -16h-16q-19 0 -24 56q21 88 40 88zM446 1180q16 -34 16 -44v-12q0 -38 8 -104q-16 -92 -32 -136v-4q28 -81 28 -104q-8 -51 -8 -60q8 -42 8 -44l-16 -64q0 -5 8 -44l-4 -28q8 -30 8 -36
q-5 -164 -24 -164v-12q9 0 72 -24h16q9 0 28 84q36 33 36 52q-40 30 -40 84v116q0 17 12 88q-12 49 -12 68v24q0 50 4 92q-4 28 -4 48t4 60q-4 53 -4 112q0 12 8 80q-12 128 -40 128h-16q-22 0 -48 -140q-5 0 -8 -16zM678 1188v-8q1 -8 8 -8l4 8v8h-12zM666 1036v-8
q1 -8 8 -8h8l4 20v20h-8q-12 -4 -12 -24zM298 652v-4q17 -20 48 -20l4 8v4q0 11 -40 16q-8 -4 -12 -4zM186 404q4 -8 4 -12h16q14 0 60 40q11 0 20 20q-4 22 -4 36q0 20 28 68v4q-10 20 -32 20h-4q-7 0 -20 -56q-11 -2 -32 -88q-36 -26 -36 -32zM82 496q0 -56 16 -56h4
q24 16 24 40q-5 32 -24 32q-18 -8 -20 -16zM622 312v-12q0 -22 24 -36l4 8q-12 40 -12 52h-4q-6 0 -12 -12zM646 156l-4 -8q0 -31 68 -52v12q0 43 -64 48z" />
    <glyph glyph-name="divide" unicode="&#xf7;" 
 />
    <glyph glyph-name="oslash" unicode="&#xf8;" horiz-adv-x="1010" 
 />
    <glyph glyph-name="ugrave" unicode="&#xf9;" horiz-adv-x="1089" 
d="M176 1608q22 -4 36 -4h28q52 0 108 -4q22 4 44 4q112 -8 112 -28q8 0 8 -28v-328q-20 -140 -20 -168q-8 -1 -12 -28v-4q32 -68 32 -76v-104q0 -36 -8 -68q8 -30 8 -56v-172q-8 -90 -8 -96v-100q5 -52 40 -52h16q18 8 28 44q-4 104 -4 164v20q13 90 24 136q4 7 4 16v8
q-16 41 -20 100q8 65 8 84q0 4 -4 32q4 21 4 40q-16 53 -16 68q5 200 12 200q-11 37 -20 152q8 32 8 76v100q0 72 80 72q54 -12 72 -12h44q60 8 196 12q52 -16 52 -56v-80q0 -13 -24 -72q24 -55 24 -68v-40q-12 -88 -12 -108v-28q12 -75 12 -80v-8q-8 -58 -8 -64v-56
q0 -32 -4 -76q12 -38 12 -72v-64q0 -17 8 -88q-8 -57 -8 -80v-92q0 -42 -40 -152l12 -56q-17 -82 -100 -160q-115 -100 -292 -100q0 -8 -28 -8h-68q-61 0 -148 36q-88 0 -216 120q-70 97 -76 184v60q-8 68 -8 76q0 26 24 52v8q-28 21 -28 108v16q0 12 4 28q-4 80 -4 140v136
l16 68l-16 48v220q0 13 4 20l-4 24v188q0 72 88 72q23 0 28 4z" />
    <glyph glyph-name="uacute" unicode="&#xfa;" horiz-adv-x="1089" 
d="M176 1608q22 -4 36 -4h28q52 0 108 -4q22 4 44 4q112 -8 112 -28q8 0 8 -28v-328q-20 -140 -20 -168q-8 -1 -12 -28v-4q32 -68 32 -76v-104q0 -36 -8 -68q8 -30 8 -56v-172q-8 -90 -8 -96v-100q5 -52 40 -52h16q18 8 28 44q-4 104 -4 164v20q13 90 24 136q4 7 4 16v8
q-16 41 -20 100q8 65 8 84q0 4 -4 32q4 21 4 40q-16 53 -16 68q5 200 12 200q-11 37 -20 152q8 32 8 76v100q0 72 80 72q54 -12 72 -12h44q60 8 196 12q52 -16 52 -56v-80q0 -13 -24 -72q24 -55 24 -68v-40q-12 -88 -12 -108v-28q12 -75 12 -80v-8q-8 -58 -8 -64v-56
q0 -32 -4 -76q12 -38 12 -72v-64q0 -17 8 -88q-8 -57 -8 -80v-92q0 -42 -40 -152l12 -56q-17 -82 -100 -160q-115 -100 -292 -100q0 -8 -28 -8h-68q-61 0 -148 36q-88 0 -216 120q-70 97 -76 184v60q-8 68 -8 76q0 26 24 52v8q-28 21 -28 108v16q0 12 4 28q-4 80 -4 140v136
l16 68l-16 48v220q0 13 4 20l-4 24v188q0 72 88 72q23 0 28 4z" />
    <glyph glyph-name="ucircumflex" unicode="&#xfb;" horiz-adv-x="1089" 
d="M176 1608q22 -4 36 -4h28q52 0 108 -4q22 4 44 4q112 -8 112 -28q8 0 8 -28v-328q-20 -140 -20 -168q-8 -1 -12 -28v-4q32 -68 32 -76v-104q0 -36 -8 -68q8 -30 8 -56v-172q-8 -90 -8 -96v-100q5 -52 40 -52h16q18 8 28 44q-4 104 -4 164v20q13 90 24 136q4 7 4 16v8
q-16 41 -20 100q8 65 8 84q0 4 -4 32q4 21 4 40q-16 53 -16 68q5 200 12 200q-11 37 -20 152q8 32 8 76v100q0 72 80 72q54 -12 72 -12h44q60 8 196 12q52 -16 52 -56v-80q0 -13 -24 -72q24 -55 24 -68v-40q-12 -88 -12 -108v-28q12 -75 12 -80v-8q-8 -58 -8 -64v-56
q0 -32 -4 -76q12 -38 12 -72v-64q0 -17 8 -88q-8 -57 -8 -80v-92q0 -42 -40 -152l12 -56q-17 -82 -100 -160q-115 -100 -292 -100q0 -8 -28 -8h-68q-61 0 -148 36q-88 0 -216 120q-70 97 -76 184v60q-8 68 -8 76q0 26 24 52v8q-28 21 -28 108v16q0 12 4 28q-4 80 -4 140v136
l16 68l-16 48v220q0 13 4 20l-4 24v188q0 72 88 72q23 0 28 4z" />
    <glyph glyph-name="udieresis" unicode="&#xfc;" horiz-adv-x="1089" 
d="M176 1608q22 -4 36 -4h28q52 0 108 -4q22 4 44 4q112 -8 112 -28q8 0 8 -28v-328q-20 -140 -20 -168q-8 -1 -12 -28v-4q32 -68 32 -76v-104q0 -36 -8 -68q8 -30 8 -56v-172q-8 -90 -8 -96v-100q5 -52 40 -52h16q18 8 28 44q-4 104 -4 164v20q13 90 24 136q4 7 4 16v8
q-16 41 -20 100q8 65 8 84q0 4 -4 32q4 21 4 40q-16 53 -16 68q5 200 12 200q-11 37 -20 152q8 32 8 76v100q0 72 80 72q54 -12 72 -12h44q60 8 196 12q52 -16 52 -56v-80q0 -13 -24 -72q24 -55 24 -68v-40q-12 -88 -12 -108v-28q12 -75 12 -80v-8q-8 -58 -8 -64v-56
q0 -32 -4 -76q12 -38 12 -72v-64q0 -17 8 -88q-8 -57 -8 -80v-92q0 -42 -40 -152l12 -56q-17 -82 -100 -160q-115 -100 -292 -100q0 -8 -28 -8h-68q-61 0 -148 36q-88 0 -216 120q-70 97 -76 184v60q-8 68 -8 76q0 26 24 52v8q-28 21 -28 108v16q0 12 4 28q-4 80 -4 140v136
l16 68l-16 48v220q0 13 4 20l-4 24v188q0 72 88 72q23 0 28 4z" />
    <glyph glyph-name="yacute" unicode="&#xfd;" horiz-adv-x="960" 
d="M114 1572q38 -8 60 -8q46 8 64 8h8l132 -20q46 -56 76 -324q15 -80 24 -80q16 47 72 360q19 64 72 64h72q47 0 64 -8l24 4h4q26 0 52 -4q30 8 56 8h24q52 0 52 -56q0 -44 -60 -172q0 -50 -56 -188q0 -58 -120 -404q0 -24 -40 -144q-12 -42 -12 -84v-244q0 -63 -4 -128
q4 -15 4 -88q0 -64 -72 -64h-296q-52 4 -52 52v172q0 28 12 76q-8 52 -12 112q8 30 12 88q-4 35 -4 44q4 28 4 48q-25 0 -104 300q-10 8 -12 52v40q0 10 -32 60q-84 270 -84 356q-22 0 -36 96q-3 0 -16 24v16q4 32 28 32l40 -4q13 0 56 8z" />
    <glyph glyph-name="thorn" unicode="&#xfe;" horiz-adv-x="1010" 
 />
    <glyph glyph-name="ydieresis" unicode="&#xff;" horiz-adv-x="960" 
d="M114 1572q38 -8 60 -8q46 8 64 8h8l132 -20q46 -56 76 -324q15 -80 24 -80q16 47 72 360q19 64 72 64h72q47 0 64 -8l24 4h4q26 0 52 -4q30 8 56 8h24q52 0 52 -56q0 -44 -60 -172q0 -50 -56 -188q0 -58 -120 -404q0 -24 -40 -144q-12 -42 -12 -84v-244q0 -63 -4 -128
q4 -15 4 -88q0 -64 -72 -64h-296q-52 4 -52 52v172q0 28 12 76q-8 52 -12 112q8 30 12 88q-4 35 -4 44q4 28 4 48q-25 0 -104 300q-10 8 -12 52v40q0 10 -32 60q-84 270 -84 356q-22 0 -36 96q-3 0 -16 24v16q4 32 28 32l40 -4q13 0 56 8z" />
    <glyph glyph-name="dotlessi" unicode="&#x131;" horiz-adv-x="514" 
 />
    <glyph glyph-name="circumflex" unicode="&#x2c6;" horiz-adv-x="1024" 
 />
    <glyph glyph-name="caron" unicode="&#x2c7;" horiz-adv-x="1024" 
 />
    <glyph glyph-name="uni02C9" unicode="&#x2c9;" horiz-adv-x="1024" 
 />
    <glyph glyph-name="breve" unicode="&#x2d8;" horiz-adv-x="1024" 
 />
    <glyph glyph-name="dotaccent" unicode="&#x2d9;" horiz-adv-x="1024" 
 />
    <glyph glyph-name="ring" unicode="&#x2da;" horiz-adv-x="1024" 
 />
    <glyph glyph-name="ogonek" unicode="&#x2db;" horiz-adv-x="1024" 
 />
    <glyph glyph-name="tilde" unicode="&#x2dc;" horiz-adv-x="1024" 
 />
    <glyph glyph-name="hungarumlaut" unicode="&#x2dd;" horiz-adv-x="1024" 
 />
    <glyph glyph-name="endash" unicode="&#x2013;" horiz-adv-x="1108" 
 />
    <glyph glyph-name="emdash" unicode="&#x2014;" horiz-adv-x="2048" 
 />
    <glyph glyph-name="quoteleft" unicode="&#x2018;" horiz-adv-x="557" 
 />
    <glyph glyph-name="quoteright" unicode="&#x2019;" horiz-adv-x="557" 
 />
    <glyph glyph-name="quotesinglbase" unicode="&#x201a;" horiz-adv-x="557" 
 />
    <glyph glyph-name="quotedblleft" unicode="&#x201c;" horiz-adv-x="910" 
 />
    <glyph glyph-name="quotedblright" unicode="&#x201d;" horiz-adv-x="910" 
 />
    <glyph glyph-name="quotedblbase" unicode="&#x201e;" horiz-adv-x="910" 
 />
    <glyph glyph-name="dagger" unicode="&#x2020;" 
 />
    <glyph glyph-name="daggerdbl" unicode="&#x2021;" 
 />
    <glyph glyph-name="bullet" unicode="&#x2022;" horiz-adv-x="1024" 
 />
    <glyph glyph-name="ellipsis" unicode="&#x2026;" horiz-adv-x="2048" 
 />
    <glyph glyph-name="guilsinglleft" unicode="&#x2039;" horiz-adv-x="631" 
 />
    <glyph glyph-name="guilsinglright" unicode="&#x203a;" horiz-adv-x="631" 
 />
    <glyph glyph-name="fraction" unicode="&#x2044;" horiz-adv-x="342" 
 />
    <glyph glyph-name="fraction" unicode="&#x2215;" horiz-adv-x="342" 
 />
    <glyph glyph-name="franc" unicode="&#x20a3;" 
 />
    <glyph glyph-name="lira" unicode="&#x20a4;" 
 />
    <glyph glyph-name="peseta" unicode="&#x20a7;" horiz-adv-x="2028" 
 />
    <glyph glyph-name="Euro" unicode="&#x20ac;" 
 />
    <glyph glyph-name="uni2116" unicode="&#x2116;" horiz-adv-x="2271" 
 />
    <glyph glyph-name="trademark" unicode="&#x2122;" horiz-adv-x="2807" 
d="M1667 1663q278 -7 278 -29q67 -38 67 -127v-42q0 -97 -42 -114q-6 0 -12 -12q54 -31 54 -97v-139q-8 -10 -8 -17q8 -14 8 -25v-38q-6 -21 -54 -21h-93q-30 0 -30 29v9q0 24 5 29q-5 23 -5 38v17q0 17 5 46l-5 9q9 17 9 29q-11 76 -25 76h-5q-8 0 -12 -51q4 -28 4 -46
q0 -46 -9 -114q9 -52 9 -59q-15 -12 -30 -12l-25 4l-21 -4l-29 4q-26 -4 -64 -4q-19 8 -21 17v54q0 10 5 17q-5 8 -5 17q0 22 5 38q-5 23 -5 38l5 25q-5 17 -5 30l5 8l-5 9q0 5 5 42q-5 37 -5 46q3 25 9 25q-9 17 -9 47v126l5 25q-5 7 -5 21v55q0 16 51 21zM75 1659h59
q22 0 38 -4q22 4 42 4h30q63 0 63 -51l25 -160h4q21 207 38 207q36 4 59 4h30q44 0 134 -4l5 -9l-5 -29q5 -23 5 -38l-5 -9q5 -4 9 -63q0 -42 -26 -71l22 -34q-5 -30 -5 -34q5 -50 9 -55l-9 -67q0 -2 5 -17q0 -14 -9 -67q9 -14 9 -25v-17q0 -4 -5 -4q9 -19 9 -55v-4
q0 -49 -21 -55l-55 12q-24 -8 -80 -12q-17 17 -17 50q0 16 4 38q-4 22 -4 42q8 27 8 43l-4 8q0 4 4 4q-4 29 -4 89h-4q-11 -127 -42 -127q17 -25 17 -38q0 -109 -42 -109h-68q-33 0 -33 67q-13 49 -26 169q38 14 38 21q-8 4 -12 4l-21 -4l-9 12v9q0 14 72 38l8 12h-4
q-93 -8 -93 -38q0 -8 -8 -8h-4q-12 0 -26 8q-89 -33 -96 -33q-19 21 -22 33q5 21 9 21q-9 19 -9 55v13q0 7 13 38q-7 0 -13 21q0 9 5 17q-5 59 -5 101v76q3 25 13 25zM757 1659h26q29 0 33 -4q29 4 47 4h122q14 0 38 -207l63 -408q-10 -42 -42 -42h-131q-21 0 -21 109
q-15 9 -34 9q-13 0 -16 -93q-32 -25 -51 -25h-131q-10 0 -12 17q11 139 34 139q-9 15 -9 38q51 436 63 459zM1271 1659l21 -4l25 4l59 -9l21 5q106 -19 106 -43q33 0 50 -105q-8 -25 -12 -25q12 -23 12 -38q0 -14 -4 -21q4 -30 4 -51q0 -54 -4 -117q4 -29 4 -47
q-4 -37 -8 -46l4 -25v-5q0 -130 -156 -130h-240q-12 2 -12 34v143q0 8 12 33q-12 22 -12 43v155q0 49 8 68q-8 19 -8 54v93q0 23 16 30h9q42 0 105 4zM2088 1659h30q24 0 42 -17q11 0 59 17h21q21 -8 21 -47q0 -63 -9 -63l5 -8q4 -80 4 -135q0 -34 -9 -34q5 -6 9 -42l-4 -8
q4 -29 8 -38q0 -106 -55 -147v-5q15 0 34 17h4q6 0 13 -12v-13q0 -36 -4 -114q-14 -8 -26 -8h-33q-18 0 -47 17q-23 -13 -59 -17q-21 7 -21 21q0 29 4 29q-4 50 -4 72v303q1 42 9 42q-9 19 -9 55v105q0 23 17 30zM2463 1659l21 -4l25 4l59 -9l21 5q105 -19 105 -43
q34 0 51 -105q-8 -25 -13 -25q13 -23 13 -38q0 -14 -4 -21q4 -30 4 -51q0 -54 -4 -117q4 -29 4 -47q-4 -37 -8 -46l4 -25v-5q0 -130 -156 -130h-240q-13 2 -13 34v143q0 8 13 33q-13 22 -13 43v155q0 49 9 68q-9 19 -9 54v93q0 23 17 30h9q42 0 105 4zM1806 1528l-4 -8v-38
q0 -4 -5 -4l9 -34l-4 -25v-13h21q7 0 17 30q-5 28 -5 46v34q0 9 -29 12zM1334 1524q0 -13 -8 -34q4 -57 4 -84q0 -23 -4 -59q4 -26 4 -63q0 -21 -8 -21q8 -17 8 -46v-72q0 -6 13 -13q14 0 25 76q-4 23 -4 34q0 21 29 46v4q-25 0 -33 17l4 21q0 33 -4 59q4 24 4 68v4
q0 11 46 17q8 0 34 -9q21 6 21 13q0 8 -9 8h-21q-17 0 -46 -4q-16 0 -42 38h-13zM2526 1524q0 -13 -8 -34q4 -57 4 -84q0 -23 -4 -59q4 -26 4 -63q0 -21 -9 -21q9 -17 9 -46v-72q0 -6 12 -13q15 0 26 76q-5 23 -5 34q0 21 30 46v4q-25 0 -34 17l4 21q0 33 -4 59q4 24 4 68v4
q0 11 47 17q8 0 34 -9q21 6 21 13q0 8 -9 8h-21q-17 0 -46 -4q-16 0 -42 38h-13zM2155 1507v-8h17v12q-7 -4 -17 -4zM753 1436q4 0 4 -5q18 6 26 21h-9q-19 -8 -21 -16zM429 1372v-33h4q0 18 34 38v12q-4 0 -4 4q-34 -14 -34 -21zM867 1393q-13 -82 -17 -138l13 -9h8
q6 0 13 13q-13 111 -13 134h-4zM324 1330h4q25 5 25 13h-4q-25 -3 -25 -13zM176 1276q51 -12 51 -34l4 -30q-4 -57 -4 -71q8 -62 8 -93q0 -37 -21 -46h-8q-30 0 -34 4q-29 -4 -46 -4h-47q-6 0 -17 17v206q0 18 114 51zM1275 1259v-9h5q8 0 8 9h-13zM2467 1259v-9h4q9 0 9 9
h-13zM273 800q156 -8 194 -114q4 -7 4 -21v-8q0 -10 -4 -17q12 -21 12 -34v-46q0 -22 -12 -26h-72q-20 0 -42 5q-16 -5 -38 -5h-8q-21 0 -21 106v12q0 21 -17 26l-21 -59q0 -11 8 -38q-3 -17 -8 -17l4 -9v-21q0 -4 -4 -4q8 -16 8 -50q0 -25 -4 -101l4 -9q-3 -17 -8 -17
q12 -109 25 -109h4q21 0 21 109q0 19 -33 42v55q0 4 4 4l-4 9v17q0 6 12 12h9q14 0 21 -4l17 4q80 -2 80 -12q9 4 63 8l12 -17v-126q0 -23 -4 -59q4 -5 4 -30q0 -4 -4 -4l4 -21v-4q0 -17 -4 -34q4 -16 4 -33q-5 -30 -16 -30h-97q-21 12 -21 25q-50 -42 -97 -42q-17 7 -17 13
l-8 -4h-22q-56 0 -117 88q-17 51 -17 131v33q0 45 4 64q-4 32 -4 71v55q0 169 84 210q70 26 122 26zM2126 800q156 -8 194 -114q4 -7 4 -21v-8q0 -10 -4 -17q12 -21 12 -34v-46q0 -22 -12 -26h-72q-20 0 -42 5q-16 -5 -38 -5h-8q-21 0 -21 106v12q0 21 -17 26l-21 -59
q0 -11 8 -38q-3 -17 -8 -17l4 -9v-21q0 -4 -4 -4q8 -16 8 -50q0 -25 -4 -101l4 -9q-3 -17 -8 -17q12 -109 25 -109h4q21 0 21 109q0 19 -33 42v55q0 4 4 4l-4 9v17q0 6 12 12h9q14 0 21 -4l16 4q81 -2 81 -12q8 4 63 8l12 -17v-126q0 -23 -4 -59q4 -5 4 -30q0 -4 -4 -4
l4 -21v-4q0 -17 -4 -34q4 -16 4 -33q-5 -30 -17 -30h-96q-21 12 -21 25q-50 -42 -97 -42q-17 7 -17 13l-9 -4h-21q-56 0 -118 88q-16 51 -16 131v33q0 45 4 64q-4 32 -4 71v55q0 169 84 210q70 26 122 26zM1027 783h92q59 0 59 -17v-118q0 -43 -12 -109q12 -28 12 -38v-42
q0 -14 -4 -21l4 -26v-4q0 -58 -4 -152q8 -19 17 -21h4q13 5 13 26v67q0 36 8 55q-8 136 -8 227l4 9q-4 8 -8 46q4 52 4 101q9 17 21 17q23 0 46 -4q41 4 80 4h21q7 0 17 -17v-38l-8 -29q8 -27 8 -34l-4 -59l4 -42q0 -3 -4 -55q4 -101 8 -122q-5 -126 -21 -135l5 -21v-8
q0 -50 -97 -97q-52 -13 -114 -13q-80 10 -147 63q-34 53 -34 139q8 14 8 21q-8 14 -8 26v130q0 31 4 47q-4 27 -4 54v173q6 17 38 17zM597 774q278 -7 278 -29q68 -37 68 -126v-42q0 -98 -42 -114q-7 0 -13 -13q55 -30 55 -97v-139q-9 -10 -9 -16q9 -14 9 -26v-38
q-7 -21 -55 -21h-93q-29 0 -29 30v8q0 24 4 30q-4 22 -4 38v16q0 18 4 47l-4 8q8 17 8 30q-11 75 -25 75h-4q-9 0 -13 -50q4 -29 4 -46q0 -47 -8 -114q8 -53 8 -59q-15 -13 -29 -13l-25 4l-22 -4l-29 4q-26 -4 -63 -4q-19 8 -21 17v55q0 9 4 17q-4 7 -4 17q0 22 4 37
q-4 23 -4 38l4 26q-4 16 -4 29l4 9l-4 8q4 37 4 42q-4 37 -4 46q3 26 8 26q-8 16 -8 46v126l4 26q-4 7 -4 21v54q0 16 50 21zM1469 770h13q26 0 63 -4l21 4q14 -8 25 -8l9 4q24 0 54 -131q30 -71 34 -71l4 8v51q0 40 -4 97q0 42 42 42q0 8 34 8q7 0 25 -8q17 8 30 8
q33 -5 33 -17v-33q0 -23 -4 -38l4 -30q-4 -101 -8 -101q8 -15 8 -38q0 -63 -8 -118l8 -50q-4 -69 -4 -135l4 -17q-6 0 -17 -17q6 0 17 -21v-29q-4 -13 -25 -13h-118q-34 0 -46 85q-35 122 -47 122v-51q0 -4 -4 -4l4 -9v-80l-4 -25q4 -7 4 -21v-4q-4 -13 -25 -13h-122
q-6 0 -13 13v632q0 6 13 12zM2417 770h261q29 0 29 -38v-80q0 -22 -13 -25h-75q-27 0 -47 -50h5q21 0 21 -59l29 4q56 0 72 -17l-5 -25q5 -40 5 -76q0 -23 -30 -25l-38 4q-38 -4 -38 -17v-97q2 -8 9 -8h80q38 0 38 -30l-4 -25q4 -16 4 -34q0 -9 -4 -17q4 -7 4 -16v-9
q0 -6 -17 -17q-30 0 -34 4q-70 -4 -109 -4h-139q-7 0 -17 17v42q0 14 4 21l-4 26v88q0 14 4 21l-4 25v59q0 29 4 51q-4 20 -4 55q0 37 4 50q-4 40 -4 76v101q3 25 13 25zM1734 741v-9q7 -19 26 -29h4v12q-11 19 -30 26zM197 707v-8h4v8h-4zM2050 707v-8h4v8h-4zM1747 678
v-13h4v13h-4zM736 640l-4 -9v-38q0 -4 -4 -4l8 -34l-4 -25v-12h21q7 0 17 29q-4 29 -4 46v34q0 10 -30 13zM1751 635l-4 -21v-8q0 -6 13 -13h4q11 0 17 34v4q-13 0 -30 4zM1764 568v-8q0 -8 21 -55q-6 0 -17 -21h4q30 0 30 29v13l-21 21q4 8 4 13q-14 8 -21 8zM1494 467v-8
l9 4h21v12q0 9 -9 9q-19 -8 -21 -17zM345 446v-8h4q8 0 8 8v8h-4q-8 -1 -8 -8zM2198 446v-8h4q8 0 8 8v8h-4q-8 -1 -8 -8zM1503 416v-8q1 -8 8 -8q9 0 9 8v8h-17zM1768 387q4 -23 4 -34q-8 -13 -8 -25q15 -25 21 -25q0 4 4 4l-4 51v29h-17zM1680 374q1 -8 8 -8q0 4 4 4
q-4 8 -4 13q-8 -2 -8 -9zM1557 256v-4q5 -8 5 -12h4v12zM441 -30h34q73 0 83 -89v-8q0 -8 -4 -26l4 -10l-4 -14l2 -12l-4 -14q6 -2 6 -12q0 -8 -2 -8l2 -14v-26q0 -44 -34 -71q-10 -6 -16 -6h-2l-4 2q0 -14 -39 -14q-23 0 -50 12q-19 0 -30 44v12q-4 0 -14 6l2 11
q-4 51 -4 62q5 4 8 4q4 -2 6 -2q10 35 10 38l-2 12q4 8 4 14q-12 5 -12 8v4l8 10l-2 10l6 19v2q-14 4 -14 8v2q13 9 14 24q7 10 16 12q3 -2 8 -2q7 12 24 12zM648 -30h33q74 0 84 -89v-8q0 -8 -4 -26l4 -10l-4 -14l2 -12l-4 -14q6 -2 6 -12q0 -8 -2 -8l2 -14v-26
q0 -44 -34 -71q-10 -6 -16 -6h-2l-4 2q0 -14 -40 -14q-22 0 -49 12q-19 0 -30 44v12q-4 0 -14 6l2 11q-4 51 -4 62q5 4 8 4q4 -2 6 -2q10 35 10 38l-2 12q4 8 4 14q-12 5 -12 8v4q0 1 8 10l-2 10l6 19v2q-14 4 -14 8v2q12 9 14 24q7 10 16 12q3 -2 8 -2q7 12 24 12z
M1101 -30h10q79 0 99 -52q4 -18 4 -29l-2 -4q4 -10 4 -18l-2 -10q2 -11 2 -20q0 -10 -6 -12h-15q-21 0 -64 2l-4 6v2q0 15 2 28q-2 10 -2 20q0 1 2 12q0 15 -14 15q-8 -8 -8 -33l2 -12l-2 -12q0 -5 2 -16l-2 -14q2 -25 2 -26q0 -5 -4 -26l4 -22l-2 -12q2 -29 8 -29h6
q6 2 6 12v55q0 8 28 8h48q10 0 13 -8v-2q0 -17 -2 -53q-15 -11 -15 -16q4 -13 4 -16q0 -17 -64 -40h-18q-64 0 -82 30q-21 16 -21 91q4 16 6 16q-4 6 -6 40q2 19 2 36v28q0 58 71 79q3 2 10 2zM2599 -30h12q72 0 91 -34q8 -23 8 -51v-14q0 -3 -6 -6h-73q-2 0 -6 6l2 20v14
q0 2 -6 5q-12 -4 -12 -19q0 -31 49 -50q56 -32 56 -84q2 -17 2 -28q0 -56 -38 -67q-16 -14 -43 -14h-10q-12 0 -12 8q2 10 14 10v2q0 4 -4 4q-19 -22 -24 -22q-30 0 -60 34q-12 20 -12 53v26q6 10 14 10q7 0 42 -2q1 0 12 2q16 -4 16 -8v-43q1 -12 6 -12h6q8 3 8 14v13
q0 28 -46 50q-58 39 -58 70q-2 2 -4 32q7 81 76 81zM1262 -36h44q28 0 28 -8v-55q0 -21 -6 -52q6 -13 6 -18v-20q0 -7 -2 -10l2 -12v-2q0 -27 -2 -71q4 -9 8 -10h2q6 2 6 12v31q0 17 4 26q-4 65 -4 108l2 4q-2 4 -4 22q2 24 2 47q4 8 10 8q11 0 22 -2q19 2 37 2h10q3 0 8 -8
v-18l-4 -14q4 -12 4 -15l-2 -28l2 -20q0 -1 -2 -26q2 -48 4 -58q-2 -59 -10 -63l2 -10v-4q0 -24 -45 -46q-25 -6 -54 -6q-38 4 -70 30q-16 24 -16 65q4 7 4 10q-4 7 -4 12v62q0 15 2 22q-2 13 -2 26v81q3 8 18 8zM93 -40q28 0 28 -24l7 -99q-1 -8 -4 -8l2 -4v-2q0 -5 -3 -12
q2 0 5 -2q4 8 8 24l-2 10q10 115 20 115q9 0 12 2q72 0 72 -12q2 -11 2 -16l-2 -8q7 -12 14 -107h2q10 139 26 139l10 -2q13 4 23 4h18q2 0 2 -2l4 2h6q14 0 14 -12q-26 -240 -36 -240l4 -8q0 -50 -12 -50h-15q-12 0 -12 10h-4q0 -5 -2 -8q-2 0 -6 2q-25 -4 -42 -4h-6
q-18 0 -22 50q0 8 -10 67h-2q-5 -45 -12 -47q2 -15 2 -16q0 -52 -22 -52q-13 -2 -22 -2h-57q-18 0 -18 50q-8 46 -14 123q-7 28 -16 133q7 4 12 4h18q12 0 30 2zM2056 -40q131 -3 131 -14q32 -17 32 -59v-20q0 -46 -20 -54q-3 0 -6 -6q26 -14 26 -46v-65q-4 -5 -4 -8
q4 -7 4 -12v-18q-3 -10 -26 -10h-44q-14 0 -14 14v4q0 11 2 14q-2 11 -2 18v8q0 8 2 22l-2 3q4 8 4 14q-5 36 -12 36h-2q-4 0 -6 -24q2 -13 2 -22q0 -22 -4 -53q4 -25 4 -28q-7 -6 -13 -6l-12 2l-10 -2l-14 2q-12 -2 -30 -2q-9 4 -10 8v26q0 4 2 8q-2 3 -2 8q0 10 2 18
q-2 10 -2 17l2 12q-2 8 -2 14l2 4l-2 4q0 3 2 20q-2 18 -2 22q1 12 4 12q-4 8 -4 22v60l2 11q-2 4 -2 10v26q0 8 24 10zM854 -42l10 -2l12 2l28 -4l10 2q50 -9 50 -20q16 0 24 -49q-4 -12 -6 -12q6 -11 6 -18t-2 -10q2 -14 2 -24q0 -26 -2 -56q2 -13 2 -22q-2 -17 -4 -21
l2 -12v-2q0 -62 -74 -62h-113q-6 1 -6 16v67q0 4 6 16q-6 11 -6 20v74q0 23 4 32q-4 9 -4 26v43q0 11 8 14h4q20 0 49 2zM1465 -42h18q14 0 24 -2q10 2 24 2h2q11 0 14 -2q10 2 18 2h57q16 0 16 -36v-2l-4 -13l2 -12q-5 -4 -6 -4h-24q-20 0 -20 -16l2 -20q-2 -8 -8 -8
q-3 2 -6 2v-4l14 -10v-2q0 -7 -2 -18q2 -3 2 -8q-4 -6 -4 -12q4 0 4 -4q-2 -20 -2 -24q2 -22 4 -22l-2 -10q0 -12 2 -29l-2 -12l2 -10q-2 -11 -2 -20l2 -4q0 -12 -14 -12h-63q-14 0 -14 18v50q0 23 4 31q-2 3 -4 22q0 12 2 14q-2 26 -2 42v60q0 4 -4 4h-36q-3 0 -8 8v6
q0 4 2 7l-2 4q2 21 2 32v6q2 6 12 6zM1660 -42h18q13 0 24 -2q10 2 24 2h2q11 0 14 -2q10 2 17 2h58q16 0 16 -36v-2q-4 -12 -4 -13l2 -12l-6 -4h-24q-20 0 -20 -16l2 -20q-2 -8 -8 -8q-3 2 -6 2v-4l14 -10v-2q0 -7 -2 -18q2 -3 2 -8q-4 -6 -4 -12q4 0 4 -4q0 -3 -2 -24
q1 -22 4 -22l-2 -10q0 -12 2 -29l-2 -12l2 -10q-2 -11 -2 -20l2 -4q0 -12 -14 -12h-63q-14 0 -14 18v50q0 23 4 31q-2 3 -4 22q0 12 2 14q-2 26 -2 42v60q0 4 -4 4h-36q-3 0 -8 8v6q0 4 2 7l-2 4q2 21 2 32v6q2 6 12 6zM1861 -42h123q14 0 14 -18v-37q0 -11 -6 -12h-36
q-12 0 -22 -24h2q10 0 10 -28l14 2q27 0 34 -8l-2 -12q2 -19 2 -36q0 -11 -14 -12l-18 2q-18 -2 -18 -8v-45q1 -4 4 -4h38q18 0 18 -14l-2 -12q2 -8 2 -16q0 -5 -2 -8q2 -4 2 -8v-4q0 -3 -8 -8q-14 0 -16 2q-33 -2 -51 -2h-66q-3 0 -8 8v20q0 6 2 10l-2 12v41q0 7 2 10
l-2 12v28q0 14 2 24q-2 10 -2 26q0 18 2 24q-2 19 -2 36v47q1 12 6 12zM2362 -42h123q14 0 14 -18v-37q0 -11 -6 -12h-35q-13 0 -22 -24h2q10 0 10 -28l14 2q26 0 33 -8l-2 -12q2 -19 2 -36q0 -11 -14 -12l-17 2q-18 -2 -18 -8v-45q0 -4 4 -4h37q18 0 18 -14l-2 -12
q2 -8 2 -16q0 -5 -2 -8q2 -4 2 -8v-4q0 -3 -8 -8q-14 0 -16 2q-33 -2 -51 -2h-66q-3 0 -8 8v20q0 6 2 10l-2 12v41q0 7 2 10l-2 12v28q0 14 2 24q-2 10 -2 26q0 18 2 24q-2 19 -2 36v47q1 12 6 12zM415 -58v-4q1 -4 4 -4v8h-4zM622 -58v-4q0 -4 4 -4v8h-4zM419 -78l-2 -4v-8
h2q4 0 4 4v4q0 4 -4 4zM626 -78l-2 -4v-8h2q4 0 4 4v4q0 4 -4 4zM377 -88h2q6 0 6 -7q-6 -10 -6 -12q2 -4 2 -6l-4 -2h-4q-4 0 -4 4v6q0 15 8 17zM451 -115l4 -36l-6 -28q4 -13 4 -18v-12q0 -11 -2 -28l2 -4q0 -2 -2 -2q2 -11 2 -16q0 -12 -4 -29q13 -4 18 -4q0 12 10 23v2
q-8 8 -8 22q0 17 2 36q-2 13 -2 28q0 2 2 6l-2 12q0 7 2 10l-2 14q0 5 2 30q-3 19 -8 19h-2q-4 0 -10 -25zM584 -88h2q6 0 6 -7q-6 -10 -6 -12q2 -4 2 -6l-4 -2h-4q-4 0 -4 4v6q0 15 8 17zM658 -115l4 -36l-6 -28q4 -13 4 -18v-12q0 -11 -2 -28l2 -4q0 -2 -2 -2q2 -11 2 -16
q0 -12 -4 -29q12 -4 17 -4q0 12 10 23v2q-8 8 -8 22q0 17 2 36q-2 13 -2 28q0 2 2 6l-2 12q0 7 2 10l-2 14q0 5 2 30q-2 19 -8 19h-2q-3 0 -9 -25zM2121 -103l-2 -4v-18q0 -2 -2 -2l4 -16l-2 -12v-6h10q4 0 8 14q-2 13 -2 22v16q0 4 -14 6zM884 -105q0 -6 -4 -16
q2 -27 2 -40q0 -11 -2 -28q2 -12 2 -30q0 -10 -4 -10q4 -8 4 -22v-33q0 -3 6 -6q7 0 12 35q-2 11 -2 16q0 10 14 22v2q-12 0 -16 8l2 10q0 16 -2 28q2 11 2 32v2q0 5 22 8q4 0 16 -4q10 2 10 6t-4 4h-10q-8 0 -22 -2q-7 0 -20 18h-6zM492 -147v-4q4 0 4 4v4q-4 -1 -4 -4z
M699 -147v-4q4 0 4 4v4q-4 -1 -4 -4zM1561 -211v-2h8q3 0 3 4v2h-7q-4 0 -4 -4zM1755 -211v-2h8q4 0 4 4v2h-8q-4 0 -4 -4zM421 -223q0 -3 8 -6v2q0 4 -4 4h-4zM628 -223q0 -3 8 -6v2q0 4 -4 4h-4zM856 -231v-4h2q4 0 4 4h-6zM399 -272v-2h4q12 0 18 33v2h-4q-3 0 -12 -28
q-3 0 -6 -5zM606 -272v-2h4q12 0 18 33v2h-4q-4 0 -12 -28q-3 0 -6 -5zM381 -251q-4 -4 -4 -8q2 -3 2 -6h2q4 0 4 4v6q0 4 -4 4zM588 -251q-4 -4 -4 -8q2 -3 2 -6h2q4 0 4 4v6q0 4 -4 4zM2257 -282q11 0 14 -2q10 2 18 2h21q8 -3 8 -18v-2q0 -48 -8 -48q-18 0 -51 -2
q-8 3 -8 6v58q0 2 6 6zM485 -288v-8l3 -2v2q-2 3 -2 8h-1zM691 -288v-8l4 -2v2q-2 3 -2 8h-2zM488 -322v-2q4 -8 12 -8v4q0 3 -6 6h-6zM695 -322v-2q4 -8 12 -8v4q0 3 -6 6h-6z" />
    <glyph glyph-name="partialdiff" unicode="&#x2202;" 
 />
    <glyph glyph-name="Delta" unicode="&#x2206;" horiz-adv-x="1081" 
 />
    <glyph glyph-name="product" unicode="&#x220f;" horiz-adv-x="1515" 
 />
    <glyph glyph-name="summation" unicode="&#x2211;" horiz-adv-x="1206" 
 />
    <glyph glyph-name="minus" unicode="&#x2212;" 
 />
    <glyph glyph-name="radical" unicode="&#x221a;" 
 />
    <glyph glyph-name="infinity" unicode="&#x221e;" 
 />
    <glyph glyph-name="integral" unicode="&#x222b;" horiz-adv-x="665" 
 />
    <glyph glyph-name="approxequal" unicode="&#x2248;" 
 />
    <glyph glyph-name="lessequal" unicode="&#x2264;" 
 />
    <glyph glyph-name="greaterequal" unicode="&#x2265;" 
 />
    <glyph glyph-name="uniF001" unicode="&#xf001;" horiz-adv-x="1073" 
 />
    <glyph glyph-name="uniF001" unicode="&#xfb01;" horiz-adv-x="1073" 
 />
    <glyph glyph-name="uniF002" unicode="&#xf002;" horiz-adv-x="1081" 
 />
    <glyph glyph-name="uniF002" unicode="&#xfb02;" horiz-adv-x="1081" 
 />
  </font>
</defs>
</svg>
