<?xml version="1.0" standalone="no"?>
<!DOCTYPE svg PUBLIC "-//W3C//DTD SVG 1.1//EN" "http://www.w3.org/Graphics/SVG/1.1/DTD/svg11.dtd" >
<svg xmlns="http://www.w3.org/2000/svg" xmlns:xlink="http://www.w3.org/1999/xlink" version="1.1">
<metadata>
Created by FontForge 20170910 at Thu Feb 25 15:34:25 2016
 By Jimmy Wärting
Copyright \(c\) 2016 by Alit Design. All rights reserved.
</metadata>
<defs>
<font id="MORVA" horiz-adv-x="460" >
  <font-face 
    font-family="MORVA"
    font-weight="400"
    font-stretch="normal"
    units-per-em="1000"
    panose-1="0 0 0 0 0 0 0 0 0 0"
    ascent="750"
    descent="-250"
    x-height="750"
    cap-height="750"
    bbox="5.93144 -142.899 855 752"
    underline-thickness="50"
    underline-position="-100"
    stemh="220"
    stemv="116"
    unicode-range="U+000D-007A"
  />
<missing-glyph horiz-adv-x="500" 
 />
    <glyph glyph-name=".notdef" horiz-adv-x="500" 
 />
    <glyph glyph-name="NULL" horiz-adv-x="0" 
 />
    <glyph glyph-name="NULL" horiz-adv-x="0" 
 />
    <glyph glyph-name="CR" unicode="&#xd;" horiz-adv-x="500" 
 />
    <glyph glyph-name="space" unicode=" " horiz-adv-x="500" 
 />
    <glyph glyph-name="I" unicode="I" horiz-adv-x="192" 
d="M19 740v10h153v-10c-19 0 -19 -20 -19 -20v-690s0 -20 19 -20v-10h-153v10h18v730h-18z" />
    <glyph glyph-name="J" unicode="J" horiz-adv-x="365" 
d="M324 26c0 -74 -48 -137 -115 -159c-16 -5 -34 -8 -52 -8c-36 0 -68 9 -96 32c-35 29 -53 72 -55 115c-1 30 9 62 26 88c25 36 86 47 121 21c20 -15 33 -39 33 -64c0 -46 -38 -84 -84 -84c-9 0 -21 6 -27 3c-30 -14 17 -101 78 -101c41 0 84 34 101 97c7 23 8 55 5 83
c-6 60 -50 107 -50 134v557h-19v10h153v-10c-18 0 -19 -20 -19 -20v-694v0z" />
    <glyph glyph-name="K" unicode="K" horiz-adv-x="482" 
d="M461 740c-61 1 -115 -70 -115 -70l-140 -212l223 -427s11 -21 29 -21l5 -10h-152l-6 10h19l-166 319v-299s0 -20 19 -20v-10h-153v10h18v730h-18v10h153v-10c-19 0 -19 -20 -19 -20v-313l220 333h-69l7 10h152z" />
    <glyph glyph-name="L" unicode="L" horiz-adv-x="418" 
d="M412 0h-389v10h18v730h-18v10h153v-10c-19 0 -19 -20 -19 -20v-710h159c86 23 44 210 96 210v-220z" />
    <glyph glyph-name="M" unicode="M" horiz-adv-x="684" 
d="M503 740l4 10h153v-10c-19 0 -19 -20 -19 -20v-690s0 -20 19 -20v-10h-153v10h19v573l-157 -413l-29 -78s-31 -82 40 -82l-4 -10h-59l-217 581v-489s0 -82 72 -82v-10h-153v10h71v599l-49 131h-22v10h153l3 -10c-18 0 -11 -20 -11 -20l200 -536l162 427v129h-23z" />
    <glyph glyph-name="N" unicode="N" horiz-adv-x="464" 
d="M97 92c0 0 0 -82 72 -82v-10h-153v10h71v599l-49 131h-22v10h153l3 -10c-18 0 -11 -20 -11 -20l206 -551v571h-71v10h152v-10c-71 0 -71 -82 -71 -82v-566s0 -82 71 -82v-10h-152v10h14l-213 571v-489z" />
    <glyph glyph-name="O" unicode="O" horiz-adv-x="496" 
d="M479 375c0 -207 -103 -375 -231 -375s-231 168 -231 375s103 375 231 375s231 -168 231 -375zM133 375c0 -203 52 -367 115 -367c64 0 115 164 115 367s-51 367 -115 367c-63 0 -115 -164 -115 -367z" />
    <glyph glyph-name="P" unicode="P" horiz-adv-x="433" 
d="M428 545c0 -106 -76 -204 -187 -207h-85v-308s0 -20 19 -20v-10h-153v10h18v730h-18v10h224c101 -2 182 -93 182 -205zM200 349c87 11 127 97 127 196c0 98 -34 190 -124 195h-28c-19 0 -19 -20 -19 -20v-362v-9h44z" />
    <glyph glyph-name="Q" unicode="Q" horiz-adv-x="501" 
d="M263 1c85 -20 126 -110 224 -77c0 0 -30 -96 -151 -58c-85 27 -121 153 -234 64c0 0 19 67 105 75c-111 28 -195 183 -195 370c0 207 103 375 231 375s231 -168 231 -375c0 -196 -93 -357 -211 -374zM128 375c0 -203 52 -367 115 -367c64 0 115 164 115 367
s-51 367 -115 367c-63 0 -115 -164 -115 -367z" />
    <glyph glyph-name="R" unicode="R" horiz-adv-x="446" 
d="M173 10v-10h-153v10h18v730h-18v10h224c101 -2 182 -93 182 -205c0 -104 -70 -191 -161 -205c77 -25 133 -104 133 -197c0 -5 1 -65 1 -66c0 -25 3 -100 70 -110c-14 -7 -29 -11 -43 -11c-103 0 -128 67 -128 121c0 8 -2 63 -1 70c-1 97 -35 186 -124 191h-19v-308
s0 -20 19 -20zM154 720v-371h44c87 11 127 97 127 196c0 98 -34 190 -124 195h-28c-19 0 -19 -20 -19 -20z" />
    <glyph glyph-name="S" unicode="S" horiz-adv-x="439" 
d="M317 147c0 213 -283 185 -283 387c0 125 92 216 205 216c110 0 217 -123 161 -238c-14 -24 -40 -40 -70 -40c-46 0 -82 36 -82 82c0 43 34 79 77 82c29 10 3 104 -87 104c-61 0 -105 -64 -105 -137c0 -211 283 -182 283 -386c0 -126 -92 -217 -205 -217
c-110 0 -217 123 -161 238c14 24 40 41 70 41c46 0 83 -37 83 -83c0 -43 -35 -79 -78 -81c-29 -11 -3 -105 88 -105c60 0 104 64 104 137z" />
    <glyph glyph-name="T" unicode="T" horiz-adv-x="458" 
d="M11 750h436v-220c-52 0 -10 187 -97 210h-45c-12 0 -16 -9 -18 -15v-700c2 -6 6 -15 18 -15h1v-10h-1h-152h-1v10h1c12 0 17 9 18 15v715h-63c-87 -23 -45 -210 -97 -210v220z" />
    <glyph glyph-name="U" unicode="U" 
d="M36 170v570h-18v10h153v-10c-19 0 -19 -20 -19 -20v-550c0 -59 49 -107 108 -107c60 0 108 48 108 107v570h-71v10h153v-10c-71 0 -71 -82 -71 -82v-488c-1 -94 -77 -170 -171 -170c-95 0 -171 76 -172 170z" />
    <glyph glyph-name="V" unicode="V" horiz-adv-x="513" 
d="M507 750l-2 -10c-71 0 -87 -82 -87 -82l-112 -566s-3 -17 0 -35l2 -11c6 -18 20 -36 53 -36l-2 -10h-156l-174 740h-19l-2 10h153l2 -10c-18 0 -14 -20 -14 -20l147 -624l128 644h-71l2 10h152z" />
    <glyph glyph-name="W" unicode="W" horiz-adv-x="866" 
d="M655 49c5 -19 19 -38 54 -38l-3 -11h-155l-140 595l-100 -503s-16 -82 55 -82l-2 -10h-156l-174 740h-19l-2 10h153l2 -10c-18 0 -14 -20 -14 -20l147 -624l128 644h-71l2 10h153l-2 -10h-4c-14 -3 -10 -20 -10 -20l147 -624l127 644h-71l2 10h153l-2 -10
c-71 0 -87 -82 -87 -82l-112 -566s-4 -18 0 -38z" />
    <glyph glyph-name="X" unicode="X" horiz-adv-x="458" 
d="M203 289l-71 -197s-29 -82 42 -82l-4 -10h-153l4 10h71l106 294l-164 436h-18l-4 10h153l3 -10c-18 0 -11 -20 -11 -20l98 -259l100 279h-71l4 10h152l-3 -10c-71 0 -101 -82 -101 -82l-76 -212l156 -416s8 -20 26 -20l4 -10h-153l-4 10h19z" />
    <glyph glyph-name="Y" unicode="Y" horiz-adv-x="451" 
d="M251 30c0 0 1 -20 19 -20v-10h-153v10h19v255l-106 475h-19l-2 10h153l2 -10c-18 0 -14 -20 -14 -20l96 -434l116 454h-71l3 10h153l-3 -10c-71 0 -92 -82 -92 -82l-101 -394v-234z" />
    <glyph glyph-name="Z" unicode="Z" horiz-adv-x="413" 
d="M393 0h-357l223 740h-142c-87 -23 -45 -210 -97 -210v220h376l-3 -10c-18 0 -24 -20 -24 -20l-209 -690s-5 -19 13 -20h123c87 23 45 210 97 210v-220z" />
    <glyph glyph-name="D" unicode="D" horiz-adv-x="524" 
d="M218 750c158 0 286 -168 286 -375s-128 -375 -286 -375h-190v10h18v730h-18v10h190zM218 10c95 1 172 164 172 365s-77 365 -172 365h-37c-19 0 -19 -20 -19 -20v-690s0 -20 19 -20h37z" />
    <glyph glyph-name="A" unicode="A" horiz-adv-x="492" 
d="M475 10h2l2 -10h-152l-2 10h18l-55 255h-147l-33 -173s-9 -82 56 -82l-2 -10h-153l2 10h71l121 642l-19 88h-18l-2 10h152l2 -10c-18 0 -14 -21 -14 -21l151 -689c1 -5 7 -18 20 -20zM143 276h142l-76 350z" />
    <glyph glyph-name="zero" unicode="0" horiz-adv-x="444" 
d="M223 750c116 0 211 -168 211 -375s-95 -375 -211 -375s-210 168 -210 375s94 375 210 375zM223 10c53 0 95 164 95 365s-42 364 -95 364c-52 0 -95 -163 -95 -364s43 -365 95 -365z" />
    <glyph glyph-name="one" unicode="1" horiz-adv-x="177" 
d="M146 30c0 0 0 -20 18 -20v-10h-152v0v10h18v606h-18v10v0h19c57 0 104 76 104 124h11v-720z" />
    <glyph glyph-name="two" unicode="2" horiz-adv-x="421" 
d="M409 549c0 -219 -341 -331 -364 -528c18 39 67 120 168 120c90 0 123 -91 194 -92c0 0 -50 -84 -136 -32c-69 41 -167 59 -227 -17h-7c0 209 257 355 257 549c0 97 -35 204 -130 191c-70 -10 -89 -96 -66 -105c43 -2 78 -38 78 -82c0 -45 -37 -82 -82 -82
c-30 0 -57 17 -71 41v0c-39 63 -3 184 93 225c10 4 64 28 151 5c42 -11 77 -38 103 -72s39 -78 39 -121z" />
    <glyph glyph-name="three" unicode="3" horiz-adv-x="422" 
d="M411 549c0 -74 -37 -139 -97 -173c60 -35 97 -100 97 -174c0 -43 -13 -87 -39 -121s-61 -60 -103 -71c-87 -23 -141 0 -151 5c-96 40 -132 161 -93 225v0c14 24 41 40 71 40c45 0 82 -37 82 -82c0 -44 -35 -80 -78 -82c-23 -8 -4 -94 66 -104c95 -14 130 94 130 190
c0 59 -13 116 -46 151c-9 9 -19 17 -32 23c13 6 23 13 32 23c33 35 46 91 46 150c0 97 -35 204 -130 191c-70 -10 -89 -96 -66 -105c43 -2 78 -38 78 -82c0 -45 -37 -82 -82 -82c-30 0 -57 17 -71 41v0c-39 63 -3 184 93 225c10 4 64 28 151 5c42 -11 77 -38 103 -72
s39 -78 39 -121z" />
    <glyph glyph-name="four" unicode="4" horiz-adv-x="451" 
d="M393 270c0 0 40 -2 40 47h11v-81h-59v-206s1 -20 19 -20v-10h-153v0v10h19v226h-250h-10l24 34l236 333l104 147v0h11v0v-480h8zM270 270v318l-226 -318h226z" />
    <glyph glyph-name="five" unicode="5" horiz-adv-x="434" 
d="M210 535c119 0 218 -119 215 -266c-4 -209 -168 -314 -310 -251c-94 42 -131 161 -92 224v0c14 24 40 40 70 40c46 0 82 -36 82 -82c0 -43 -34 -79 -77 -81c-24 -9 -5 -93 65 -104c121 -19 146 205 147 254c3 154 -98 342 -249 184v8v265v0c2 1 56 50 144 5
c85 -44 140 -42 192 -4c0 0 1 -130 -113 -124c-111 6 -213 81 -213 -19v-112c38 39 86 63 139 63z" />
    <glyph glyph-name="six" unicode="6" horiz-adv-x="428" 
d="M218 459c111 0 201 -103 201 -230c0 -128 -90 -231 -201 -231s-191 104 -200 231c-7 84 -7 163 -7 264c0 97 28 209 142 246c86 28 141 0 151 -5c96 -40 133 -161 93 -224v0c-14 -25 -41 -41 -71 -41c-45 0 -82 37 -82 82c0 44 35 80 78 82c24 9 5 94 -66 104
c-95 14 -129 -66 -129 -190c0 -36 2 -115 2 -115c28 17 56 27 89 27zM218 7c48 0 86 101 86 222c0 120 -15 219 -86 219c-51 0 -88 -29 -88 -59c0 -32 3 -104 3 -160c0 -121 38 -222 85 -222z" />
    <glyph glyph-name="seven" unicode="7" horiz-adv-x="379" 
d="M370 750l-218 -720s-6 -20 12 -20l-3 -10h-152v0l3 10h18l221 729h-19h-124c-86 -23 -44 -209 -97 -209v209v11h116h108h135z" />
    <glyph glyph-name="eight" unicode="8" horiz-adv-x="425" 
d="M255 409c91 -20 159 -103 159 -202c0 -114 -90 -207 -201 -207s-201 93 -201 207c0 99 69 182 159 202c-72 19 -126 87 -126 168c0 95 75 173 168 173s168 -78 168 -173c0 -81 -53 -149 -126 -168zM142 577c0 -85 28 -155 64 -164c2 0 5 1 7 1c3 0 5 -1 8 -1
c36 9 64 79 64 164c0 90 -32 164 -72 164c-39 0 -71 -74 -71 -164zM213 10c47 0 86 88 86 197c0 108 -39 196 -86 196s-85 -88 -85 -196c0 -109 38 -197 85 -197z" />
    <glyph glyph-name="nine" unicode="9" horiz-adv-x="430" 
d="M213 752c111 0 191 -104 201 -231c6 -84 6 -163 6 -265c0 -97 -28 -209 -142 -246c-85 -28 -141 1 -151 5c-96 41 -132 162 -93 225v0c15 24 41 41 71 41c45 0 82 -37 82 -82c0 -44 -34 -80 -78 -82c-23 -9 -4 -95 66 -105c96 -13 130 67 130 191c0 35 -3 115 -3 115
c-28 -17 -55 -27 -89 -27c-111 0 -201 103 -201 230s90 231 201 231zM213 301c51 0 88 29 88 60s-3 104 -3 160c0 121 -38 221 -85 221s-85 -100 -85 -221c0 -120 15 -220 85 -220z" />
    <glyph glyph-name="bracketright" unicode="]" horiz-adv-x="106" 
d="M14 750v0h81v-750h-81v0v10h71v729h-71v11z" />
    <glyph glyph-name="bracketleft" unicode="[" horiz-adv-x="106" 
d="M14 750h81v-11h-71v-729h71v-10v0h-81v750z" />
    <glyph glyph-name="backslash" unicode="\" horiz-adv-x="243" 
d="M12 750h10l209 -750h-11z" />
    <glyph glyph-name="asciicircum" unicode="^" horiz-adv-x="190" 
d="M96 750v0l80 -80h-15l-65 65l-66 -65h-15l81 80v0z" />
    <glyph glyph-name="underscore" unicode="_" horiz-adv-x="324" 
d="M25 -10v10h283v-10h-283z" />
    <glyph glyph-name="B" unicode="B" horiz-adv-x="458" 
d="M293 406c82 -22 142 -103 142 -200c0 -113 -83 -206 -186 -206h-220v10h18v730h-18v10h211c103 0 176 -79 176 -176c0 -79 -49 -146 -123 -168zM163 720v-308h34c89 0 118 78 118 162c0 85 -24 162 -114 166h-19c-19 0 -19 -20 -19 -20zM207 10c87 12 127 98 127 196
c0 99 -34 191 -124 195h-47v-371s0 -20 19 -20h25z" />
    <glyph glyph-name="C" unicode="C" horiz-adv-x="451" 
d="M18 375c0 207 128 375 286 375h115v-220c-55 0 -4 212 -115 212c-95 0 -172 -166 -172 -367s77 -367 172 -367c111 0 60 212 115 212v-220h-115c-158 0 -286 168 -286 375z" />
    <glyph glyph-name="a" unicode="a" horiz-adv-x="497" 
d="M475 10h2l2 -10h-152l-2 10h18l-55 255h-147l-33 -173s-9 -82 56 -82l-2 -10h-153l2 10h71l121 642l-19 88h-18l-2 10h152l2 -10c-18 0 -14 -21 -14 -21l151 -689c1 -5 7 -18 20 -20zM143 276h142l-76 350z" />
    <glyph glyph-name="b" unicode="b" horiz-adv-x="450" 
d="M293 406c82 -22 142 -103 142 -200c0 -113 -83 -206 -186 -206h-220v10h18v730h-18v10h211c103 0 176 -79 176 -176c0 -79 -49 -146 -123 -168zM163 720v-308h34c89 0 118 78 118 162c0 85 -24 162 -114 166h-19c-19 0 -19 -20 -19 -20zM207 10c87 12 127 98 127 196
c0 99 -34 191 -124 195h-47v-371s0 -20 19 -20h25z" />
    <glyph glyph-name="c" unicode="c" horiz-adv-x="436" 
d="M18 375c0 207 128 375 286 375h115v-220c-55 0 -4 212 -115 212c-95 0 -172 -166 -172 -367s77 -367 172 -367c111 0 60 212 115 212v-220h-115c-158 0 -286 168 -286 375z" />
    <glyph glyph-name="d" unicode="d" horiz-adv-x="517" 
d="M218 750c158 0 286 -168 286 -375s-128 -375 -286 -375h-190v10h18v730h-18v10h190zM218 10c95 1 172 164 172 365s-77 365 -172 365h-37c-19 0 -19 -20 -19 -20v-690s0 -20 19 -20h37z" />
    <glyph glyph-name="e" unicode="e" horiz-adv-x="432" 
d="M320 10c86 23 44 210 96 210v-220h-389v10h18v730h-18v10h373v-220c-52 0 -10 187 -97 210h-123c-19 0 -19 -20 -19 -20v-340h41c88 0 45 78 97 78v-165c-52 0 -9 77 -97 77h-41v-340s0 -20 19 -20h140z" />
    <glyph glyph-name="f" unicode="f" horiz-adv-x="430" 
d="M27 750h389v-220c-52 0 -10 187 -96 210h-140c-19 0 -19 -20 -19 -20v-340h41c88 0 45 78 97 78v-165c-52 0 -9 77 -97 77h-41v-340s0 -20 19 -20v-10h-153v10h18v730h-18v10z" />
    <glyph glyph-name="g" unicode="g" horiz-adv-x="513" 
d="M344 326v10h153v-10c-18 0 -19 -20 -19 -20v-276s1 -20 19 -20v-10h-192c-158 0 -286 168 -286 375s128 375 286 375h21s31 0 62 -13c79 -34 136 -138 93 -225c-14 -24 -41 -40 -71 -40c-45 0 -82 36 -82 82c0 43 35 79 78 82c24 8 11 71 -43 95c-57 24 -110 -2 -133 -26
c-58 -60 -97 -186 -97 -330c0 -201 77 -367 172 -367c28 0 46 14 58 34v284h-19z" />
    <glyph glyph-name="h" unicode="h" horiz-adv-x="426" 
d="M262 10h18v360h-121v-340s0 -20 19 -20v-10h-153v10h18v730h-18v10h153v-10c-19 0 -19 -20 -19 -20v-340h121v360h-18v10h152v-10c-18 0 -18 -20 -18 -20v-690s0 -20 18 -20v-10h-152v10z" />
    <glyph glyph-name="i" unicode="i" horiz-adv-x="186" 
d="M19 740v10h153v-10c-19 0 -19 -20 -19 -20v-690s0 -20 19 -20v-10h-153v10h18v730h-18z" />
    <glyph glyph-name="j" unicode="j" horiz-adv-x="361" 
d="M324 166c0 -74 -48 -137 -115 -159c-16 -5 -34 -8 -52 -8c-36 0 -68 9 -96 32c-35 29 -53 72 -55 115c-1 30 9 62 26 88c25 36 86 47 121 21c20 -15 33 -39 33 -64c0 -46 -38 -84 -84 -84c-9 0 -21 6 -27 3c-30 -14 17 -101 78 -101c41 0 84 34 101 97c7 23 8 55 5 83
c-6 60 -50 107 -50 134v417h-19v10h153v-10c-18 0 -19 -20 -19 -20v-554v0z" />
    <glyph glyph-name="k" unicode="k" horiz-adv-x="479" 
d="M461 740c-61 1 -115 -70 -115 -70l-140 -212l223 -427s11 -21 29 -21l5 -10h-152l-6 10h19l-166 319v-299s0 -20 19 -20v-10h-153v10h18v730h-18v10h153v-10c-19 0 -19 -20 -19 -20v-313l220 333h-69l7 10h152z" />
    <glyph glyph-name="l" unicode="l" horiz-adv-x="428" 
d="M412 0h-389v10h18v730h-18v10h153v-10c-19 0 -19 -20 -19 -20v-710h159c86 23 44 210 96 210v-220z" />
    <glyph glyph-name="m" unicode="m" horiz-adv-x="674" 
d="M503 740l4 10h153v-10c-19 0 -19 -20 -19 -20v-690s0 -20 19 -20v-10h-153v10h19v573l-157 -413l-29 -78s-31 -82 40 -82l-4 -10h-59l-217 581v-489s0 -82 72 -82v-10h-153v10h71v599l-49 131h-22v10h153l3 -10c-18 0 -11 -20 -11 -20l200 -536l162 427v129h-23z" />
    <glyph glyph-name="n" unicode="n" 
d="M97 92c0 0 0 -82 72 -82v-10h-153v10h71v599l-49 131h-22v10h153l3 -10c-18 0 -11 -20 -11 -20l206 -551v571h-71v10h152v-10c-71 0 -71 -82 -71 -82v-566s0 -82 71 -82v-10h-152v10h14l-213 571v-489z" />
    <glyph glyph-name="o" unicode="o" horiz-adv-x="491" 
d="M479 375c0 -207 -103 -375 -231 -375s-231 168 -231 375s103 375 231 375s231 -168 231 -375zM133 375c0 -203 52 -367 115 -367c64 0 115 164 115 367s-51 367 -115 367c-63 0 -115 -164 -115 -367z" />
    <glyph glyph-name="p" unicode="p" horiz-adv-x="442" 
d="M428 545c0 -106 -76 -204 -187 -207h-85v-308s0 -20 19 -20v-10h-153v10h18v730h-18v10h224c101 -2 182 -93 182 -205zM200 349c87 11 127 97 127 196c0 98 -34 190 -124 195h-28c-19 0 -19 -20 -19 -20v-362v-9h44z" />
    <glyph glyph-name="q" unicode="q" horiz-adv-x="489" 
d="M263 1c85 -20 126 -110 224 -77c0 0 -30 -96 -151 -58c-85 27 -121 153 -234 64c0 0 19 67 105 75c-111 28 -195 183 -195 370c0 207 103 375 231 375s231 -168 231 -375c0 -196 -93 -357 -211 -374zM128 375c0 -203 52 -367 115 -367c64 0 115 164 115 367
s-51 367 -115 367c-63 0 -115 -164 -115 -367z" />
    <glyph glyph-name="r" unicode="r" horiz-adv-x="436" 
d="M173 10v-10h-153v10h18v730h-18v10h224c101 -2 182 -93 182 -205c0 -104 -70 -191 -161 -205c77 -25 133 -104 133 -197c0 -5 1 -65 1 -66c0 -25 3 -100 70 -110c-14 -7 -29 -11 -43 -11c-103 0 -128 67 -128 121c0 8 -2 63 -1 70c-1 97 -35 186 -124 191h-19v-308
s0 -20 19 -20zM154 720v-371h44c87 11 127 97 127 196c0 98 -34 190 -124 195h-28c-19 0 -19 -20 -19 -20z" />
    <glyph glyph-name="s" unicode="s" horiz-adv-x="426" 
d="M317 147c0 213 -283 185 -283 387c0 125 92 216 205 216c110 0 217 -123 161 -238c-14 -24 -40 -40 -70 -40c-46 0 -82 36 -82 82c0 43 34 79 77 82c29 10 3 104 -87 104c-61 0 -105 -64 -105 -137c0 -211 283 -182 283 -386c0 -126 -92 -217 -205 -217
c-110 0 -217 123 -161 238c14 24 40 41 70 41c46 0 83 -37 83 -83c0 -43 -35 -79 -78 -81c-29 -11 -3 -105 88 -105c60 0 104 64 104 137z" />
    <glyph glyph-name="t" unicode="t" 
d="M11 750h436v-220c-52 0 -10 187 -97 210h-45c-12 0 -16 -9 -18 -15v-700c2 -6 6 -15 18 -15h1v-10h-1h-152h-1v10h1c12 0 17 9 18 15v715h-63c-87 -23 -45 -210 -97 -210v220z" />
    <glyph glyph-name="u" unicode="u" 
d="M36 170v570h-18v10h153v-10c-19 0 -19 -20 -19 -20v-550c0 -59 49 -107 108 -107c60 0 108 48 108 107v570h-71v10h153v-10c-71 0 -71 -82 -71 -82v-488c-1 -94 -77 -170 -171 -170c-95 0 -171 76 -172 170z" />
    <glyph glyph-name="v" unicode="v" horiz-adv-x="521" 
d="M507 750l-2 -10c-71 0 -87 -82 -87 -82l-112 -566s-3 -17 0 -35l2 -11c6 -18 20 -36 53 -36l-2 -10h-156l-174 740h-19l-2 10h153l2 -10c-18 0 -14 -20 -14 -20l147 -624l128 644h-71l2 10h152z" />
    <glyph glyph-name="w" unicode="w" horiz-adv-x="866" 
d="M655 49c5 -19 19 -38 54 -38l-3 -11h-155l-140 595l-100 -503s-16 -82 55 -82l-2 -10h-156l-174 740h-19l-2 10h153l2 -10c-18 0 -14 -20 -14 -20l147 -624l128 644h-71l2 10h153l-2 -10h-4c-14 -3 -10 -20 -10 -20l147 -624l127 644h-71l2 10h153l-2 -10
c-71 0 -87 -82 -87 -82l-112 -566s-4 -18 0 -38z" />
    <glyph glyph-name="x" unicode="x" horiz-adv-x="452" 
d="M203 289l-71 -197s-29 -82 42 -82l-4 -10h-153l4 10h71l106 294l-164 436h-18l-4 10h153l3 -10c-18 0 -11 -20 -11 -20l98 -259l100 279h-71l4 10h152l-3 -10c-71 0 -101 -82 -101 -82l-76 -212l156 -416s8 -20 26 -20l4 -10h-153l-4 10h19z" />
    <glyph glyph-name="y" unicode="y" horiz-adv-x="456" 
d="M251 30c0 0 1 -20 19 -20v-10h-153v10h19v255l-106 475h-19l-2 10h153l2 -10c-18 0 -14 -20 -14 -20l96 -434l116 454h-71l3 10h153l-3 -10c-71 0 -92 -82 -92 -82l-101 -394v-234z" />
    <glyph glyph-name="z" unicode="z" horiz-adv-x="404" 
d="M393 0h-357l223 740h-142c-87 -23 -45 -210 -97 -210v220h358l-218 -720s-5 -19 13 -20h123c87 23 45 210 97 210v-220z" />
    <glyph glyph-name="E" unicode="E" horiz-adv-x="445" 
d="M320 10c86 23 44 210 96 210v-220h-389v10h18v730h-18v10h373v-220c-52 0 -10 187 -97 210h-123c-19 0 -19 -20 -19 -20v-340h41c88 0 45 78 97 78v-165c-52 0 -9 77 -97 77h-41v-340s0 -20 19 -20h140z" />
    <glyph glyph-name="F" unicode="F" horiz-adv-x="423" 
d="M27 750h389v-220c-52 0 -10 187 -96 210h-140c-19 0 -19 -20 -19 -20v-340h41c88 0 45 78 97 78v-165c-52 0 -9 77 -97 77h-41v-340s0 -20 19 -20v-10h-153v10h18v730h-18v10z" />
    <glyph glyph-name="G" unicode="G" horiz-adv-x="544" 
d="M344 326v10h153v-10c-18 0 -19 -20 -19 -20v-276s1 -20 19 -20v-10h-192c-158 0 -286 168 -286 375s128 375 286 375h21s31 0 62 -13c79 -34 136 -138 93 -225c-14 -24 -41 -40 -71 -40c-45 0 -82 36 -82 82c0 43 35 79 78 82c24 8 11 71 -43 95c-57 24 -110 -2 -133 -26
c-58 -60 -97 -186 -97 -330c0 -201 77 -367 172 -367c28 0 46 14 58 34v284h-19z" />
    <glyph glyph-name="H" unicode="H" horiz-adv-x="439" 
d="M262 10h18v360h-121v-340s0 -20 19 -20v-10h-153v10h18v730h-18v10h153v-10c-19 0 -19 -20 -19 -20v-340h121v360h-18v10h152v-10c-18 0 -18 -20 -18 -20v-690s0 -20 18 -20v-10h-152v10z" />
    </font>
</defs>
</svg>
