<?xml version="1.0" standalone="no"?>
<!DOCTYPE svg PUBLIC "-//W3C//DTD SVG 1.1//EN" "http://www.w3.org/Graphics/SVG/1.1/DTD/svg11.dtd" >
<svg xmlns="http://www.w3.org/2000/svg" xmlns:xlink="http://www.w3.org/1999/xlink" version="1.1">
<metadata>
Created by FontForge 20170731 at Wed Apr 25 00:04:48 2018
 By Aleksey,,,
Copyright (c) 2018 by MadeType. All rights reserved.
</metadata>
<defs>
<font id="MADEBruno" horiz-adv-x="609" >
  <font-face 
    font-family="MADE Bruno"
    font-weight="400"
    font-stretch="normal"
    units-per-em="1000"
    panose-1="2 0 5 3 0 0 0 2 0 4"
    ascent="800"
    descent="-200"
    x-height="504"
    cap-height="700"
    bbox="-230.573 -362 1305 999"
    underline-thickness="50"
    underline-position="-200"
    unicode-range="U+0020-FB03"
  />
<missing-glyph horiz-adv-x="271" 
 />
    <glyph glyph-name="f_f" unicode="ff" horiz-adv-x="716" 
d="M525 999q145 0 260 -47t171 -129t33 -180q-16 -66 -75 -94.5t-120.5 -9.5t-87.5 74q23 9 36.5 16t31.5 27.5t27 49.5q20 60 12 107q-23 54 -79 59q-75 8 -75 -213v-66h36v-13h-36v-540q0 -68 -19 -118t-48 -78t-72 -44.5t-81 -21.5t-86 -5q-38 0 -63 12
q-17 -45 -47.5 -76t-71 -45t-78.5 -19.5t-86 -5.5q-119 0 -189.5 69.5t-37.5 159.5q19 53 71.5 73t102 4.5t65.5 -53.5q-42 -19 -67.5 -74.5t-22.5 -106t34 -58.5q44 -11 68 47.5t24 162.5v717h-41v13h41v45q2 82 34 147t80 104.5t111.5 65t123.5 35t121 9.5zM331 -216
q43 0 58.5 55.5t15.5 157.5v583h-96v-674q0 -62 -16 -112q18 -10 38 -10zM706 886q71 -5 101 -45q-20 64 -85 101.5t-157 42.5q-132 9 -194 -78t-62 -239v-75h96v23q0 68 18.5 119.5t47.5 81t69.5 47t80.5 22t85 0.5z" />
    <glyph glyph-name="fi" unicode="fi" horiz-adv-x="765" 
d="M685 129q0 -45 10 -77.5t20 -41.5l10 -10h-335q4 3 11 10.5t18 40.5t11 78v245q0 77 -27 116h-79v-361q0 -29 4 -52.5t10 -37t12.5 -23t10.5 -12.5l4 -4h-335q4 3 11 10.5t18 40.5t11 78v361h-40v14h40v93q0 68 19.5 118t49.5 78.5t76 45t89 21.5t99 5q117 0 198.5 -56.5
t77.5 -163.5q-3 -68 -47 -95.5t-106 -16.5q-32 5 -54.5 25.5t-31 60t14.5 96.5q14 36 18.5 62t1.5 40.5t-13.5 23t-22 11t-28.5 2.5q-27 0 -45 -16t-27 -47.5t-12 -66t-3 -84.5v-136h401q-4 -3 -11 -10.5t-18 -40.5t-11 -79v-245z" />
    <glyph glyph-name="f_f_i" unicode="ffi" horiz-adv-x="1082" 
d="M1001 129q0 -45 10.5 -77.5t20.5 -41.5l10 -10h-335q4 3 11 10.5t18 40.5t11 78v245q0 46 -10 78.5t-20 41.5l-10 10h335q-5 -3 -11.5 -10.5t-18 -40.5t-11.5 -79v-245zM534 999q141 0 251.5 -44t167.5 -125.5t41 -184.5q-11 -68 -52.5 -95t-100.5 -17q-32 5 -54.5 25.5
t-31 60t14.5 96.5q28 71 25 122q-22 35 -61 35q-42 -1 -58.5 -56.5t-16.5 -156.5v-66h36v-13h-36v-540q0 -68 -19.5 -118t-48.5 -78.5t-71.5 -45t-81 -21.5t-85.5 -5q-38 0 -64 13q-16 -45 -46.5 -76t-71.5 -45.5t-79 -20t-85 -5.5q-120 0 -190 69.5t-37 160.5
q19 53 71 72.5t101.5 4t65.5 -53.5q-41 -19 -66.5 -74t-22.5 -105.5t34 -58.5q44 -11 67.5 47t23.5 163v717h-40v13h40v45q3 82 36 147t82 104t114 65t126 35.5t122 9.5zM330 -217q43 0 58.5 55.5t15.5 157.5v463v121h-96v-674q0 -66 -15 -112q18 -11 37 -11zM706 886
q58 -3 87 -32q-18 115 -215 131q-134 10 -202 -78.5t-68 -239.5v-74h96v23q0 68 18.5 119t47.5 80.5t70 46.5t81 22t85 2z" />
    <glyph glyph-name="f_f_j" unicode="ffj" horiz-adv-x="1072" 
d="M534 999q217 0 350.5 -99.5t109.5 -254.5q-10 -67 -51.5 -94.5t-101.5 -17.5q-32 5 -54.5 25.5t-31 60t15.5 96.5q28 71 25 122q-22 35 -62 35q-75 -1 -75 -213v-66h36v-13h-36v-540q0 -68 -19 -118t-48 -78.5t-72 -45t-81.5 -21.5t-85.5 -5q-37 0 -63 13
q-17 -45 -47.5 -76t-71 -45.5t-79 -20t-85.5 -5.5q-77 0 -137.5 31.5t-85.5 85.5t-4 113q19 53 71.5 72.5t102 4t65.5 -53.5q-42 -19 -67.5 -74t-22.5 -105.5t34 -58.5q44 -11 68 47.5t24 162.5v717h-41v13h41v45q2 82 35 147t82.5 104t114 65t125.5 35.5t122 9.5zM331 -217
q43 0 58.5 55.5t15.5 157.5v584h-96v-674q0 -62 -16 -112q20 -11 38 -11zM706 886q59 -3 88 -32q-20 115 -215 131q-134 10 -202 -78.5t-68 -239.5v-74h96v23q0 68 18.5 119t47.5 80.5t70 46.5t80.5 22t84.5 2zM708 504h334q-4 -3 -11 -10.5t-18 -40.5t-11 -79v-468
q0 -68 -18.5 -118t-46.5 -78t-70.5 -44.5t-80 -21.5t-85.5 -5q-22 0 -33 1v11q39 -1 59.5 57t20.5 155v511q0 46 -10 78.5t-20 41.5z" />
    <glyph glyph-name="f_j" unicode="fj" horiz-adv-x="755" 
d="M723 504q-39 -39 -39 -130v-468q0 -68 -18.5 -118t-46.5 -78t-70.5 -44.5t-80 -21.5t-85.5 -5q-22 0 -33 1v11q39 -1 59.5 57t20.5 155v511q0 76 -28 116h-78v-361q0 -43 10 -75.5t17 -41.5t12 -12h-333q4 2 11.5 11t18 41t10.5 77v361h-40v14h40v93q0 68 19.5 118
t49 78.5t75.5 45t89.5 21.5t99.5 5q74 0 135.5 -22t102 -73.5t38.5 -124.5q-3 -68 -47.5 -95.5t-105.5 -16.5q-32 5 -54.5 25.5t-31.5 60t15 96.5q14 36 18.5 62t1.5 40.5t-13.5 23t-22 11t-28.5 2.5q-27 0 -45 -16t-27 -47.5t-12 -66t-3 -84.5v-136h399z" />
    <glyph glyph-name="r_i" unicode="ri" horiz-adv-x="778" 
d="M708 129q0 -45 10 -77.5t20 -41.5l10 -10h-334q4 3 11 10.5t18 40.5t11 78v245q0 46 -10 78.5t-20 41.5l-10 10h334q-4 -3 -11 -10.5t-18 -40.5t-11 -79v-245zM324 129q0 -29 4 -52.5t10 -37t12.5 -23t10.5 -12.5l4 -4h-335q4 3 11 10.5t18 40.5t11 78v245q0 46 -10 78.5
t-20 41.5l-10 10h268l26 -97q9 63 30 131.5t64.5 139t97.5 95.5q64 27 118 8.5t77 -68.5q25 -55 -2.5 -111t-87.5 -65q-32 -5 -61 1.5t-45 18t-34.5 22t-30.5 13t-31 -9.5q-35 -27 -65 -115t-30 -141v-197z" />
    <glyph glyph-name="r_j" unicode="rj" horiz-adv-x="758" 
d="M364 0h-334q4 3 11 10.5t18 40.5t11 78v245q0 46 -10 78.5t-20 41.5l-10 10h267l27 -97q44 313 172 366q64 25 117.5 7.5t76.5 -67.5q26 -55 -2 -111t-88 -65q-32 -5 -61 1.5t-45 18t-34.5 22t-30 13t-30.5 -9.5q-33 -25 -54 -115.5t-21 -140.5v-197q0 -45 10 -77.5
t20 -41.5zM393 504h334q-4 -3 -11 -10.5t-18 -40.5t-11 -79v-468q0 -68 -18.5 -118t-46.5 -78t-70.5 -44.5t-80 -21.5t-85.5 -5q-22 0 -33 1v11q39 -1 59.5 57t20.5 155v511q0 46 -10 78.5t-20 41.5z" />
    <glyph glyph-name="f_t" unicode="ft" horiz-adv-x="807" 
d="M808 108h9q-26 -44 -78 -81.5t-124 -37.5q-91 0 -146.5 54.5t-55.5 175.5v272h-89v-362q0 -45 10 -77.5t20 -41.5l10 -10h-334q4 3 11 10.5t18 40.5t11 78v362h-40v13h40v94q0 68 18.5 118t46.5 78t70.5 44.5t80 21.5t85.5 5q104 0 164 -51.5t29 -132.5q-20 -53 -75 -63
t-95 25.5t-22 95.5q5 16 17.5 32.5t24 28t19.5 22t4 17.5t-22 12q-25 6 -44 -11q-47 -44 -47 -199v-137h89q112 0 167.5 44t87.5 155v-199h109v-13h-109v-312q0 -50 22 -76t54.5 -23.5t63.5 28.5z" />
    <glyph glyph-name="g_i" unicode="gi" horiz-adv-x="970" 
d="M900 129q0 -45 10 -77.5t20 -41.5l10 -10h-335q4 3 11 10.5t18 40.5t11 78v245q0 46 -10 78.5t-20 41.5l-10 10h335q-4 -3 -11 -10.5t-18 -40.5t-11 -79v-245zM894 713q26 -55 -1.5 -111t-88.5 -65q-32 -5 -60.5 1.5t-44.5 18t-34.5 22t-30.5 13t-31 -9.5
q-39 -30 -64 -164q39 -53 39 -118q-1 -93 -75 -154.5t-200 -61.5q-112 0 -187 52q-4 -20 8 -41q33 -59 241 -61q137 -1 191 -48.5t46 -129.5q-6 -60 -53.5 -99.5t-109.5 -54t-137 -14.5q-41 0 -74 1t-73 4.5t-69.5 10.5t-55 17t-38 27t-11.5 38q4 63 118 59q-51 31 -73 91
t-3 118q19 55 85 88q-78 62 -80 158q1 93 75 154.5t200 61.5q152 0 228 -89q45 295 169 346q64 25 118 7.5t76 -67.5zM293 -203q-109 6 -182 40q-23 -34 -1.5 -65.5t76.5 -53.5t115 -22q66 0 104 8.5t48.5 20.5t9.5 28q-1 24 -26 31t-102 11q-27 1 -42 2zM303 93
q36 0 48.5 58t14.5 149q-1 27 -2 47t-3 46t-6.5 44.5t-11 35.5t-17 26t-23.5 9q-19 0 -32 -18.5t-19 -53.5t-8.5 -65t-3.5 -71q1 -41 3.5 -71t8.5 -64.5t19 -53t32 -18.5z" />
    <glyph glyph-name="T_h" unicode="Th" horiz-adv-x="1335" 
d="M1264 129q0 -29 4 -52.5t10 -37t12.5 -23t10.5 -12.5l4 -4h-335q4 3 11 10.5t18 40.5t11 78v200q0 28 -1.5 47t-6 42t-15.5 35.5t-28 12.5q-22 1 -39 -24t-17 -61v-252q0 -45 10 -77.5t20 -41.5l10 -10h-334q4 3 11 10.5t18 40.5t11 78v399q0 64 -36 107t-99 50v-556
q0 -45 10 -77.5t20 -41.5l10 -10h-361q4 3 11 10.5t18 40.5t11 78v556q-37 -4 -68.5 -19.5t-52.5 -38t-38 -48t-26.5 -51t-16 -46t-9.5 -32.5l-2 -13v263h494q94 0 191.5 13t147.5 25l50 13v-315q39 80 159 80q102 0 152 -54t50 -142v-191z" />
    <glyph glyph-name="T_b" unicode="Tb" horiz-adv-x="1295" 
d="M1033 516q105 0 173.5 -67.5t68.5 -195.5t-68.5 -196t-173.5 -68q-29 0 -115 10.5t-130 13.5q-60 4 -100.5 1.5t-61.5 -8.5l-20 -6q4 3 11 10.5t18 41t11 79.5v385q0 81 -40 122.5t-92 46.5v-556q0 -45 10 -77.5t20 -41.5l10 -10h-361q4 3 11 10.5t18 40.5t11 78v556
q-37 -4 -68.5 -19.5t-52.5 -38t-38 -48t-26.5 -51t-16 -46t-9.5 -32.5l-2 -13v263h594q70 0 141.5 13t108.5 25l36 13v-296q41 61 133 61zM926 6q47 -4 66 66t19 181q0 214 -62 224q-18 3 -33.5 -14.5t-15.5 -48.5v-401q18 -7 26 -7z" />
    <glyph glyph-name=".notdef" horiz-adv-x="271" 
 />
    <glyph glyph-name=".null" horiz-adv-x="0" 
 />
    <glyph glyph-name="nonmarkingreturn" horiz-adv-x="333" 
 />
    <glyph glyph-name="space" unicode=" " horiz-adv-x="271" 
 />
    <glyph glyph-name="exclam" unicode="!" horiz-adv-x="317" 
d="M158 197q43 0 73.5 -30.5t30.5 -73.5t-30.5 -73.5t-73.5 -30.5t-73 30.5t-30 73.5t30 73.5t73 30.5zM158 700q54 0 86.5 -37.5t32.5 -87.5q0 -69 -29.5 -156t-59.5 -139l-30 -53q-5 8 -13 22t-28 55.5t-35.5 81.5t-28.5 92.5t-13 96.5q0 50 32 87.5t86 37.5z" />
    <glyph glyph-name="quotedbl" unicode="&#x22;" horiz-adv-x="303" 
d="M91 813q23 0 37 -16t14 -38q0 -30 -13 -68t-25 -61l-13 -22q-51 83 -51 151q0 22 14 38t37 16zM211 813q24 0 38 -16t14 -38q0 -30 -13 -68t-26 -61l-13 -22q-51 83 -51 151q0 22 14 38t37 16z" />
    <glyph glyph-name="numbersign" unicode="#" horiz-adv-x="688" 
d="M648 454h-163l-66 -209h172v-13h-177l-74 -232h-13l74 232h-189l-74 -232h-13l74 232h-159v13h163l66 209h-172v13h177l74 233h13l-74 -233h189l74 232h13l-74 -232h159v-13zM405 245l67 209h-189l-67 -209h189z" />
    <glyph glyph-name="dollar" unicode="$" horiz-adv-x="585" 
d="M473 345q46 -50 62 -104t5 -100.5t-45 -83.5q-58 -64 -209 -68v-93h-13v93h-2h-15q-73 0 -136 32t-73 75q-12 51 13 83t72 30q51 -1 73 -37.5t2 -79.5q-18 -36 -13.5 -56.5t19.5 -28.5t43 -9q5 0 17 2v211q-20 19 -80.5 70.5t-88.5 82.5q-55 60 -62 130t34 128
q55 77 197 88v94h13v-94q11 1 32 1q71 0 127 -31.5t67 -75.5q12 -51 -13 -83t-72 -30q-51 1 -72.5 37.5t-2.5 79.5q25 55 19.5 73.5t-45.5 20.5q-18 2 -40 -12v-177q22 -22 88 -77t99 -91zM248 559q12 -17 25 -31v153q-27 -22 -36 -54t11 -68zM286 4q37 15 51 55t-10 87
q-14 25 -41 52v-194z" />
    <glyph glyph-name="percent" unicode="%" horiz-adv-x="783" 
d="M610 700h13l-445 -700h-14zM213 704q88 0 135.5 -51t47.5 -126t-47.5 -125.5t-135.5 -50.5t-135.5 50.5t-47.5 125.5t47.5 126t135.5 51zM213 355q44 0 44 172q0 173 -44 173t-44 -173q0 -172 44 -172zM570 342q87 0 135 -50.5t48 -125.5t-48 -125.5t-135 -51.5
q-88 1 -135.5 51.5t-47.5 125.5t47.5 125.5t135.5 50.5zM570 -6q44 0 44 172t-44 172t-44 -172t44 -172z" />
    <glyph glyph-name="ampersand" unicode="&#x26;" horiz-adv-x="854" 
d="M567 253q131 -92 241 -58q4 -52 -6.5 -91.5t-28.5 -60.5t-44 -34t-47.5 -16.5t-45.5 -3.5q-92 0 -180 65q-70 -65 -193 -65q-58 0 -112.5 24.5t-90 75.5t-29.5 115q6 62 47 101.5t101 56.5q-27 39 -40.5 85.5t-9 92.5t26.5 84t70 62t116 24q76 0 126.5 -30.5t52.5 -89.5
t-39 -98.5t-98 -56.5q93 -116 178 -177l13 36q54 125 131 133q41 4 73.5 -14t41.5 -55q10 -46 -16.5 -80t-70.5 -32q-34 2 -56.5 18t-28.5 35t-12 36.5t-8 21t-16 -11.5q-20 -26 -46 -92zM312 698q-19 -7 -24.5 -25.5t4 -49t17.5 -53t28 -58t24 -42t16 -25.5l1 -2
q19 78 13 152q-5 54 -27 83.5t-52 19.5zM229 144q46 -58 108 -83.5t111 -0.5q-30 23 -128.5 127.5t-134.5 165.5q-16 -55 -3 -111t47 -98z" />
    <glyph glyph-name="quotesingle" unicode="'" horiz-adv-x="182" 
d="M91 813q23 0 37 -16t14 -38q0 -30 -13 -68t-25 -61l-13 -22q-51 83 -51 151q0 22 14 38t37 16z" />
    <glyph glyph-name="parenleft" unicode="(" horiz-adv-x="381" 
d="M341 741q-60 -49 -88.5 -162.5t-28.5 -244.5t28.5 -244.5t88.5 -162.5v-10q-103 24 -175.5 91t-104 150t-31.5 176t31.5 176t104 150t175.5 91v-10z" />
    <glyph glyph-name="parenright" unicode=")" horiz-adv-x="381" 
d="M40 751q103 -24 175.5 -91t104 -150t31.5 -176t-31.5 -176t-104 -150t-175.5 -91v10q60 49 88.5 162.5t28.5 244.5t-28.5 244.5t-88.5 162.5v10z" />
    <glyph glyph-name="asterisk" unicode="*" horiz-adv-x="314" 
d="M264 646q13 -7 17.5 -20.5t-2.5 -28.5q-7 -14 -22 -17.5t-27 4.5q-22 12 -41 42t-32 38q1 -15 18 -46t17 -56q0 -14 -9.5 -25.5t-25.5 -11.5t-25.5 11.5t-9.5 25.5q0 25 17 56t18 46q-13 -8 -32 -38t-41 -42q-12 -8 -27 -4.5t-22 17.5q-7 15 -2.5 28.5t17.5 20.5
q22 12 57.5 12t49.5 6q-15 7 -50 7t-57 12q-13 7 -17.5 20.5t2.5 28.5q7 14 22 17t27 -4q22 -12 41 -42t32 -38q-1 15 -18 46t-17 56q0 14 9.5 25.5t25.5 11.5t25.5 -11.5t9.5 -25.5q0 -25 -17 -56t-18 -46q13 8 32 38t41 42q12 7 27 4t22 -17q7 -15 2.5 -28.5t-17.5 -20.5
q-22 -12 -57.5 -12t-49.5 -7q14 -6 49.5 -6t57.5 -12z" />
    <glyph glyph-name="plus" unicode="+" horiz-adv-x="503" 
d="M259 337h214v-13h-214v-215h-14v215h-215v13h215v215h14v-215z" />
    <glyph glyph-name="comma" unicode="," horiz-adv-x="267" 
d="M134 197q43 0 73 -30.5t30 -73.5q0 -62 -43.5 -122t-117.5 -100l-8 12q97 49 139 137q-29 -31 -73 -31q-43 0 -73.5 30.5t-30.5 73.5t30.5 73.5t73.5 30.5z" />
    <glyph glyph-name="hyphen" unicode="-" horiz-adv-x="523" 
d="M40 337h443v-13h-443v13z" />
    <glyph glyph-name="period" unicode="." horiz-adv-x="268" 
d="M134 197q43 0 73.5 -30.5t30.5 -73.5t-30.5 -73.5t-73.5 -30.5t-73.5 30.5t-30.5 73.5t30.5 73.5t73.5 30.5z" />
    <glyph glyph-name="slash" unicode="/" horiz-adv-x="341" 
d="M297 744h14l-268 -788h-13z" />
    <glyph glyph-name="zero" unicode="0" horiz-adv-x="717" 
d="M358 711q72 0 130.5 -25t94.5 -64t60.5 -88t34 -95t9.5 -89t-9.5 -89t-34 -95.5t-60.5 -88t-94.5 -63.5t-130.5 -25t-130 25t-94 63.5t-60.5 88t-34 95.5t-9.5 89t9.5 89t34 95.5t60.5 88t94 63.5t130 25zM358 -2q22 0 38 14t25.5 44t15.5 56.5t8 73.5t2.5 72t0.5 73v19
v19q0 47 -0.5 73t-2.5 72.5t-8 73.5t-15.5 56.5t-25.5 43.5t-38 14q-16 0 -29.5 -8t-22.5 -26t-15.5 -35t-10.5 -47.5t-6.5 -50.5t-3.5 -57.5t-1 -54v-53.5v-20q0 -185 14 -251q20 -101 75 -101z" />
    <glyph glyph-name="one" unicode="1" horiz-adv-x="404" 
d="M324 129q0 -46 10 -78t20 -41l10 -10h-324q4 3 11 10t18 40t11 79v397q0 20 -10 31t-20 13l-10 1l277 129h7v-571z" />
    <glyph glyph-name="two" unicode="2" horiz-adv-x="627" 
d="M589 268v-118q0 -161 -162 -161q-58 0 -128.5 16t-112.5 29t-80.5 4.5t-55.5 -49.5q-2 5 -5 13t-8 32t-6 47t4.5 53.5t20 56t45.5 49.5t76 39q94 31 137.5 86t46.5 146q3 90 -56 145t-142 18q-22 -10 -32.5 -16.5t-6.5 -13.5t8.5 -10t24.5 -12q21 -10 34 -17t31.5 -23
t27.5 -35q24 -50 -1.5 -98t-78.5 -54q-49 -6 -87 22t-43 85q-9 103 86 166q65 43 174 43q137 0 216.5 -56t80.5 -149q0 -56 -20.5 -98.5t-53 -68t-80 -42.5t-93.5 -24t-102 -9q-49 -2 -86.5 -14t-59.5 -30.5t-36.5 -40.5t-19 -47.5t-4.5 -48t5 -44.5q-6 94 42.5 148
t143.5 46q23 -2 66.5 -10t77.5 -12t74.5 -3.5t75.5 15.5t62 45z" />
    <glyph glyph-name="three" unicode="3" horiz-adv-x="628" 
d="M319 381q115 7 192 -35.5t77 -137.5q0 -96 -75 -157.5t-212 -61.5q-120 0 -184 42q-95 63 -86 167q5 56 43.5 84t87.5 22q51 -6 76.5 -52t2.5 -99q-8 -20 -25 -35.5t-34 -25t-33 -16.5q-17 -7 -23.5 -11t-9.5 -10t6.5 -13.5t31.5 -17.5q64 -29 127.5 21t70.5 135
q15 163 -159 178q-5 1 -5 6t6 6q15 3 55 10t54.5 9.5t47.5 9.5t47 12.5t39.5 14.5t38.5 18.5t29.5 23t27.5 29.5t19 36q-42 -76 -151 -67q-24 2 -80.5 12.5t-92 14t-82 -10t-79.5 -50.5v118q0 161 162 161q49 0 102 -11.5t87 -23t66 -17.5t53 5.5t34 45.5q8 -70 1.5 -125
t-32.5 -95.5t-80 -67.5t-141 -41z" />
    <glyph glyph-name="four" unicode="4" horiz-adv-x="619" 
d="M589 223h-62v-100q0 -44 10 -74.5t20 -39.5l10 -9h-286q0 156 115 223h-386v13q7 1 18 3.5t42 18t57.5 40.5t55 76.5t43.5 119.5q12 65 6 111t-20 71l-13 24h312q0 -413 -309 -464h220q41 22 67.5 47t32.5 39l5 13v-99h62v-13z" />
    <glyph glyph-name="five" unicode="5" horiz-adv-x="628" 
d="M342 417q106 -2 176 -56.5t70 -152.5q0 -97 -72.5 -158t-214.5 -61q-120 0 -184 42q-95 63 -86 167q5 56 43 84t87 22q52 -6 77.5 -51.5t2.5 -99.5q-8 -20 -27 -37t-31 -23.5t-36 -18.5q-17 -8 -23 -12t-9 -10t7 -12.5t32 -15.5q62 -25 123.5 19t74.5 137
q12 84 -24 137.5t-118 60.5q-74 6 -130 -28v361q22 -42 57 -50t69.5 4.5t94 29t111.5 16.5q71 0 116.5 -29.5t45.5 -95.5v-160q-19 25 -46 41t-51.5 22.5t-59.5 7.5t-57.5 -0.5t-61 -6t-54.5 -5.5q-115 -8 -150 83v-198q111 50 248 47z" />
    <glyph glyph-name="six" unicode="6" horiz-adv-x="663" 
d="M622 231q4 -109 -73.5 -175.5t-194.5 -66.5q-155 1 -239 102.5t-85 258.5q1 153 97.5 257t252.5 104q78 0 143.5 -39t78.5 -91q15 -61 -16 -99.5t-87 -36.5q-61 1 -87.5 45t-2.5 96q30 66 24 90t-53 26q-36 2 -61.5 -48t-37 -121t-13.5 -156q115 47 193 30t118.5 -65
t42.5 -111zM354 -2q35 0 50.5 50t10.5 129q-2 33 -6 59t-14 55.5t-25 47.5t-41.5 26.5t-60.5 1.5v-17q0 -49 1 -84t3.5 -80t8.5 -75t15 -57.5t23.5 -41.5t34.5 -14z" />
    <glyph glyph-name="seven" unicode="7" horiz-adv-x="557" 
d="M524 711q8 -98 -13.5 -169t-87.5 -169q-37 -54 -51 -78t-25.5 -62t-11.5 -85q0 -43 9 -80t18 -52l9 -16h-276q-27 94 1.5 170.5t90.5 129.5q46 39 134 80t114 62q48 39 70 114q-39 -79 -145 -71q-16 1 -54.5 5.5t-61 6t-57.5 0.5t-59.5 -7.5t-51.5 -22.5t-46 -41v160
q0 66 46 95.5t116 29.5q52 0 111.5 -16.5t94 -29t69.5 -4.5t57 50z" />
    <glyph glyph-name="eight" unicode="8" horiz-adv-x="619" 
d="M470 395q70 -63 98 -127t20.5 -111t-36.5 -88q-32 -45 -89 -65t-115.5 -17t-121.5 9q-37 5 -71.5 19t-64.5 38.5t-46.5 63.5t-11.5 87q6 62 48 102t103 57q-74 55 -91.5 134t31.5 136q71 86 235 77q58 -4 99.5 -23t60 -46t26.5 -59.5t-1 -63.5q-14 -73 -73 -123zM265 696
q-21 -16 -5 -59.5t59 -92.5q74 -85 144 -143q-7 84 -57 171q-92 158 -141 124zM391 6q12 5 15 21.5t-6 46.5t-30 67q-24 42 -77 105.5t-103 111.5q-32 -85 41 -215q95 -167 160 -137z" />
    <glyph glyph-name="nine" unicode="9" horiz-adv-x="652" 
d="M299 711q160 0 241 -95t82 -252q-1 -155 -98 -265t-252 -110q-78 0 -143.5 38.5t-78.5 91.5q-15 60 16 99t87 37q62 -1 88 -45t2 -96q-30 -67 -24 -90.5t53 -25.5q36 -2 61.5 48t37 120.5t13.5 155.5q-83 -36 -153 -36t-112 27.5t-65.5 68.5t-23.5 86q0 109 76.5 176
t192.5 67zM384 332v18q0 49 -1 84t-3.5 79.5t-8 75t-14.5 58t-24 41.5t-34 14q-35 0 -51 -50t-10 -129q3 -43 9 -75t21 -65t44.5 -46.5t71.5 -4.5z" />
    <glyph glyph-name="colon" unicode=":" horiz-adv-x="267" 
d="M134 197q43 0 73 -30.5t30 -73.5t-30 -73.5t-73 -30.5t-73.5 30.5t-30.5 73.5t30.5 73.5t73.5 30.5zM134 454q-43 0 -73.5 30.5t-30.5 73.5q0 44 30 74t74 30q43 0 73 -30.5t30 -73.5t-30 -73.5t-73 -30.5z" />
    <glyph glyph-name="semicolon" unicode=";" horiz-adv-x="267" 
d="M133 197q43 0 73.5 -30.5t30.5 -73.5q0 -62 -43.5 -122t-118.5 -100l-7 12q94 48 139 137q-31 -31 -74 -31t-73 30.5t-30 73.5t30 73.5t73 30.5zM133 454q-43 0 -73 30.5t-30 73.5t30 73.5t73 30.5t73.5 -30t30.5 -74q0 -43 -30.5 -73.5t-73.5 -30.5z" />
    <glyph glyph-name="less" unicode="&#x3c;" horiz-adv-x="218" 
d="M178 501l-155 -170l155 -171l-7 -7l-161 178l161 177z" />
    <glyph glyph-name="equal" unicode="=" horiz-adv-x="523" 
d="M40 405h443v-14h-443v14zM40 257v13h443v-13h-443z" />
    <glyph glyph-name="greater" unicode="&#x3e;" horiz-adv-x="218" 
d="M48 508l160 -177l-160 -178l-8 7l155 171l-155 170z" />
    <glyph glyph-name="question" unicode="?" horiz-adv-x="551" 
d="M232 197q43 0 73 -30.5t30 -73.5t-30 -73.5t-73 -30.5t-73.5 30.5t-30.5 73.5t30.5 73.5t73.5 30.5zM251 711q132 0 204 -50.5t65 -135.5q-3 -35 -16.5 -63.5t-35 -49t-47.5 -37t-55 -29.5t-57 -24q-7 -3 -11 -4q-63 -26 -57 -51q4 -14 23 -19.5t36 2.5
q-29 -25 -70.5 -25t-60.5 24q-18 21 -13 54t33 64q5 6 27.5 30t34 38t28.5 41.5t28 55.5q12 35 8.5 67.5t-25.5 54.5t-49.5 32.5t-64.5 1.5t-70 -38q-14 -13 -14.5 -19.5t6.5 -8.5t24 -5q13 -2 20 -3t20.5 -5t22.5 -8.5t19 -12.5t17 -19q24 -45 14 -80t-39 -56
q-48 -34 -99 -12t-63 77q-17 81 41 142q68 71 176 71z" />
    <glyph glyph-name="at" unicode="@" horiz-adv-x="932" 
d="M555 624q194 -18 275.5 -121t53.5 -268q-42 -253 -265 -246q-98 4 -132 75q-27 -33 -51 -45t-62 -12q-88 0 -130 65t-10 186q46 172 212 172q47 0 115 -25q109 -38 189 -4l-47 -236q-17 -88 -16 -103q1 -26 21 -32q9 -3 23.5 -0.5t35.5 15t40.5 34t38 62.5t27.5 95
q28 161 -53 261t-266 116q-198 18 -327 -69t-172 -256q-25 -102 -4.5 -192.5t83.5 -153.5q83 -82 218 -102t307 24l3 -10q-117 -31 -222 -31q-200 0 -314 111q-65 65 -86 158.5t5 198.5q12 50 33 96t62 95t95 82.5t137 51t183 8.5zM485 76l70 314q-9 20 -37 11
q-53 -16 -89 -178q-37 -160 3 -176q24 -10 53 29z" />
    <glyph glyph-name="A" unicode="A" horiz-adv-x="854" 
d="M854 0h-401q3 5 7 15t3 44t-17 71q-10 25 -43 96h-201q-9 -83 17 -143t84 -83h-303q109 95 194 296l166 404h110q239 -461 295 -570q25 -49 47.5 -81.5t31.5 -40.5zM203 240h194l-112 243q-16 -33 -54 -135q-20 -55 -28 -108z" />
    <glyph glyph-name="B" unicode="B" horiz-adv-x="779" 
d="M510 391q119 -13 179 -63t60 -124q0 -97 -77 -150.5t-259 -53.5h-373q4 3 11 10t18 40t11 79v441q0 46 -10 78.5t-20 41.5l-10 10h367q146 0 211 -39t65 -114q0 -52 -47 -96t-126 -60zM457 541q0 72 -19.5 108.5t-76.5 36.5v-289q57 0 76.5 37t19.5 107zM361 13
q73 0 107.5 44.5t34.5 139.5q0 187 -142 187v-371z" />
    <glyph glyph-name="C" unicode="C" horiz-adv-x="782" 
d="M739 199h13q-47 -102 -139 -156t-214 -54q-62 0 -125.5 23t-118.5 66t-90 114t-35 158q0 93 34 164.5t92.5 113t130 62.5t154.5 21q57 0 145 -22q49 -10 73.5 -4.5t31.5 17.5l7 12l21 -277q-3 11 -9.5 28.5t-30.5 63t-52 80t-74 63t-97 28.5q-56 0 -95 -53.5
t-48.5 -131.5t3.5 -165q14 -76 51 -129t84.5 -75t100 -23.5t101.5 19t86 57.5z" />
    <glyph glyph-name="D" unicode="D" horiz-adv-x="841" 
d="M413 700q197 0 297.5 -99.5t100.5 -250.5t-100.5 -250.5t-297.5 -99.5h-373q4 3 11 10t18 40t11 79v441q0 46 -10 78.5t-20 41.5l-10 10h373zM361 13q96 0 141 93t45 244q0 150 -45 243t-141 93v-673z" />
    <glyph glyph-name="E" unicode="E" horiz-adv-x="706" 
d="M408 13q41 0 76 14t58.5 36t43 48.5t30 53t18 48.5t10.5 36l2 14v-263h-606q4 3 11 10t18 40t11 79v441q0 46 -10 78.5t-20 41.5l-10 10h593v-263q-1 5 -2.5 14t-9.5 35t-18.5 49.5t-30 52t-43 49.5t-58.5 35t-76 14h-34v-330q53 6 93 26t59 43.5t30.5 46t13.5 37.5l2 15
v-348q0 3 -1 8.5t-5.5 21t-12 30t-22.5 33t-35 33t-51.5 26.5t-70.5 17v-332h47z" />
    <glyph glyph-name="F" unicode="F" horiz-adv-x="679" 
d="M381 686h-20v-330q53 6 92.5 26t58.5 43.5t30.5 46t13.5 37.5l2 15v-348q0 6 -2 16t-13.5 36.5t-30.5 48t-58.5 42t-92.5 26.5v-216q0 -46 10 -78t20 -41l10 -10h-361q4 3 11 10t18 40t11 79v441q0 46 -10 78.5t-20 41.5l-10 10h579v-263q-1 5 -2.5 14t-9.5 35
t-18.5 49.5t-30 52t-43 49.5t-58.5 35t-76 14z" />
    <glyph glyph-name="G" unicode="G" horiz-adv-x="841" 
d="M503 328h308q-4 -5 -11 -14.5t-18 -46.5t-11 -82v-195q-4 2 -10.5 5.5t-29 12.5t-44 12.5t-54.5 6.5t-61 -5q-21 -4 -67.5 -18.5t-74.5 -14.5q-183 0 -290.5 103t-109.5 258q2 155 109.5 258t290.5 103q57 0 145 -22q50 -10 82.5 -4.5t48.5 17.5l15 12l21 -277
q-2 6 -5 15.5t-16 37t-28 52.5t-40.5 55.5t-54 52.5t-69 37t-84.5 15q-33 0 -57.5 -22.5t-37.5 -55.5t-20.5 -84t-9.5 -93t-2 -97q7 -352 112 -352q37 0 61.5 18t34.5 50t13.5 60t3.5 65q0 38 -10 72.5t-20 49.5z" />
    <glyph glyph-name="H" unicode="H" horiz-adv-x="852" 
d="M772 129q0 -46 10 -78t20 -41l10 -10h-361q4 3 11 10t18 40t11 79v214h-130v-214q0 -46 10 -78t20 -41l10 -10h-361q4 3 11 10t18 40t11 79v441q0 46 -10 78.5t-20 41.5l-10 10h361q-4 -3 -11 -10.5t-18 -40.5t-11 -79v-214h130v214q0 46 -10 78.5t-20 41.5l-10 10h361
q-4 -3 -11 -10.5t-18 -40.5t-11 -79v-441z" />
    <glyph glyph-name="I" unicode="I" horiz-adv-x="441" 
d="M361 129q0 -46 10 -78t20 -41l10 -10h-361q4 3 11 10t18 40t11 79v441q0 46 -10 78.5t-20 41.5l-10 10h361q-4 -3 -11 -10.5t-18 -40.5t-11 -79v-441z" />
    <glyph glyph-name="J" unicode="J" horiz-adv-x="432" 
d="M19 700h383q-4 -3 -11 -10.5t-18 -40.5t-11 -78v-355q0 -75 -22.5 -130.5t-56.5 -86.5t-84 -49.5t-93.5 -24t-96.5 -5.5q-5 0 -15 0.5t-14 0.5v11q48 -2 74.5 65t26.5 172v402q0 29 -6.5 52.5t-15.5 37t-18 23t-15 12.5z" />
    <glyph glyph-name="K" unicode="K" horiz-adv-x="865" 
d="M750 129q21 -42 47.5 -74t42.5 -43l15 -12h-370q3 3 6 10.5t-1.5 41t-25.5 77.5l-91 191l-12 -13v-178q0 -46 10 -78t20 -41l10 -10h-361q4 3 11 10t18 40t11 79v441q0 46 -10 78.5t-20 41.5l-10 10h361q-4 -3 -11 -10.5t-18 -40.5t-11 -79v-248q118 130 169 185
q39 44 18.5 108.5t-74.5 84.5h304q-70 -35 -121.5 -76.5t-105.5 -102.5z" />
    <glyph glyph-name="L" unicode="L" horiz-adv-x="641" 
d="M372 13q41 0 76.5 14t59 36t42.5 48.5t30 53t18.5 48.5t9.5 36l3 14v-263h-571q4 3 11 10t18 40t11 79v441q0 46 -10 78.5t-20 41.5l-10 10h361q-4 -3 -11 -10.5t-18 -40.5t-11 -79v-557h11z" />
    <glyph glyph-name="M" unicode="M" horiz-adv-x="976" 
d="M896 129q0 -45 10 -77.5t20 -41.5l10 -10h-361q4 3 11 10.5t18 40.5t11 78v539l-228 -668q-238 589 -240 592v-351q0 -94 34 -152.5t112 -88.5h-303q78 30 111.5 88t33.5 153v372q-19 32 -45 53.5t-42 27.5l-16 6h403q-3 -3 -6.5 -9.5t-2 -37t17.5 -74.5l68 -185l103 306
h321q-4 -3 -11 -10.5t-18 -40.5t-11 -79v-441z" />
    <glyph glyph-name="N" unicode="N" horiz-adv-x="813" 
d="M520 700h303q-77 -30 -111 -88.5t-34 -152.5v-459h-165l-359 525v-284q0 -94 34 -152.5t112 -88.5h-303q78 30 111.5 87t33.5 154v301l-73 108q-19 26 -33.5 35.5t-45.5 14.5h421q-1 -1 -1.5 -3t1 -11.5t5.5 -21t15 -33t28 -47.5l207 -290v165q0 94 -34 152.5t-112 88.5z
" />
    <glyph glyph-name="O" unicode="O" horiz-adv-x="878" 
d="M439 711q183 -1 295 -104.5t114 -256.5q-2 -153 -114 -256.5t-295 -104.5q-184 1 -296 104.5t-113 256.5q1 153 113 256.5t296 104.5zM439 -2q34 0 59 31t39 83.5t20.5 112t6.5 125.5q0 65 -6.5 124.5t-20.5 112t-39 84t-59 31.5q-44 0 -74 -55.5t-41 -131.5t-11 -165
q0 -66 6.5 -125.5t21 -112t39.5 -83.5t59 -31z" />
    <glyph glyph-name="P" unicode="P" horiz-adv-x="778" 
d="M413 700q175 0 253.5 -63t81.5 -161q-3 -98 -81.5 -160.5t-253.5 -62.5q-3 0 -26 -0.5t-26 -0.5v-123q0 -45 10 -77.5t20 -41.5l10 -10h-361q4 3 11 10.5t18 40.5t11 78v441q0 46 -10 78.5t-20 41.5l-10 10h373zM361 266q70 0 105.5 56t35.5 154q0 99 -35.5 154.5
t-105.5 55.5v-420z" />
    <glyph glyph-name="Q" unicode="Q" horiz-adv-x="878" 
d="M403 -63q38 -17 93.5 -27.5t118 -11t121 22t90.5 68.5q29 -94 -0.5 -169.5t-104.5 -93.5q-50 -12 -98 2t-85 44.5t-67 62.5t-57.5 63t-43.5 40q-29 16 -58.5 19.5t-64.5 -0.5q-15 -7 -54.5 -16.5t-57.5 -10.5q-9 0 -10 6q-1 7 4 11q9 7 50.5 15t65.5 9q10 2 74.5 10
t114.5 17q41 8 68 40t40 85t17.5 105t4.5 122q0 65 -6.5 124t-20.5 112t-39 84.5t-59 31.5t-59 -32t-39 -85.5t-20.5 -112.5t-6.5 -122t6.5 -119t20.5 -104t39 -76.5t59 -28.5v-9q-186 1 -296.5 93.5t-112.5 243.5q2 154 113.5 257t295.5 104q184 -1 295.5 -104t113.5 -257
q-2 -152 -106.5 -247t-305.5 -116q-12 -1 -34 -3.5t-43 -4.5t-41 -5q-10 -2 -16 -3q31 -3 101 -34z" />
    <glyph glyph-name="R" unicode="R" horiz-adv-x="828" 
d="M765 116q28 -53 73 -35q-56 -105 -189 -90q-152 14 -181 176q-14 79 -38 109t-69 30v-177q0 -45 10 -77.5t20 -41.5l10 -10h-361q5 3 11.5 10.5t18 40.5t11.5 78v442q0 45 -10.5 77.5t-20.5 41.5l-10 10h374q178 0 255.5 -51.5t79.5 -145.5q-5 -154 -201 -187
q80 -5 115 -31q31 -22 48 -48.5t30 -64t24 -56.5zM361 320q73 0 107.5 44t34.5 139q0 96 -34.5 140t-107.5 44v-367z" />
    <glyph glyph-name="S" unicode="S" horiz-adv-x="682" 
d="M567 388q69 -47 88 -122.5t-14 -139.5q-18 -39 -53 -68t-75 -43t-75 -20t-66 -6q-34 0 -106.5 13t-116.5 17q-28 3 -51 -5.5t-32 -18.5l-9 -10v278q6 -11 16.5 -29t44.5 -63.5t68.5 -80.5t85.5 -63.5t99 -28.5q58 0 61 57q5 72 -106 131q-9 5 -48 25t-56 30t-47.5 29
t-53 38t-41.5 40q-36 40 -46 91.5t3.5 98.5t44.5 83q77 90 246 90q72 0 182 -28q30 -6 47.5 -0.5t23.5 15.5l6 10v-271q-3 11 -9.5 29t-28 63.5t-46.5 80.5t-65.5 63.5t-84.5 28.5q-46 0 -71 -31.5t-13 -79.5q10 -40 61.5 -75t129.5 -72t107 -56z" />
    <glyph glyph-name="T" unicode="T" horiz-adv-x="748" 
d="M20 700h708v-263q-1 9 -4.5 24.5t-19.5 56t-37 72.5t-61.5 61t-90.5 34v-556q0 -45 10 -77.5t20 -41.5l10 -10h-361q4 3 11 10.5t18 40.5t11 78v556q-50 -5 -90.5 -32.5t-62.5 -63t-37 -70.5t-20 -59l-4 -23v263z" />
    <glyph glyph-name="U" unicode="U" horiz-adv-x="739" 
d="M534 700h175q-19 -26 -28.5 -71t-11 -81.5t-1.5 -111.5v-22v-136q0 -35 -4.5 -68t-20.5 -73t-41.5 -70t-71.5 -52t-107 -26q-50 -3 -95.5 2t-94 23.5t-83.5 50.5t-57.5 88.5t-22.5 131.5v285q0 46 -10 78.5t-20 41.5l-10 10h361q-4 -3 -11 -10.5t-18 -40.5t-11 -79v-333
q0 -78 34 -131.5t87 -61.5q79 -14 131.5 57.5t52.5 174.5v138q0 225 -122 286z" />
    <glyph glyph-name="V" unicode="V" horiz-adv-x="834" 
d="M541 700h303q-110 -94 -195 -295l-165 -405h-110q-239 462 -296 571q-25 48 -47 80.5t-31 40.5l-10 8h401q-3 -5 -7 -15t-3.5 -43.5t16.5 -70.5l162 -354q16 33 54 136q45 120 26 218.5t-98 128.5z" />
    <glyph glyph-name="W" unicode="W" horiz-adv-x="1259" 
d="M966 700h303q-110 -94 -195 -295l-166 -405h-110q-92 179 -176 340l-138 -340h-107q-242 462 -298 571q-25 48 -47.5 80.5t-31.5 40.5l-10 8h401q-3 -5 -7 -15t-3 -43.5t17 -70.5t58.5 -119.5t77.5 -147.5l35 -64q6 10 44 113q0 1 1 3q-28 54 -67 130t-44 85
q-25 48 -47.5 80.5t-31.5 40.5l-10 8h401q-3 -5 -7 -15t-3 -43.5t17 -70.5l161 -354q16 33 54 136q46 120 27 218.5t-98 128.5z" />
    <glyph glyph-name="X" unicode="X" horiz-adv-x="830" 
d="M698 129q24 -37 54.5 -69t49.5 -46l18 -14h-374q0 2 0.5 5t0 15t-4.5 25.5t-14 36t-25 47.5l-89 141q-18 -8 -40 -30q-58 -61 -44 -131t85 -109h-303q27 21 64.5 55.5t75.5 72t69 69t56.5 58t27.5 28.5l-183 287q-23 33 -53.5 65.5t-49.5 48.5l-19 16h374
q-2 -4 -2.5 -13.5t9.5 -43t36 -73.5q70 -111 80 -127q13 6 22 16q56 62 42.5 132t-83.5 109h304q-18 -11 -40.5 -29t-43.5 -37.5t-45 -43t-43.5 -44t-39 -41.5t-32 -35t-22.5 -26l-11 -12z" />
    <glyph glyph-name="Y" unicode="Y" horiz-adv-x="809" 
d="M809 700q-67 -40 -119 -97.5t-106 -143.5l-56 -89v-241q0 -29 4 -52.5t10 -37t12.5 -23t10.5 -12.5l4 -4h-362q5 3 11.5 10.5t18 40.5t11.5 78v165l-155 276q-28 45 -56 77.5t-43 42.5l-14 10h415q-3 -4 -7 -11t-2.5 -35.5t18.5 -62.5l118 -210q16 25 49 78
q47 82 26.5 144.5t-92.5 96.5h304z" />
    <glyph glyph-name="Z" unicode="Z" horiz-adv-x="696" 
d="M407 13q41 0 77.5 14t62 36t46.5 48.5t34.5 53t22.5 48.5t12 36l4 14l-21 -263h-635l350 686h-78q-41 0 -77.5 -13.5t-62 -35.5t-46.5 -48.5t-34.5 -53.5t-22.5 -49t-13 -36l-3 -13l21 263h612l-350 -687h101z" />
    <glyph glyph-name="bracketleft" unicode="[" horiz-adv-x="244" 
d="M234 731h-60v-762h60v-13h-194v788h194v-13z" />
    <glyph glyph-name="backslash" unicode="\" horiz-adv-x="340" 
d="M43 744l267 -788h-13l-267 788h13z" />
    <glyph glyph-name="bracketright" unicode="]" horiz-adv-x="244" 
d="M10 744h194v-788h-194v13h60v762h-60v13z" />
    <glyph glyph-name="asciicircum" unicode="^" horiz-adv-x="352" 
d="M176 759l166 -184l-166 76l-166 -76z" />
    <glyph glyph-name="underscore" unicode="_" horiz-adv-x="528" 
d="M30 0h468v-14h-468v14z" />
    <glyph glyph-name="grave" unicode="`" horiz-adv-x="272" 
d="M57 929q21 19 45.5 18t42.5 -19q25 -24 47 -65.5t31 -70.5l9 -30q-13 3 -33 8.5t-66 26t-71 44.5q-18 18 -20.5 42t15.5 46z" />
    <glyph glyph-name="a" unicode="a" horiz-adv-x="682" 
d="M612 129q0 -45 10 -77.5t20 -41.5l10 -10h-210q-41 0 -59.5 16t-24.5 53q-16 -31 -55.5 -52.5t-87 -25.5t-92 4t-74 37t-29.5 72q0 54 34.5 89.5t79.5 51t113.5 40.5t110.5 52q-2 171 -70 171q-73 0 -41 -78q18 -41 12 -69t-22.5 -43t-40.5 -19q-46 -8 -81 12t-33 74
q3 69 63.5 100t148.5 31q318 0 318 -219v-168zM358 116v207q-38 -17 -62.5 -50.5t-31.5 -70.5t-4.5 -72t16.5 -59t33 -27q20 -3 34.5 18.5t14.5 53.5z" />
    <glyph glyph-name="b" unicode="b" horiz-adv-x="718" 
d="M457 516q105 0 173 -67.5t68 -195.5t-68.5 -196t-173.5 -68q-30 0 -117 10.5t-127 14.5q-60 4 -100.5 1t-61.5 -9l-20 -6q4 3 11 11t18 41.5t11 78.5v490q0 46 -10 78.5t-20 42.5l-10 9h294v-296q41 61 133 61zM324 14q11 -6 26 -8q47 -4 65.5 66t18.5 181q0 214 -62 224
q-18 3 -33 -14.5t-15 -48.5v-400z" />
    <glyph glyph-name="c" unicode="c" 
d="M579 143h10q-35 -74 -106 -113.5t-164 -40.5q-126 0 -212.5 68.5t-86.5 194.5q0 68 26.5 120t71.5 82.5t100 46t116 15.5q39 0 105 -16q36 -8 59 -4t33 13l10 9l18 -237q-2 5 -5 13t-13.5 32t-22.5 45.5t-30.5 47.5t-38.5 45t-46.5 32t-53.5 13q-41 0 -66.5 -40
t-28.5 -97t11 -120q17 -62 56 -102.5t85 -52t93 0t80 45.5z" />
    <glyph glyph-name="d" unicode="d" horiz-adv-x="718" 
d="M648 129q0 -46 10 -78t20 -41l10 -10h-210q-37 0 -55 13t-26 41q-50 -65 -135 -65q-105 0 -173.5 68t-68.5 196t68.5 195.5t173.5 67.5q93 0 132 -61v166q0 46 -10 78.5t-20 42.5l-10 9h294v-622zM394 272v147q0 23 -11.5 40t-25.5 14q-32 -7 -52.5 -71t-20.5 -149
q0 -89 15 -153.5t45 -70.5q25 -5 50 39v204z" />
    <glyph glyph-name="e" unicode="e" 
d="M579 143h10q-34 -74 -105.5 -113.5t-163.5 -40.5q-126 0 -213 69t-87 195q1 117 74.5 190t223.5 73q77 0 131 -20t82.5 -58t40.5 -82t13 -103h-322q19 -81 79 -123.5t126 -37.5t111 51zM313 509q-43 0 -59.5 -67.5t6.5 -175.5h115q11 92 -3 167.5t-59 75.5z" />
    <glyph glyph-name="f" unicode="f" horiz-adv-x="405" 
d="M371 865q104 0 164 -52t30 -133q-21 -53 -76 -63t-95 26t-22 96q3 11 11 23.5t14.5 20t17.5 18.5t15 16.5t7.5 13t-2.5 12t-19 7.5q-45 12 -68.5 -46.5t-23.5 -162.5v-137h154v-14h-154v-361q0 -45 10 -77.5t20 -41.5l10 -10h-334q4 3 11 10.5t18 40.5t11 78v361h-40v14
h40v93q0 68 18.5 118.5t47 78.5t70.5 44.5t80 21.5t85 5z" />
    <glyph glyph-name="g" unicode="g" horiz-adv-x="615" 
d="M560 499q-25 0 -44.5 8t-29.5 20t-17 26t-10 25.5t-6 19t-7.5 6t-12.5 -12.5q-16 -23 -37 -85q86 -21 134 -76.5t49 -128.5q-1 -93 -75 -154.5t-200 -61.5q-115 0 -187 52q-4 -22 8 -42q31 -58 240 -61q137 -1 191.5 -48.5t45.5 -129.5q-6 -60 -53 -99t-109 -54t-137 -15
q-328 0 -322 99q4 64 119 58q-51 32 -74 92t-2 117t85 88q-78 62 -80 159q1 92 75 153.5t200 61.5q43 0 85 -8l10 30q45 127 123 140q41 6 74 -9.5t44 -52.5q13 -45 -11.5 -81t-68.5 -36zM294 -203q-110 6 -182 41q-23 -34 -1.5 -65.5t76.5 -54t115 -22.5q65 0 103 9t49 21
t10 28q-1 24 -26 30.5t-109 10.5q-7 1 -11.5 1t-11 0.5t-12.5 0.5zM304 93q19 0 32 18.5t19 53.5t8.5 65t3.5 71q-1 41 -3.5 71t-8.5 64.5t-19 53t-32 18.5q-36 0 -48.5 -58t-14.5 -149q1 -27 2 -47t3 -46t6.5 -44.5t11 -35.5t17 -26t23.5 -9z" />
    <glyph glyph-name="h" unicode="h" horiz-adv-x="755" 
d="M391 0q4 3 11 10.5t18 40.5t11 78v200q0 136 -51 137q-22 1 -39 -24t-17 -61v-252q0 -45 10 -77.5t20 -41.5l10 -10h-334q4 3 11 10.5t18 40.5t11 78v493q0 45 -10 77.5t-20 42.5l-10 9h294v-315q39 80 159 80q102 0 152 -54t50 -142v-191q0 -45 10 -77.5t20 -41.5
l10 -10h-334z" />
    <glyph glyph-name="i" unicode="i" horiz-adv-x="394" 
d="M324 129q0 -45 10 -77.5t20 -41.5l10 -10h-334q4 3 11 10.5t18 40.5t11 78v246q0 45 -10 77.5t-20 41.5l-10 10h334q-4 -3 -11 -10.5t-18 -40.5t-11 -78v-246zM197 530q-56 0 -95 35.5t-39 86.5q0 50 39 85.5t95 35.5q55 0 94 -35.5t39 -85.5q0 -51 -38.5 -86.5
t-94.5 -35.5z" />
    <glyph glyph-name="j" unicode="j" horiz-adv-x="388" 
d="M24 504h334q-4 -3 -11 -10.5t-18 -40.5t-11 -79v-468q0 -68 -18.5 -118t-46.5 -78t-70.5 -44.5t-80 -21.5t-85.5 -5q-22 0 -33 1v11q39 -1 59.5 57t20.5 155v511q0 46 -10 78.5t-20 41.5zM191 530q-55 0 -94 35.5t-39 85.5t39 86t94 36t94.5 -36t39.5 -86t-39 -85.5
t-95 -35.5z" />
    <glyph glyph-name="k" unicode="k" horiz-adv-x="728" 
d="M621 129q23 -42 47.5 -74t37.5 -43l12 -12h-322q3 3 5.5 10.5t-2.5 41t-26 77.5l-45 94l-4 -5v-89q0 -45 10 -77.5t20 -41.5l10 -10h-334q4 3 11 10.5t18 40.5t11 78v492q0 46 -10 78.5t-20 42.5l-10 9h334q-4 -3 -11 -10.5t-18 -40.5t-11 -79v-388l109 119q52 59 53 95
t-52 57h258q-161 -38 -215 -113z" />
    <glyph glyph-name="l" unicode="l" horiz-adv-x="394" 
d="M324 129q0 -45 10 -77.5t20 -41.5l10 -10h-334q4 3 11 10.5t18 40.5t11 78v492q0 46 -10 78.5t-20 42.5l-10 9h334q-4 -3 -11 -10.5t-18 -40.5t-11 -79v-492z" />
    <glyph glyph-name="m" unicode="m" horiz-adv-x="1098" 
d="M734 0q4 3 11 10.5t18 40.5t11 78v201q0 57 -8.5 93.5t-36.5 42.5q-21 4 -37 -23t-16 -62v-252q0 -45 10 -77.5t20 -41.5l10 -10h-334q4 3 11 10.5t18 40.5t11 78v200q0 134 -46 137q-21 2 -36.5 -23t-15.5 -62v-252q0 -45 10 -77.5t20 -41.5l10 -10h-334q4 3 11 10.5
t18 40.5t11 78v246q0 45 -10 77.5t-20 41.5l-10 10h268l26 -68q39 80 155 80q150 0 185 -110h5q22 110 164 110q101 0 148 -54t47 -142v-191q0 -45 10 -77.5t20 -41.5l10 -10h-334z" />
    <glyph glyph-name="n" unicode="n" horiz-adv-x="755" 
d="M390 0q4 3 11 10.5t18 40.5t11 78v200q0 28 -1.5 47t-6 42t-15.5 35.5t-28 12.5q-21 1 -38 -24t-17 -61v-252q0 -45 10 -77.5t20 -41.5l10 -10h-334q4 3 11 10.5t18 40.5t11 78v245q0 46 -10 78.5t-20 41.5l-10 10h267l27 -68q38 80 159 80q101 0 151 -54t50 -142v-191
q0 -29 4 -52.5t10 -37t12.5 -23t10.5 -12.5l4 -4h-335z" />
    <glyph glyph-name="o" unicode="o" horiz-adv-x="689" 
d="M345 516q153 0 238 -75t86 -189q-1 -114 -86.5 -188.5t-237.5 -74.5q-153 0 -238.5 74.5t-86.5 188.5q1 115 86.5 189.5t238.5 74.5zM345 -3q16 0 28.5 10.5t20 32.5t12 43t7 56t3 55.5t1.5 57.5q-1 37 -1.5 58t-3 56t-7 56t-12 43t-20 32.5t-28.5 10.5t-28.5 -10.5
t-20 -32.5t-12.5 -43t-7.5 -56t-3 -56t-1.5 -58q1 -37 1.5 -57.5t3 -55.5t7.5 -56t12.5 -43t20 -32.5t28.5 -10.5z" />
    <glyph glyph-name="p" unicode="p" horiz-adv-x="709" 
d="M447 516q113 0 177.5 -74t64.5 -190q0 -128 -68.5 -195.5t-173.5 -67.5q-93 0 -132 61v-166q0 -46 10 -78t20 -42l10 -9h-335q5 3 11.5 10t18 40t11.5 79v492q0 46 -10 78t-20 41l-10 9h267l24 -53q50 65 135 65zM352 32q32 7 52.5 71t20.5 149q0 89 -15 153.5t-45 70.5
q-21 4 -50 -36v-207v-147q0 -23 11.5 -40t25.5 -14z" />
    <glyph glyph-name="q" unicode="q" horiz-adv-x="718" 
d="M648 -116q0 -46 10 -78t20 -42l10 -9h-334q4 3 11 10t18 40t11 79v166q-41 -61 -133 -61q-104 0 -172.5 68t-68.5 195q0 128 68.5 196t173.5 68q29 0 114 -10t130 -14q60 -4 100.5 -1.5t61.5 8.5l20 6q-4 -3 -11 -10.5t-18 -41t-11 -79.5v-490zM346 28q18 -3 33 14.5
t15 48.5v401q-16 7 -26 7q-47 4 -65.5 -65.5t-18.5 -181.5q0 -214 62 -224z" />
    <glyph glyph-name="r" unicode="r" horiz-adv-x="624" 
d="M603 465q22 -52 -3 -99t-78 -54q-31 -3 -55 4t-38 20t-24 29t-15.5 29.5t-10.5 22t-10 6.5t-13 -17q-32 -61 -32 -148v-129q0 -45 10 -77.5t20 -41.5l10 -10h-334q4 3 11 10.5t18 40.5t11 78v245q0 46 -10 78.5t-20 41.5l-10 10h267l27 -163q36 157 127 182q45 15 89.5 0
t62.5 -58z" />
    <glyph glyph-name="s" unicode="s" horiz-adv-x="497" 
d="M410 284q49 -38 62 -94t-11 -104q-25 -54 -82.5 -75.5t-112.5 -21.5q-26 0 -80 10t-84 13q-20 2 -37 -4.5t-24 -13.5l-7 -7v203q4 -8 10.5 -20.5t29 -45t46.5 -57.5t60 -45.5t71 -20.5q23 0 25 23q4 41 -63 90l-8 6q-5 4 -23 16t-24.5 16.5t-21 15t-22.5 17t-20 16.5
t-22.5 20t-20.5 21q-37 39 -36 101t39 104q61 69 179 69q53 0 134 -20q22 -4 34.5 0t17.5 11l5 7v-199q-3 8 -8 21t-22 45.5t-35.5 58t-48 46t-59.5 20.5q-25 0 -34.5 -18.5t5.5 -51.5q11 -22 41.5 -47t78.5 -57.5t68 -47.5z" />
    <glyph glyph-name="t" unicode="t" horiz-adv-x="443" 
d="M424 108h9q-26 -45 -77.5 -82t-123.5 -37q-91 0 -146.5 54.5t-55.5 175.5v272h-40v13h40q49 0 93.5 13.5t90.5 53.5t70 103v-170h110v-13h-110v-312q0 -50 22 -76t54.5 -23.5t63.5 28.5z" />
    <glyph glyph-name="u" unicode="u" horiz-adv-x="735" 
d="M665 129q0 -45 10 -77.5t20 -41.5l10 -10h-210q-41 0 -59.5 15.5t-24.5 51.5q-38 -80 -159 -80q-102 0 -152 54.5t-50 143.5v189q0 46 -10 78.5t-20 41.5l-10 10h294v-329q0 -137 51 -138q22 0 39 25t17 61v251q0 46 -10 78.5t-20 41.5l-10 10h294v-375z" />
    <glyph glyph-name="v" unicode="v" horiz-adv-x="635" 
d="M417 504h218q-79 -69 -140 -212l-119 -292h-119q-172 332 -213 411q-18 35 -34 58.5t-23 28.5l-7 6h329q-21 -33 5 -93l116 -255q11 24 39 98q33 87 19 157.5t-71 92.5z" />
    <glyph glyph-name="w" unicode="w" horiz-adv-x="979" 
d="M761 504h218q-79 -69 -140 -212l-119 -292h-119q-66 128 -126 244l-101 -244h-116q-174 335 -215 411q-19 35 -35 58t-22 29l-7 6h329q-21 -33 4 -93q12 -27 42 -88t54 -109l25 -47q8 13 35 87q0 1 1 2q-19 36 -47 89.5t-34 65.5q-18 35 -34 58.5t-23 28.5l-7 6h329
q-21 -33 5 -93l116 -255q11 24 39 98q33 87 19 157.5t-71 92.5z" />
    <glyph glyph-name="x" unicode="x" horiz-adv-x="624" 
d="M528 93q16 -26 37.5 -49.5t34.5 -33.5l14 -10h-322q9 29 -29 93l-60 96q-16 -15 -17 -16q-41 -47 -31 -96t61 -77h-218q29 20 76 66.5t85.5 88t39.5 42.5q-100 161 -132 213q-15 24 -36.5 47.5t-36.5 34.5l-14 12h322q-11 -29 29 -94l51 -82q2 2 3 2q41 47 31 96.5
t-61 77.5h218q-18 -13 -43.5 -36t-49.5 -47.5t-45 -47t-34.5 -37t-14.5 -15.5q105 -169 142 -228z" />
    <glyph glyph-name="y" unicode="y" horiz-adv-x="716" 
d="M716 504q-68 -26 -114 -82t-92 -171l-95 -251q-5 -12 -54 -131q-83 -189 -226 -138q-53 19 -68.5 69.5t15 95t93.5 47.5q32 2 59.5 -14t42 -33.5t29.5 -27.5t31 4.5t37 61.5q7 11 29 66h-172q-113 285 -149 374q-16 40 -39 72.5t-38 45.5l-15 12h360q-3 -3 -6.5 -11
t-3 -41.5t14.5 -77.5l91 -258q15 28 29 71q88 261 -62 317h303z" />
    <glyph glyph-name="z" unicode="z" horiz-adv-x="560" 
d="M344 13q40 0 74 18t54 44t34 52t19 44l5 18l-15 -189h-505l255 491h-55q-40 0 -74 -18t-53.5 -44t-33.5 -52t-19 -44l-5 -18l14 189h488l-254 -491h71z" />
    <glyph glyph-name="braceleft" unicode="{" horiz-adv-x="305" 
d="M295 743q-54 -5 -70.5 -60t-15.5 -199q0 -41 -13 -71.5t-31 -46t-45 -25t-46.5 -12t-43.5 -2.5q24 0 43.5 -2.5t46.5 -12t45 -25.5t31 -46.5t13 -71.5q-1 -144 15.5 -199t70.5 -60v-8q-57 0 -100 9.5t-69 25t-42 39t-21.5 46t-6 52.5t2.5 52.5t7 51.5t5 44q3 51 -18 74
t-43 23v16q22 0 43 23t18 73q-1 15 -5 44t-7 51.5t-2.5 52.5t6 52.5t21.5 46t42 39t69 25t100 9.5v-8z" />
    <glyph glyph-name="bar" unicode="|" horiz-adv-x="94" 
d="M40 803h14v-907h-14v907z" />
    <glyph glyph-name="braceright" unicode="}" horiz-adv-x="304" 
d="M10 743v8q57 0 100 -9.5t69 -25t42 -39t21.5 -46t6 -52.5t-3 -52.5t-7.5 -51.5t-5 -44q-3 -50 18.5 -73t42.5 -23v-16q-21 0 -42.5 -23t-18.5 -74q1 -15 5 -44t7.5 -51.5t3 -52.5t-6 -52.5t-21.5 -46t-42 -39t-69 -25t-100 -9.5v8q53 5 69.5 60t16.5 199q0 41 13 71.5
t31 46.5t45 25.5t46.5 12t43.5 2.5q-24 0 -43.5 2.5t-46.5 12t-45 25t-31 46t-13 71.5q0 144 -16.5 199t-69.5 60z" />
    <glyph glyph-name="asciitilde" unicode="~" horiz-adv-x="521" 
d="M390 330q-9 0 -13 1q-46 3 -112 33q-64 29 -102 32q-44 3 -80.5 -14t-54.5 -37l-8 8q20 21 58.5 39t84.5 15q41 -3 107 -32q64 -30 107 -33q44 -3 73.5 12t40.5 39l10 -5q-12 -24 -40.5 -41t-70.5 -17z" />
    <glyph glyph-name="exclamdown" unicode="&#xa1;" horiz-adv-x="297" 
d="M149 272q-43 0 -73.5 30.5t-30.5 73.5t30.5 73.5t73.5 30.5t73 -30.5t30 -73.5t-30 -73.5t-73 -30.5zM149 242q5 -8 13 -22t28 -55.5t35.5 -81.5t28.5 -93t13 -97q0 -50 -32 -87.5t-86 -37.5t-86.5 37.5t-32.5 87.5q0 69 30 156.5t60 140.5z" />
    <glyph glyph-name="cent" unicode="&#xa2;" horiz-adv-x="638" 
d="M608 142q-31 -66 -93.5 -105t-143.5 -46v-95h-14v94q-7 -1 -23 -1q-127 0 -215.5 69t-88.5 194q0 68 27 120t73.5 82.5t101.5 46t117 15.5h8v105h14v-106q30 -2 83 -16q37 -7 60.5 -3t34.5 13l11 9l19 -237q-3 9 -9.5 23.5t-27.5 52t-43.5 67t-57.5 55.5t-70 29v-386
q55 -36 119.5 -30t107.5 50h10zM280 252q21 -78 77 -121v377q-40 -1 -64 -41t-25.5 -96.5t12.5 -118.5z" />
    <glyph glyph-name="sterling" unicode="&#xa3;" horiz-adv-x="639" 
d="M599 268v-118q0 -161 -162 -161q-58 0 -128.5 16t-112.5 29t-80.5 4.5t-55.5 -49.5q-3 22 -3 50q-2 107 43 154.5t142 40.5q4 0 11.5 -1t11.5 -2q6 25 -7 42.5t-42 34.5h-127v14h103q-75 40 -101 64q-51 48 -50 120q0 93 79.5 149t216.5 56q110 0 174 -43q95 -62 86 -166
q-5 -57 -43 -85t-87 -22q-53 6 -78.5 54.5t-0.5 97.5q9 19 27.5 35.5t31 23.5t35.5 18q17 8 23 12t9 10.5t-7 12.5t-33 15q-54 20 -103 8.5t-78 -47t-38.5 -90t15.5 -119.5q20 -57 21 -104h202v-14h-202q0 -34 -13 -73q0 -1 -1 -3t-1 -3q13 -2 52.5 -8.5t59 -9t55.5 -3.5
t58.5 4.5t50 19t47.5 36.5z" />
    <glyph glyph-name="currency" unicode="&#xa4;" horiz-adv-x="522" 
d="M449 258q0 -78 -50 -128l103 -104l-9 -8l-104 104q-48 -40 -123 -40q-79 0 -128 44l-109 -108l-9 8l109 109q-46 47 -46 123q0 77 46 124l-109 109l9 8l109 -108q49 44 128 44q75 0 123 -40l104 104l9 -8l-103 -104q50 -50 50 -129zM266 86q44 0 44 172q0 173 -44 173
t-44 -173q0 -172 44 -172z" />
    <glyph glyph-name="yen" unicode="&#xa5;" horiz-adv-x="809" 
d="M809 700q-67 -40 -119 -97.5t-106 -143.5q-5 -7 -14.5 -22t-13.5 -22h135v-14h-143l-20 -31v-68h163v-13h-163v-160q0 -45 10 -77.5t20 -41.5l10 -10h-361q4 3 11 10.5t18 40.5t11 78v160h-162v13h158l-56 99h-102v14h95l-87 156q-28 45 -56 77t-43 42l-14 10h415
q-3 -4 -7 -11t-2.5 -35.5t18.5 -62.5l118 -210q16 25 49 78q47 82 26.5 144.5t-92.5 96.5h304z" />
    <glyph glyph-name="brokenbar" unicode="&#xa6;" horiz-adv-x="93" 
d="M40 -104v328h13v-328h-13zM40 804h13v-328h-13v328z" />
    <glyph glyph-name="section" unicode="&#xa7;" horiz-adv-x="677" 
d="M571 506q69 -75 75.5 -153t-45.5 -131q-41 -46 -133 -59q54 -55 67.5 -119t-26.5 -125q-37 -51 -112.5 -73t-153.5 -22q-71 0 -126.5 31.5t-66.5 75.5q-12 51 13 83t71 30q52 -1 73.5 -37.5t1.5 -79.5q-24 -55 -18.5 -73.5t44.5 -20.5q26 -2 53 20.5t36 54.5t-11 68
q-28 41 -108 114t-108 104q-70 75 -76 153t46 131q42 46 133 59q-53 54 -65 120t28 127q36 51 109.5 71.5t152.5 20.5q71 0 126.5 -31.5t66.5 -75.5q12 -51 -13 -83t-72 -30q-51 1 -72.5 37.5t-1.5 79.5q24 55 18.5 73.5t-44.5 20.5q-26 1 -53 -21t-36 -54t11 -68
q27 -42 108.5 -116t107.5 -102zM452 179q28 18 23.5 55t-42.5 77q-32 33 -108.5 106t-108.5 104q-28 -18 -24 -55.5t42 -76.5q31 -32 107 -103.5t111 -106.5z" />
    <glyph glyph-name="dieresis" unicode="&#xa8;" horiz-adv-x="426" 
d="M112 706q34 0 58 -24t24 -58t-24 -58t-58 -24t-58 24t-24 58t24 58t58 24zM314 706q34 0 58 -24t24 -58t-24 -58t-58 -24t-57.5 24t-23.5 58t23.5 58t57.5 24z" />
    <glyph glyph-name="guillemotleft" unicode="&#xab;" horiz-adv-x="360" 
d="M194 494l-76 -165l76 -166l-184 166zM330 494l-76 -165l76 -166l-185 166z" />
    <glyph glyph-name="macron" unicode="&#xaf;" horiz-adv-x="512" 
d="M40 606h432v-14h-432v14z" />
    <glyph glyph-name="degree" unicode="&#xb0;" horiz-adv-x="315" 
d="M158 800q66 -1 101.5 -38.5t35.5 -94.5q0 -56 -35.5 -94t-101.5 -38t-102 38t-36 94q0 57 35.5 94.5t102.5 38.5zM158 538q32 0 32 129q0 130 -32 130q-33 0 -33 -130q0 -129 33 -129z" />
    <glyph glyph-name="plusminus" unicode="&#xb1;" horiz-adv-x="524" 
d="M40 109v13h444v-13h-444zM268 403h216v-13h-216v-215h-13v215h-215v13h215v216h13v-216z" />
    <glyph glyph-name="acute" unicode="&#xb4;" horiz-adv-x="272" 
d="M215 719q18 -22 15.5 -46t-20.5 -42q-25 -24 -67.5 -44t-72.5 -27l-30 -8q3 12 9.5 32t29.5 65t48 69q18 18 42.5 19t45.5 -18z" />
    <glyph glyph-name="paragraph" unicode="&#xb6;" horiz-adv-x="409" 
d="M439 804v-13h-97v-895h-13v895h-116v-895h-13q-3 385 0 385q-86 0 -133 74.5t-47 186.5q0 63 16 119.5t58.5 99.5t105.5 43h239z" />
    <glyph glyph-name="periodcentered" unicode="&#xb7;" horiz-adv-x="268" 
d="M134 433q43 0 73.5 -30.5t30.5 -73.5t-30.5 -73.5t-73.5 -30.5q-44 0 -74 30.5t-30 73.5t30.5 73.5t73.5 30.5z" />
    <glyph glyph-name="cedilla" unicode="&#xb8;" horiz-adv-x="295" 
d="M186 -39q71 -15 68 -75q-4 -70 -112 -70q-67 0 -102 23v50q20 -51 48 -58q49 -9 60 52q8 53 -26 63q-16 5 -41 3l31 51h6l-15 -37q39 9 83 -2z" />
    <glyph glyph-name="ordmasculine" unicode="&#xba;" horiz-adv-x="359" 
d="M179 850q62 0 106 -44t44 -106t-44 -105.5t-106 -43.5q-61 0 -105 43.5t-44 105.5t44 106t105 44zM179 562q58 0 98.5 40.5t40.5 97.5t-40.5 97.5t-98.5 40.5q-57 0 -97.5 -40.5t-40.5 -97.5t40.5 -97.5t97.5 -40.5z" />
    <glyph glyph-name="guillemotright" unicode="&#xbb;" horiz-adv-x="380" 
d="M175 494l185 -165l-185 -166l77 166zM224 329l-184 -166l76 166l-76 165z" />
    <glyph glyph-name="questiondown" unicode="&#xbf;" horiz-adv-x="562" 
d="M330 272q-43 0 -73.5 30.5t-30.5 73.5t30.5 73.5t73.5 30.5t73.5 -30.5t30.5 -73.5t-30.5 -73.5t-73.5 -30.5zM527 -29q19 -80 -40 -142q-66 -71 -177 -71q-132 0 -204 50t-65 135q3 43 22.5 76.5t53 57t62.5 38t71 31.5q9 3 13 5q64 26 57 51q-4 14 -22.5 19.5
t-36.5 -2.5q29 25 70.5 25t61.5 -24q18 -21 12.5 -54.5t-32.5 -63.5q-5 -6 -22.5 -24t-26.5 -29t-23.5 -30t-26 -39.5t-20.5 -43.5q-12 -35 -8 -67.5t26 -54.5t49.5 -32.5t64.5 -1.5t70 39q14 12 14 19t-5 8.5t-25 4.5q-13 2 -20.5 3.5t-20.5 5.5t-22.5 8.5t-19.5 12.5
t-17 19q-23 44 -13.5 79.5t38.5 56.5q49 34 99.5 11.5t62.5 -76.5z" />
    <glyph glyph-name="Agrave" unicode="&#xc0;" horiz-adv-x="854" 
d="M854 0h-401q3 5 7 15t3 44t-17 71q-10 25 -43 96h-201q-9 -83 17 -143t84 -83h-303q109 95 194 296l166 404h110q239 -461 295 -570q25 -49 47.5 -81.5t31.5 -40.5zM203 240h194l-112 243q-16 -33 -54 -135q-20 -55 -28 -108zM266 919q21 19 45.5 18t42.5 -19
q25 -24 47 -65.5t31 -70.5l9 -30q-13 3 -33 8.5t-66 26t-71 44.5q-18 18 -20.5 42t15.5 46z" />
    <glyph glyph-name="Aacute" unicode="&#xc1;" horiz-adv-x="854" 
d="M854 0h-401q3 5 7 15t3 44t-17 71q-10 25 -43 96h-201q-9 -83 17 -143t84 -83h-303q109 95 194 296l166 404h110q239 -461 295 -570q25 -49 47.5 -81.5t31.5 -40.5zM203 240h194l-112 243q-16 -33 -54 -135q-20 -55 -28 -108zM575 919q18 -22 15.5 -46t-20.5 -42
q-25 -24 -67.5 -44t-72.5 -27l-30 -8q3 12 9.5 32t29.5 65t48 69q18 18 42.5 19t45.5 -18z" />
    <glyph glyph-name="Acircumflex" unicode="&#xc2;" horiz-adv-x="854" 
d="M854 0h-401q3 5 7 15t3 44t-17 71q-10 25 -43 96h-201q-9 -83 17 -143t84 -83h-303q109 95 194 296l166 404h110q239 -461 295 -570q25 -49 47.5 -81.5t31.5 -40.5zM203 240h194l-112 243q-16 -33 -54 -135q-20 -55 -28 -108zM416 923l165 -171l-165 54l-166 -54z" />
    <glyph glyph-name="Atilde" unicode="&#xc3;" horiz-adv-x="854" 
d="M854 0h-401q3 5 7 15t3 44t-17 71q-10 25 -43 96h-201q-9 -83 17 -143t84 -83h-303q109 95 194 296l166 404h110q239 -461 295 -570q25 -49 47.5 -81.5t31.5 -40.5zM203 240h194l-112 243q-16 -33 -54 -135q-20 -55 -28 -108zM602 885q0 -20 -5.5 -44.5t-29 -53.5
t-62.5 -34q-19 -2 -43.5 2.5t-39 10t-42 17.5t-31.5 14q-76 30 -119 -14q8 48 37.5 83.5t67.5 39.5q31 4 62 -4.5t61 -23t45 -17.5q69 -15 99 24z" />
    <glyph glyph-name="Adieresis" unicode="&#xc4;" horiz-adv-x="854" 
d="M854 0h-401q3 5 7 15t3 44t-17 71q-10 25 -43 96h-201q-9 -83 17 -143t84 -83h-303q109 95 194 296l166 404h110q239 -461 295 -570q25 -49 47.5 -81.5t31.5 -40.5zM203 240h194l-112 243q-16 -33 -54 -135q-20 -55 -28 -108zM316 906q34 0 58 -24t24 -58t-24 -58
t-58 -24t-58 24t-24 58t24 58t58 24zM518 906q34 0 58 -24t24 -58t-24 -58t-58 -24t-57.5 24t-23.5 58t23.5 58t57.5 24z" />
    <glyph glyph-name="Aring" unicode="&#xc5;" horiz-adv-x="854" 
d="M854 0h-401q3 5 7 15t3 44t-17 71q-10 25 -43 96h-201q-9 -83 17 -143t84 -83h-303q109 95 194 296l166 404h110q239 -461 295 -570q25 -49 47.5 -81.5t31.5 -40.5zM203 240h194l-112 243q-16 -33 -54 -135q-20 -55 -28 -108zM416 927q54 0 84 -26.5t30 -65.5t-30 -65.5
t-84 -27.5q-55 1 -85 27.5t-30 65.5t30 65.5t85 26.5zM416 749q27 0 27 86q0 85 -27 85q-28 0 -28 -85q0 -86 28 -86z" />
    <glyph glyph-name="AE" unicode="&#xc6;" horiz-adv-x="1066" 
d="M768 13q41 0 76 14t58.5 36t43 48.5t30 53t18 48.5t10.5 36l2 14v-263h-606q4 3 11 10.5t18 40.5t11 78v149h-176q-8 -13 -28 -49q-42 -70 -25 -135t92 -94h-303q118 46 228 241l210 371q-4 30 -13.5 52t-16.5 29l-8 7h592v-263q-1 5 -2.5 14t-9.5 35t-18.5 49.5
t-29.5 52t-42.5 49.5t-59 35t-76.5 14h-33v-330q53 6 92.5 26t58.5 43.5t30.5 46t13.5 37.5l2 15v-348q0 6 -2 16t-13.5 36.5t-30.5 48t-58.5 42t-92.5 26.5v-332h47zM440 292q0 294 -1 301l-168 -301h169z" />
    <glyph glyph-name="Ccedilla" unicode="&#xc7;" horiz-adv-x="782" 
d="M399 -11h-10l-15 -26q40 8 83 -2q72 -17 68 -75q-3 -70 -112 -70q-63 0 -102 22v51q20 -51 48 -58q50 -9 60 51q9 53 -26 64q-13 4 -41 2l25 42q-61 4 -121 28.5t-111 68t-83 112t-32 151.5q0 93 34 164t92.5 113t130 62.5t154.5 20.5q61 0 145 -21q49 -10 73.5 -4.5
t31.5 17.5l7 12l21 -277q-3 11 -9.5 28.5t-30.5 63t-52 80t-74 63t-97 28.5q-56 0 -95 -53.5t-48.5 -131.5t3.5 -165q18 -94 70 -151.5t115 -70t127.5 5.5t110.5 65l13 1q-47 -103 -139 -157t-214 -54z" />
    <glyph glyph-name="Egrave" unicode="&#xc8;" horiz-adv-x="706" 
d="M408 13q41 0 76 14t58.5 36t43 48.5t30 53t18 48.5t10.5 36l2 14v-263h-606q4 3 11 10t18 40t11 79v441q0 46 -10 78.5t-20 41.5l-10 10h593v-263q-1 5 -2.5 14t-9.5 35t-18.5 49.5t-30 52t-43 49.5t-58.5 35t-76 14h-34v-330q53 6 93 26t59 43.5t30.5 46t13.5 37.5l2 15
v-348q0 3 -1 8.5t-5.5 21t-12 30t-22.5 33t-35 33t-51.5 26.5t-70.5 17v-332h47zM287 919q21 19 45.5 18t42.5 -19q25 -24 47 -65.5t31 -70.5l9 -30q-13 3 -33 8.5t-66 26t-71 44.5q-18 18 -20.5 42t15.5 46z" />
    <glyph glyph-name="Eacute" unicode="&#xc9;" horiz-adv-x="706" 
d="M408 13q41 0 76 14t58.5 36t43 48.5t30 53t18 48.5t10.5 36l2 14v-263h-606q4 3 11 10t18 40t11 79v441q0 46 -10 78.5t-20 41.5l-10 10h593v-263q-1 5 -2.5 14t-9.5 35t-18.5 49.5t-30 52t-43 49.5t-58.5 35t-76 14h-34v-330q53 6 93 26t59 43.5t30.5 46t13.5 37.5l2 15
v-348q0 3 -1 8.5t-5.5 21t-12 30t-22.5 33t-35 33t-51.5 26.5t-70.5 17v-332h47zM437 919q18 -22 15.5 -46t-20.5 -42q-25 -24 -67.5 -44t-72.5 -27l-30 -8q3 12 9.5 32t29.5 65t48 69q18 18 42.5 19t45.5 -18z" />
    <glyph glyph-name="Ecircumflex" unicode="&#xca;" horiz-adv-x="706" 
d="M408 13q41 0 76 14t58.5 36t43 48.5t30 53t18 48.5t10.5 36l2 14v-263h-606q4 3 11 10t18 40t11 79v441q0 46 -10 78.5t-20 41.5l-10 10h593v-263q-1 5 -2.5 14t-9.5 35t-18.5 49.5t-30 52t-43 49.5t-58.5 35t-76 14h-34v-330q53 6 93 26t59 43.5t30.5 46t13.5 37.5l2 15
v-348q0 3 -1 8.5t-5.5 21t-12 30t-22.5 33t-35 33t-51.5 26.5t-70.5 17v-332h47zM362 923l165 -171l-165 54l-166 -54z" />
    <glyph glyph-name="Edieresis" unicode="&#xcb;" horiz-adv-x="706" 
d="M408 13q41 0 76 14t58.5 36t43 48.5t30 53t18 48.5t10.5 36l2 14v-263h-606q4 3 11 10t18 40t11 79v441q0 46 -10 78.5t-20 41.5l-10 10h593v-263q-1 5 -2.5 14t-9.5 35t-18.5 49.5t-30 52t-43 49.5t-58.5 35t-76 14h-34v-330q53 6 93 26t59 43.5t30.5 46t13.5 37.5l2 15
v-348q0 3 -1 8.5t-5.5 21t-12 30t-22.5 33t-35 33t-51.5 26.5t-70.5 17v-332h47zM260 906q34 0 58 -24t24 -58t-24 -58t-58 -24t-58 24t-24 58t24 58t58 24zM462 906q34 0 58 -24t24 -58t-24 -58t-58 -24t-57.5 24t-23.5 58t23.5 58t57.5 24z" />
    <glyph glyph-name="Igrave" unicode="&#xcc;" horiz-adv-x="441" 
d="M361 129q0 -46 10 -78t20 -41l10 -10h-361q4 3 11 10t18 40t11 79v441q0 46 -10 78.5t-20 41.5l-10 10h361q-4 -3 -11 -10.5t-18 -40.5t-11 -79v-441zM116 919q21 19 45.5 18t42.5 -19q25 -24 47 -65.5t31 -70.5l9 -30q-13 3 -33 8.5t-66 26t-71 44.5q-18 18 -20.5 42
t15.5 46z" />
    <glyph glyph-name="Iacute" unicode="&#xcd;" horiz-adv-x="441" 
d="M361 129q0 -46 10 -78t20 -41l10 -10h-361q4 3 11 10t18 40t11 79v441q0 46 -10 78.5t-20 41.5l-10 10h361q-4 -3 -11 -10.5t-18 -40.5t-11 -79v-441zM325 919q18 -22 15.5 -46t-20.5 -42q-25 -24 -67.5 -44t-72.5 -27l-30 -8q3 12 9.5 32t29.5 65t48 69q18 18 42.5 19
t45.5 -18z" />
    <glyph glyph-name="Icircumflex" unicode="&#xce;" horiz-adv-x="441" 
d="M361 129q0 -46 10 -78t20 -41l10 -10h-361q4 3 11 10t18 40t11 79v441q0 46 -10 78.5t-20 41.5l-10 10h361q-4 -3 -11 -10.5t-18 -40.5t-11 -79v-441zM221 923l165 -171l-165 54l-166 -54z" />
    <glyph glyph-name="Idieresis" unicode="&#xcf;" horiz-adv-x="440" 
d="M360 129q0 -46 10 -78t20 -41l10 -10h-361q4 3 11 10t18 40t11 79v441q0 46 -10 78.5t-20 41.5l-10 10h361q-4 -3 -11 -10.5t-18 -40.5t-11 -79v-441zM119 906q34 0 58 -24t24 -58t-24 -58t-58 -24t-58 24t-24 58t24 58t58 24zM321 906q34 0 58 -24t24 -58t-24 -58
t-58 -24t-57.5 24t-23.5 58t23.5 58t57.5 24z" />
    <glyph glyph-name="Eth" unicode="&#xd0;" horiz-adv-x="841" 
d="M413 700q101 0 178.5 -28t124.5 -77t71 -111t24 -134t-24 -134t-71 -111t-124.5 -77t-178.5 -28h-373q4 3 11 10.5t18 40.5t11 78v214h-40v13h40v214q0 46 -10 78.5t-20 41.5l-10 10h373zM361 13q96 0 141 93t45 244q0 150 -45 243t-141 93v-330h98v-13h-98v-330z" />
    <glyph glyph-name="Ntilde" unicode="&#xd1;" horiz-adv-x="813" 
d="M520 700h303q-77 -30 -111 -88.5t-34 -152.5v-459h-165l-359 525v-284q0 -94 34 -152.5t112 -88.5h-303q78 30 111.5 87t33.5 154v301l-73 108q-19 26 -33.5 35.5t-45.5 14.5h421q-1 -1 -1.5 -3t1 -11.5t5.5 -21t15 -33t28 -47.5l207 -290v165q0 94 -34 152.5t-112 88.5z
M596 885q0 -20 -5.5 -44.5t-29 -53.5t-62.5 -34q-19 -2 -43.5 2.5t-39 10t-42 17.5t-31.5 14q-76 30 -119 -14q8 48 37.5 83.5t67.5 39.5q31 4 62 -4.5t61 -23t45 -17.5q69 -15 99 24z" />
    <glyph glyph-name="Ograve" unicode="&#xd2;" horiz-adv-x="878" 
d="M439 711q183 -1 295 -104.5t114 -256.5q-2 -153 -114 -256.5t-295 -104.5q-184 1 -296 104.5t-113 256.5q1 153 113 256.5t296 104.5zM439 -2q34 0 59 31t39 83.5t20.5 112t6.5 125.5q0 65 -6.5 124.5t-20.5 112t-39 84t-59 31.5q-44 0 -74 -55.5t-41 -131.5t-11 -165
q0 -66 6.5 -125.5t21 -112t39.5 -83.5t59 -31zM284 919q21 19 45.5 18t42.5 -19q25 -24 47 -65.5t31 -70.5l9 -30q-13 3 -33 8.5t-66 26t-71 44.5q-18 18 -20.5 42t15.5 46z" />
    <glyph glyph-name="Oacute" unicode="&#xd3;" horiz-adv-x="878" 
d="M439 711q183 -1 295 -104.5t114 -256.5q-2 -153 -114 -256.5t-295 -104.5q-184 1 -296 104.5t-113 256.5q1 153 113 256.5t296 104.5zM439 -2q34 0 59 31t39 83.5t20.5 112t6.5 125.5q0 65 -6.5 124.5t-20.5 112t-39 84t-59 31.5q-44 0 -74 -55.5t-41 -131.5t-11 -165
q0 -66 6.5 -125.5t21 -112t39.5 -83.5t59 -31zM593 919q18 -22 15.5 -46t-20.5 -42q-25 -24 -67.5 -44t-72.5 -27l-30 -8q3 12 9.5 32t29.5 65t48 69q18 18 42.5 19t45.5 -18z" />
    <glyph glyph-name="Ocircumflex" unicode="&#xd4;" horiz-adv-x="878" 
d="M439 711q183 -1 295 -104.5t114 -256.5q-2 -153 -114 -256.5t-295 -104.5q-184 1 -296 104.5t-113 256.5q1 153 113 256.5t296 104.5zM439 -2q34 0 59 31t39 83.5t20.5 112t6.5 125.5q0 65 -6.5 124.5t-20.5 112t-39 84t-59 31.5q-44 0 -74 -55.5t-41 -131.5t-11 -165
q0 -66 6.5 -125.5t21 -112t39.5 -83.5t59 -31zM439 923l165 -171l-165 54l-166 -54z" />
    <glyph glyph-name="Otilde" unicode="&#xd5;" horiz-adv-x="878" 
d="M439 711q183 -1 295 -104.5t114 -256.5q-2 -153 -114 -256.5t-295 -104.5q-184 1 -296 104.5t-113 256.5q1 153 113 256.5t296 104.5zM439 -2q34 0 59 31t39 83.5t20.5 112t6.5 125.5q0 65 -6.5 124.5t-20.5 112t-39 84t-59 31.5q-44 0 -74 -55.5t-41 -131.5t-11 -165
q0 -66 6.5 -125.5t21 -112t39.5 -83.5t59 -31zM625 885q0 -20 -5.5 -44.5t-29 -53.5t-62.5 -34q-19 -2 -43.5 2.5t-39 10t-42 17.5t-31.5 14q-76 30 -119 -14q8 48 37.5 83.5t67.5 39.5q31 4 62 -4.5t61 -23t45 -17.5q69 -15 99 24z" />
    <glyph glyph-name="Odieresis" unicode="&#xd6;" horiz-adv-x="878" 
d="M439 711q183 -1 295 -104.5t114 -256.5q-2 -153 -114 -256.5t-295 -104.5q-184 1 -296 104.5t-113 256.5q1 153 113 256.5t296 104.5zM439 -2q34 0 59 31t39 83.5t20.5 112t6.5 125.5q0 65 -6.5 124.5t-20.5 112t-39 84t-59 31.5q-44 0 -74 -55.5t-41 -131.5t-11 -165
q0 -66 6.5 -125.5t21 -112t39.5 -83.5t59 -31zM338 906q34 0 58 -24t24 -58t-24 -58t-58 -24t-58 24t-24 58t24 58t58 24zM540 906q34 0 58 -24t24 -58t-24 -58t-58 -24t-57.5 24t-23.5 58t23.5 58t57.5 24z" />
    <glyph glyph-name="multiply" unicode="&#xd7;" horiz-adv-x="403" 
d="M363 483l-152 -152l152 -152l-10 -10l-152 152l-152 -152l-9 10l152 152l-152 152l9 9l152 -152l152 152z" />
    <glyph glyph-name="Oslash" unicode="&#xd8;" horiz-adv-x="878" 
d="M570 744h14l-17 -49q129 -34 204 -128t77 -217q-2 -153 -114 -256.5t-295 -104.5q-47 0 -108 11l-15 -44h-13l16 47q-133 32 -210.5 127t-78.5 220q1 153 113 256.5t296 104.5q57 0 115 -13zM313 350q0 -163 35 -261l179 527q-33 86 -88 86q-44 0 -74 -55.5t-41 -131.5
t-11 -165zM439 -2q34 0 59 31t39 83.5t20.5 112t6.5 125.5q0 149 -30 246l-179 -524q33 -74 84 -74z" />
    <glyph glyph-name="Ugrave" unicode="&#xd9;" horiz-adv-x="739" 
d="M534 700h175q-19 -26 -28.5 -71t-11 -81.5t-1.5 -111.5v-22v-136q0 -35 -4.5 -68t-20.5 -73t-41.5 -70t-71.5 -52t-107 -26q-50 -3 -95.5 2t-94 23.5t-83.5 50.5t-57.5 88.5t-22.5 131.5v285q0 46 -10 78.5t-20 41.5l-10 10h361q-4 -3 -11 -10.5t-18 -40.5t-11 -79v-333
q0 -78 34 -131.5t87 -61.5q79 -14 131.5 57.5t52.5 174.5v138q0 225 -122 286zM345 919q21 19 45.5 18t42.5 -19q25 -24 47 -65.5t31 -70.5l9 -30q-13 3 -33 8.5t-66 26t-71 44.5q-18 18 -20.5 42t15.5 46z" />
    <glyph glyph-name="Uacute" unicode="&#xda;" horiz-adv-x="739" 
d="M534 700h175q-19 -26 -28.5 -71t-11 -81.5t-1.5 -111.5v-22v-136q0 -35 -4.5 -68t-20.5 -73t-41.5 -70t-71.5 -52t-107 -26q-50 -3 -95.5 2t-94 23.5t-83.5 50.5t-57.5 88.5t-22.5 131.5v285q0 46 -10 78.5t-20 41.5l-10 10h361q-4 -3 -11 -10.5t-18 -40.5t-11 -79v-333
q0 -78 34 -131.5t87 -61.5q79 -14 131.5 57.5t52.5 174.5v138q0 225 -122 286zM494 919q18 -22 15.5 -46t-20.5 -42q-25 -24 -67.5 -44t-72.5 -27l-30 -8q3 12 9.5 32t29.5 65t48 69q18 18 42.5 19t45.5 -18z" />
    <glyph glyph-name="Ucircumflex" unicode="&#xdb;" horiz-adv-x="739" 
d="M534 700h175q-19 -26 -28.5 -71t-11 -81.5t-1.5 -111.5v-22v-136q0 -35 -4.5 -68t-20.5 -73t-41.5 -70t-71.5 -52t-107 -26q-50 -3 -95.5 2t-94 23.5t-83.5 50.5t-57.5 88.5t-22.5 131.5v285q0 46 -10 78.5t-20 41.5l-10 10h361q-4 -3 -11 -10.5t-18 -40.5t-11 -79v-333
q0 -78 34 -131.5t87 -61.5q79 -14 131.5 57.5t52.5 174.5v138q0 225 -122 286zM440 923l165 -171l-165 54l-166 -54z" />
    <glyph glyph-name="Udieresis" unicode="&#xdc;" horiz-adv-x="739" 
d="M534 700h175q-19 -26 -28.5 -71t-11 -81.5t-1.5 -111.5v-22v-136q0 -35 -4.5 -68t-20.5 -73t-41.5 -70t-71.5 -52t-107 -26q-50 -3 -95.5 2t-94 23.5t-83.5 50.5t-57.5 88.5t-22.5 131.5v285q0 46 -10 78.5t-20 41.5l-10 10h361q-4 -3 -11 -10.5t-18 -40.5t-11 -79v-333
q0 -78 34 -131.5t87 -61.5q79 -14 131.5 57.5t52.5 174.5v138q0 225 -122 286zM339 906q34 0 58 -24t24 -58t-24 -58t-58 -24t-58 24t-24 58t24 58t58 24zM541 906q34 0 58 -24t24 -58t-24 -58t-58 -24t-57.5 24t-23.5 58t23.5 58t57.5 24z" />
    <glyph glyph-name="Yacute" unicode="&#xdd;" horiz-adv-x="819" 
d="M809 700q-67 -40 -119 -97.5t-106 -143.5l-56 -89v-241q0 -29 4 -52.5t10 -37t12.5 -23t10.5 -12.5l4 -4h-362q5 3 11.5 10.5t18 40.5t11.5 78v165l-155 276q-28 45 -56 77.5t-43 42.5l-14 10h415q-3 -4 -7 -11t-2.5 -35.5t18.5 -62.5l118 -210q16 25 49 78
q47 82 26.5 144.5t-92.5 96.5h304zM469 919q18 -22 15.5 -46t-20.5 -42q-25 -24 -67.5 -44t-72.5 -27l-30 -8q3 12 9.5 32t29.5 65t48 69q18 18 42.5 19t45.5 -18z" />
    <glyph glyph-name="Thorn" unicode="&#xde;" horiz-adv-x="779" 
d="M413 573q175 0 254 -62.5t82 -160.5q-3 -98 -82 -161t-254 -63h-52q0 -44 10 -75.5t20 -40.5l10 -10h-361q4 3 11 10.5t18 40.5t11 78v441q0 46 -10 78.5t-20 41.5l-10 10h361q-4 -3 -10.5 -10.5t-18 -40t-11.5 -76.5h52zM361 140q70 0 106 55.5t36 154.5q0 98 -36 154
t-106 56v-420z" />
    <glyph glyph-name="germandbls" unicode="&#xdf;" horiz-adv-x="877" 
d="M798 251q45 -41 48.5 -97.5t-31.5 -94.5q-58 -67 -206 -67q-32 0 -110 15q-36 6 -55 2t-24 -12l-5 -8v202q1 -4 2.5 -11t7.5 -26.5t14.5 -38t24 -40.5t34 -37.5t46.5 -26.5t60 -11q21 0 32 13t7.5 34.5t-20.5 43.5q-23 28 -70 66.5t-68 57.5q-31 28 -40.5 67.5t7.5 84
t60 81.5l64 52q33 30 49 62t9 53q-14 38 -80.5 47t-129.5 -37.5t-63 -146.5v-478h-321q4 3 11 10t18 40t11 79v270q0 86 22 144.5t66 89t93.5 43.5t119.5 17q90 5 164 -14t92 -50q10 -25 5.5 -44t-24.5 -54q-22 -32 -21.5 -60.5t31.5 -58.5q19 -19 47.5 -45.5t65.5 -61.5
t57 -54z" />
    <glyph glyph-name="agrave" unicode="&#xe0;" horiz-adv-x="682" 
d="M612 129q0 -45 10 -77.5t20 -41.5l10 -10h-210q-41 0 -59.5 16t-24.5 53q-16 -31 -55.5 -52.5t-87 -25.5t-92 4t-74 37t-29.5 72q0 54 34.5 89.5t79.5 51t113.5 40.5t110.5 52q-2 171 -70 171q-73 0 -41 -78q18 -41 12 -69t-22.5 -43t-40.5 -19q-46 -8 -81 12t-33 74
q3 69 63.5 100t148.5 31q318 0 318 -219v-168zM358 116v207q-38 -17 -62.5 -50.5t-31.5 -70.5t-4.5 -72t16.5 -59t33 -27q20 -3 34.5 18.5t14.5 53.5zM221 719q21 19 45.5 18t42.5 -19q25 -24 47 -65.5t31 -70.5l9 -30q-13 3 -33 8.5t-66 26t-71 44.5q-18 18 -20.5 42
t15.5 46z" />
    <glyph glyph-name="aacute" unicode="&#xe1;" horiz-adv-x="682" 
d="M612 129q0 -45 10 -77.5t20 -41.5l10 -10h-210q-41 0 -59.5 16t-24.5 53q-16 -31 -55.5 -52.5t-87 -25.5t-92 4t-74 37t-29.5 72q0 54 34.5 89.5t79.5 51t113.5 40.5t110.5 52q-2 171 -70 171q-73 0 -41 -78q18 -41 12 -69t-22.5 -43t-40.5 -19q-46 -8 -81 12t-33 74
q3 69 63.5 100t148.5 31q318 0 318 -219v-168zM358 116v207q-38 -17 -62.5 -50.5t-31.5 -70.5t-4.5 -72t16.5 -59t33 -27q20 -3 34.5 18.5t14.5 53.5zM471 719q18 -22 15.5 -46t-20.5 -42q-25 -24 -67.5 -44t-72.5 -27l-30 -8q3 12 9.5 32t29.5 65t48 69q18 18 42.5 19
t45.5 -18z" />
    <glyph glyph-name="acircumflex" unicode="&#xe2;" horiz-adv-x="682" 
d="M612 129q0 -45 10 -77.5t20 -41.5l10 -10h-210q-41 0 -59.5 16t-24.5 53q-16 -31 -55.5 -52.5t-87 -25.5t-92 4t-74 37t-29.5 72q0 54 34.5 89.5t79.5 51t113.5 40.5t110.5 52q-2 171 -70 171q-73 0 -41 -78q18 -41 12 -69t-22.5 -43t-40.5 -19q-46 -8 -81 12t-33 74
q3 69 63.5 100t148.5 31q318 0 318 -219v-168zM358 116v207q-38 -17 -62.5 -50.5t-31.5 -70.5t-4.5 -72t16.5 -59t33 -27q20 -3 34.5 18.5t14.5 53.5zM337 723l165 -171l-165 54l-166 -54z" />
    <glyph glyph-name="atilde" unicode="&#xe3;" horiz-adv-x="682" 
d="M612 129q0 -45 10 -77.5t20 -41.5l10 -10h-210q-41 0 -59.5 16t-24.5 53q-16 -31 -55.5 -52.5t-87 -25.5t-92 4t-74 37t-29.5 72q0 54 34.5 89.5t79.5 51t113.5 40.5t110.5 52q-2 171 -70 171q-73 0 -41 -78q18 -41 12 -69t-22.5 -43t-40.5 -19q-46 -8 -81 12t-33 74
q3 69 63.5 100t148.5 31q318 0 318 -219v-168zM358 116v207q-38 -17 -62.5 -50.5t-31.5 -70.5t-4.5 -72t16.5 -59t33 -27q20 -3 34.5 18.5t14.5 53.5zM532 685q0 -20 -5.5 -44.5t-29 -53.5t-62.5 -34q-19 -2 -43.5 2.5t-39 10t-42 17.5t-31.5 14q-76 30 -119 -14
q8 48 37.5 83.5t67.5 39.5q31 4 62 -4.5t61 -23t45 -17.5q69 -15 99 24z" />
    <glyph glyph-name="adieresis" unicode="&#xe4;" horiz-adv-x="682" 
d="M612 129q0 -45 10 -77.5t20 -41.5l10 -10h-210q-41 0 -59.5 16t-24.5 53q-16 -31 -55.5 -52.5t-87 -25.5t-92 4t-74 37t-29.5 72q0 54 34.5 89.5t79.5 51t113.5 40.5t110.5 52q-2 171 -70 171q-73 0 -41 -78q18 -41 12 -69t-22.5 -43t-40.5 -19q-46 -8 -81 12t-33 74
q3 69 63.5 100t148.5 31q318 0 318 -219v-168zM358 116v207q-38 -17 -62.5 -50.5t-31.5 -70.5t-4.5 -72t16.5 -59t33 -27q20 -3 34.5 18.5t14.5 53.5zM255 706q34 0 58 -24t24 -58t-24 -58t-58 -24t-58 24t-24 58t24 58t58 24zM457 706q34 0 58 -24t24 -58t-24 -58t-58 -24
t-57.5 24t-23.5 58t23.5 58t57.5 24z" />
    <glyph glyph-name="aring" unicode="&#xe5;" horiz-adv-x="682" 
d="M612 129q0 -45 10 -77.5t20 -41.5l10 -10h-210q-41 0 -59.5 16t-24.5 53q-16 -31 -55.5 -52.5t-87 -25.5t-92 4t-74 37t-29.5 72q0 54 34.5 89.5t79.5 51t113.5 40.5t110.5 52q-2 171 -70 171q-73 0 -41 -78q18 -41 12 -69t-22.5 -43t-40.5 -19q-46 -8 -81 12t-33 74
q3 69 63.5 100t148.5 31q318 0 318 -219v-168zM358 116v207q-38 -17 -62.5 -50.5t-31.5 -70.5t-4.5 -72t16.5 -59t33 -27q20 -3 34.5 18.5t14.5 53.5zM357 727q54 0 84 -26.5t30 -65.5t-30 -65.5t-84 -27.5q-55 1 -85 27.5t-30 65.5t30 65.5t85 26.5zM357 549q27 0 27 86
q0 85 -27 85q-28 0 -28 -85q0 -86 28 -86z" />
    <glyph glyph-name="ae" unicode="&#xe6;" horiz-adv-x="1012" 
d="M982 143h10q-35 -74 -106 -113.5t-164 -40.5q-65 0 -122.5 20.5t-104 66t-65.5 111.5q-7 -54 -25 -92t-38.5 -58.5t-53 -31.5t-58 -13.5t-63.5 -2.5q-70 0 -121 32t-51 84q0 54 44.5 89.5t102 51t135 40t120.5 52.5q-2 171 -70 171q-73 0 -40 -79q18 -40 11.5 -68.5
t-23 -43.5t-39.5 -19q-47 -8 -82 12t-33 74q3 69 64 100.5t148 31.5q130 0 196 -34q70 34 167 34q78 0 131.5 -20t82 -58t40.5 -82.5t12 -103.5h-134h-77h-110q19 -81 78.5 -123.5t126 -37.5t111.5 51zM716 509q-43 0 -59.5 -67t6.5 -176h115q11 92 -3 167.5t-59 75.5z
M423 224v99q-38 -17 -69.5 -48t-48.5 -66t-24.5 -69t-1.5 -60t23 -35q25 -14 53.5 5t44.5 62q23 58 23 112z" />
    <glyph glyph-name="ccedilla" unicode="&#xe7;" 
d="M320 -11q-16 0 -23 1l-16 -27q41 9 83 -2q72 -17 69 -75q-4 -70 -112 -70q-65 0 -103 22v51q22 -52 49 -58q49 -9 59 51q9 54 -25 64q-13 4 -42 2l26 42q-114 10 -189.5 78t-75.5 184q0 67 26.5 119.5t72 83t100 46t115.5 15.5q40 0 106 -17q36 -7 59 -3t33 13l10 9
l18 -237q-3 9 -9 24.5t-26.5 54.5t-43.5 69t-58.5 54.5t-72.5 24.5q-41 0 -66.5 -39.5t-28.5 -96.5t11 -120q22 -83 81 -125t123.5 -36t109.5 51h9q-34 -74 -105 -113.5t-164 -39.5z" />
    <glyph glyph-name="egrave" unicode="&#xe8;" 
d="M579 143h10q-34 -74 -105.5 -113.5t-163.5 -40.5q-126 0 -213 69t-87 195q1 117 74.5 190t223.5 73q77 0 131 -20t82.5 -58t40.5 -82t13 -103h-322q19 -81 79 -123.5t126 -37.5t111 51zM313 509q-43 0 -59.5 -67.5t6.5 -175.5h115q11 92 -3 167.5t-59 75.5zM180 719
q21 19 45.5 18t42.5 -19q25 -24 47 -65.5t31 -70.5l9 -30q-13 3 -33 8.5t-66 26t-71 44.5q-18 18 -20.5 42t15.5 46z" />
    <glyph glyph-name="eacute" unicode="&#xe9;" 
d="M579 143h10q-34 -74 -105.5 -113.5t-163.5 -40.5q-126 0 -213 69t-87 195q1 117 74.5 190t223.5 73q77 0 131 -20t82.5 -58t40.5 -82t13 -103h-322q19 -81 79 -123.5t126 -37.5t111 51zM313 509q-43 0 -59.5 -67.5t6.5 -175.5h115q11 92 -3 167.5t-59 75.5zM439 719
q18 -22 15.5 -46t-20.5 -42q-25 -24 -67.5 -44t-72.5 -27l-30 -8q3 12 9.5 32t29.5 65t48 69q18 18 42.5 19t45.5 -18z" />
    <glyph glyph-name="ecircumflex" unicode="&#xea;" 
d="M579 143h10q-34 -74 -105.5 -113.5t-163.5 -40.5q-126 0 -213 69t-87 195q1 117 74.5 190t223.5 73q77 0 131 -20t82.5 -58t40.5 -82t13 -103h-322q19 -81 79 -123.5t126 -37.5t111 51zM313 509q-43 0 -59.5 -67.5t6.5 -175.5h115q11 92 -3 167.5t-59 75.5zM305 723
l165 -171l-165 54l-166 -54z" />
    <glyph glyph-name="edieresis" unicode="&#xeb;" 
d="M579 143h10q-34 -74 -105.5 -113.5t-163.5 -40.5q-126 0 -213 69t-87 195q1 117 74.5 190t223.5 73q77 0 131 -20t82.5 -58t40.5 -82t13 -103h-322q19 -81 79 -123.5t126 -37.5t111 51zM313 509q-43 0 -59.5 -67.5t6.5 -175.5h115q11 92 -3 167.5t-59 75.5zM204 706
q34 0 58 -24t24 -58t-24 -58t-58 -24t-58 24t-24 58t24 58t58 24zM406 706q34 0 58 -24t24 -58t-24 -58t-58 -24t-57.5 24t-23.5 58t23.5 58t57.5 24z" />
    <glyph glyph-name="igrave" unicode="&#xec;" horiz-adv-x="394" 
d="M324 129q0 -45 10 -77.5t20 -41.5l10 -10h-334q4 3 11 10.5t18 40.5t11 78v246q0 45 -10 77.5t-20 41.5l-10 10h334q-4 -3 -11 -10.5t-18 -40.5t-11 -78v-246zM92 719q21 19 45.5 18t42.5 -19q25 -24 47 -65.5t31 -70.5l9 -30q-13 3 -33 8.5t-66 26t-71 44.5
q-18 18 -20.5 42t15.5 46z" />
    <glyph glyph-name="iacute" unicode="&#xed;" horiz-adv-x="394" 
d="M324 129q0 -45 10 -77.5t20 -41.5l10 -10h-334q4 3 11 10.5t18 40.5t11 78v246q0 45 -10 77.5t-20 41.5l-10 10h334q-4 -3 -11 -10.5t-18 -40.5t-11 -78v-246zM302 719q18 -22 15.5 -46t-20.5 -42q-25 -24 -67.5 -44t-72.5 -27l-30 -8q3 12 9.5 32t29.5 65t48 69
q18 18 42.5 19t45.5 -18z" />
    <glyph glyph-name="icircumflex" unicode="&#xee;" horiz-adv-x="394" 
d="M324 129q0 -45 10 -77.5t20 -41.5l10 -10h-334q4 3 11 10.5t18 40.5t11 78v246q0 45 -10 77.5t-20 41.5l-10 10h334q-4 -3 -11 -10.5t-18 -40.5t-11 -78v-246zM198 723l165 -171l-165 54l-166 -54z" />
    <glyph glyph-name="idieresis" unicode="&#xef;" horiz-adv-x="396" 
d="M325 129q0 -45 10 -77.5t20 -41.5l10 -10h-334q4 3 11 10.5t18 40.5t11 78v246q0 45 -10 77.5t-20 41.5l-10 10h334q-4 -3 -11 -10.5t-18 -40.5t-11 -78v-246zM97 706q34 0 58 -24t24 -58t-24 -58t-58 -24t-58 24t-24 58t24 58t58 24zM299 706q34 0 58 -24t24 -58
t-24 -58t-58 -24t-57.5 24t-23.5 58t23.5 58t57.5 24z" />
    <glyph glyph-name="eth" unicode="&#xf0;" horiz-adv-x="714" 
d="M682 335q14 -155 -69.5 -250.5t-238.5 -95.5q-165 0 -254 74.5t-90 189.5q1 118 91.5 190.5t284.5 73.5q-13 58 -52 109l-122 -42l-5 13l118 40q-62 74 -150 99q137 0 256 -62l110 38l4 -13l-99 -34q91 -52 148.5 -136t67.5 -194zM355 -3q42 0 59 99t12.5 215.5
t-19.5 197.5q-38 0 -64.5 -23.5t-38.5 -65t-16.5 -80t-5.5 -87.5q1 -35 1.5 -57.5t3 -56.5t7.5 -55.5t12.5 -43.5t20 -32.5t28.5 -10.5z" />
    <glyph glyph-name="ntilde" unicode="&#xf1;" horiz-adv-x="755" 
d="M390 0q4 3 11 10.5t18 40.5t11 78v200q0 28 -1.5 47t-6 42t-15.5 35.5t-28 12.5q-21 1 -38 -24t-17 -61v-252q0 -45 10 -77.5t20 -41.5l10 -10h-334q4 3 11 10.5t18 40.5t11 78v245q0 46 -10 78.5t-20 41.5l-10 10h267l27 -68q38 80 159 80q101 0 151 -54t50 -142v-191
q0 -29 4 -52.5t10 -37t12.5 -23t10.5 -12.5l4 -4h-335zM564 685q0 -20 -5.5 -44.5t-29 -53.5t-62.5 -34q-19 -2 -43.5 2.5t-39 10t-42 17.5t-31.5 14q-76 30 -119 -14q8 48 37.5 83.5t67.5 39.5q31 4 62 -4.5t61 -23t45 -17.5q69 -15 99 24z" />
    <glyph glyph-name="ograve" unicode="&#xf2;" horiz-adv-x="689" 
d="M345 516q153 0 238 -75t86 -189q-1 -114 -86.5 -188.5t-237.5 -74.5q-153 0 -238.5 74.5t-86.5 188.5q1 115 86.5 189.5t238.5 74.5zM345 -3q16 0 28.5 10.5t20 32.5t12 43t7 56t3 55.5t1.5 57.5q-1 37 -1.5 58t-3 56t-7 56t-12 43t-20 32.5t-28.5 10.5t-28.5 -10.5
t-20 -32.5t-12.5 -43t-7.5 -56t-3 -56t-1.5 -58q1 -37 1.5 -57.5t3 -55.5t7.5 -56t12.5 -43t20 -32.5t28.5 -10.5zM199 719q21 19 45.5 18t42.5 -19q25 -24 47 -65.5t31 -70.5l9 -30q-13 3 -33 8.5t-66 26t-71 44.5q-18 18 -20.5 42t15.5 46z" />
    <glyph glyph-name="oacute" unicode="&#xf3;" horiz-adv-x="689" 
d="M345 516q153 0 238 -75t86 -189q-1 -114 -86.5 -188.5t-237.5 -74.5q-153 0 -238.5 74.5t-86.5 188.5q1 115 86.5 189.5t238.5 74.5zM345 -3q16 0 28.5 10.5t20 32.5t12 43t7 56t3 55.5t1.5 57.5q-1 37 -1.5 58t-3 56t-7 56t-12 43t-20 32.5t-28.5 10.5t-28.5 -10.5
t-20 -32.5t-12.5 -43t-7.5 -56t-3 -56t-1.5 -58q1 -37 1.5 -57.5t3 -55.5t7.5 -56t12.5 -43t20 -32.5t28.5 -10.5zM489 719q18 -22 15.5 -46t-20.5 -42q-25 -24 -67.5 -44t-72.5 -27l-30 -8q3 12 9.5 32t29.5 65t48 69q18 18 42.5 19t45.5 -18z" />
    <glyph glyph-name="ocircumflex" unicode="&#xf4;" horiz-adv-x="689" 
d="M345 516q153 0 238 -75t86 -189q-1 -114 -86.5 -188.5t-237.5 -74.5q-153 0 -238.5 74.5t-86.5 188.5q1 115 86.5 189.5t238.5 74.5zM345 -3q16 0 28.5 10.5t20 32.5t12 43t7 56t3 55.5t1.5 57.5q-1 37 -1.5 58t-3 56t-7 56t-12 43t-20 32.5t-28.5 10.5t-28.5 -10.5
t-20 -32.5t-12.5 -43t-7.5 -56t-3 -56t-1.5 -58q1 -37 1.5 -57.5t3 -55.5t7.5 -56t12.5 -43t20 -32.5t28.5 -10.5zM345 723l165 -171l-165 54l-166 -54z" />
    <glyph glyph-name="otilde" unicode="&#xf5;" horiz-adv-x="689" 
d="M345 516q153 0 238 -75t86 -189q-1 -114 -86.5 -188.5t-237.5 -74.5q-153 0 -238.5 74.5t-86.5 188.5q1 115 86.5 189.5t238.5 74.5zM345 -3q16 0 28.5 10.5t20 32.5t12 43t7 56t3 55.5t1.5 57.5q-1 37 -1.5 58t-3 56t-7 56t-12 43t-20 32.5t-28.5 10.5t-28.5 -10.5
t-20 -32.5t-12.5 -43t-7.5 -56t-3 -56t-1.5 -58q1 -37 1.5 -57.5t3 -55.5t7.5 -56t12.5 -43t20 -32.5t28.5 -10.5zM531 685q0 -20 -5.5 -44.5t-29 -53.5t-62.5 -34q-19 -2 -43.5 2.5t-39 10t-42 17.5t-31.5 14q-76 30 -119 -14q8 48 37.5 83.5t67.5 39.5q31 4 62 -4.5
t61 -23t45 -17.5q69 -15 99 24z" />
    <glyph glyph-name="odieresis" unicode="&#xf6;" horiz-adv-x="689" 
d="M345 516q153 0 238 -75t86 -189q-1 -114 -86.5 -188.5t-237.5 -74.5q-153 0 -238.5 74.5t-86.5 188.5q1 115 86.5 189.5t238.5 74.5zM345 -3q16 0 28.5 10.5t20 32.5t12 43t7 56t3 55.5t1.5 57.5q-1 37 -1.5 58t-3 56t-7 56t-12 43t-20 32.5t-28.5 10.5t-28.5 -10.5
t-20 -32.5t-12.5 -43t-7.5 -56t-3 -56t-1.5 -58q1 -37 1.5 -57.5t3 -55.5t7.5 -56t12.5 -43t20 -32.5t28.5 -10.5zM244 706q34 0 58 -24t24 -58t-24 -58t-58 -24t-58 24t-24 58t24 58t58 24zM446 706q34 0 58 -24t24 -58t-24 -58t-58 -24t-57.5 24t-23.5 58t23.5 58t57.5 24
z" />
    <glyph glyph-name="divide" unicode="&#xf7;" horiz-adv-x="504" 
d="M30 337h444v-13h-444v13zM252 426q-43 0 -73.5 30.5t-30.5 73.5t30.5 73.5t73.5 30.5t73.5 -30.5t30.5 -73.5t-30.5 -73.5t-73.5 -30.5zM252 234q43 0 73.5 -30t30.5 -73t-30.5 -73.5t-73.5 -30.5t-73.5 30.5t-30.5 73.5t30.5 73t73.5 30z" />
    <glyph glyph-name="oslash" unicode="&#xf8;" horiz-adv-x="689" 
d="M449 506q105 -24 162 -92.5t58 -160.5q-1 -114 -86.5 -189t-238.5 -75q-50 0 -92 9l-17 -44h-13l18 47q-105 23 -162 91.5t-58 160.5q1 114 86 189t238 75q50 0 93 -9l17 44h13zM272 253q0 -87 8 -148l125 320q-17 84 -61 84q-16 0 -28.5 -10.5t-20 -32.5t-12 -43t-7 -56
t-3 -56t-1.5 -58zM344 -3q16 0 28.5 10.5t20 32.5t12.5 43t7.5 56t3 56t1.5 58q-2 104 -8 148l-125 -320q17 -84 60 -84z" />
    <glyph glyph-name="ugrave" unicode="&#xf9;" horiz-adv-x="735" 
d="M665 129q0 -45 10 -77.5t20 -41.5l10 -10h-210q-41 0 -59.5 15.5t-24.5 51.5q-38 -80 -159 -80q-102 0 -152 54.5t-50 143.5v189q0 46 -10 78.5t-20 41.5l-10 10h294v-329q0 -137 51 -138q22 0 39 25t17 61v251q0 46 -10 78.5t-20 41.5l-10 10h294v-375zM233 719
q21 19 45.5 18t42.5 -19q25 -24 47 -65.5t31 -70.5l9 -30q-13 3 -33 8.5t-66 26t-71 44.5q-18 18 -20.5 42t15.5 46z" />
    <glyph glyph-name="uacute" unicode="&#xfa;" horiz-adv-x="735" 
d="M665 129q0 -45 10 -77.5t20 -41.5l10 -10h-210q-41 0 -59.5 15.5t-24.5 51.5q-38 -80 -159 -80q-102 0 -152 54.5t-50 143.5v189q0 46 -10 78.5t-20 41.5l-10 10h294v-329q0 -137 51 -138q22 0 39 25t17 61v251q0 46 -10 78.5t-20 41.5l-10 10h294v-375zM482 719
q18 -22 15.5 -46t-20.5 -42q-25 -24 -67.5 -44t-72.5 -27l-30 -8q3 12 9.5 32t29.5 65t48 69q18 18 42.5 19t45.5 -18z" />
    <glyph glyph-name="ucircumflex" unicode="&#xfb;" horiz-adv-x="735" 
d="M665 129q0 -45 10 -77.5t20 -41.5l10 -10h-210q-41 0 -59.5 15.5t-24.5 51.5q-38 -80 -159 -80q-102 0 -152 54.5t-50 143.5v189q0 46 -10 78.5t-20 41.5l-10 10h294v-329q0 -137 51 -138q22 0 39 25t17 61v251q0 46 -10 78.5t-20 41.5l-10 10h294v-375zM358 723
l165 -171l-165 54l-166 -54z" />
    <glyph glyph-name="udieresis" unicode="&#xfc;" horiz-adv-x="735" 
d="M665 129q0 -45 10 -77.5t20 -41.5l10 -10h-210q-41 0 -59.5 15.5t-24.5 51.5q-38 -80 -159 -80q-102 0 -152 54.5t-50 143.5v189q0 46 -10 78.5t-20 41.5l-10 10h294v-329q0 -137 51 -138q22 0 39 25t17 61v251q0 46 -10 78.5t-20 41.5l-10 10h294v-375zM257 706
q34 0 58 -24t24 -58t-24 -58t-58 -24t-58 24t-24 58t24 58t58 24zM459 706q34 0 58 -24t24 -58t-24 -58t-58 -24t-57.5 24t-23.5 58t23.5 58t57.5 24z" />
    <glyph glyph-name="yacute" unicode="&#xfd;" horiz-adv-x="716" 
d="M716 504q-68 -26 -114 -82t-92 -171l-95 -251q-5 -12 -54 -131q-83 -189 -226 -138q-53 19 -68.5 69.5t15 95t93.5 47.5q32 2 59.5 -14t42 -33.5t29.5 -27.5t31 4.5t37 61.5q7 11 29 66h-172q-113 285 -149 374q-16 40 -39 72.5t-38 45.5l-15 12h360q-3 -3 -6.5 -11
t-3 -41.5t14.5 -77.5l91 -258q15 28 29 71q88 261 -62 317h303zM502 719q18 -22 15.5 -46t-20.5 -42q-25 -24 -67.5 -44t-72.5 -27l-30 -8q3 12 9.5 32t29.5 65t48 69q18 18 42.5 19t45.5 -18z" />
    <glyph glyph-name="thorn" unicode="&#xfe;" horiz-adv-x="709" 
d="M447 393q105 0 173.5 -67.5t68.5 -195.5t-68.5 -196t-173.5 -68q-93 0 -132 61v-43q0 -45 10 -77.5t20 -42.5l10 -9h-335q5 3 11.5 10.5t18 40.5t11.5 78v491q0 45 -10.5 77.5t-20.5 41.5l-10 10h335q-4 -3 -11 -10.5t-18 -40.5t-11 -78v-43q39 61 132 61zM315 -55
q55 -84 87 5q23 65 23 180q0 146 -34 202q-30 51 -76 -18v-369z" />
    <glyph glyph-name="ydieresis" unicode="&#xff;" horiz-adv-x="716" 
d="M716 504q-68 -26 -114 -82t-92 -171l-95 -251q-5 -12 -54 -131q-83 -189 -226 -138q-53 19 -68.5 69.5t15 95t93.5 47.5q32 2 59.5 -14t42 -33.5t29.5 -27.5t31 4.5t37 61.5q7 11 29 66h-172q-113 285 -149 374q-16 40 -39 72.5t-38 45.5l-15 12h360q-3 -3 -6.5 -11
t-3 -41.5t14.5 -77.5l91 -258q15 28 29 71q88 261 -62 317h303zM287 706q34 0 58 -24t24 -58t-24 -58t-58 -24t-58 24t-24 58t24 58t58 24zM489 706q34 0 58 -24t24 -58t-24 -58t-58 -24t-57.5 24t-23.5 58t23.5 58t57.5 24z" />
    <glyph glyph-name="Amacron" unicode="&#x100;" horiz-adv-x="854" 
d="M854 0h-401q3 5 7 15t3 44t-17 71q-10 25 -43 96h-201q-9 -83 17 -143t84 -83h-303q109 95 194 296l166 404h110q239 -461 295 -570q25 -49 47.5 -81.5t31.5 -40.5zM203 240h194l-112 243q-16 -33 -54 -135q-20 -55 -28 -108zM201 806h432v-14h-432v14z" />
    <glyph glyph-name="amacron" unicode="&#x101;" horiz-adv-x="682" 
d="M612 129q0 -45 10 -77.5t20 -41.5l10 -10h-210q-41 0 -59.5 16t-24.5 53q-16 -31 -55.5 -52.5t-87 -25.5t-92 4t-74 37t-29.5 72q0 54 34.5 89.5t79.5 51t113.5 40.5t110.5 52q-2 171 -70 171q-73 0 -41 -78q18 -41 12 -69t-22.5 -43t-40.5 -19q-46 -8 -81 12t-33 74
q3 69 63.5 100t148.5 31q318 0 318 -219v-168zM358 116v207q-38 -17 -62.5 -50.5t-31.5 -70.5t-4.5 -72t16.5 -59t33 -27q20 -3 34.5 18.5t14.5 53.5zM140 606h432v-14h-432v14z" />
    <glyph glyph-name="Abreve" unicode="&#x102;" horiz-adv-x="854" 
d="M854 0h-401q3 5 7 15t3 44t-17 71q-10 25 -43 96h-201q-9 -83 17 -143t84 -83h-303q109 95 194 296l166 404h110q239 -461 295 -570q25 -49 47.5 -81.5t31.5 -40.5zM203 240h194l-112 243q-16 -33 -54 -135q-20 -55 -28 -108zM441 835h87q0 -39 -30 -65.5t-84 -27.5
q-55 1 -84.5 27.5t-29.5 65.5h86q0 -86 28 -86q27 0 27 86z" />
    <glyph glyph-name="abreve" unicode="&#x103;" horiz-adv-x="682" 
d="M612 129q0 -45 10 -77.5t20 -41.5l10 -10h-210q-41 0 -59.5 16t-24.5 53q-16 -31 -55.5 -52.5t-87 -25.5t-92 4t-74 37t-29.5 72q0 54 34.5 89.5t79.5 51t113.5 40.5t110.5 52q-2 171 -70 171q-73 0 -41 -78q18 -41 12 -69t-22.5 -43t-40.5 -19q-46 -8 -81 12t-33 74
q3 69 63.5 100t148.5 31q318 0 318 -219v-168zM358 116v207q-38 -17 -62.5 -50.5t-31.5 -70.5t-4.5 -72t16.5 -59t33 -27q20 -3 34.5 18.5t14.5 53.5zM385 635h87q0 -39 -30 -65.5t-84 -27.5q-55 1 -84.5 27.5t-29.5 65.5h86q0 -86 28 -86q27 0 27 86z" />
    <glyph glyph-name="Aogonek" unicode="&#x104;" horiz-adv-x="854" 
d="M790 0q-11 -8 -15 -28t-0.5 -42.5t13.5 -43t27 -28t39 1.5q-29 -31 -71.5 -40.5t-75.5 7.5t-38 56q-6 47 30.5 79t80.5 38h-327q3 5 7 15t3.5 44t-16.5 71q-3 6 -18 39.5t-25 56.5h-202q-9 -82 17 -142.5t84 -83.5h-303q111 96 195 296l165 404h110q239 -461 296 -570
q25 -49 47 -81.5t31 -40.5l10 -8h-64zM204 240h194l-113 243q-15 -33 -53 -135q-22 -61 -28 -108z" />
    <glyph glyph-name="aogonek" unicode="&#x105;" horiz-adv-x="683" 
d="M588 0q-14 -10 -16 -38t5.5 -55.5t28 -43.5t47.5 -4q-30 -30 -72 -39.5t-75.5 7t-38.5 55.5q-6 47 30 79t80 39h-135q-41 0 -59.5 16t-24.5 53q-20 -39 -75.5 -60.5t-113.5 -20t-103.5 31.5t-45.5 84t34.5 89.5t79.5 51t113.5 40.5t110.5 52q-2 171 -70 171
q-73 0 -41 -78q18 -41 12 -69.5t-22.5 -43t-39.5 -18.5q-47 -9 -82 11.5t-33 73.5q3 70 63.5 101t148.5 31q319 0 319 -219v-168q0 -46 10 -78t20 -41l10 -10h-65zM309 44q20 -3 34.5 18t14.5 54v207q-38 -17 -62.5 -50.5t-31.5 -70.5t-4.5 -72t16.5 -59t33 -27z" />
    <glyph glyph-name="Cacute" unicode="&#x106;" horiz-adv-x="782" 
d="M739 199h13q-47 -102 -139 -156t-214 -54q-62 0 -125.5 23t-118.5 66t-90 114t-35 158q0 93 34 164.5t92.5 113t130 62.5t154.5 21q57 0 145 -22q49 -10 73.5 -4.5t31.5 17.5l7 12l21 -277q-3 11 -9.5 28.5t-30.5 63t-52 80t-74 63t-97 28.5q-56 0 -95 -53.5
t-48.5 -131.5t3.5 -165q14 -76 51 -129t84.5 -75t100 -23.5t101.5 19t86 57.5zM525 919q18 -22 15.5 -46t-20.5 -42q-25 -24 -67.5 -44t-72.5 -27l-30 -8q3 12 9.5 32t29.5 65t48 69q18 18 42.5 19t45.5 -18z" />
    <glyph glyph-name="cacute" unicode="&#x107;" 
d="M579 143h10q-35 -74 -106 -113.5t-164 -40.5q-126 0 -212.5 68.5t-86.5 194.5q0 68 26.5 120t71.5 82.5t100 46t116 15.5q39 0 105 -16q36 -8 59 -4t33 13l10 9l18 -237q-2 5 -5 13t-13.5 32t-22.5 45.5t-30.5 47.5t-38.5 45t-46.5 32t-53.5 13q-41 0 -66.5 -40
t-28.5 -97t11 -120q17 -62 56 -102.5t85 -52t93 0t80 45.5zM439 719q18 -22 15.5 -46t-20.5 -42q-25 -24 -67.5 -44t-72.5 -27l-30 -8q3 12 9.5 32t29.5 65t48 69q18 18 42.5 19t45.5 -18z" />
    <glyph glyph-name="Ccircumflex" unicode="&#x108;" horiz-adv-x="782" 
d="M739 199h13q-47 -102 -139 -156t-214 -54q-62 0 -125.5 23t-118.5 66t-90 114t-35 158q0 93 34 164.5t92.5 113t130 62.5t154.5 21q57 0 145 -22q49 -10 73.5 -4.5t31.5 17.5l7 12l21 -277q-3 11 -9.5 28.5t-30.5 63t-52 80t-74 63t-97 28.5q-56 0 -95 -53.5
t-48.5 -131.5t3.5 -165q14 -76 51 -129t84.5 -75t100 -23.5t101.5 19t86 57.5zM431 923l165 -171l-165 54l-166 -54z" />
    <glyph glyph-name="ccircumflex" unicode="&#x109;" 
d="M579 143h10q-35 -74 -106 -113.5t-164 -40.5q-126 0 -212.5 68.5t-86.5 194.5q0 68 26.5 120t71.5 82.5t100 46t116 15.5q39 0 105 -16q36 -8 59 -4t33 13l10 9l18 -237q-2 5 -5 13t-13.5 32t-22.5 45.5t-30.5 47.5t-38.5 45t-46.5 32t-53.5 13q-41 0 -66.5 -40
t-28.5 -97t11 -120q17 -62 56 -102.5t85 -52t93 0t80 45.5zM335 723l165 -171l-165 54l-166 -54z" />
    <glyph glyph-name="Cdotaccent" unicode="&#x10a;" horiz-adv-x="782" 
d="M739 199h13q-47 -102 -139 -156t-214 -54q-62 0 -125.5 23t-118.5 66t-90 114t-35 158q0 93 34 164.5t92.5 113t130 62.5t154.5 21q57 0 145 -22q49 -10 73.5 -4.5t31.5 17.5l7 12l21 -277q-3 11 -9.5 28.5t-30.5 63t-52 80t-74 63t-97 28.5q-56 0 -95 -53.5
t-48.5 -131.5t3.5 -165q14 -76 51 -129t84.5 -75t100 -23.5t101.5 19t86 57.5zM441 906q34 0 58 -24t24 -58t-24 -58t-58 -24t-58 24t-24 58t24 58t58 24z" />
    <glyph glyph-name="cdotaccent" unicode="&#x10b;" 
d="M579 143h10q-35 -74 -106 -113.5t-164 -40.5q-126 0 -212.5 68.5t-86.5 194.5q0 68 26.5 120t71.5 82.5t100 46t116 15.5q39 0 105 -16q36 -8 59 -4t33 13l10 9l18 -237q-2 5 -5 13t-13.5 32t-22.5 45.5t-30.5 47.5t-38.5 45t-46.5 32t-53.5 13q-41 0 -66.5 -40
t-28.5 -97t11 -120q17 -62 56 -102.5t85 -52t93 0t80 45.5zM325 706q34 0 58 -24t24 -58t-24 -58t-58 -24t-58 24t-24 58t24 58t58 24z" />
    <glyph glyph-name="Ccaron" unicode="&#x10c;" horiz-adv-x="782" 
d="M739 199h13q-47 -102 -139 -156t-214 -54q-62 0 -125.5 23t-118.5 66t-90 114t-35 158q0 93 34 164.5t92.5 113t130 62.5t154.5 21q57 0 145 -22q49 -10 73.5 -4.5t31.5 17.5l7 12l21 -277q-3 11 -9.5 28.5t-30.5 63t-52 80t-74 63t-97 28.5q-56 0 -95 -53.5
t-48.5 -131.5t3.5 -165q14 -76 51 -129t84.5 -75t100 -23.5t101.5 19t86 57.5zM440 869l166 54l-166 -171l-165 171z" />
    <glyph glyph-name="ccaron" unicode="&#x10d;" 
d="M579 143h10q-35 -74 -106 -113.5t-164 -40.5q-126 0 -212.5 68.5t-86.5 194.5q0 68 26.5 120t71.5 82.5t100 46t116 15.5q39 0 105 -16q36 -8 59 -4t33 13l10 9l18 -237q-2 5 -5 13t-13.5 32t-22.5 45.5t-30.5 47.5t-38.5 45t-46.5 32t-53.5 13q-41 0 -66.5 -40
t-28.5 -97t11 -120q17 -62 56 -102.5t85 -52t93 0t80 45.5zM324 669l166 54l-166 -171l-165 171z" />
    <glyph glyph-name="Dcaron" unicode="&#x10e;" horiz-adv-x="841" 
d="M413 700q197 0 297.5 -99.5t100.5 -250.5t-100.5 -250.5t-297.5 -99.5h-373q4 3 11 10t18 40t11 79v441q0 46 -10 78.5t-20 41.5l-10 10h373zM361 13q96 0 141 93t45 244q0 150 -45 243t-141 93v-673zM361 869l166 54l-166 -171l-165 171z" />
    <glyph glyph-name="dcaron" unicode="&#x10f;" horiz-adv-x="913" 
d="M648 129q0 -46 10 -78t20 -41l10 -10h-210q-37 0 -55 13t-26 41q-50 -65 -135 -65q-105 0 -173.5 68t-68.5 196t68.5 195.5t173.5 67.5q93 0 132 -61v166q0 46 -10 78.5t-20 42.5l-10 9h294v-622zM394 272v147q0 23 -11.5 40t-25.5 14q-32 -7 -52.5 -71t-20.5 -149
q0 -89 15 -153.5t45 -70.5q25 -5 50 39v204zM779 633q43 0 73.5 -30.5t30.5 -73.5q0 -62 -44 -122t-118 -100l-8 12q97 48 140 137q-31 -31 -74 -31t-73.5 30.5t-30.5 73.5t30.5 73.5t73.5 30.5z" />
    <glyph glyph-name="Dcroat" unicode="&#x110;" horiz-adv-x="841" 
d="M413 700q101 0 178.5 -28t124.5 -77t71 -111t24 -134t-24 -134t-71 -111t-124.5 -77t-178.5 -28h-373q4 3 11 10.5t18 40.5t11 78v214h-40v13h40v214q0 46 -10 78.5t-20 41.5l-10 10h373zM361 13q96 0 141 93t45 244q0 150 -45 243t-141 93v-330h98v-13h-98v-330z" />
    <glyph glyph-name="dcroat" unicode="&#x111;" horiz-adv-x="718" 
d="M688 622h-40v-493q0 -45 10 -77.5t20 -41.5l10 -10h-210q-37 0 -55 13t-26 41q-50 -65 -135 -65q-105 0 -173.5 68t-68.5 196t68.5 196t173.5 68q91 0 132 -61v166h-124v13h124q-2 41 -12 70t-19 37l-9 9h294v-116h40v-13zM394 272v147q0 24 -11.5 40.5t-25.5 13.5
q-32 -7 -52.5 -70.5t-20.5 -149.5q0 -88 15 -153t45 -71q26 -4 50 40v203z" />
    <glyph glyph-name="Emacron" unicode="&#x112;" horiz-adv-x="706" 
d="M408 13q41 0 76 14t58.5 36t43 48.5t30 53t18 48.5t10.5 36l2 14v-263h-606q4 3 11 10t18 40t11 79v441q0 46 -10 78.5t-20 41.5l-10 10h593v-263q-1 5 -2.5 14t-9.5 35t-18.5 49.5t-30 52t-43 49.5t-58.5 35t-76 14h-34v-330q53 6 93 26t59 43.5t30.5 46t13.5 37.5l2 15
v-348q0 3 -1 8.5t-5.5 21t-12 30t-22.5 33t-35 33t-51.5 26.5t-70.5 17v-332h47zM132 806h432v-14h-432v14z" />
    <glyph glyph-name="emacron" unicode="&#x113;" 
d="M579 143h10q-34 -74 -105.5 -113.5t-163.5 -40.5q-126 0 -213 69t-87 195q1 117 74.5 190t223.5 73q77 0 131 -20t82.5 -58t40.5 -82t13 -103h-322q19 -81 79 -123.5t126 -37.5t111 51zM313 509q-43 0 -59.5 -67.5t6.5 -175.5h115q11 92 -3 167.5t-59 75.5zM89 606h432
v-14h-432v14z" />
    <glyph glyph-name="Ebreve" unicode="&#x114;" horiz-adv-x="706" 
d="M408 13q41 0 76 14t58.5 36t43 48.5t30 53t18 48.5t10.5 36l2 14v-263h-606q4 3 11 10t18 40t11 79v441q0 46 -10 78.5t-20 41.5l-10 10h593v-263q-1 5 -2.5 14t-9.5 35t-18.5 49.5t-30 52t-43 49.5t-58.5 35t-76 14h-34v-330q53 6 93 26t59 43.5t30.5 46t13.5 37.5l2 15
v-348q0 3 -1 8.5t-5.5 21t-12 30t-22.5 33t-35 33t-51.5 26.5t-70.5 17v-332h47zM388 835h87q0 -39 -30 -65.5t-84 -27.5q-55 1 -84.5 27.5t-29.5 65.5h86q0 -86 28 -86q27 0 27 86z" />
    <glyph glyph-name="ebreve" unicode="&#x115;" 
d="M579 143h10q-34 -74 -105.5 -113.5t-163.5 -40.5q-126 0 -213 69t-87 195q1 117 74.5 190t223.5 73q77 0 131 -20t82.5 -58t40.5 -82t13 -103h-322q19 -81 79 -123.5t126 -37.5t111 51zM313 509q-43 0 -59.5 -67.5t6.5 -175.5h115q11 92 -3 167.5t-59 75.5zM332 635h87
q0 -39 -30 -65.5t-84 -27.5q-55 1 -84.5 27.5t-29.5 65.5h86q0 -86 28 -86q27 0 27 86z" />
    <glyph glyph-name="Edotaccent" unicode="&#x116;" horiz-adv-x="706" 
d="M408 13q41 0 76 14t58.5 36t43 48.5t30 53t18 48.5t10.5 36l2 14v-263h-606q4 3 11 10t18 40t11 79v441q0 46 -10 78.5t-20 41.5l-10 10h593v-263q-1 5 -2.5 14t-9.5 35t-18.5 49.5t-30 52t-43 49.5t-58.5 35t-76 14h-34v-330q53 6 93 26t59 43.5t30.5 46t13.5 37.5l2 15
v-348q0 3 -1 8.5t-5.5 21t-12 30t-22.5 33t-35 33t-51.5 26.5t-70.5 17v-332h47zM361 906q34 0 58 -24t24 -58t-24 -58t-58 -24t-58 24t-24 58t24 58t58 24z" />
    <glyph glyph-name="edotaccent" unicode="&#x117;" 
d="M579 143h10q-34 -74 -105.5 -113.5t-163.5 -40.5q-126 0 -213 69t-87 195q1 117 74.5 190t223.5 73q77 0 131 -20t82.5 -58t40.5 -82t13 -103h-322q19 -81 79 -123.5t126 -37.5t111 51zM313 509q-43 0 -59.5 -67.5t6.5 -175.5h115q11 92 -3 167.5t-59 75.5zM305 706
q34 0 58 -24t24 -58t-24 -58t-58 -24t-58 24t-24 58t24 58t58 24z" />
    <glyph glyph-name="Eogonek" unicode="&#x118;" horiz-adv-x="706" 
d="M581 0q-14 -10 -16 -38t5.5 -55.5t28 -43.5t47.5 -4q-29 -30 -71.5 -39.5t-76 7t-38.5 55.5q-6 47 30.5 79t81.5 39h-532q4 3 11 10.5t18 40.5t11 78v441q0 46 -10 78.5t-20 41.5l-10 10h593v-263q-1 5 -2.5 14t-9.5 35t-18.5 49.5t-30 52t-43 49.5t-58.5 35t-76 14h-34
v-330q53 6 92.5 26t58.5 43.5t31 46t14 37.5l2 15v-348q0 6 -2 16t-14 36.5t-31 48t-58.5 42t-92.5 26.5v-332h47q41 0 76 14t58.5 36t43 48.5t30 53t18 48.5t10.5 36l2 14v-263h-65z" />
    <glyph glyph-name="eogonek" unicode="&#x119;" horiz-adv-x="608" 
d="M588 142q-29 -65 -88 -103.5t-137 -47.5q-10 -23 -8 -59t25 -62t56 -11q-30 -30 -72 -39.5t-75.5 7t-38.5 55.5q-6 44 26.5 71.5t82.5 37.5q-26 -2 -40 -2q-126 0 -212.5 69t-86.5 195q1 117 74 190t223 73q78 0 131.5 -20t82 -58t41 -82.5t12.5 -102.5h-322
q19 -81 79 -123.5t126.5 -37.5t111.5 50h9zM313 508q-43 0 -59.5 -67t5.5 -175h116q11 91 -3.5 166.5t-58.5 75.5z" />
    <glyph glyph-name="Ecaron" unicode="&#x11a;" horiz-adv-x="706" 
d="M408 13q41 0 76 14t58.5 36t43 48.5t30 53t18 48.5t10.5 36l2 14v-263h-606q4 3 11 10t18 40t11 79v441q0 46 -10 78.5t-20 41.5l-10 10h593v-263q-1 5 -2.5 14t-9.5 35t-18.5 49.5t-30 52t-43 49.5t-58.5 35t-76 14h-34v-330q53 6 93 26t59 43.5t30.5 46t13.5 37.5l2 15
v-348q0 3 -1 8.5t-5.5 21t-12 30t-22.5 33t-35 33t-51.5 26.5t-70.5 17v-332h47zM361 869l166 54l-166 -171l-165 171z" />
    <glyph glyph-name="ecaron" unicode="&#x11b;" 
d="M579 143h10q-34 -74 -105.5 -113.5t-163.5 -40.5q-126 0 -213 69t-87 195q1 117 74.5 190t223.5 73q77 0 131 -20t82.5 -58t40.5 -82t13 -103h-322q19 -81 79 -123.5t126 -37.5t111 51zM313 509q-43 0 -59.5 -67.5t6.5 -175.5h115q11 92 -3 167.5t-59 75.5zM304 669
l166 54l-166 -171l-165 171z" />
    <glyph glyph-name="Gcircumflex" unicode="&#x11c;" horiz-adv-x="841" 
d="M503 328h308q-4 -5 -11 -14.5t-18 -46.5t-11 -82v-195q-4 2 -10.5 5.5t-29 12.5t-44 12.5t-54.5 6.5t-61 -5q-21 -4 -67.5 -18.5t-74.5 -14.5q-183 0 -290.5 103t-109.5 258q2 155 109.5 258t290.5 103q57 0 145 -22q50 -10 82.5 -4.5t48.5 17.5l15 12l21 -277
q-2 6 -5 15.5t-16 37t-28 52.5t-40.5 55.5t-54 52.5t-69 37t-84.5 15q-33 0 -57.5 -22.5t-37.5 -55.5t-20.5 -84t-9.5 -93t-2 -97q7 -352 112 -352q37 0 61.5 18t34.5 50t13.5 60t3.5 65q0 38 -10 72.5t-20 49.5zM441 923l165 -171l-165 54l-166 -54z" />
    <glyph glyph-name="gcircumflex" unicode="&#x11d;" horiz-adv-x="615" 
d="M560 499q-25 0 -44.5 8t-29.5 20t-17 26t-10 25.5t-6 19t-7.5 6t-12.5 -12.5q-16 -23 -37 -85q86 -21 134 -76.5t49 -128.5q-1 -93 -75 -154.5t-200 -61.5q-115 0 -187 52q-4 -22 8 -42q31 -58 240 -61q137 -1 191.5 -48.5t45.5 -129.5q-6 -60 -53 -99t-109 -54t-137 -15
q-328 0 -322 99q4 64 119 58q-51 32 -74 92t-2 117t85 88q-78 62 -80 159q1 92 75 153.5t200 61.5q43 0 85 -8l10 30q45 127 123 140q41 6 74 -9.5t44 -52.5q13 -45 -11.5 -81t-68.5 -36zM294 -203q-110 6 -182 41q-23 -34 -1.5 -65.5t76.5 -54t115 -22.5q65 0 103 9t49 21
t10 28q-1 24 -26 30.5t-109 10.5q-7 1 -11.5 1t-11 0.5t-12.5 0.5zM304 93q19 0 32 18.5t19 53.5t8.5 65t3.5 71q-1 41 -3.5 71t-8.5 64.5t-19 53t-32 18.5q-36 0 -48.5 -58t-14.5 -149q1 -27 2 -47t3 -46t6.5 -44.5t11 -35.5t17 -26t23.5 -9zM293 723l165 -171l-165 54
l-166 -54z" />
    <glyph glyph-name="Gbreve" unicode="&#x11e;" horiz-adv-x="841" 
d="M503 328h308q-4 -5 -11 -14.5t-18 -46.5t-11 -82v-195q-4 2 -10.5 5.5t-29 12.5t-44 12.5t-54.5 6.5t-61 -5q-21 -4 -67.5 -18.5t-74.5 -14.5q-183 0 -290.5 103t-109.5 258q2 155 109.5 258t290.5 103q57 0 145 -22q50 -10 82.5 -4.5t48.5 17.5l15 12l21 -277
q-2 6 -5 15.5t-16 37t-28 52.5t-40.5 55.5t-54 52.5t-69 37t-84.5 15q-33 0 -57.5 -22.5t-37.5 -55.5t-20.5 -84t-9.5 -93t-2 -97q7 -352 112 -352q37 0 61.5 18t34.5 50t13.5 60t3.5 65q0 38 -10 72.5t-20 49.5zM467 835h87q0 -39 -30 -65.5t-84 -27.5q-55 1 -84.5 27.5
t-29.5 65.5h86q0 -86 28 -86q27 0 27 86z" />
    <glyph glyph-name="gbreve" unicode="&#x11f;" horiz-adv-x="615" 
d="M560 499q-25 0 -44.5 8t-29.5 20t-17 26t-10 25.5t-6 19t-7.5 6t-12.5 -12.5q-16 -23 -37 -85q86 -21 134 -76.5t49 -128.5q-1 -93 -75 -154.5t-200 -61.5q-115 0 -187 52q-4 -22 8 -42q31 -58 240 -61q137 -1 191.5 -48.5t45.5 -129.5q-6 -60 -53 -99t-109 -54t-137 -15
q-328 0 -322 99q4 64 119 58q-51 32 -74 92t-2 117t85 88q-78 62 -80 159q1 92 75 153.5t200 61.5q43 0 85 -8l10 30q45 127 123 140q41 6 74 -9.5t44 -52.5q13 -45 -11.5 -81t-68.5 -36zM294 -203q-110 6 -182 41q-23 -34 -1.5 -65.5t76.5 -54t115 -22.5q65 0 103 9t49 21
t10 28q-1 24 -26 30.5t-109 10.5q-7 1 -11.5 1t-11 0.5t-12.5 0.5zM304 93q19 0 32 18.5t19 53.5t8.5 65t3.5 71q-1 41 -3.5 71t-8.5 64.5t-19 53t-32 18.5q-36 0 -48.5 -58t-14.5 -149q1 -27 2 -47t3 -46t6.5 -44.5t11 -35.5t17 -26t23.5 -9zM330 635h87q0 -39 -30 -65.5
t-84 -27.5q-55 1 -84.5 27.5t-29.5 65.5h86q0 -86 28 -86q27 0 27 86z" />
    <glyph glyph-name="Gdotaccent" unicode="&#x120;" horiz-adv-x="841" 
d="M503 328h308q-4 -5 -11 -14.5t-18 -46.5t-11 -82v-195q-4 2 -10.5 5.5t-29 12.5t-44 12.5t-54.5 6.5t-61 -5q-21 -4 -67.5 -18.5t-74.5 -14.5q-183 0 -290.5 103t-109.5 258q2 155 109.5 258t290.5 103q57 0 145 -22q50 -10 82.5 -4.5t48.5 17.5l15 12l21 -277
q-2 6 -5 15.5t-16 37t-28 52.5t-40.5 55.5t-54 52.5t-69 37t-84.5 15q-33 0 -57.5 -22.5t-37.5 -55.5t-20.5 -84t-9.5 -93t-2 -97q7 -352 112 -352q37 0 61.5 18t34.5 50t13.5 60t3.5 65q0 38 -10 72.5t-20 49.5zM441 906q34 0 58 -24t24 -58t-24 -58t-58 -24t-58 24t-24 58
t24 58t58 24z" />
    <glyph glyph-name="gdotaccent" unicode="&#x121;" horiz-adv-x="615" 
d="M560 499q-25 0 -44.5 8t-29.5 20t-17 26t-10 25.5t-6 19t-7.5 6t-12.5 -12.5q-16 -23 -37 -85q86 -21 134 -76.5t49 -128.5q-1 -93 -75 -154.5t-200 -61.5q-115 0 -187 52q-4 -22 8 -42q31 -58 240 -61q137 -1 191.5 -48.5t45.5 -129.5q-6 -60 -53 -99t-109 -54t-137 -15
q-328 0 -322 99q4 64 119 58q-51 32 -74 92t-2 117t85 88q-78 62 -80 159q1 92 75 153.5t200 61.5q43 0 85 -8l10 30q45 127 123 140q41 6 74 -9.5t44 -52.5q13 -45 -11.5 -81t-68.5 -36zM294 -203q-110 6 -182 41q-23 -34 -1.5 -65.5t76.5 -54t115 -22.5q65 0 103 9t49 21
t10 28q-1 24 -26 30.5t-109 10.5q-7 1 -11.5 1t-11 0.5t-12.5 0.5zM304 93q19 0 32 18.5t19 53.5t8.5 65t3.5 71q-1 41 -3.5 71t-8.5 64.5t-19 53t-32 18.5q-36 0 -48.5 -58t-14.5 -149q1 -27 2 -47t3 -46t6.5 -44.5t11 -35.5t17 -26t23.5 -9zM313 706q34 0 58 -24t24 -58
t-24 -58t-58 -24t-58 24t-24 58t24 58t58 24z" />
    <glyph glyph-name="Gcommaaccent" unicode="&#x122;" horiz-adv-x="841" 
d="M503 328h308q-4 -5 -11 -14.5t-18 -46.5t-11 -82v-195q-4 2 -10.5 5.5t-29 12.5t-44 12.5t-54.5 6.5t-61 -5q-21 -4 -67.5 -18.5t-74.5 -14.5q-183 0 -290.5 103t-109.5 258q2 155 109.5 258t290.5 103q57 0 145 -22q50 -10 82.5 -4.5t48.5 17.5l15 12l21 -277
q-2 6 -5 15.5t-16 37t-28 52.5t-40.5 55.5t-54 52.5t-69 37t-84.5 15q-33 0 -57.5 -22.5t-37.5 -55.5t-20.5 -84t-9.5 -93t-2 -97q7 -352 112 -352q37 0 61.5 18t34.5 50t13.5 60t3.5 65q0 38 -10 72.5t-20 49.5zM448 -67q34 0 59 -24.5t25 -59.5q0 -50 -35 -98.5t-96 -81.5
l-6 9q80 42 112 112q-22 -25 -59 -25q-35 0 -59.5 24.5t-24.5 59.5t24.5 59.5t59.5 24.5z" />
    <glyph glyph-name="gcommaaccent" unicode="&#x123;" horiz-adv-x="615" 
d="M560 499q-25 0 -44.5 8t-29.5 20t-17 26t-10 25.5t-6 19t-7.5 6t-12.5 -12.5q-16 -23 -37 -85q86 -21 134 -76.5t49 -128.5q-1 -93 -75 -154.5t-200 -61.5q-115 0 -187 52q-4 -22 8 -42q31 -58 240 -61q137 -1 191.5 -48.5t45.5 -129.5q-6 -60 -53 -99t-109 -54t-137 -15
q-328 0 -322 99q4 64 119 58q-51 32 -74 92t-2 117t85 88q-78 62 -80 159q1 92 75 153.5t200 61.5q43 0 85 -8l10 30q45 127 123 140q41 6 74 -9.5t44 -52.5q13 -45 -11.5 -81t-68.5 -36zM294 -203q-110 6 -182 41q-23 -34 -1.5 -65.5t76.5 -54t115 -22.5q65 0 103 9t49 21
t10 28q-1 24 -26 30.5t-109 10.5q-7 1 -11.5 1t-11 0.5t-12.5 0.5zM304 93q19 0 32 18.5t19 53.5t8.5 65t3.5 71q-1 41 -3.5 71t-8.5 64.5t-19 53t-32 18.5q-36 0 -48.5 -58t-14.5 -149q1 -27 2 -47t3 -46t6.5 -44.5t11 -35.5t17 -26t23.5 -9zM312 740q43 0 73.5 -30.5
t30.5 -73.5t-30.5 -73t-73.5 -30t-73.5 30t-30.5 73q0 62 43.5 122.5t118.5 100.5l7 -13q-95 -47 -139 -137q31 31 74 31z" />
    <glyph glyph-name="Hcircumflex" unicode="&#x124;" horiz-adv-x="852" 
d="M772 129q0 -46 10 -78t20 -41l10 -10h-361q4 3 11 10t18 40t11 79v214h-130v-214q0 -46 10 -78t20 -41l10 -10h-361q4 3 11 10t18 40t11 79v441q0 46 -10 78.5t-20 41.5l-10 10h361q-4 -3 -11 -10.5t-18 -40.5t-11 -79v-214h130v214q0 46 -10 78.5t-20 41.5l-10 10h361
q-4 -3 -11 -10.5t-18 -40.5t-11 -79v-441zM426 923l165 -171l-165 54l-166 -54z" />
    <glyph glyph-name="hcircumflex" unicode="&#x125;" horiz-adv-x="749" 
d="M385 0q4 3 11 10.5t18 40.5t11 78v200q0 136 -51 137q-22 1 -39 -24t-17 -61v-252q0 -45 10 -77.5t20 -41.5l10 -10h-334q4 3 11 10.5t18 40.5t11 78v493q0 45 -10 77.5t-20 42.5l-10 9h294v-315q39 80 159 80q102 0 152 -54t50 -142v-191q0 -45 10 -77.5t20 -41.5
l10 -10h-334zM176 953l165 -171l-165 54l-166 -54z" />
    <glyph glyph-name="Hbar" unicode="&#x126;" horiz-adv-x="852" 
d="M812 499h-45v-370q0 -45 10 -77.5t20 -41.5l10 -10h-361q4 3 11 10.5t18 40.5t11 78v214h-120v-214q0 -45 10 -77.5t20 -41.5l10 -10h-361q4 3 11 10.5t18 40.5t11 78v370h-45v14h45v57q0 46 -10 78.5t-20 41.5l-10 10h361q-4 -3 -11 -10.5t-18 -40.5t-11 -79v-57h120v57
q0 46 -10 78.5t-20 41.5l-10 10h361q-4 -3 -11 -10.5t-18 -40.5t-11 -79v-57h45v-14zM486 356v143h-120v-143h120z" />
    <glyph glyph-name="hbar" unicode="&#x127;" horiz-adv-x="755" 
d="M391 0q4 3 11 10.5t18 40.5t11 79v199q0 137 -51 138q-22 0 -39 -25t-17 -61v-251q0 -46 10 -78.5t20 -41.5l10 -10h-334q4 3 11 10.5t18 40.5t11 79v490v2h-40v13h40q-2 40 -12 68.5t-19 36.5l-9 9h294v-114h125v-13h-125v-185q39 80 159 80q102 0 152 -54t50 -143v-190
q0 -46 10 -78.5t20 -41.5l10 -10h-334z" />
    <glyph glyph-name="Itilde" unicode="&#x128;" horiz-adv-x="446" 
d="M363 129q0 -46 10 -78t20 -41l10 -10h-361q4 3 11 10t18 40t11 79v441q0 46 -10 78.5t-20 41.5l-10 10h361q-4 -3 -11 -10.5t-18 -40.5t-11 -79v-441zM409 885q0 -20 -5.5 -44.5t-29 -53.5t-62.5 -34q-19 -2 -43.5 2.5t-39 10t-42 17.5t-31.5 14q-76 30 -119 -14
q8 48 37.5 83.5t67.5 39.5q31 4 62 -4.5t61 -23t45 -17.5q69 -15 99 24z" />
    <glyph glyph-name="itilde" unicode="&#x129;" horiz-adv-x="392" 
d="M323 129q0 -45 10 -77.5t20 -41.5l10 -10h-334q4 3 11 10.5t18 40.5t11 78v246q0 45 -10 77.5t-20 41.5l-10 10h334q-4 -3 -11 -10.5t-18 -40.5t-11 -78v-246zM382 685q0 -20 -5.5 -44.5t-29 -53.5t-62.5 -34q-19 -2 -43.5 2.5t-39 10t-42 17.5t-31.5 14q-76 30 -119 -14
q8 48 37.5 83.5t67.5 39.5q31 4 62 -4.5t61 -23t45 -17.5q69 -15 99 24z" />
    <glyph glyph-name="Imacron" unicode="&#x12a;" horiz-adv-x="448" 
d="M364 129q0 -46 10 -78t20 -41l10 -10h-361q4 3 11 10t18 40t11 79v441q0 46 -10 78.5t-20 41.5l-10 10h361q-4 -3 -11 -10.5t-18 -40.5t-11 -79v-441zM8 806h432v-14h-432v14z" />
    <glyph glyph-name="imacron" unicode="&#x12b;" horiz-adv-x="392" 
d="M323 129q0 -45 10 -77.5t20 -41.5l10 -10h-334q4 3 11 10.5t18 40.5t11 78v246q0 45 -10 77.5t-20 41.5l-10 10h334q-4 -3 -11 -10.5t-18 -40.5t-11 -78v-246zM-20 606h432v-14h-432v14z" />
    <glyph glyph-name="Ibreve" unicode="&#x12c;" horiz-adv-x="441" 
d="M361 129q0 -46 10 -78t20 -41l10 -10h-361q4 3 11 10t18 40t11 79v441q0 46 -10 78.5t-20 41.5l-10 10h361q-4 -3 -11 -10.5t-18 -40.5t-11 -79v-441zM248 835h87q0 -39 -30 -65.5t-84 -27.5q-55 1 -84.5 27.5t-29.5 65.5h86q0 -86 28 -86q27 0 27 86z" />
    <glyph glyph-name="ibreve" unicode="&#x12d;" horiz-adv-x="394" 
d="M324 129q0 -45 10 -77.5t20 -41.5l10 -10h-334q4 3 11 10.5t18 40.5t11 78v246q0 45 -10 77.5t-20 41.5l-10 10h334q-4 -3 -11 -10.5t-18 -40.5t-11 -78v-246zM224 635h87q0 -39 -30 -65.5t-84 -27.5q-55 1 -84.5 27.5t-29.5 65.5h86q0 -86 28 -86q27 0 27 86z" />
    <glyph glyph-name="Iogonek" unicode="&#x12e;" horiz-adv-x="441" 
d="M336 0q-14 -10 -16 -38t5.5 -55.5t28 -43.5t47.5 -4q-30 -30 -72 -39.5t-75.5 7t-38.5 55.5q-6 47 30.5 79t81.5 39h-287q4 3 11 10.5t18 40.5t11 78v441q0 46 -10 78.5t-20 41.5l-10 10h361q-4 -3 -11 -10.5t-18 -40.5t-11 -79v-441q0 -45 10 -77.5t20 -41.5l10 -10h-65
z" />
    <glyph glyph-name="iogonek" unicode="&#x12f;" horiz-adv-x="394" 
d="M197 530q-56 0 -95 35.5t-39 85.5t39.5 86t94.5 36t94.5 -36t39.5 -86t-39 -85.5t-95 -35.5zM300 0q-14 -10 -16.5 -38t5.5 -55.5t28 -43.5t47 -4q-29 -30 -71.5 -39.5t-76 7t-38.5 55.5q-6 47 30.5 79t81.5 39h-260q4 3 11 10.5t18 40.5t11 78v245q0 46 -10 78.5
t-20 41.5l-10 10h334q-4 -3 -11 -10.5t-18 -40.5t-11 -79v-245q0 -45 10 -77.5t20 -41.5l10 -10h-64z" />
    <glyph glyph-name="Idotaccent" unicode="&#x130;" horiz-adv-x="441" 
d="M361 129q0 -46 10 -78t20 -41l10 -10h-361q4 3 11 10t18 40t11 79v441q0 46 -10 78.5t-20 41.5l-10 10h361q-4 -3 -11 -10.5t-18 -40.5t-11 -79v-441zM221 906q34 0 58 -24t24 -58t-24 -58t-58 -24t-58 24t-24 58t24 58t58 24z" />
    <glyph glyph-name="dotlessi" unicode="&#x131;" horiz-adv-x="394" 
d="M324 129q0 -45 10 -77.5t20 -41.5l10 -10h-334q4 3 11 10.5t18 40.5t11 78v246q0 45 -10 77.5t-20 41.5l-10 10h334q-4 -3 -11 -10.5t-18 -40.5t-11 -78v-246z" />
    <glyph glyph-name="IJ" unicode="&#x132;" horiz-adv-x="870" 
d="M361 129q0 -46 10 -78t20 -41l10 -10h-361q4 3 11 10t18 40t11 79v441q0 46 -10 78.5t-20 41.5l-10 10h361q-4 -3 -11 -10.5t-18 -40.5t-11 -79v-441zM457 700h383q-4 -3 -11 -10.5t-18 -40.5t-11 -78v-355q0 -75 -22.5 -130.5t-56.5 -86.5t-84 -49.5t-93.5 -24
t-96.5 -5.5q-5 0 -15 0.5t-14 0.5v11q48 -2 74.5 65t26.5 172v402q0 29 -6.5 52.5t-15.5 37t-18 23t-15 12.5z" />
    <glyph glyph-name="ij" unicode="&#x133;" horiz-adv-x="777" 
d="M324 129q0 -45 10 -77.5t20 -41.5l10 -10h-334q4 3 11 10.5t18 40.5t11 78v246q0 45 -10 77.5t-20 41.5l-10 10h334q-4 -3 -11 -10.5t-18 -40.5t-11 -78v-246zM197 530q-56 0 -95 35.5t-39 86.5q0 50 39 85.5t95 35.5q55 0 94 -35.5t39 -85.5q0 -51 -38.5 -86.5
t-94.5 -35.5zM413 504h334q-4 -3 -11 -10.5t-18 -40.5t-11 -79v-468q0 -68 -18.5 -118t-46.5 -78t-70.5 -44.5t-80 -21.5t-85.5 -5q-22 0 -33 1v11q39 -1 59.5 57t20.5 155v511q0 46 -10 78.5t-20 41.5zM580 530q-55 0 -94 35.5t-39 85.5t39 86t94 36t94.5 -36t39.5 -86
t-39 -85.5t-95 -35.5z" />
    <glyph glyph-name="Jcircumflex" unicode="&#x134;" horiz-adv-x="432" 
d="M19 700h383q-4 -3 -11 -10.5t-18 -40.5t-11 -78v-355q0 -75 -22.5 -130.5t-56.5 -86.5t-84 -49.5t-93.5 -24t-96.5 -5.5q-5 0 -15 0.5t-14 0.5v11q48 -2 74.5 65t26.5 172v402q0 29 -6.5 52.5t-15.5 37t-18 23t-15 12.5zM215 923l165 -171l-165 54l-166 -54z" />
    <glyph glyph-name="jcircumflex" unicode="&#x135;" horiz-adv-x="389" 
d="M25 504h334q-4 -3 -11 -10.5t-18 -40.5t-11 -79v-468q0 -68 -18.5 -118t-46.5 -78t-70.5 -44.5t-80 -21.5t-85.5 -5q-22 0 -33 1v11q39 -1 59.5 57t20.5 155v511q0 46 -10 78.5t-20 41.5zM192 723l165 -171l-165 54l-166 -54z" />
    <glyph glyph-name="Kcommaaccent" unicode="&#x136;" horiz-adv-x="865" 
d="M750 129q21 -42 47.5 -74t42.5 -43l15 -12h-370q3 3 6 10.5t-1.5 41t-25.5 77.5l-91 191l-12 -13v-178q0 -46 10 -78t20 -41l10 -10h-361q4 3 11 10t18 40t11 79v441q0 46 -10 78.5t-20 41.5l-10 10h361q-4 -3 -11 -10.5t-18 -40.5t-11 -79v-248q118 130 169 185
q39 44 18.5 108.5t-74.5 84.5h304q-70 -35 -121.5 -76.5t-105.5 -102.5zM447 -67q35 0 59.5 -24.5t24.5 -59.5q0 -50 -35 -98.5t-96 -81.5l-6 9q80 42 112 112q-22 -25 -59 -25q-35 0 -59.5 24.5t-24.5 59.5t24.5 59.5t59.5 24.5z" />
    <glyph glyph-name="kcommaaccent" unicode="&#x137;" horiz-adv-x="728" 
d="M621 129q23 -42 47.5 -74t37.5 -43l12 -12h-322q3 3 5.5 10.5t-2.5 41t-26 77.5l-45 94l-4 -5v-89q0 -45 10 -77.5t20 -41.5l10 -10h-334q4 3 11 10.5t18 40.5t11 78v492q0 46 -10 78.5t-20 42.5l-10 9h334q-4 -3 -11 -10.5t-18 -40.5t-11 -79v-388l109 119q52 59 53 95
t-52 57h258q-161 -38 -215 -113zM374 -67q34 0 59 -24.5t25 -59.5q0 -50 -35 -98.5t-96 -81.5l-6 9q80 42 112 112q-22 -25 -59 -25q-35 0 -59.5 24.5t-24.5 59.5t24.5 59.5t59.5 24.5z" />
    <glyph glyph-name="kgreenlandic" unicode="&#x138;" horiz-adv-x="728" 
d="M621 129q23 -42 47.5 -74t37.5 -43l12 -12h-322q3 3 5.5 10.5t-2.5 41t-26 77.5l-45 94l-4 -5v-89q0 -45 10 -77.5t20 -41.5l10 -10h-334q4 3 11 10.5t18 40.5t11 78v248q0 46 -10 77.5t-20 40.5l-10 9h334q-4 -3 -11 -9.5t-18 -39t-11 -78.5v-144l109 119q52 59 53 95
t-52 57h258q-161 -38 -215 -113z" />
    <glyph glyph-name="Lacute" unicode="&#x139;" horiz-adv-x="641" 
d="M372 13q41 0 76.5 14t59 36t42.5 48.5t30 53t18.5 48.5t9.5 36l3 14v-263h-571q4 3 11 10t18 40t11 79v441q0 46 -10 78.5t-20 41.5l-10 10h361q-4 -3 -11 -10.5t-18 -40.5t-11 -79v-557h11zM340 919q18 -22 15.5 -46t-20.5 -42q-25 -24 -67.5 -44t-72.5 -27l-30 -8
q3 12 9.5 32t29.5 65t48 69q18 18 42.5 19t45.5 -18z" />
    <glyph glyph-name="lacute" unicode="&#x13a;" horiz-adv-x="394" 
d="M324 129q0 -45 10 -77.5t20 -41.5l10 -10h-334q4 3 11 10.5t18 40.5t11 78v492q0 46 -10 78.5t-20 42.5l-10 9h334q-4 -3 -11 -10.5t-18 -40.5t-11 -79v-492zM272 964q18 -22 15.5 -46t-20.5 -42q-25 -24 -67.5 -44t-72.5 -28l-30 -7q3 12 9.5 32t29.5 65t48 69
q18 18 42.5 19t45.5 -18z" />
    <glyph glyph-name="Lcommaaccent" unicode="&#x13b;" horiz-adv-x="641" 
d="M372 13q41 0 76.5 14t59 36t42.5 48.5t30 53t18.5 48.5t9.5 36l3 14v-263h-571q4 3 11 10t18 40t11 79v441q0 46 -10 78.5t-20 41.5l-10 10h361q-4 -3 -11 -10.5t-18 -40.5t-11 -79v-557h11zM325 -67q35 0 59.5 -24.5t24.5 -59.5q0 -50 -35 -98.5t-96 -81.5l-6 9
q80 42 112 112q-22 -25 -59 -25q-35 0 -59.5 24.5t-24.5 59.5t24.5 59.5t59.5 24.5z" />
    <glyph glyph-name="lcommaaccent" unicode="&#x13c;" horiz-adv-x="394" 
d="M324 129q0 -45 10 -77.5t20 -41.5l10 -10h-334q4 3 11 10.5t18 40.5t11 78v492q0 46 -10 78.5t-20 42.5l-10 9h334q-4 -3 -11 -10.5t-18 -40.5t-11 -79v-492zM197 -67q35 0 59.5 -24.5t24.5 -59.5q0 -50 -35 -98.5t-96 -81.5l-6 9q80 42 112 112q-22 -25 -59 -25
q-35 0 -59.5 24.5t-24.5 59.5t24.5 59.5t59.5 24.5z" />
    <glyph glyph-name="Lcaron" unicode="&#x13d;" horiz-adv-x="643" 
d="M372 13q41 0 76.5 14t59 36t42.5 48.5t30 53t18.5 48.5t9.5 36l3 14v-263h-571q4 3 11 10t18 40t11 79v441q0 46 -10 78.5t-20 41.5l-10 10h361q-4 -3 -11 -10.5t-18 -40.5t-11 -79v-557h11zM553 578q43 0 73.5 -30.5t30.5 -73.5q0 -62 -44 -122t-118 -100l-8 12
q97 48 140 137q-31 -31 -74 -31t-73.5 30t-30.5 74q0 43 30.5 73.5t73.5 30.5z" />
    <glyph glyph-name="lcaron" unicode="&#x13e;" horiz-adv-x="603" 
d="M324 129q0 -45 10 -77.5t20 -41.5l10 -10h-334q4 3 11 10.5t18 40.5t11 78v492q0 46 -10 78.5t-20 42.5l-10 9h334q-4 -3 -11 -10.5t-18 -40.5t-11 -79v-492zM479 633q43 0 73.5 -30.5t30.5 -73.5q0 -62 -44 -122t-118 -100l-8 12q97 48 140 137q-31 -31 -74 -31
t-73.5 30.5t-30.5 73.5t30.5 73.5t73.5 30.5z" />
    <glyph glyph-name="Ldot" unicode="&#x13f;" horiz-adv-x="643" 
d="M372 13q41 0 76.5 14t59 36t42.5 48.5t30 53t18.5 48.5t9.5 36l3 14v-263h-571q4 3 11 10t18 40t11 79v441q0 46 -10 78.5t-20 41.5l-10 10h361q-4 -3 -11 -10.5t-18 -40.5t-11 -79v-557h11zM519 514q43 0 73.5 -30.5t30.5 -73.5t-30.5 -73.5t-73.5 -30.5t-73.5 30
t-30.5 74q0 43 30.5 73.5t73.5 30.5z" />
    <glyph glyph-name="ldot" unicode="&#x140;" horiz-adv-x="603" 
d="M324 129q0 -45 10 -77.5t20 -41.5l10 -10h-334q4 3 11 10.5t18 40.5t11 78v492q0 46 -10 78.5t-20 42.5l-10 9h334q-4 -3 -11 -10.5t-18 -40.5t-11 -79v-492zM479 433q43 0 73.5 -30.5t30.5 -73.5t-30.5 -73.5t-73.5 -30.5t-73.5 30.5t-30.5 73.5t30.5 73.5t73.5 30.5z
" />
    <glyph glyph-name="Lslash" unicode="&#x141;" horiz-adv-x="636" 
d="M368 13q41 0 76 14t58.5 36t43 48.5t30 53t18 48.5t10.5 36l2 14v-263h-570q4 3 11 10t18 40t11 79v91l-51 -18l-5 13l56 19v336q0 46 -10 78.5t-20 41.5l-10 10h361q-4 -3 -11 -10.5t-18 -40.5t-11 -79v-239l94 32l4 -12l-98 -34v-304h11z" />
    <glyph glyph-name="lslash" unicode="&#x142;" horiz-adv-x="394" 
d="M324 130q0 -46 10 -78.5t20 -41.5l10 -10h-334q4 3 11 10.5t18 40.5t11 79v103l-86 -30l-4 13l90 31v375q0 45 -10 77.5t-20 42.5l-10 9h334q-4 -3 -11 -10.5t-18 -40.5t-11 -78v-287l86 29l4 -12l-90 -32v-190z" />
    <glyph glyph-name="Nacute" unicode="&#x143;" horiz-adv-x="813" 
d="M520 700h303q-77 -30 -111 -88.5t-34 -152.5v-459h-165l-359 525v-284q0 -94 34 -152.5t112 -88.5h-303q78 30 111.5 87t33.5 154v301l-73 108q-19 26 -33.5 35.5t-45.5 14.5h421q-1 -1 -1.5 -3t1 -11.5t5.5 -21t15 -33t28 -47.5l207 -290v165q0 94 -34 152.5t-112 88.5z
M587 919q18 -22 15.5 -46t-20.5 -42q-25 -24 -67.5 -44t-72.5 -27l-30 -8q3 12 9.5 32t29.5 65t48 69q18 18 42.5 19t45.5 -18z" />
    <glyph glyph-name="nacute" unicode="&#x144;" horiz-adv-x="755" 
d="M390 0q4 3 11 10.5t18 40.5t11 78v200q0 28 -1.5 47t-6 42t-15.5 35.5t-28 12.5q-21 1 -38 -24t-17 -61v-252q0 -45 10 -77.5t20 -41.5l10 -10h-334q4 3 11 10.5t18 40.5t11 78v245q0 46 -10 78.5t-20 41.5l-10 10h267l27 -68q38 80 159 80q101 0 151 -54t50 -142v-191
q0 -29 4 -52.5t10 -37t12.5 -23t10.5 -12.5l4 -4h-335zM504 719q18 -22 15.5 -46t-20.5 -42q-25 -24 -67.5 -44t-72.5 -27l-30 -8q3 12 9.5 32t29.5 65t48 69q18 18 42.5 19t45.5 -18z" />
    <glyph glyph-name="Ncommaaccent" unicode="&#x145;" horiz-adv-x="813" 
d="M520 700h303q-77 -30 -111 -88.5t-34 -152.5v-459h-165l-359 525v-284q0 -94 34 -152.5t112 -88.5h-303q78 30 111.5 87t33.5 154v301l-73 108q-19 26 -33.5 35.5t-45.5 14.5h421q-1 -1 -1.5 -3t1 -11.5t5.5 -21t15 -33t28 -47.5l207 -290v165q0 94 -34 152.5t-112 88.5z
M406 -67q34 0 59 -24.5t25 -59.5q0 -50 -35 -98.5t-96 -81.5l-6 9q80 42 112 112q-22 -25 -59 -25q-35 0 -59.5 24.5t-24.5 59.5t24.5 59.5t59.5 24.5z" />
    <glyph glyph-name="ncommaaccent" unicode="&#x146;" horiz-adv-x="755" 
d="M390 0q4 3 11 10.5t18 40.5t11 78v200q0 28 -1.5 47t-6 42t-15.5 35.5t-28 12.5q-21 1 -38 -24t-17 -61v-252q0 -45 10 -77.5t20 -41.5l10 -10h-334q4 3 11 10.5t18 40.5t11 78v245q0 46 -10 78.5t-20 41.5l-10 10h267l27 -68q38 80 159 80q101 0 151 -54t50 -142v-191
q0 -29 4 -52.5t10 -37t12.5 -23t10.5 -12.5l4 -4h-335zM377 -67q35 0 59.5 -24.5t24.5 -59.5q0 -50 -35 -98.5t-96 -81.5l-6 9q80 42 112 112q-22 -25 -59 -25q-35 0 -59.5 24.5t-24.5 59.5t24.5 59.5t59.5 24.5z" />
    <glyph glyph-name="Ncaron" unicode="&#x147;" horiz-adv-x="813" 
d="M520 700h303q-77 -30 -111 -88.5t-34 -152.5v-459h-165l-359 525v-284q0 -94 34 -152.5t112 -88.5h-303q78 30 111.5 87t33.5 154v301l-73 108q-19 26 -33.5 35.5t-45.5 14.5h421q-1 -1 -1.5 -3t1 -11.5t5.5 -21t15 -33t28 -47.5l207 -290v165q0 94 -34 152.5t-112 88.5z
M410 869l166 54l-166 -171l-165 171z" />
    <glyph glyph-name="ncaron" unicode="&#x148;" horiz-adv-x="755" 
d="M390 0q4 3 11 10.5t18 40.5t11 78v200q0 28 -1.5 47t-6 42t-15.5 35.5t-28 12.5q-21 1 -38 -24t-17 -61v-252q0 -45 10 -77.5t20 -41.5l10 -10h-334q4 3 11 10.5t18 40.5t11 78v245q0 46 -10 78.5t-20 41.5l-10 10h267l27 -68q38 80 159 80q101 0 151 -54t50 -142v-191
q0 -29 4 -52.5t10 -37t12.5 -23t10.5 -12.5l4 -4h-335zM377 669l166 54l-166 -171l-165 171z" />
    <glyph glyph-name="napostrophe" unicode="&#x149;" horiz-adv-x="913" 
d="M548 0q4 3 11 10.5t18 40.5t11 78v200q0 28 -1.5 47t-6 42t-15.5 35.5t-28 12.5q-21 1 -38 -24t-17 -61v-252q0 -45 10 -77.5t20 -41.5l10 -10h-334q4 3 11 10.5t18 40.5t11 78v245q0 46 -10 78.5t-20 41.5l-10 10h267l27 -68q38 80 159 80q101 0 151 -54t50 -142v-191
q0 -29 4 -52.5t10 -37t12.5 -23t10.5 -12.5l4 -4h-335zM84 510q34 0 59 -25t25 -59q0 -50 -35 -98.5t-96 -81.5l-6 9q80 42 112 112q-22 -25 -59 -25q-35 0 -59.5 24.5t-24.5 59.5t24.5 59.5t59.5 24.5z" />
    <glyph glyph-name="Eng" unicode="&#x14a;" horiz-adv-x="814" 
d="M521 700h303q-78 -30 -112 -88t-34 -153v-459v-63q-7 -141 -78 -174q-33 -16 -71.5 -8.5t-58.5 36.5q-27 39 -13.5 80.5t55.5 54.5q26 8 45 5.5t33.5 -10.5t24.5 -19.5t17 -21t11.5 -16t8.5 -4t8 15.5q12 36 7 124h-153l-360 525v-285q0 -93 34 -151.5t112 -88.5h-303
q79 30 112.5 87t33.5 153v302l-74 108q-18 26 -32.5 35.5t-46.5 14.5h421q0 -1 -0.5 -3t0.5 -11.5t5 -21t15.5 -33t28.5 -47.5l207 -290v165q0 93 -34 152t-112 89z" />
    <glyph glyph-name="eng" unicode="&#x14b;" horiz-adv-x="745" 
d="M685 320v-320l-1 -62q-6 -141 -77 -175q-33 -17 -72 -9t-59 38q-27 39 -13 80.5t56 54.5q26 8 45 5.5t33 -10.5t24 -19.5t17 -21.5t12 -16t9 -3.5t8 15.5q11 38 6 123h-283q5 3 11.5 10.5t18 40.5t11.5 79v199q0 137 -51 138q-22 0 -39 -25t-17 -61v-251q0 -46 10 -78.5
t20 -41.5l10 -10h-334q4 3 11 10.5t18 40.5t11 79v245q0 45 -10 77.5t-20 41.5l-10 10h267l27 -67q38 80 159 80q102 0 152 -54t50 -143z" />
    <glyph glyph-name="Omacron" unicode="&#x14c;" horiz-adv-x="878" 
d="M439 711q183 -1 295 -104.5t114 -256.5q-2 -153 -114 -256.5t-295 -104.5q-184 1 -296 104.5t-113 256.5q1 153 113 256.5t296 104.5zM439 -2q34 0 59 31t39 83.5t20.5 112t6.5 125.5q0 65 -6.5 124.5t-20.5 112t-39 84t-59 31.5q-44 0 -74 -55.5t-41 -131.5t-11 -165
q0 -66 6.5 -125.5t21 -112t39.5 -83.5t59 -31zM223 806h432v-14h-432v14z" />
    <glyph glyph-name="omacron" unicode="&#x14d;" horiz-adv-x="689" 
d="M345 516q153 0 238 -75t86 -189q-1 -114 -86.5 -188.5t-237.5 -74.5q-153 0 -238.5 74.5t-86.5 188.5q1 115 86.5 189.5t238.5 74.5zM345 -3q16 0 28.5 10.5t20 32.5t12 43t7 56t3 55.5t1.5 57.5q-1 37 -1.5 58t-3 56t-7 56t-12 43t-20 32.5t-28.5 10.5t-28.5 -10.5
t-20 -32.5t-12.5 -43t-7.5 -56t-3 -56t-1.5 -58q1 -37 1.5 -57.5t3 -55.5t7.5 -56t12.5 -43t20 -32.5t28.5 -10.5zM129 606h432v-14h-432v14z" />
    <glyph glyph-name="Obreve" unicode="&#x14e;" horiz-adv-x="878" 
d="M439 711q183 -1 295 -104.5t114 -256.5q-2 -153 -114 -256.5t-295 -104.5q-184 1 -296 104.5t-113 256.5q1 153 113 256.5t296 104.5zM439 -2q34 0 59 31t39 83.5t20.5 112t6.5 125.5q0 65 -6.5 124.5t-20.5 112t-39 84t-59 31.5q-44 0 -74 -55.5t-41 -131.5t-11 -165
q0 -66 6.5 -125.5t21 -112t39.5 -83.5t59 -31zM466 835h87q0 -39 -30 -65.5t-84 -27.5q-55 1 -84.5 27.5t-29.5 65.5h86q0 -86 28 -86q27 0 27 86z" />
    <glyph glyph-name="obreve" unicode="&#x14f;" horiz-adv-x="689" 
d="M345 516q153 0 238 -75t86 -189q-1 -114 -86.5 -188.5t-237.5 -74.5q-153 0 -238.5 74.5t-86.5 188.5q1 115 86.5 189.5t238.5 74.5zM345 -3q16 0 28.5 10.5t20 32.5t12 43t7 56t3 55.5t1.5 57.5q-1 37 -1.5 58t-3 56t-7 56t-12 43t-20 32.5t-28.5 10.5t-28.5 -10.5
t-20 -32.5t-12.5 -43t-7.5 -56t-3 -56t-1.5 -58q1 -37 1.5 -57.5t3 -55.5t7.5 -56t12.5 -43t20 -32.5t28.5 -10.5zM372 635h87q0 -39 -30 -65.5t-84 -27.5q-55 1 -84.5 27.5t-29.5 65.5h86q0 -86 28 -86q27 0 27 86z" />
    <glyph glyph-name="Ohungarumlaut" unicode="&#x150;" horiz-adv-x="878" 
d="M439 711q183 -1 295 -104.5t114 -256.5q-2 -153 -114 -256.5t-295 -104.5q-184 1 -296 104.5t-113 256.5q1 153 113 256.5t296 104.5zM439 -2q34 0 59 31t39 83.5t20.5 112t6.5 125.5q0 65 -6.5 124.5t-20.5 112t-39 84t-59 31.5q-44 0 -74 -55.5t-41 -131.5t-11 -165
q0 -66 6.5 -125.5t21 -112t39.5 -83.5t59 -31zM505 919q19 -22 16.5 -46t-20.5 -42q-26 -24 -68.5 -44t-72.5 -27l-29 -8q3 12 9.5 32t29 65t47.5 69q18 18 42.5 19t45.5 -18zM682 919q18 -22 15.5 -46t-20.5 -42q-25 -24 -67.5 -44t-72.5 -27l-30 -8q3 12 9.5 32t29.5 65
t48 69q18 18 42.5 19t45.5 -18z" />
    <glyph glyph-name="ohungarumlaut" unicode="&#x151;" horiz-adv-x="689" 
d="M345 516q153 0 238 -75t86 -189q-1 -114 -86.5 -188.5t-237.5 -74.5q-153 0 -238.5 74.5t-86.5 188.5q1 115 86.5 189.5t238.5 74.5zM345 -3q16 0 28.5 10.5t20 32.5t12 43t7 56t3 55.5t1.5 57.5q-1 37 -1.5 58t-3 56t-7 56t-12 43t-20 32.5t-28.5 10.5t-28.5 -10.5
t-20 -32.5t-12.5 -43t-7.5 -56t-3 -56t-1.5 -58q1 -37 1.5 -57.5t3 -55.5t7.5 -56t12.5 -43t20 -32.5t28.5 -10.5zM403 719q19 -22 16.5 -46t-20.5 -42q-26 -24 -68.5 -44t-72.5 -27l-29 -8q3 12 9.5 32t29 65t47.5 69q18 18 42.5 19t45.5 -18zM580 719q18 -22 15.5 -46
t-20.5 -42q-25 -24 -67.5 -44t-72.5 -27l-30 -8q3 12 9.5 32t29.5 65t48 69q18 18 42.5 19t45.5 -18z" />
    <glyph glyph-name="OE" unicode="&#x152;" horiz-adv-x="1101" 
d="M803 13q41 0 76 14t58.5 36t43 48.5t30 53t18 48.5t9.5 36l3 14v-263h-566q-191 0 -318 97.5t-127 252.5t127 252t318 98h553v-263q-1 5 -2.5 14t-9.5 35t-18.5 49.5t-30 52t-43 49.5t-58.5 35t-76 14h-34v-330q53 6 93 26t59 43.5t30.5 46t13.5 37.5l2 15v-348
q0 3 -1 8.5t-5.5 21t-12 30t-22.5 33t-35 33t-51.5 26.5t-70.5 17v-332h47zM475 8v683q-45 0 -83 -51t-58.5 -129t-20.5 -161t20.5 -161t58.5 -129.5t83 -51.5z" />
    <glyph glyph-name="oe" unicode="&#x153;" horiz-adv-x="1022" 
d="M992 143h10q-34 -74 -105 -113.5t-164 -40.5q-107 0 -186 50q-84 -50 -203 -50q-152 0 -237.5 75t-86.5 189q1 114 86 189t238 75q118 0 198 -47q72 47 189 47q78 0 131.5 -20t82 -58t41 -82.5t12.5 -103.5h-139h-72h-111q19 -81 79 -123.5t126.5 -37.5t110.5 51z
M727 509q-43 0 -59.5 -67t5.5 -176h116q10 93 -4 168t-58 75zM344 -3q16 0 28.5 10.5t20 32.5t12.5 43t7.5 56t3 56t1.5 58q-1 37 -1.5 58t-3 56t-7.5 56t-12.5 43t-20 32.5t-28.5 10.5t-28.5 -10.5t-20 -32.5t-12 -43t-7 -56t-3 -56t-1.5 -58q1 -37 1.5 -58t3 -56t7 -56
t12 -43t20 -32.5t28.5 -10.5z" />
    <glyph glyph-name="Racute" unicode="&#x154;" horiz-adv-x="828" 
d="M765 116q28 -53 73 -35q-56 -105 -189 -90q-152 14 -181 176q-14 79 -38 109t-69 30v-177q0 -45 10 -77.5t20 -41.5l10 -10h-361q5 3 11.5 10.5t18 40.5t11.5 78v442q0 45 -10.5 77.5t-20.5 41.5l-10 10h374q178 0 255.5 -51.5t79.5 -145.5q-5 -154 -201 -187
q80 -5 115 -31q31 -22 48 -48.5t30 -64t24 -56.5zM361 320q73 0 107.5 44t34.5 139q0 96 -34.5 140t-107.5 44v-367zM536 919q18 -22 15.5 -46t-20.5 -42q-25 -24 -67.5 -44t-72.5 -27l-30 -8q3 12 9.5 32t29.5 65t48 69q18 18 42.5 19t45.5 -18z" />
    <glyph glyph-name="racute" unicode="&#x155;" horiz-adv-x="624" 
d="M603 465q22 -52 -3 -99t-78 -54q-31 -3 -55 4t-38 20t-24 29t-15.5 29.5t-10.5 22t-10 6.5t-13 -17q-32 -61 -32 -148v-129q0 -45 10 -77.5t20 -41.5l10 -10h-334q4 3 11 10.5t18 40.5t11 78v245q0 46 -10 78.5t-20 41.5l-10 10h267l27 -163q36 157 127 182q45 15 89.5 0
t62.5 -58zM397 719q18 -22 15.5 -46t-20.5 -42q-25 -24 -67.5 -44t-72.5 -27l-30 -8q3 12 9.5 32t29.5 65t48 69q18 18 42.5 19t45.5 -18z" />
    <glyph glyph-name="Rcommaaccent" unicode="&#x156;" horiz-adv-x="828" 
d="M765 116q28 -53 73 -35q-56 -105 -189 -90q-152 14 -181 176q-14 79 -38 109t-69 30v-177q0 -45 10 -77.5t20 -41.5l10 -10h-361q5 3 11.5 10.5t18 40.5t11.5 78v442q0 45 -10.5 77.5t-20.5 41.5l-10 10h374q178 0 255.5 -51.5t79.5 -145.5q-5 -154 -201 -187
q80 -5 115 -31q31 -22 48 -48.5t30 -64t24 -56.5zM361 320q73 0 107.5 44t34.5 139q0 96 -34.5 140t-107.5 44v-367zM438 -67q34 0 59 -24.5t25 -59.5q0 -50 -35 -98.5t-96 -81.5l-6 9q80 42 112 112q-22 -25 -59 -25q-35 0 -59.5 24.5t-24.5 59.5t24.5 59.5t59.5 24.5z" />
    <glyph glyph-name="rcommaaccent" unicode="&#x157;" horiz-adv-x="624" 
d="M603 465q22 -52 -3 -99t-78 -54q-31 -3 -55 4t-38 20t-24 29t-15.5 29.5t-10.5 22t-10 6.5t-13 -17q-32 -61 -32 -148v-129q0 -45 10 -77.5t20 -41.5l10 -10h-334q4 3 11 10.5t18 40.5t11 78v245q0 46 -10 78.5t-20 41.5l-10 10h267l27 -163q36 157 127 182q45 15 89.5 0
t62.5 -58zM322 -67q34 0 59 -24.5t25 -59.5q0 -50 -35 -98.5t-96 -81.5l-6 9q80 42 112 112q-22 -25 -59 -25q-35 0 -59.5 24.5t-24.5 59.5t24.5 59.5t59.5 24.5z" />
    <glyph glyph-name="Rcaron" unicode="&#x158;" horiz-adv-x="828" 
d="M765 116q28 -53 73 -35q-56 -105 -189 -90q-152 14 -181 176q-14 79 -38 109t-69 30v-177q0 -45 10 -77.5t20 -41.5l10 -10h-361q5 3 11.5 10.5t18 40.5t11.5 78v442q0 45 -10.5 77.5t-20.5 41.5l-10 10h374q178 0 255.5 -51.5t79.5 -145.5q-5 -154 -201 -187
q80 -5 115 -31q31 -22 48 -48.5t30 -64t24 -56.5zM361 320q73 0 107.5 44t34.5 139q0 96 -34.5 140t-107.5 44v-367zM361 869l166 54l-166 -171l-165 171z" />
    <glyph glyph-name="rcaron" unicode="&#x159;" horiz-adv-x="624" 
d="M603 465q22 -52 -3 -99t-78 -54q-31 -3 -55 4t-38 20t-24 29t-15.5 29.5t-10.5 22t-10 6.5t-13 -17q-32 -61 -32 -148v-129q0 -45 10 -77.5t20 -41.5l10 -10h-334q4 3 11 10.5t18 40.5t11 78v245q0 46 -10 78.5t-20 41.5l-10 10h267l27 -163q36 157 127 182q45 15 89.5 0
t62.5 -58zM322 669l166 54l-166 -171l-165 171z" />
    <glyph glyph-name="Sacute" unicode="&#x15a;" horiz-adv-x="682" 
d="M567 388q69 -47 88 -122.5t-14 -139.5q-18 -39 -53 -68t-75 -43t-75 -20t-66 -6q-34 0 -106.5 13t-116.5 17q-28 3 -51 -5.5t-32 -18.5l-9 -10v278q6 -11 16.5 -29t44.5 -63.5t68.5 -80.5t85.5 -63.5t99 -28.5q58 0 61 57q5 72 -106 131q-9 5 -48 25t-56 30t-47.5 29
t-53 38t-41.5 40q-36 40 -46 91.5t3.5 98.5t44.5 83q77 90 246 90q72 0 182 -28q30 -6 47.5 -0.5t23.5 15.5l6 10v-271q-3 11 -9.5 29t-28 63.5t-46.5 80.5t-65.5 63.5t-84.5 28.5q-46 0 -71 -31.5t-13 -79.5q10 -40 61.5 -75t129.5 -72t107 -56zM455 919q18 -22 15.5 -46
t-20.5 -42q-25 -24 -67.5 -44t-72.5 -27l-30 -8q3 12 9.5 32t29.5 65t48 69q18 18 42.5 19t45.5 -18z" />
    <glyph glyph-name="sacute" unicode="&#x15b;" horiz-adv-x="497" 
d="M410 284q49 -38 62 -94t-11 -104q-25 -54 -82.5 -75.5t-112.5 -21.5q-26 0 -80 10t-84 13q-20 2 -37 -4.5t-24 -13.5l-7 -7v203q4 -8 10.5 -20.5t29 -45t46.5 -57.5t60 -45.5t71 -20.5q23 0 25 23q4 41 -63 90l-8 6q-5 4 -23 16t-24.5 16.5t-21 15t-22.5 17t-20 16.5
t-22.5 20t-20.5 21q-37 39 -36 101t39 104q61 69 179 69q53 0 134 -20q22 -4 34.5 0t17.5 11l5 7v-199q-3 8 -8 21t-22 45.5t-35.5 58t-48 46t-59.5 20.5q-25 0 -34.5 -18.5t5.5 -51.5q11 -22 41.5 -47t78.5 -57.5t68 -47.5zM351 719q18 -22 15.5 -46t-20.5 -42
q-25 -24 -67.5 -44t-72.5 -27l-30 -8q3 12 9.5 32t29.5 65t48 69q18 18 42.5 19t45.5 -18z" />
    <glyph glyph-name="Scircumflex" unicode="&#x15c;" horiz-adv-x="682" 
d="M567 388q69 -47 88 -122.5t-14 -139.5q-18 -39 -53 -68t-75 -43t-75 -20t-66 -6q-34 0 -106.5 13t-116.5 17q-28 3 -51 -5.5t-32 -18.5l-9 -10v278q6 -11 16.5 -29t44.5 -63.5t68.5 -80.5t85.5 -63.5t99 -28.5q58 0 61 57q5 72 -106 131q-9 5 -48 25t-56 30t-47.5 29
t-53 38t-41.5 40q-36 40 -46 91.5t3.5 98.5t44.5 83q77 90 246 90q72 0 182 -28q30 -6 47.5 -0.5t23.5 15.5l6 10v-271q-3 11 -9.5 29t-28 63.5t-46.5 80.5t-65.5 63.5t-84.5 28.5q-46 0 -71 -31.5t-13 -79.5q10 -40 61.5 -75t129.5 -72t107 -56zM361 923l165 -171l-165 54
l-166 -54z" />
    <glyph glyph-name="scircumflex" unicode="&#x15d;" horiz-adv-x="497" 
d="M410 284q49 -38 62 -94t-11 -104q-25 -54 -82.5 -75.5t-112.5 -21.5q-26 0 -80 10t-84 13q-20 2 -37 -4.5t-24 -13.5l-7 -7v203q4 -8 10.5 -20.5t29 -45t46.5 -57.5t60 -45.5t71 -20.5q23 0 25 23q4 41 -63 90l-8 6q-5 4 -23 16t-24.5 16.5t-21 15t-22.5 17t-20 16.5
t-22.5 20t-20.5 21q-37 39 -36 101t39 104q61 69 179 69q53 0 134 -20q22 -4 34.5 0t17.5 11l5 7v-199q-3 8 -8 21t-22 45.5t-35.5 58t-48 46t-59.5 20.5q-25 0 -34.5 -18.5t5.5 -51.5q11 -22 41.5 -47t78.5 -57.5t68 -47.5zM247 723l165 -171l-165 54l-166 -54z" />
    <glyph glyph-name="Scedilla" unicode="&#x15e;" horiz-adv-x="682" 
d="M567 388q69 -47 88 -122.5t-14 -139.5q-18 -39 -53 -68t-75 -43t-75 -20t-66 -6h-4l-18 -30q41 9 83 -2q72 -17 69 -75q-4 -71 -112 -71q-66 0 -103 23v50q23 -53 48 -57q50 -11 60 51q9 52 -25 63q-16 5 -42 3l28 46q-29 1 -95.5 13t-111.5 16q-28 3 -51 -5.5t-32 -18.5
l-9 -10v278q6 -11 16.5 -29t44.5 -63.5t68.5 -80.5t85.5 -63.5t99 -28.5q58 0 61 57q5 72 -106 131q-9 5 -48 25t-56 30t-47.5 29t-53 38t-41.5 40q-36 40 -46 91.5t3.5 98.5t44.5 83q77 90 246 90q72 0 182 -28q30 -6 47.5 -0.5t23.5 15.5l6 10v-271q-3 11 -9.5 29
t-28 63.5t-46.5 80.5t-65.5 63.5t-84.5 28.5q-46 0 -71 -31.5t-13 -79.5q10 -40 61.5 -75t129.5 -72t107 -56z" />
    <glyph glyph-name="scedilla" unicode="&#x15f;" horiz-adv-x="497" 
d="M410 284q49 -38 62 -94t-11 -104q-25 -54 -82.5 -75.5t-112.5 -21.5q-10 0 -15 1l-17 -29q40 8 83 -2q72 -17 69 -75q-4 -71 -112 -71q-66 0 -103 23v50q22 -52 48 -57q50 -11 60 51q9 52 -26 63q-15 5 -41 3l27 45q-16 2 -61 10t-76 11q-20 2 -37 -4.5t-24 -13.5l-7 -7
v203q4 -8 10.5 -20.5t29 -45t46.5 -57.5t60 -45.5t71 -20.5q23 0 25 23q4 41 -63 90l-8 6q-5 4 -23 16t-24.5 16.5t-21 15t-22.5 17t-20 16.5t-22.5 20t-20.5 21q-37 39 -36 101t39 104q61 69 179 69q53 0 134 -20q22 -4 34.5 0t17.5 11l5 7v-199q-3 8 -8 21t-22 45.5
t-35.5 58t-48 46t-59.5 20.5q-25 0 -34.5 -18.5t5.5 -51.5q11 -22 41.5 -47t78.5 -57.5t68 -47.5z" />
    <glyph glyph-name="Scaron" unicode="&#x160;" horiz-adv-x="682" 
d="M567 388q69 -47 88 -122.5t-14 -139.5q-18 -39 -53 -68t-75 -43t-75 -20t-66 -6q-34 0 -106.5 13t-116.5 17q-28 3 -51 -5.5t-32 -18.5l-9 -10v278q6 -11 16.5 -29t44.5 -63.5t68.5 -80.5t85.5 -63.5t99 -28.5q58 0 61 57q5 72 -106 131q-9 5 -48 25t-56 30t-47.5 29
t-53 38t-41.5 40q-36 40 -46 91.5t3.5 98.5t44.5 83q77 90 246 90q72 0 182 -28q30 -6 47.5 -0.5t23.5 15.5l6 10v-271q-3 11 -9.5 29t-28 63.5t-46.5 80.5t-65.5 63.5t-84.5 28.5q-46 0 -71 -31.5t-13 -79.5q10 -40 61.5 -75t129.5 -72t107 -56zM350 869l166 54l-166 -171
l-165 171z" />
    <glyph glyph-name="scaron" unicode="&#x161;" horiz-adv-x="497" 
d="M410 284q49 -38 62 -94t-11 -104q-25 -54 -82.5 -75.5t-112.5 -21.5q-26 0 -80 10t-84 13q-20 2 -37 -4.5t-24 -13.5l-7 -7v203q4 -8 10.5 -20.5t29 -45t46.5 -57.5t60 -45.5t71 -20.5q23 0 25 23q4 41 -63 90l-8 6q-5 4 -23 16t-24.5 16.5t-21 15t-22.5 17t-20 16.5
t-22.5 20t-20.5 21q-37 39 -36 101t39 104q61 69 179 69q53 0 134 -20q22 -4 34.5 0t17.5 11l5 7v-199q-3 8 -8 21t-22 45.5t-35.5 58t-48 46t-59.5 20.5q-25 0 -34.5 -18.5t5.5 -51.5q11 -22 41.5 -47t78.5 -57.5t68 -47.5zM246 669l166 54l-166 -171l-165 171z" />
    <glyph glyph-name="Tcommaaccent" unicode="&#x162;" horiz-adv-x="748" 
d="M20 700h708v-263q-1 9 -4.5 24.5t-19.5 56t-37 72.5t-61.5 61t-90.5 34v-556q0 -45 10 -77.5t20 -41.5l10 -10h-361q4 3 11 10.5t18 40.5t11 78v556q-50 -5 -90.5 -32.5t-62.5 -63t-37 -70.5t-20 -59l-4 -23v263zM374 -67q34 0 59 -24.5t25 -59.5q0 -50 -35 -98.5
t-96 -81.5l-6 9q80 42 112 112q-22 -25 -59 -25q-35 0 -59.5 24.5t-24.5 59.5t24.5 59.5t59.5 24.5z" />
    <glyph glyph-name="tcommaaccent" unicode="&#x163;" horiz-adv-x="443" 
d="M424 108h9q-26 -45 -77.5 -82t-123.5 -37q-91 0 -146.5 54.5t-55.5 175.5v272h-40v13h40q49 0 93.5 13.5t90.5 53.5t70 103v-170h110v-13h-110v-312q0 -50 22 -76t54.5 -23.5t63.5 28.5zM211 -67q35 0 59.5 -24.5t24.5 -59.5q0 -50 -35 -98.5t-96 -81.5l-6 9
q80 42 112 112q-22 -25 -59 -25q-35 0 -59.5 24.5t-24.5 59.5t24.5 59.5t59.5 24.5z" />
    <glyph glyph-name="Tcaron" unicode="&#x164;" horiz-adv-x="748" 
d="M20 700h708v-263q-1 9 -4.5 24.5t-19.5 56t-37 72.5t-61.5 61t-90.5 34v-556q0 -45 10 -77.5t20 -41.5l10 -10h-361q4 3 11 10.5t18 40.5t11 78v556q-50 -5 -90.5 -32.5t-62.5 -63t-37 -70.5t-20 -59l-4 -23v263zM373 869l166 54l-166 -171l-165 171z" />
    <glyph glyph-name="tcaron" unicode="&#x165;" horiz-adv-x="441" 
d="M424 108h9q-26 -45 -77.5 -82t-123.5 -37q-91 0 -146.5 54.5t-55.5 175.5v272h-40v13h40q49 0 93.5 13.5t90.5 53.5t70 103v-170h110v-13h-110v-312q0 -50 22 -76t54.5 -23.5t63.5 28.5zM387 869q43 0 73.5 -30.5t30.5 -73.5q0 -62 -44 -122t-118 -100l-8 12
q97 48 140 137q-31 -31 -74 -31t-73.5 30.5t-30.5 73.5t30.5 73.5t73.5 30.5z" />
    <glyph glyph-name="Tbar" unicode="&#x166;" horiz-adv-x="748" 
d="M20 700h708v-263q-1 5 -2.5 13t-8.5 32.5t-16.5 46.5t-26.5 50t-38 49t-52.5 37t-68.5 20v-329h95v-13h-95v-214q0 -46 10 -78t20 -41l10 -10h-361q4 3 11 10t18 40t11 79v214h-96v13h96v329q-50 -5 -90.5 -32.5t-62.5 -63t-37 -70.5t-20 -59l-4 -23v263z" />
    <glyph glyph-name="tbar" unicode="&#x167;" horiz-adv-x="443" 
d="M424 109h9q-26 -45 -77.5 -82.5t-123.5 -37.5q-91 0 -146.5 55t-55.5 176v141h-40v14h40v116h-40v13h40q49 0 93.5 13.5t90.5 53.5t70 103v-170h110v-13h-110v-116h110v-14h-110v-182q0 -50 22 -75.5t54.5 -23t63.5 28.5z" />
    <glyph glyph-name="Utilde" unicode="&#x168;" horiz-adv-x="739" 
d="M534 700h175q-19 -26 -28.5 -71t-11 -81.5t-1.5 -111.5v-22v-136q0 -35 -4.5 -68t-20.5 -73t-41.5 -70t-71.5 -52t-107 -26q-50 -3 -95.5 2t-94 23.5t-83.5 50.5t-57.5 88.5t-22.5 131.5v285q0 46 -10 78.5t-20 41.5l-10 10h361q-4 -3 -11 -10.5t-18 -40.5t-11 -79v-333
q0 -78 34 -131.5t87 -61.5q79 -14 131.5 57.5t52.5 174.5v138q0 225 -122 286zM626 885q0 -20 -5.5 -44.5t-29 -53.5t-62.5 -34q-19 -2 -43.5 2.5t-39 10t-42 17.5t-31.5 14q-76 30 -119 -14q8 48 37.5 83.5t67.5 39.5q31 4 62 -4.5t61 -23t45 -17.5q69 -15 99 24z" />
    <glyph glyph-name="utilde" unicode="&#x169;" horiz-adv-x="735" 
d="M665 129q0 -45 10 -77.5t20 -41.5l10 -10h-210q-41 0 -59.5 15.5t-24.5 51.5q-38 -80 -159 -80q-102 0 -152 54.5t-50 143.5v189q0 46 -10 78.5t-20 41.5l-10 10h294v-329q0 -137 51 -138q22 0 39 25t17 61v251q0 46 -10 78.5t-20 41.5l-10 10h294v-375zM544 685
q0 -20 -5.5 -44.5t-29 -53.5t-62.5 -34q-19 -2 -43.5 2.5t-39 10t-42 17.5t-31.5 14q-76 30 -119 -14q8 48 37.5 83.5t67.5 39.5q31 4 62 -4.5t61 -23t45 -17.5q69 -15 99 24z" />
    <glyph glyph-name="Umacron" unicode="&#x16a;" horiz-adv-x="739" 
d="M534 700h175q-19 -26 -28.5 -71t-11 -81.5t-1.5 -111.5v-22v-136q0 -35 -4.5 -68t-20.5 -73t-41.5 -70t-71.5 -52t-107 -26q-50 -3 -95.5 2t-94 23.5t-83.5 50.5t-57.5 88.5t-22.5 131.5v285q0 46 -10 78.5t-20 41.5l-10 10h361q-4 -3 -11 -10.5t-18 -40.5t-11 -79v-333
q0 -78 34 -131.5t87 -61.5q79 -14 131.5 57.5t52.5 174.5v138q0 225 -122 286zM174 806h432v-14h-432v14z" />
    <glyph glyph-name="umacron" unicode="&#x16b;" horiz-adv-x="735" 
d="M665 129q0 -45 10 -77.5t20 -41.5l10 -10h-210q-41 0 -59.5 15.5t-24.5 51.5q-38 -80 -159 -80q-102 0 -152 54.5t-50 143.5v189q0 46 -10 78.5t-20 41.5l-10 10h294v-329q0 -137 51 -138q22 0 39 25t17 61v251q0 46 -10 78.5t-20 41.5l-10 10h294v-375zM142 606h432v-14
h-432v14z" />
    <glyph glyph-name="Ubreve" unicode="&#x16c;" horiz-adv-x="739" 
d="M534 700h175q-19 -26 -28.5 -71t-11 -81.5t-1.5 -111.5v-22v-136q0 -35 -4.5 -68t-20.5 -73t-41.5 -70t-71.5 -52t-107 -26q-50 -3 -95.5 2t-94 23.5t-83.5 50.5t-57.5 88.5t-22.5 131.5v285q0 46 -10 78.5t-20 41.5l-10 10h361q-4 -3 -11 -10.5t-18 -40.5t-11 -79v-333
q0 -78 34 -131.5t87 -61.5q79 -14 131.5 57.5t52.5 174.5v138q0 225 -122 286zM466 835h87q0 -39 -30 -65.5t-84 -27.5q-55 1 -84.5 27.5t-29.5 65.5h86q0 -86 28 -86q27 0 27 86z" />
    <glyph glyph-name="ubreve" unicode="&#x16d;" horiz-adv-x="735" 
d="M665 129q0 -45 10 -77.5t20 -41.5l10 -10h-210q-41 0 -59.5 15.5t-24.5 51.5q-38 -80 -159 -80q-102 0 -152 54.5t-50 143.5v189q0 46 -10 78.5t-20 41.5l-10 10h294v-329q0 -137 51 -138q22 0 39 25t17 61v251q0 46 -10 78.5t-20 41.5l-10 10h294v-375zM384 635h87
q0 -39 -30 -65.5t-84 -27.5q-55 1 -84.5 27.5t-29.5 65.5h86q0 -86 28 -86q27 0 27 86z" />
    <glyph glyph-name="Uring" unicode="&#x16e;" horiz-adv-x="739" 
d="M534 700h175q-19 -26 -28.5 -71t-11 -81.5t-1.5 -111.5v-22v-136q0 -35 -4.5 -68t-20.5 -73t-41.5 -70t-71.5 -52t-107 -26q-50 -3 -95.5 2t-94 23.5t-83.5 50.5t-57.5 88.5t-22.5 131.5v285q0 46 -10 78.5t-20 41.5l-10 10h361q-4 -3 -11 -10.5t-18 -40.5t-11 -79v-333
q0 -78 34 -131.5t87 -61.5q79 -14 131.5 57.5t52.5 174.5v138q0 225 -122 286zM440 927q54 0 84 -26.5t30 -65.5t-30 -65.5t-84 -27.5q-55 1 -85 27.5t-30 65.5t30 65.5t85 26.5zM440 749q27 0 27 86q0 85 -27 85q-28 0 -28 -85q0 -86 28 -86z" />
    <glyph glyph-name="uring" unicode="&#x16f;" horiz-adv-x="735" 
d="M665 129q0 -45 10 -77.5t20 -41.5l10 -10h-210q-41 0 -59.5 15.5t-24.5 51.5q-38 -80 -159 -80q-102 0 -152 54.5t-50 143.5v189q0 46 -10 78.5t-20 41.5l-10 10h294v-329q0 -137 51 -138q22 0 39 25t17 61v251q0 46 -10 78.5t-20 41.5l-10 10h294v-375zM358 727
q54 0 84 -26.5t30 -65.5t-30 -65.5t-84 -27.5q-55 1 -85 27.5t-30 65.5t30 65.5t85 26.5zM358 549q27 0 27 86q0 85 -27 85q-28 0 -28 -85q0 -86 28 -86z" />
    <glyph glyph-name="Uhungarumlaut" unicode="&#x170;" horiz-adv-x="739" 
d="M534 700h175q-19 -26 -28.5 -71t-11 -81.5t-1.5 -111.5v-22v-136q0 -35 -4.5 -68t-20.5 -73t-41.5 -70t-71.5 -52t-107 -26q-50 -3 -95.5 2t-94 23.5t-83.5 50.5t-57.5 88.5t-22.5 131.5v285q0 46 -10 78.5t-20 41.5l-10 10h361q-4 -3 -11 -10.5t-18 -40.5t-11 -79v-333
q0 -78 34 -131.5t87 -61.5q79 -14 131.5 57.5t52.5 174.5v138q0 225 -122 286zM425 919q19 -22 16.5 -46t-20.5 -42q-26 -24 -68.5 -44t-72.5 -27l-29 -8q3 12 9.5 32t29 65t47.5 69q18 18 42.5 19t45.5 -18zM602 919q18 -22 15.5 -46t-20.5 -42q-25 -24 -67.5 -44
t-72.5 -27l-30 -8q3 12 9.5 32t29.5 65t48 69q18 18 42.5 19t45.5 -18z" />
    <glyph glyph-name="uhungarumlaut" unicode="&#x171;" horiz-adv-x="735" 
d="M665 129q0 -45 10 -77.5t20 -41.5l10 -10h-210q-41 0 -59.5 15.5t-24.5 51.5q-38 -80 -159 -80q-102 0 -152 54.5t-50 143.5v189q0 46 -10 78.5t-20 41.5l-10 10h294v-329q0 -137 51 -138q22 0 39 25t17 61v251q0 46 -10 78.5t-20 41.5l-10 10h294v-375zM393 719
q19 -22 16.5 -46t-20.5 -42q-26 -24 -68.5 -44t-72.5 -27l-29 -8q3 12 9.5 32t29 65t47.5 69q18 18 42.5 19t45.5 -18zM570 719q18 -22 15.5 -46t-20.5 -42q-25 -24 -67.5 -44t-72.5 -27l-30 -8q3 12 9.5 32t29.5 65t48 69q18 18 42.5 19t45.5 -18z" />
    <glyph glyph-name="Uogonek" unicode="&#x172;" horiz-adv-x="738" 
d="M708 700q-19 -26 -28.5 -71t-11 -81.5t-1.5 -111.5v-22v-136q0 -39 -7 -76t-24 -79.5t-54.5 -75t-91.5 -47.5q-14 -10 -16.5 -38t5.5 -55.5t28 -43.5t47 -4q-29 -30 -71.5 -39.5t-76 7t-38.5 55.5q-6 82 116 116q-29 -8 -62 -9q-50 -3 -95.5 2t-94 23.5t-83 50.5
t-57 88.5t-22.5 131.5v285q0 46 -10 78.5t-20 41.5l-10 10h361q-4 -3 -11 -10.5t-18 -40.5t-11 -79v-333q0 -78 33.5 -131.5t86.5 -61.5q79 -14 131.5 57.5t52.5 174.5v138q0 226 -122 286h175z" />
    <glyph glyph-name="uogonek" unicode="&#x173;" horiz-adv-x="735" 
d="M640 0q-14 -10 -16 -38t5.5 -55.5t28 -43.5t47.5 -4q-30 -30 -72 -39.5t-75.5 7t-38.5 55.5q-6 47 30.5 76.5t84.5 39.5v1l1 1h-141q-41 0 -59 15.5t-24 51.5q-39 -80 -160 -80q-101 0 -151 54.5t-50 143.5v189q0 46 -10 78.5t-20 41.5l-10 10h294v-329q0 -61 9.5 -99
t41.5 -39q21 0 38 25t17 61v251q0 46 -10 78.5t-20 41.5l-10 10h295v-375q0 -45 10 -77.5t20 -41.5l10 -10h-1h1h-65z" />
    <glyph glyph-name="Wcircumflex" unicode="&#x174;" horiz-adv-x="1259" 
d="M966 700h303q-110 -94 -195 -295l-166 -405h-110q-92 179 -176 340l-138 -340h-107q-242 462 -298 571q-25 48 -47.5 80.5t-31.5 40.5l-10 8h401q-3 -5 -7 -15t-3 -43.5t17 -70.5t58.5 -119.5t77.5 -147.5l35 -64q6 10 44 113q0 1 1 3q-28 54 -67 130t-44 85
q-25 48 -47.5 80.5t-31.5 40.5l-10 8h401q-3 -5 -7 -15t-3 -43.5t17 -70.5l161 -354q16 33 54 136q46 120 27 218.5t-98 128.5zM619 923l165 -171l-165 54l-166 -54z" />
    <glyph glyph-name="wcircumflex" unicode="&#x175;" horiz-adv-x="979" 
d="M761 504h218q-79 -69 -140 -212l-119 -292h-119q-66 128 -126 244l-101 -244h-116q-174 335 -215 411q-19 35 -35 58t-22 29l-7 6h329q-21 -33 4 -93q12 -27 42 -88t54 -109l25 -47q8 13 35 87q0 1 1 2q-19 36 -47 89.5t-34 65.5q-18 35 -34 58.5t-23 28.5l-7 6h329
q-21 -33 5 -93l116 -255q11 24 39 98q33 87 19 157.5t-71 92.5zM487 723l165 -171l-165 54l-166 -54z" />
    <glyph glyph-name="Ycircumflex" unicode="&#x176;" horiz-adv-x="809" 
d="M809 700q-67 -40 -119 -97.5t-106 -143.5l-56 -89v-241q0 -29 4 -52.5t10 -37t12.5 -23t10.5 -12.5l4 -4h-362q5 3 11.5 10.5t18 40.5t11.5 78v165l-155 276q-28 45 -56 77.5t-43 42.5l-14 10h415q-3 -4 -7 -11t-2.5 -35.5t18.5 -62.5l118 -210q16 25 49 78
q47 82 26.5 144.5t-92.5 96.5h304zM395 923l165 -171l-165 54l-166 -54z" />
    <glyph glyph-name="ycircumflex" unicode="&#x177;" horiz-adv-x="716" 
d="M716 504q-68 -26 -114 -82t-92 -171l-95 -251q-5 -12 -54 -131q-83 -189 -226 -138q-53 19 -68.5 69.5t15 95t93.5 47.5q32 2 59.5 -14t42 -33.5t29.5 -27.5t31 4.5t37 61.5q7 11 29 66h-172q-113 285 -149 374q-16 40 -39 72.5t-38 45.5l-15 12h360q-3 -3 -6.5 -11
t-3 -41.5t14.5 -77.5l91 -258q15 28 29 71q88 261 -62 317h303zM388 723l165 -171l-165 54l-166 -54z" />
    <glyph glyph-name="Ydieresis" unicode="&#x178;" horiz-adv-x="809" 
d="M809 700q-67 -40 -119 -97.5t-106 -143.5l-56 -89v-241q0 -29 4 -52.5t10 -37t12.5 -23t10.5 -12.5l4 -4h-362q5 3 11.5 10.5t18 40.5t11.5 78v165l-155 276q-28 45 -56 77.5t-43 42.5l-14 10h415q-3 -4 -7 -11t-2.5 -35.5t18.5 -62.5l118 -210q16 25 49 78
q47 82 26.5 144.5t-92.5 96.5h304zM293 906q34 0 58 -24t24 -58t-24 -58t-58 -24t-58 24t-24 58t24 58t58 24zM495 906q34 0 58 -24t24 -58t-24 -58t-58 -24t-57.5 24t-23.5 58t23.5 58t57.5 24z" />
    <glyph glyph-name="Zacute" unicode="&#x179;" horiz-adv-x="696" 
d="M407 13q41 0 77.5 14t62 36t46.5 48.5t34.5 53t22.5 48.5t12 36l4 14l-21 -263h-635l350 686h-78q-41 0 -77.5 -13.5t-62 -35.5t-46.5 -48.5t-34.5 -53.5t-22.5 -49t-13 -36l-3 -13l21 263h612l-350 -687h101zM543 919q18 -22 15.5 -46t-20.5 -42q-25 -24 -67.5 -44
t-72.5 -27l-30 -8q3 12 9.5 32t29.5 65t48 69q18 18 42.5 19t45.5 -18z" />
    <glyph glyph-name="zacute" unicode="&#x17a;" horiz-adv-x="560" 
d="M344 13q40 0 74 18t54 44t34 52t19 44l5 18l-15 -189h-505l255 491h-55q-40 0 -74 -18t-53.5 -44t-33.5 -52t-19 -44l-5 -18l14 189h488l-254 -491h71zM465 719q18 -22 15.5 -46t-20.5 -42q-25 -24 -67.5 -44t-72.5 -27l-30 -8q3 12 9.5 32t29.5 65t48 69q18 18 42.5 19
t45.5 -18z" />
    <glyph glyph-name="Zdotaccent" unicode="&#x17b;" horiz-adv-x="696" 
d="M407 13q41 0 77.5 14t62 36t46.5 48.5t34.5 53t22.5 48.5t12 36l4 14l-21 -263h-635l350 686h-78q-41 0 -77.5 -13.5t-62 -35.5t-46.5 -48.5t-34.5 -53.5t-22.5 -49t-13 -36l-3 -13l21 263h612l-350 -687h101zM388 906q34 0 58 -24t24 -58t-24 -58t-58 -24t-58 24t-24 58
t24 58t58 24z" />
    <glyph glyph-name="zdotaccent" unicode="&#x17c;" horiz-adv-x="560" 
d="M344 13q40 0 74 18t54 44t34 52t19 44l5 18l-15 -189h-505l255 491h-55q-40 0 -74 -18t-53.5 -44t-33.5 -52t-19 -44l-5 -18l14 189h488l-254 -491h71zM310 706q34 0 58 -24t24 -58t-24 -58t-58 -24t-58 24t-24 58t24 58t58 24z" />
    <glyph glyph-name="Zcaron" unicode="&#x17d;" horiz-adv-x="696" 
d="M407 13q41 0 77.5 14t62 36t46.5 48.5t34.5 53t22.5 48.5t12 36l4 14l-21 -263h-635l350 686h-78q-41 0 -77.5 -13.5t-62 -35.5t-46.5 -48.5t-34.5 -53.5t-22.5 -49t-13 -36l-3 -13l21 263h612l-350 -687h101zM359 869l166 54l-166 -171l-165 171z" />
    <glyph glyph-name="zcaron" unicode="&#x17e;" horiz-adv-x="560" 
d="M344 13q40 0 74 18t54 44t34 52t19 44l5 18l-15 -189h-505l255 491h-55q-40 0 -74 -18t-53.5 -44t-33.5 -52t-19 -44l-5 -18l14 189h488l-254 -491h71zM350 669l166 54l-166 -171l-165 171z" />
    <glyph glyph-name="longs" unicode="&#x17f;" horiz-adv-x="405" 
d="M371 865q104 0 164 -52t30 -133q-21 -53 -76 -63t-95 26t-22 96q3 11 11 23.5t14.5 20t17.5 18.5t15 16.5t7.5 13t-2.5 12t-19 7.5q-45 12 -68.5 -46.5t-23.5 -162.5v-512q0 -45 10 -77.5t20 -41.5l10 -10h-334q4 3 11 10.5t18 40.5t11 78v361h-40v14h40v93
q0 68 18.5 118.5t47 78.5t70.5 44.5t80 21.5t85 5z" />
    <glyph glyph-name="AEacute" unicode="&#x1fc;" horiz-adv-x="1066" 
d="M768 13q41 0 76 14t58.5 36t43 48.5t30 53t18 48.5t10.5 36l2 14v-263h-606q4 3 11 10.5t18 40.5t11 78v149h-176q-8 -13 -28 -49q-42 -70 -25 -135t92 -94h-303q118 46 228 241l210 371q-4 30 -13.5 52t-16.5 29l-8 7h592v-263q-1 5 -2.5 14t-9.5 35t-18.5 49.5
t-29.5 52t-42.5 49.5t-59 35t-76.5 14h-33v-330q53 6 92.5 26t58.5 43.5t30.5 46t13.5 37.5l2 15v-348q0 6 -2 16t-13.5 36.5t-30.5 48t-58.5 42t-92.5 26.5v-332h47zM440 292q0 294 -1 301l-168 -301h169zM733 919q18 -22 15.5 -46t-20.5 -42q-25 -24 -67.5 -44t-72.5 -27
l-30 -8q3 12 9.5 32t29.5 65t48 69q18 18 42.5 19t45.5 -18z" />
    <glyph glyph-name="aeacute" unicode="&#x1fd;" horiz-adv-x="1012" 
d="M982 143h10q-35 -74 -106 -113.5t-164 -40.5q-65 0 -122.5 20.5t-104 66t-65.5 111.5q-7 -54 -25 -92t-38.5 -58.5t-53 -31.5t-58 -13.5t-63.5 -2.5q-70 0 -121 32t-51 84q0 54 44.5 89.5t102 51t135 40t120.5 52.5q-2 171 -70 171q-73 0 -40 -79q18 -40 11.5 -68.5
t-23 -43.5t-39.5 -19q-47 -8 -82 12t-33 74q3 69 64 100.5t148 31.5q130 0 196 -34q70 34 167 34q78 0 131.5 -20t82 -58t40.5 -82.5t12 -103.5h-134h-77h-110q19 -81 78.5 -123.5t126 -37.5t111.5 51zM716 509q-43 0 -59.5 -67t6.5 -176h115q11 92 -3 167.5t-59 75.5z
M423 224v99q-38 -17 -69.5 -48t-48.5 -66t-24.5 -69t-1.5 -60t23 -35q25 -14 53.5 5t44.5 62q23 58 23 112zM665 719q18 -22 15.5 -46t-20.5 -42q-25 -24 -67.5 -44t-72.5 -27l-30 -8q3 12 9.5 32t29.5 65t48 69q18 18 42.5 19t45.5 -18z" />
    <glyph glyph-name="Oslashacute" unicode="&#x1fe;" horiz-adv-x="878" 
d="M570 744h14l-17 -49q129 -34 204 -128t77 -217q-2 -153 -114 -256.5t-295 -104.5q-47 0 -108 11l-15 -44h-13l16 47q-133 32 -210.5 127t-78.5 220q1 153 113 256.5t296 104.5q57 0 115 -13zM313 350q0 -163 35 -261l179 527q-33 86 -88 86q-44 0 -74 -55.5t-41 -131.5
t-11 -165zM439 -2q34 0 59 31t39 83.5t20.5 112t6.5 125.5q0 149 -30 246l-179 -524q33 -74 84 -74zM603 919q18 -22 15.5 -46t-20.5 -42q-25 -24 -67.5 -44t-72.5 -27l-30 -8q3 12 9.5 32t29.5 65t48 69q18 18 42.5 19t45.5 -18z" />
    <glyph glyph-name="oslashacute" unicode="&#x1ff;" horiz-adv-x="689" 
d="M449 506q105 -24 162 -92.5t58 -160.5q-1 -114 -86.5 -189t-238.5 -75q-50 0 -92 9l-17 -44h-13l18 47q-105 23 -162 91.5t-58 160.5q1 114 86 189t238 75q50 0 93 -9l17 44h13zM272 253q0 -87 8 -148l125 320q-17 84 -61 84q-16 0 -28.5 -10.5t-20 -32.5t-12 -43t-7 -56
t-3 -56t-1.5 -58zM344 -3q16 0 28.5 10.5t20 32.5t12.5 43t7.5 56t3 56t1.5 58q-2 104 -8 148l-125 -320q17 -84 60 -84zM492 719q18 -22 15.5 -46t-20.5 -42q-25 -24 -67.5 -44t-72.5 -27l-30 -8q3 12 9.5 32t29.5 65t48 69q18 18 42.5 19t45.5 -18z" />
    <glyph glyph-name="Scommaaccent" unicode="&#x218;" horiz-adv-x="682" 
d="M325 -67q35 0 59.5 -24.5t24.5 -59.5q0 -50 -35 -98.5t-96 -81.5l-6 9q80 42 112 112q-22 -25 -59 -25q-35 0 -59.5 24.5t-24.5 59.5t24.5 59.5t59.5 24.5zM567 388q69 -47 88 -122.5t-14 -139.5q-18 -39 -53 -68t-75 -43t-75 -20t-66 -6q-34 0 -106.5 13t-116.5 17
q-28 3 -51 -5.5t-32 -18.5l-9 -10v278q6 -11 16.5 -29t44.5 -63.5t68.5 -80.5t85.5 -63.5t99 -28.5q58 0 61 57q5 72 -106 131q-9 5 -48 25t-56 30t-47.5 29t-53 38t-41.5 40q-36 40 -46 91.5t3.5 98.5t44.5 83q77 90 246 90q72 0 182 -28q30 -6 47.5 -0.5t23.5 15.5l6 10
v-271q-3 11 -9.5 29t-28 63.5t-46.5 80.5t-65.5 63.5t-84.5 28.5q-46 0 -71 -31.5t-13 -79.5q10 -40 61.5 -75t129.5 -72t107 -56z" />
    <glyph glyph-name="scommaaccent" unicode="&#x219;" horiz-adv-x="497" 
d="M410 284q49 -38 62 -94t-11 -104q-25 -54 -82.5 -75.5t-112.5 -21.5q-26 0 -80 10t-84 13q-20 2 -37 -4.5t-24 -13.5l-7 -7v203q4 -8 10.5 -20.5t29 -45t46.5 -57.5t60 -45.5t71 -20.5q23 0 25 23q4 41 -63 90l-8 6q-5 4 -23 16t-24.5 16.5t-21 15t-22.5 17t-20 16.5
t-22.5 20t-20.5 21q-37 39 -36 101t39 104q61 69 179 69q53 0 134 -20q22 -4 34.5 0t17.5 11l5 7v-199q-3 8 -8 21t-22 45.5t-35.5 58t-48 46t-59.5 20.5q-25 0 -34.5 -18.5t5.5 -51.5q11 -22 41.5 -47t78.5 -57.5t68 -47.5zM236 -67q34 0 59 -24.5t25 -59.5
q0 -50 -35 -98.5t-96 -81.5l-6 9q80 42 112 112q-22 -25 -59 -25q-35 0 -59.5 24.5t-24.5 59.5t24.5 59.5t59.5 24.5z" />
    <glyph glyph-name="circumflex" unicode="&#x2c6;" horiz-adv-x="411" 
d="M206 723l165 -171l-165 54l-166 -54z" />
    <glyph glyph-name="caron" unicode="&#x2c7;" horiz-adv-x="411" 
d="M205 669l166 54l-166 -171l-165 171z" />
    <glyph glyph-name="breve" unicode="&#x2d8;" horiz-adv-x="308" 
d="M181 635h87q0 -39 -30 -65.5t-84 -27.5q-55 1 -84.5 27.5t-29.5 65.5h86q0 -86 28 -86q27 0 27 86z" />
    <glyph glyph-name="dotaccent" unicode="&#x2d9;" horiz-adv-x="244" 
d="M122 706q34 0 58 -24t24 -58t-24 -58t-58 -24t-58 24t-24 58t24 58t58 24z" />
    <glyph glyph-name="ring" unicode="&#x2da;" horiz-adv-x="309" 
d="M155 727q54 0 84 -26.5t30 -65.5t-30 -65.5t-84 -27.5q-55 1 -85 27.5t-30 65.5t30 65.5t85 26.5zM155 549q27 0 27 86q0 85 -27 85q-28 0 -28 -85q0 -86 28 -86z" />
    <glyph glyph-name="ogonek" unicode="&#x2db;" horiz-adv-x="267" 
d="M153 0h9q-14 -10 -16 -38t5.5 -55.5t28 -43t47.5 -3.5q-30 -31 -72 -40.5t-75.5 7.5t-38.5 56q-6 47 30.5 78.5t81.5 38.5z" />
    <glyph glyph-name="tilde" unicode="&#x2dc;" horiz-adv-x="452" 
d="M412 685q0 -20 -5.5 -44.5t-29 -53.5t-62.5 -34q-19 -2 -43.5 2.5t-39 10t-42 17.5t-31.5 14q-76 30 -119 -14q8 48 37.5 83.5t67.5 39.5q31 4 62 -4.5t61 -23t45 -17.5q69 -15 99 24z" />
    <glyph glyph-name="hungarumlaut" unicode="&#x2dd;" horiz-adv-x="448" 
d="M214 719q19 -22 16.5 -46t-20.5 -42q-26 -24 -68.5 -44t-71.5 -27l-30 -8q3 12 9.5 32t29 65t47.5 69q18 18 42.5 19t45.5 -18zM391 719q18 -22 15.5 -46t-20.5 -42q-25 -24 -67.5 -44t-72.5 -27l-30 -8q3 12 9.5 32t29.5 65t48 69q18 18 42.5 19t45.5 -18z" />
    <glyph glyph-name="Wgrave" unicode="&#x1e80;" horiz-adv-x="1259" 
d="M966 700h303q-110 -94 -195 -295l-166 -405h-110q-92 179 -176 340l-138 -340h-107q-242 462 -298 571q-25 48 -47.5 80.5t-31.5 40.5l-10 8h401q-3 -5 -7 -15t-3 -43.5t17 -70.5t58.5 -119.5t77.5 -147.5l35 -64q6 10 44 113q0 1 1 3q-28 54 -67 130t-44 85
q-25 48 -47.5 80.5t-31.5 40.5l-10 8h401q-3 -5 -7 -15t-3 -43.5t17 -70.5l161 -354q16 33 54 136q46 120 27 218.5t-98 128.5zM484 919q21 19 45.5 18t42.5 -19q25 -24 47 -65.5t31 -70.5l9 -30q-13 3 -33 8.5t-66 26t-71 44.5q-18 18 -20.5 42t15.5 46z" />
    <glyph glyph-name="wgrave" unicode="&#x1e81;" horiz-adv-x="979" 
d="M761 504h218q-79 -69 -140 -212l-119 -292h-119q-66 128 -126 244l-101 -244h-116q-174 335 -215 411q-19 35 -35 58t-22 29l-7 6h329q-21 -33 4 -93q12 -27 42 -88t54 -109l25 -47q8 13 35 87q0 1 1 2q-19 36 -47 89.5t-34 65.5q-18 35 -34 58.5t-23 28.5l-7 6h329
q-21 -33 5 -93l116 -255q11 24 39 98q33 87 19 157.5t-71 92.5zM342 719q21 19 45.5 18t42.5 -19q25 -24 47 -65.5t31 -70.5l9 -30q-13 3 -33 8.5t-66 26t-71 44.5q-18 18 -20.5 42t15.5 46z" />
    <glyph glyph-name="Wacute" unicode="&#x1e82;" horiz-adv-x="1259" 
d="M966 700h303q-110 -94 -195 -295l-166 -405h-110q-92 179 -176 340l-138 -340h-107q-242 462 -298 571q-25 48 -47.5 80.5t-31.5 40.5l-10 8h401q-3 -5 -7 -15t-3 -43.5t17 -70.5t58.5 -119.5t77.5 -147.5l35 -64q6 10 44 113q0 1 1 3q-28 54 -67 130t-44 85
q-25 48 -47.5 80.5t-31.5 40.5l-10 8h401q-3 -5 -7 -15t-3 -43.5t17 -70.5l161 -354q16 33 54 136q46 120 27 218.5t-98 128.5zM773 919q18 -22 15.5 -46t-20.5 -42q-25 -24 -67.5 -44t-72.5 -27l-30 -8q3 12 9.5 32t29.5 65t48 69q18 18 42.5 19t45.5 -18z" />
    <glyph glyph-name="wacute" unicode="&#x1e83;" horiz-adv-x="979" 
d="M761 504h218q-79 -69 -140 -212l-119 -292h-119q-66 128 -126 244l-101 -244h-116q-174 335 -215 411q-19 35 -35 58t-22 29l-7 6h329q-21 -33 4 -93q12 -27 42 -88t54 -109l25 -47q8 13 35 87q0 1 1 2q-19 36 -47 89.5t-34 65.5q-18 35 -34 58.5t-23 28.5l-7 6h329
q-21 -33 5 -93l116 -255q11 24 39 98q33 87 19 157.5t-71 92.5zM661 719q18 -22 15.5 -46t-20.5 -42q-25 -24 -67.5 -44t-72.5 -27l-30 -8q3 12 9.5 32t29.5 65t48 69q18 18 42.5 19t45.5 -18z" />
    <glyph glyph-name="Wdieresis" unicode="&#x1e84;" horiz-adv-x="1259" 
d="M966 700h303q-110 -94 -195 -295l-166 -405h-110q-92 179 -176 340l-138 -340h-107q-242 462 -298 571q-25 48 -47.5 80.5t-31.5 40.5l-10 8h401q-3 -5 -7 -15t-3 -43.5t17 -70.5t58.5 -119.5t77.5 -147.5l35 -64q6 10 44 113q0 1 1 3q-28 54 -67 130t-44 85
q-25 48 -47.5 80.5t-31.5 40.5l-10 8h401q-3 -5 -7 -15t-3 -43.5t17 -70.5l161 -354q16 33 54 136q46 120 27 218.5t-98 128.5zM518 906q34 0 58 -24t24 -58t-24 -58t-58 -24t-58 24t-24 58t24 58t58 24zM720 906q34 0 58 -24t24 -58t-24 -58t-58 -24t-57.5 24t-23.5 58
t23.5 58t57.5 24z" />
    <glyph glyph-name="wdieresis" unicode="&#x1e85;" horiz-adv-x="979" 
d="M761 504h218q-79 -69 -140 -212l-119 -292h-119q-66 128 -126 244l-101 -244h-116q-174 335 -215 411q-19 35 -35 58t-22 29l-7 6h329q-21 -33 4 -93q12 -27 42 -88t54 -109l25 -47q8 13 35 87q0 1 1 2q-19 36 -47 89.5t-34 65.5q-18 35 -34 58.5t-23 28.5l-7 6h329
q-21 -33 5 -93l116 -255q11 24 39 98q33 87 19 157.5t-71 92.5zM386 706q34 0 58 -24t24 -58t-24 -58t-58 -24t-58 24t-24 58t24 58t58 24zM588 706q34 0 58 -24t24 -58t-24 -58t-58 -24t-57.5 24t-23.5 58t23.5 58t57.5 24z" />
    <glyph glyph-name="Ygrave" unicode="&#x1ef2;" horiz-adv-x="809" 
d="M809 700q-67 -40 -119 -97.5t-106 -143.5l-56 -89v-241q0 -29 4 -52.5t10 -37t12.5 -23t10.5 -12.5l4 -4h-362q5 3 11.5 10.5t18 40.5t11.5 78v165l-155 276q-28 45 -56 77.5t-43 42.5l-14 10h415q-3 -4 -7 -11t-2.5 -35.5t18.5 -62.5l118 -210q16 25 49 78
q47 82 26.5 144.5t-92.5 96.5h304zM320 919q21 19 45.5 18t42.5 -19q25 -24 47 -65.5t31 -70.5l9 -30q-13 3 -33 8.5t-66 26t-71 44.5q-18 18 -20.5 42t15.5 46z" />
    <glyph glyph-name="ygrave" unicode="&#x1ef3;" horiz-adv-x="716" 
d="M716 504q-68 -26 -114 -82t-92 -171l-95 -251q-5 -12 -54 -131q-83 -189 -226 -138q-53 19 -68.5 69.5t15 95t93.5 47.5q32 2 59.5 -14t42 -33.5t29.5 -27.5t31 4.5t37 61.5q7 11 29 66h-172q-113 285 -149 374q-16 40 -39 72.5t-38 45.5l-15 12h360q-3 -3 -6.5 -11
t-3 -41.5t14.5 -77.5l91 -258q15 28 29 71q88 261 -62 317h303zM213 719q21 19 45.5 18t42.5 -19q25 -24 47 -65.5t31 -70.5l9 -30q-13 3 -33 8.5t-66 26t-71 44.5q-18 18 -20.5 42t15.5 46z" />
    <glyph glyph-name="endash" unicode="&#x2013;" horiz-adv-x="523" 
d="M40 337h443v-13h-443v13z" />
    <glyph glyph-name="emdash" unicode="&#x2014;" horiz-adv-x="685" 
d="M40 337h605v-13h-605v13z" />
    <glyph glyph-name="quoteleft" unicode="&#x2018;" horiz-adv-x="268" 
d="M134 802q43 0 73.5 -30.5t30.5 -73.5t-30.5 -73t-73.5 -30t-73.5 30t-30.5 73q0 62 43.5 122.5t118.5 100.5l7 -13q-95 -47 -139 -137q31 31 74 31z" />
    <glyph glyph-name="quoteright" unicode="&#x2019;" horiz-adv-x="268" 
d="M134 802q43 0 73.5 -30.5t30.5 -73.5q0 -62 -44 -122t-118 -100l-8 12q97 48 140 137q-31 -31 -74 -31q-44 0 -74 30t-30 74q0 43 30.5 73.5t73.5 30.5z" />
    <glyph glyph-name="quotesinglbase" unicode="&#x201a;" horiz-adv-x="268" 
d="M134 197q43 0 73.5 -30.5t30.5 -73.5q0 -62 -43.5 -122t-118.5 -100l-7 12q96 48 139 137q-31 -31 -74 -31t-73.5 30.5t-30.5 73.5t30.5 73.5t73.5 30.5z" />
    <glyph glyph-name="quotedblleft" unicode="&#x201c;" horiz-adv-x="517" 
d="M383 813q43 0 73.5 -30.5t30.5 -73.5t-30.5 -73t-73.5 -30t-73.5 30t-30.5 73q0 62 44 122.5t118 100.5l8 -13q-96 -47 -140 -137q31 31 74 31zM134 813q44 0 74 -30.5t30 -73.5t-30.5 -73t-73.5 -30t-73.5 30t-30.5 73q0 62 43.5 122.5t118.5 100.5l8 -13
q-96 -47 -140 -137q31 31 74 31z" />
    <glyph glyph-name="quotedblright" unicode="&#x201d;" horiz-adv-x="517" 
d="M134 932q43 0 73.5 -30.5t30.5 -73.5q0 -62 -43.5 -122t-118.5 -100l-7 12q96 48 139 137q-31 -31 -74 -31t-73.5 30.5t-30.5 73.5t30.5 73.5t73.5 30.5zM383 932q43 0 73.5 -30.5t30.5 -73.5q0 -62 -43.5 -122t-118.5 -100l-7 12q96 48 139 137q-31 -31 -74 -31
t-73.5 30.5t-30.5 73.5t30.5 73.5t73.5 30.5z" />
    <glyph glyph-name="quotedblbase" unicode="&#x201e;" horiz-adv-x="517" 
d="M134 197q43 0 73.5 -30.5t30.5 -73.5q0 -62 -43.5 -122t-118.5 -100l-7 12q96 48 139 137q-31 -31 -74 -31t-73.5 30.5t-30.5 73.5t30.5 73.5t73.5 30.5zM383 197q43 0 73.5 -30.5t30.5 -73.5q0 -62 -43.5 -122t-118.5 -100l-7 12q96 48 139 137q-31 -31 -74 -31
t-73.5 30.5t-30.5 73.5t30.5 73.5t73.5 30.5z" />
    <glyph glyph-name="bullet" unicode="&#x2022;" horiz-adv-x="288" 
d="M144 514q43 0 73.5 -30.5t30.5 -73.5t-30.5 -73.5t-73.5 -30.5q-44 0 -74 30t-30 74q0 43 30.5 73.5t73.5 30.5z" />
    <glyph glyph-name="ellipsis" unicode="&#x2026;" horiz-adv-x="784" 
d="M134 197q43 0 73.5 -30.5t30.5 -73.5t-30.5 -73.5t-73.5 -30.5t-73.5 30.5t-30.5 73.5t30.5 73.5t73.5 30.5zM392 197q43 0 73.5 -30.5t30.5 -73.5t-30.5 -73.5t-73.5 -30.5t-73.5 30.5t-30.5 73.5t30.5 73.5t73.5 30.5zM650 197q43 0 73.5 -30.5t30.5 -73.5t-30.5 -73.5
t-73.5 -30.5t-73.5 30.5t-30.5 73.5t30.5 73.5t73.5 30.5z" />
    <glyph glyph-name="perthousand" unicode="&#x2030;" horiz-adv-x="1191" 
d="M610 700h13l-445 -700h-14zM213 704q88 0 135.5 -51t47.5 -126t-47.5 -125.5t-135.5 -50.5t-135.5 50.5t-47.5 125.5t47.5 126t135.5 51zM213 355q44 0 44 172q0 173 -44 173t-44 -173q0 -172 44 -172zM570 342q87 0 135 -50.5t48 -125.5t-48 -125.5t-135 -51.5
q-88 1 -135.5 51.5t-47.5 125.5t47.5 125.5t135.5 50.5zM570 -6q44 0 44 172t-44 172t-44 -172t44 -172zM978 342q87 0 135 -50.5t48 -125.5t-48 -125.5t-135 -51.5q-88 1 -135.5 51.5t-47.5 125.5t47.5 125.5t135.5 50.5zM978 -6q44 0 44 172t-44 172t-44 -172t44 -172z
" />
    <glyph glyph-name="guilsinglleft" unicode="&#x2039;" horiz-adv-x="234" 
d="M194 494l-76 -165l76 -166l-184 166z" />
    <glyph glyph-name="guilsinglright" unicode="&#x203a;" horiz-adv-x="235" 
d="M225 329l-185 -166l77 166l-77 165z" />
    <glyph glyph-name="exclamdbl" unicode="&#x203c;" horiz-adv-x="579" 
d="M148 197q43 0 73.5 -30.5t30.5 -73.5t-30.5 -73.5t-73.5 -30.5t-73 30.5t-30 73.5t30 73.5t73 30.5zM148 700q54 0 86.5 -37.5t32.5 -87.5q0 -69 -29.5 -156t-59.5 -139l-30 -53q-5 8 -13 22t-28 55.5t-35.5 81.5t-28.5 92.5t-13 96.5q0 50 32 87.5t86 37.5zM430 197
q43 0 73.5 -30.5t30.5 -73.5t-30.5 -73.5t-73.5 -30.5t-73 30.5t-30 73.5t30 73.5t73 30.5zM430 700q54 0 86.5 -37.5t32.5 -87.5q0 -69 -29.5 -156t-59.5 -139l-30 -53q-5 8 -13 22t-28 55.5t-35.5 81.5t-28.5 92.5t-13 96.5q0 50 32 87.5t86 37.5z" />
    <glyph glyph-name="fraction" unicode="&#x2044;" horiz-adv-x="321" 
d="M277 744h14l-268 -788h-13z" />
    <glyph glyph-name="Euro" unicode="&#x20ac;" horiz-adv-x="863" 
d="M820 200h13q-47 -103 -139.5 -157t-214.5 -54q-76 0 -151.5 32t-136.5 102.5t-76 165.5h-75l4 13h69q-3 22 -3 48q0 27 3 51h-73l4 14h71q15 101 76.5 169.5t145 97.5t185.5 29q56 0 144 -22q49 -10 74 -4.5t32 17.5l6 13l22 -278q-3 11 -9.5 28.5t-30.5 63t-52 80
t-74 63t-97 28.5q-49 0 -85 -41t-52 -105.5t-11 -138.5h247l-4 -14h-242q1 -17 7 -51q5 -26 12 -48h183l-5 -13h-174q27 -73 79.5 -115.5t110.5 -49t116.5 13t100.5 62.5z" />
    <glyph glyph-name="Ruble" unicode="&#x20bd;" horiz-adv-x="780" 
d="M414 253h-52v-82h206v-13h-206v-29q0 -45 10 -77.5t20 -41.5l10 -10h-361q4 3 11 10.5t18 40.5t11 78v29h-41v13h41v82h-41v13h41v305q0 45 -10 77.5t-20 41.5l-10 10h373q175 0 254 -63t82 -161q-3 -98 -82 -160.5t-254 -62.5zM362 686v-420q70 0 105.5 56t35.5 154
q0 99 -35.5 154.5t-105.5 55.5z" />
    <glyph glyph-name="afii61352" unicode="&#x2116;" horiz-adv-x="1188" 
d="M799 333h379v-13h-379v13zM988 382q-82 1 -126 48t-44 117t44.5 117t125.5 47q82 0 126.5 -47t44.5 -117t-44.5 -117t-126.5 -48zM988 707q-40 0 -40 -160q0 -161 40 -161q41 0 41 161q0 160 -41 160zM521 700h303q-78 -30 -112 -88t-34 -153v-459h-165l-359 526v-285
q0 -93 34 -152t112 -89h-303q78 30 111.5 87t33.5 154v302l-73 107q-19 26 -33.5 35.5t-45.5 14.5h421q-12 -23 48 -116l207 -290v165q0 94 -34 152.5t-111 88.5z" />
    <glyph glyph-name="approxequal" unicode="&#x2248;" horiz-adv-x="541" 
d="M400 396h-13q-44 3 -112 34q-62 29 -102 32q-44 2 -80.5 -15t-54.5 -36l-8 8q20 21 58.5 39t84.5 15q43 -3 107 -33q69 -30 107 -32q44 -3 73.5 12t40.5 39l10 -5q-12 -24 -40.5 -41t-70.5 -17zM400 273h-13q-44 3 -112 34q-62 29 -102 31q-44 3 -80.5 -14t-54.5 -36
l-8 8q20 21 58.5 39t84.5 15q43 -3 107 -33q69 -30 107 -33q44 -3 73.5 12.5t40.5 39.5l10 -5q-12 -24 -40.5 -41t-70.5 -17z" />
    <glyph glyph-name="notequal" unicode="&#x2260;" horiz-adv-x="523" 
d="M483 391h-151l-122 -121h273v-13h-286l-145 -145l-9 9l135 136h-138v13h151l122 121h-273v14h286l145 144l9 -9l-135 -135h138v-14z" />
    <glyph glyph-name="commaaccent" unicode="&#xf6c3;" horiz-adv-x="248" 
d="M124 -67q34 0 59 -24.5t25 -59.5q0 -50 -35 -98.5t-96 -81.5l-6 9q80 42 112 112q-22 -25 -59 -25q-35 0 -59.5 24.5t-24.5 59.5t24.5 59.5t59.5 24.5z" />
    <glyph glyph-name="T_h.caron" horiz-adv-x="1335" 
d="M1264 129q0 -29 4 -52.5t10 -37t12.5 -23t10.5 -12.5l4 -4h-335q4 3 11 10.5t18 40.5t11 78v200q0 28 -1.5 47t-6 42t-15.5 35.5t-28 12.5q-22 1 -39 -24t-17 -61v-252q0 -45 10 -77.5t20 -41.5l10 -10h-334q4 3 11 10.5t18 40.5t11 78v399q0 64 -36 107t-99 50v-556
q0 -45 10 -77.5t20 -41.5l10 -10h-361q4 3 11 10.5t18 40.5t11 78v556q-37 -4 -68.5 -19.5t-52.5 -38t-38 -48t-26.5 -51t-16 -46t-9.5 -32.5l-2 -13v263h494q94 0 191.5 13t147.5 25l50 13v-315q39 80 159 80q102 0 152 -54t50 -142v-191zM376 869l166 54l-166 -171
l-165 171z" />
    <glyph glyph-name="T_h.commaaccent" horiz-adv-x="1335" 
d="M1264 129q0 -29 4 -52.5t10 -37t12.5 -23t10.5 -12.5l4 -4h-335q4 3 11 10.5t18 40.5t11 78v200q0 28 -1.5 47t-6 42t-15.5 35.5t-28 12.5q-22 1 -39 -24t-17 -61v-252q0 -45 10 -77.5t20 -41.5l10 -10h-334q4 3 11 10.5t18 40.5t11 78v399q0 64 -36 107t-99 50v-556
q0 -45 10 -77.5t20 -41.5l10 -10h-361q4 3 11 10.5t18 40.5t11 78v556q-37 -4 -68.5 -19.5t-52.5 -38t-38 -48t-26.5 -51t-16 -46t-9.5 -32.5l-2 -13v263h494q94 0 191.5 13t147.5 25l50 13v-315q39 80 159 80q102 0 152 -54t50 -142v-191zM374 -67q34 0 59 -24.5t25 -59.5
q0 -50 -35 -98.5t-96 -81.5l-6 9q80 42 112 112q-22 -25 -59 -25q-35 0 -59.5 24.5t-24.5 59.5t24.5 59.5t59.5 24.5z" />
    </font>
</defs>
</svg>
