<?xml version="1.0" standalone="no"?>
<!DOCTYPE svg PUBLIC "-//W3C//DTD SVG 1.1//EN" "http://www.w3.org/Graphics/SVG/1.1/DTD/svg11.dtd" >
<svg xmlns="http://www.w3.org/2000/svg" xmlns:xlink="http://www.w3.org/1999/xlink" version="1.1">
<metadata>
Created by FontForge 20170910 at Sat Jul 23 23:13:04 2016
 By Jimmy Wärting
James Barnardo
</metadata>
<defs>
<font id="Longhaul" horiz-adv-x="258" >
  <font-face 
    font-family="Longhaul"
    font-weight="400"
    font-stretch="normal"
    units-per-em="1000"
    panose-1="0 0 0 0 0 0 0 0 0 0"
    ascent="750"
    descent="-250"
    x-height="651"
    cap-height="735"
    bbox="-257 -228.452 1059 878"
    underline-thickness="50"
    underline-position="-100"
    unicode-range="U+0020-20AC"
  />
<missing-glyph horiz-adv-x="500" 
 />
    <glyph glyph-name=".notdef" horiz-adv-x="500" 
 />
    <glyph glyph-name="B" unicode="B" horiz-adv-x="597" 
d="M513 734q41 -2 73 -16.5t51 -40t21.5 -61.5t-15.5 -81q-19 -48 -42.5 -81.5t-45.5 -54.5q-26 -25 -51 -41q14 -15 21 -38q6 -20 5.5 -50t-14.5 -74q-19 -55 -48 -92.5t-65 -60.5t-77.5 -33t-83.5 -10h-356l294 735h333v-1zM292 459h40q17 0 35 12.5t25 30.5l7 19
q8 18 0.5 31t-25.5 13h-39zM209 150q17 0 34.5 12.5t25.5 31.5l25 65q8 18 0.5 30.5t-25.5 12.5h-39l-62 -152h41z" />
    <glyph glyph-name="C" unicode="C" horiz-adv-x="603" 
d="M423 747q120 0 173 -62t27 -177q0 -2 -1.5 -7.5t-2.5 -7.5q-8 -24 -29 -33t-46 -9h-178l28 70q8 18 0.5 31t-25.5 13q-25 0 -36 -9.5t-21 -35.5l-125 -310q-15 -38 -8.5 -49t25.5 -11q22 0 36 9.5t24 34.5l29 72h183q23 0 35 -9t3 -32q-3 -8 -6.5 -15t-6.5 -15
q-28 -68 -55.5 -109t-60 -62.5t-73 -28t-93.5 -6.5h-101q-43 0 -82 12.5t-63 42.5t-27 79.5t26 123.5l38 95q17 42 37 92t40 99q19 48 47 87.5t65 67.5t82 43.5t98 15.5h44v0z" />
    <glyph glyph-name="A" unicode="A" horiz-adv-x="597" 
d="M421 747q66 0 109.5 -12t68.5 -33t34.5 -49t6.5 -59q0 -28 -10 -54l-219 -540h-216l65 167h-91l-67 -167h-221l243 601q14 36 34 60q15 21 35.5 37t51.5 27t74 16.5t102 5.5zM398 521q8 18 1 31t-24 13q-18 0 -35.5 -13t-25.5 -31l-62 -151h87z" />
    <glyph glyph-name="D" unicode="D" horiz-adv-x="600" 
d="M422 735q66 0 111.5 -19.5t69 -56.5t22.5 -92t-28 -125q-26 -69 -50.5 -127.5t-48.5 -115.5q-27 -66 -54 -105.5t-59 -60.5t-71 -27t-91 -6h-339l293 735h245zM397 521q7 18 -0.5 31t-24.5 13h-40l-166 -415h40q17 0 35 12.5t25 31.5z" />
    <glyph glyph-name="E" unicode="E" horiz-adv-x="603" 
d="M180 735h540l-74 -182h-324l-40 -93h261l-71 -176h-259l-39 -93h324l-77 -191h-540l299 735v0z" />
    <glyph glyph-name="F" unicode="F" horiz-adv-x="591" 
d="M176 735h539l-74 -182h-324l-52 -123h278l-71 -176h-276l-103 -254h-216l299 735v0z" />
    <glyph glyph-name="G" unicode="G" horiz-adv-x="608" 
d="M428 747q133 0 180.5 -65t16.5 -184q-6 -21 -25.5 -34t-50.5 -13h-178l28 70q8 18 0.5 31t-25.5 13q-25 0 -36 -9.5t-21 -35.5l-125 -310q-15 -38 -8.5 -49t25.5 -11q22 0 36 9.5t24 34.5l2 4q4 10 1.5 19.5t-6 20.5t-5 23t4.5 26l31 77h278l-39 -98l-105 -266
q-22 -3 -63 -6q-35 -2 -94.5 -3.5t-150.5 -1.5q-48 0 -87 15t-60.5 46.5t-23 80.5t24.5 116l38 95q17 42 37 92t40 99q19 48 47 87.5t65 67.5t82 43.5t98 15.5h44v0z" />
    <glyph glyph-name="H" unicode="H" horiz-adv-x="645" 
d="M547 735h214l-299 -735h-214l104 256h-147l-104 -256h-214l299 735h214l-112 -276h147l112 276v0z" />
    <glyph glyph-name="I" unicode="I" horiz-adv-x="276" 
d="M398 735l-299 -735h-214l299 735h214v0z" />
    <glyph glyph-name="J" unicode="J" horiz-adv-x="295" 
d="M393 735l-299 -735q-23 -53 -50 -91t-56 -63.5t-58 -40.5t-56 -22q-63 -18 -130 -4l135 221l299 735h215z" />
    <glyph glyph-name="K" unicode="K" horiz-adv-x="637" 
d="M428 368l51 -368h-179q-35 0 -40 30l-38 277l-125 -307h-214l299 735h214l-98 -242l198 208q16 16 38.5 25t44.5 9h199z" />
    <glyph glyph-name="L" unicode="L" horiz-adv-x="488" 
d="M163 170h219l-69 -170h-434l299 735h214l-229 -565v0z" />
    <glyph glyph-name="M" unicode="M" horiz-adv-x="839" 
d="M946 735l-299 -735h-214l148 364l-239 -235q-13 -13 -28 -8.5t-18 18.5l-54 225l-148 -364h-215l299 735h122q26 0 42 -15t22 -39l66 -233l263 250q14 13 36 25t42 12h175z" />
    <glyph glyph-name="N" unicode="N" horiz-adv-x="700" 
d="M825 735l-299 -735h-157q-25 0 -43.5 17t-23.5 43l-50 301l-147 -361h-214l299 735h157q25 0 43.5 -16.5t23.5 -43.5l50 -301l147 361h214z" />
    <glyph glyph-name="O" unicode="O" horiz-adv-x="606" 
d="M431 747q67 0 114 -20t71 -59t23.5 -95.5t-28.5 -128.5q-26 -70 -51.5 -130.5t-50.5 -118.5q-28 -68 -55.5 -109t-60 -62.5t-73 -28t-93.5 -6.5h-101q-43 0 -82 12.5t-63 42.5t-27 79.5t26 123.5l38 95q17 42 37 92t40 99q19 48 47 87.5t65 67.5t82 43.5t98 15.5h44z
M402 521q8 18 0.5 31t-25.5 13q-25 0 -36 -9.5t-21 -35.5l-125 -310q-15 -38 -8.5 -49t25.5 -11q22 0 36 9.5t24 34.5z" />
    <glyph glyph-name="P" unicode="P" horiz-adv-x="592" 
d="M503 735q42 0 72.5 -14.5t48 -40t19.5 -59.5t-14 -73l-56 -145q-24 -59 -81 -114q-30 -29 -61 -46t-65 -26t-69.5 -11.5t-74.5 -2.5h-43l-84 -203h-220l295 735h333zM389 521q8 18 0.5 31t-25.5 13h-39l-72 -176h40q18 0 35.5 13t25.5 31z" />
    <glyph glyph-name="Q" unicode="Q" horiz-adv-x="615" 
d="M435 747q67 0 114.5 -20t71.5 -59t23 -95.5t-29 -128.5q-26 -70 -51.5 -130.5t-49.5 -118.5q-23 -56 -45.5 -93t-47.5 -60t-53.5 -34.5t-63.5 -15.5q-7 -14 0.5 -20.5t21.5 -6.5h169l-70 -173h-268q-22 0 -30.5 11.5t-0.5 31.5l63 154h-59q-43 0 -82 12.5t-63 42.5
t-27 79.5t27 123.5l38 95q17 42 36.5 92t39.5 99q19 48 47 87.5t65 67.5t82 43.5t98 15.5h44zM406 521q8 18 0.5 31t-25.5 13q-25 0 -35.5 -9.5t-21.5 -35.5l-124 -310q-16 -38 -9.5 -49t25.5 -11q22 0 36 9.5t24 34.5z" />
    <glyph glyph-name="R" unicode="R" horiz-adv-x="589" 
d="M493 734q57 -5 91 -27t50 -54.5t14 -71t-17 -76.5q-16 -40 -38 -68.5t-46.5 -49.5t-50.5 -34.5t-50 -23.5q46 -15 57 -64t-15 -114l-61 -151h-187q-13 0 -25.5 10.5t-4.5 31.5l67 165q7 18 -2 31t-26 13h-43l-101 -251h-221l295 735h314v-1zM399 521q7 18 -0.5 31
t-24.5 13h-40l-47 -115h41q17 0 34.5 13t25.5 31z" />
    <glyph glyph-name="S" unicode="S" horiz-adv-x="609" 
d="M415 747q72 0 124 -19.5t80.5 -55t32 -86t-21.5 -112.5h-178q-19 0 -31.5 8t-7.5 29q1 4 2 7t2 7q3 4 3 9q6 22 4 36.5t-22 14.5q-25 0 -40 -15t-29 -50q-8 -21 8 -39t43 -38.5t57.5 -45t52 -58t26.5 -77.5t-19 -103q-19 -48 -44 -80.5t-60.5 -52.5t-82.5 -28.5
t-110 -8.5q-72 0 -124 19t-80.5 54.5t-32 86t21.5 113.5h177q22 0 35 -11.5t0 -40.5q-2 -4 -2.5 -7t-0.5 -5q-5 -20 -2.5 -34t21.5 -14q25 0 40 15t29 50q8 20 -8 38.5t-43 39t-57.5 45.5t-52 58t-26.5 77.5t19 103.5q19 48 44 80.5t60.5 52.5t82.5 28.5t110 8.5z" />
    <glyph glyph-name="T" unicode="T" horiz-adv-x="526" 
d="M691 735l-69 -170h-179l-230 -565h-214l230 565h-174l69 170h567v0z" />
    <glyph glyph-name="U" unicode="U" horiz-adv-x="589" 
d="M701 735l-243 -601q-7 -17 -15.5 -32t-18.5 -28q-15 -20 -36 -36t-51.5 -27t-73.5 -16.5t-102 -5.5q-66 0 -109.5 12t-68.5 32.5t-34.5 48t-6.5 59.5q0 14 2.5 27.5t7.5 26.5l219 540h216l-203 -521q-8 -18 -1 -31t24 -13q18 0 35.5 13t25.5 31l212 521h221z" />
    <glyph glyph-name="V" unicode="V" horiz-adv-x="731" 
d="M851 735l-576 -735h-240l86 735h159q22 0 34 -11t8 -34l1 1l-44 -380l312 397q8 11 20.5 19t25.5 8h214z" />
    <glyph glyph-name="W" unicode="W" horiz-adv-x="925" 
d="M-71 0l224 735h214l-114 -377l280 248q13 13 28.5 8.5t18.5 -18.5l65 -246l200 385h214l-362 -735h-121q-26 0 -42 15t-23 39l-65 233l-263 -250q-14 -13 -36.5 -25t-42.5 -12h-175z" />
    <glyph glyph-name="X" unicode="X" horiz-adv-x="633" 
d="M435 312l48 -312h-182q-18 0 -27 11t-11 26l-18 147l-125 -157q-11 -12 -26 -19.5t-34 -7.5h-201l318 401l-33 334h180q15 0 24.5 -5.5t11.5 -22.5l19 -175l130 182q5 8 13.5 13.5t19.5 7.5h222z" />
    <glyph glyph-name="Y" unicode="Y" horiz-adv-x="585" 
d="M315 232l-94 -232h-215l94 232l-38 503h160q40 0 43 -44l20 -238l248 255q8 11 20.5 19t25.5 8h214z" />
    <glyph glyph-name="Z" unicode="Z" horiz-adv-x="587" 
d="M441 170q20 0 29.5 -11.5t1.5 -29.5l-52 -129h-567l25 61q5 14 18.5 31t21.5 26l430 447h-218q-20 0 -29 11.5t-2 29.5l53 129h567l-22 -53q-6 -14 -19 -31t-21 -26l-456 -455h240v0z" />
    <glyph glyph-name="a" unicode="a" horiz-adv-x="590" 
d="M403 0h-276q-43 0 -82 12.5t-62.5 42.5t-26.5 80t27 124q5 15 15 41q8 21 21 55t33 82q38 97 112 155.5t180 58.5h7q56 0 100 -24q10 11 23.5 17.5t32.5 6.5h160zM198 222q-16 -38 -9.5 -49t25.5 -11q32 0 49 22l63 155l33 87q8 18 0.5 30.5t-25.5 12.5q-25 0 -35.5 -9.5
t-21.5 -34.5z" />
    <glyph glyph-name="b" unicode="b" horiz-adv-x="611" 
d="M398 663q67 0 114.5 -20t71.5 -59t23.5 -95.5t-28.5 -128.5q-14 -35 -20.5 -52.5t-11.5 -30l-11 -27.5t-18 -44q-29 -68 -56.5 -108.5t-60 -62.5t-73 -28.5t-93.5 -6.5h-352l300 735q9 23 29.5 36t43.5 13h162l-51 -121h31zM370 438q7 18 -0.5 30.5t-25.5 12.5
q-25 0 -35.5 -9.5t-21.5 -35.5l-83 -214q-16 -38 -9.5 -49t25.5 -11q22 0 36 9t24 34z" />
    <glyph glyph-name="c" unicode="c" horiz-adv-x="599" 
d="M391 663q120 0 173.5 -62t26.5 -177q0 -3 -2 -9q-8 -24 -29 -33t-47 -9h-175l24 65q8 18 0.5 30.5t-25.5 12.5q-25 0 -35.5 -9.5t-21.5 -35.5l-88 -226q-15 -38 -9 -49t25 -11q22 0 36 9.5t24 34.5l21 52h183q23 0 35.5 -9t2.5 -32l-4 -10q-29 -68 -56.5 -109t-60 -62.5
t-73 -28t-93.5 -6.5h-101q-43 0 -82 12.5t-63 42.5t-27 79.5t27 123.5q9 23 20 53q10 26 24 63t34 86q38 97 112 155.5t180 58.5h44v0z" />
    <glyph glyph-name="d" unicode="d" horiz-adv-x="614" 
d="M427 0h-299q-43 0 -82 12.5t-63 42.5t-27 79.5t27 123.5q6 19 17 47q9 24 22.5 59.5t33.5 84.5q38 97 112 155.5t180 58.5h44q48 0 87 -11l34 83q10 23 30 36t43 13h162zM198 222q-16 -38 -9.5 -49t25.5 -11q22 0 36 9t24 34l89 233q8 18 0.5 30.5t-25.5 12.5
q-25 0 -35.5 -9.5t-21.5 -35.5z" />
    <glyph glyph-name="e" unicode="e" horiz-adv-x="610" 
d="M401 663q59 0 102.5 -15.5t70 -46t34 -74.5t-5.5 -101l-3 -8q-13 -43 -34.5 -77t-56.5 -58t-85.5 -38t-120.5 -16l70 209q8 18 0.5 30.5t-25.5 12.5q-25 0 -36 -9.5t-21 -35.5l-93 -237q-11 -31 -3.5 -40t24.5 -9q48 0 104.5 1t112.5 15h2q1 0 1 0.5t1 0.5q9 2 20.5 3
t20.5 -1t13 -7.5t-1 -17.5q0 -2 -1.5 -4.5t-1.5 -3.5q-25 -48 -50.5 -77t-55.5 -44.5t-66.5 -20.5t-83.5 -5h-101q-43 0 -82 12.5t-63 42.5t-27 79.5t26 123.5q9 23 20 53q10 26 24.5 63t34.5 86q38 97 112 155.5t180 58.5h44v0z" />
    <glyph glyph-name="f" unicode="f" horiz-adv-x="418" 
d="M219 306l-15 -36h140l-71 -176h-139l-38 -94q-23 -53 -50 -91t-56 -63.5t-58.5 -41t-56.5 -22.5q-64 -18 -130 -5l132 216l246 602q8 20 26.5 38t50.5 18h159q83 0 134 -30l-136 -135q-6 -7 -21.5 -12t-30.5 -5h-4q-10 0 -14 -1z" />
    <glyph glyph-name="g" unicode="g" horiz-adv-x="608" 
d="M427 0q-23 -53 -50 -91t-55.5 -63.5t-58 -40.5t-56.5 -22q-63 -18 -129 -4l128 210h-83q-43 0 -82.5 12.5t-63.5 42.5t-27 79.5t27 123.5q7 19 18 47q9 23 22.5 59t33.5 84q38 97 112 155.5t180 58.5h342zM192 210q-15 -38 -9 -49t25 -11q22 0 36.5 9.5t24.5 34.5l89 232
q8 18 0.5 30.5t-25.5 12.5q-25 0 -35.5 -9.5t-21.5 -34.5z" />
    <glyph glyph-name="h" unicode="h" horiz-adv-x="591" 
d="M391 663q65 0 107.5 -12t67.5 -32.5t34 -47.5t6 -58q0 -27 -9 -54l-180 -459h-213l164 441q8 18 1 30.5t-24 12.5t-34.5 -12.5t-25.5 -30.5l-179 -441h-219l299 735q9 23 29 36.5t43 13.5h162l-50 -122h21v0z" />
    <glyph glyph-name="i" unicode="i" horiz-adv-x="276" 
d="M149 651h214l-265 -651h-214zM417 785l-34 -84h-214l13 34q10 23 30 36.5t43 13.5h162z" />
    <glyph glyph-name="j" unicode="j" horiz-adv-x="271" 
d="M412 784l-34 -83h-214l13 34q9 22 28.5 35t41.5 14h165zM144 651h214l-265 -651q-23 -53 -50 -91t-56 -63.5t-58 -40.5t-56 -22q-63 -18 -130 -4l135 221z" />
    <glyph glyph-name="k" unicode="k" horiz-adv-x="647" 
d="M387 292l113 -292h-164q-28 0 -44.5 13t-23.5 31l-74 210l-104 -254h-214l300 735q9 23 29.5 36t43.5 13h162l-155 -377l211 202q17 17 44.5 29.5t57.5 12.5h195z" />
    <glyph glyph-name="l" unicode="l" horiz-adv-x="266" 
d="M406 784l-320 -784h-215l300 735q10 23 30 36t43 13h162z" />
    <glyph glyph-name="m" unicode="m" horiz-adv-x="906" 
d="M698 651q65 0 108 -12t67.5 -32t33.5 -47.5t7 -58.5q0 -29 -10 -53l-175 -448h-213l159 430q8 17 1 30t-24 13t-34 -13t-25 -30l-175 -430h-219l161 430q8 17 1.5 30t-23.5 13q-18 0 -35 -13t-25 -30l-175 -430h-217l261 651h236q51 0 86 -11.5t58 -31.5q33 19 75.5 31
t95.5 12z" />
    <glyph glyph-name="n" unicode="n" horiz-adv-x="580" 
d="M378 651q65 0 108 -12t68 -32t34 -47.5t6 -58.5q0 -28 -9 -53l-176 -448h-213l160 430q7 17 0.5 30t-23.5 13t-34.5 -13t-25.5 -30l-175 -430h-218l262 651h236v0z" />
    <glyph glyph-name="o" unicode="o" horiz-adv-x="606" 
d="M396 663q67 0 114 -20t71 -59t23.5 -95.5t-28.5 -128.5q-14 -35 -21.5 -54.5t-13.5 -34.5t-12.5 -31t-18.5 -45q-29 -68 -56.5 -109t-60 -62.5t-73 -28t-93.5 -6.5h-100q-43 0 -82.5 12.5t-63.5 42.5t-27 79.5t27 123.5q9 23 20 53q10 26 24 63t34 86q39 97 112.5 155.5
t179.5 58.5h45zM367 438q8 18 0 30.5t-25 12.5q-25 0 -36 -9.5t-22 -35.5l-88 -226q-15 -38 -9 -49t25 -11q22 0 36.5 9.5t24.5 34.5z" />
    <glyph glyph-name="p" unicode="p" horiz-adv-x="604" 
d="M392 651q67 0 114.5 -20t71.5 -59t23 -95.5t-29 -128.5q-13 -35 -19 -50.5t-10 -26t-9 -23.5t-17 -42q-29 -68 -56.5 -108.5t-60 -62.5t-72.5 -28.5t-94 -6.5h-138l-94 -228h-214l356 879h228h20zM363 426q8 18 0.5 30.5t-25.5 12.5q-25 0 -36 -9.5t-21 -34.5l-78 -203
q-15 -38 -9 -49t25 -11q22 0 36.5 9t24.5 34z" />
    <glyph glyph-name="q" unicode="q" horiz-adv-x="605" 
d="M341 -228h-215l91 228h-90q-43 0 -82 12.5t-63 42.5t-27 79.5t27 123.5q5 15 14 41q8 22 20.5 56t32.5 82q39 97 112.5 155.5t179.5 58.5h45h297zM197 222q-16 -38 -9.5 -49t25.5 -11q22 0 36 9t24 34l84 221q7 18 -0.5 30.5t-24.5 12.5q-26 0 -36.5 -9.5t-21.5 -34.5z
" />
    <glyph glyph-name="r" unicode="r" horiz-adv-x="397" 
d="M360 486q-7 -7 -22.5 -12t-29.5 -5q-16 0 -21 -2l-190 -467h-215l265 651h215q82 0 133 -30z" />
    <glyph glyph-name="s" unicode="s" horiz-adv-x="603" 
d="M365 663q72 0 124.5 -19.5t81 -55t31.5 -86t-22 -112.5h-177q-19 0 -32 8t-8 29q2 4 4.5 12.5t3.5 10.5q6 22 4 37t-22 15q-25 0 -37 -11t-17 -23q-13 -28 1.5 -48t42.5 -38t61.5 -36.5t58.5 -43.5t34.5 -59.5t-11.5 -83.5q-20 -48 -45.5 -80.5t-60.5 -52.5t-81.5 -28.5
t-109.5 -8.5q-72 0 -124.5 19t-81 54.5t-32 86t22.5 113.5h176q22 0 33 -10t2 -42l-3 -12q-5 -20 -2.5 -34t21.5 -14q37 0 50 31q12 27 -2 47t-41.5 38t-60 37t-57 44.5t-34 60.5t11.5 85q19 48 44.5 80.5t61 52.5t82 28.5t109.5 8.5z" />
    <glyph glyph-name="t" unicode="t" horiz-adv-x="448" 
d="M499 569l-69 -170h-178l-162 -399h-215l300 735q8 20 29.5 35t44.5 15h161l-89 -216h178z" />
    <glyph glyph-name="u" unicode="u" horiz-adv-x="588" 
d="M165 0q-65 0 -107.5 12t-67.5 32.5t-34 47.5t-7 58q1 14 3 27.5t7 26.5l175 447h213l-159 -429q-8 -17 -1 -30t24 -13t34.5 13t24.5 30l175 429h219l-263 -650q-66 -1 -118 -1h-118v0z" />
    <glyph glyph-name="v" unicode="v" horiz-adv-x="605" 
d="M744 651l-511 -651h-240l76 651h160q21 0 33 -11t9 -34l1 1l-34 -296l245 314q8 10 21 18t26 8h214z" />
    <glyph glyph-name="w" unicode="w" horiz-adv-x="894" 
d="M723 0h-228h-11q-50 0 -84.5 11.5t-57.5 30.5q-33 -18 -75 -30t-94 -12h-289l258 651h213l-159 -429q-8 -17 -1 -30t24 -13t34.5 13t24.5 30l175 429h219l-165 -429q-8 -17 -1 -30t24 -13t34.5 13t24.5 30l175 429h217z" />
    <glyph glyph-name="x" unicode="x" horiz-adv-x="582" 
d="M377 305l51 -305h-151q-32 0 -48 11t-19 30l-12 70l-68 -74q-17 -17 -40 -27t-49 -10h-177l298 324l-56 327h170q18 0 32 -12t17 -32l16 -90l96 105q11 11 31 20t38 9h190z" />
    <glyph glyph-name="y" unicode="y" horiz-adv-x="608" 
d="M691 651l-257 -651q-23 -53 -50 -91t-56 -63.5t-58 -40.5t-56 -22q-63 -18 -130 -4l128 210h-83q-43 0 -82 12.5t-63 42.5t-27 79.5t27 123.5l155 404h230l-170 -441q-16 -38 -9.5 -49t25.5 -11q22 0 36 9.5t24 34.5l177 457h239z" />
    <glyph glyph-name="z" unicode="z" horiz-adv-x="638" 
d="M518 170q20 0 29 -11.5t2 -29.5l-53 -129h-566l24 61q6 14 19.5 31t21.5 26l346 363h-218q-20 0 -29 12t-2 29l53 129h567l-22 -52q-5 -14 -18.5 -31.5t-21.5 -26.5l-372 -371h240v0z" />
    <glyph glyph-name="one" unicode="1" horiz-adv-x="342" 
d="M440 735l-299 -735h-215l218 534l-75 75q-5 5 -3.5 12.5t9.5 12.5l200 101h165z" />
    <glyph glyph-name="zero" unicode="0" horiz-adv-x="606" 
d="M431 747q67 0 114 -20t71 -59t23.5 -95.5t-28.5 -128.5q-26 -70 -51.5 -130.5t-50.5 -118.5q-28 -68 -55.5 -109t-60 -62.5t-73 -28t-93.5 -6.5h-101q-43 0 -82 12.5t-63 42.5t-27 79.5t26 123.5l38 95q17 42 37 92t40 99q19 48 47 87.5t65 67.5t82 43.5t98 15.5h44z
M402 521q8 18 0.5 31t-25.5 13q-25 0 -36 -9.5t-21 -35.5l-125 -310q-15 -38 -8.5 -49t25.5 -11q22 0 36 9.5t24 34.5z" />
    <glyph glyph-name="two" unicode="2" horiz-adv-x="600" 
d="M427 747q67 0 112.5 -24t69.5 -61.5t27 -83t-13 -89.5l-3 -6h1q-25 -67 -66 -109t-90 -74t-103.5 -63t-106.5 -77h271l-63 -160h-530q-4 13 -5 29q-1 14 2.5 32t14.5 39q15 42 45 74t68 61q18 14 40 28q29 20 59 38.5t60 38.5q55 35 98.5 67.5t66.5 67.5q14 22 19 37.5
t4 25.5t-6 15.5t-11 8.5q-5 3 -13 3h-1q-26 0 -36.5 -9.5t-21.5 -35.5l-2 -6q-10 -22 -23.5 -31.5t-30.5 -9.5h-192l12 30t11 30q39 96 112.5 155t179.5 59h44v0z" />
    <glyph glyph-name="three" unicode="3" horiz-adv-x="639" 
d="M491 747q43 0 81 -16t63 -44.5t32.5 -67.5t-10.5 -84q-19 -48 -42.5 -81.5t-45.5 -54.5q-26 -25 -51 -41q12 -17 18 -43q5 -22 4 -54.5t-15 -76.5q-19 -55 -48 -92t-65 -60t-77.5 -33t-83.5 -10h-113q-43 0 -82.5 12.5t-63.5 42.5t-27 79.5t27 123.5l1 2q1 1 1 3t2 4h195
q35 0 22 -32l-6 -14q-15 -38 -9 -49t25 -11t32 6.5t22 23.5q1 1 1 2l30 77q8 18 0.5 30.5t-25.5 12.5h-59q-18 0 -21 10.5t8 24.5l83 107q5 6 12 10.5t17 4.5h23q17 0 35 12.5t25 30.5l7 17l1 2q8 18 0 31t-25 13q-20 0 -31 -6t-19 -23q1 0 -2 -3q-1 -2 -1.5 -3.5t-1.5 -3.5
q-7 -14 -15.5 -17t-20.5 -3h-202q2 7 5 13.5t5 13.5q39 96 112.5 155t179.5 59h45h48v0z" />
    <glyph glyph-name="four" unicode="4" horiz-adv-x="679" 
d="M761 735l-300 -735h-215l85 207h-353l204 478q10 23 30 36.5t43 13.5h153l-148 -362h139l127 312q0 1 1 2l19 48h84h131z" />
    <glyph glyph-name="five" unicode="5" horiz-adv-x="598" 
d="M341 569l-21 -55h24q67 0 114.5 -20t71.5 -58.5t23.5 -95t-28.5 -129.5l-7 -16q-29 -68 -56.5 -109t-60 -62.5t-73 -28t-93.5 -6.5h-101q-43 0 -82 12.5t-63 42.5t-27 79.5t27 123.5l6 18h200q17 0 20.5 -6.5t-1.5 -21.5l-10 -27q-16 -38 -9.5 -49t25.5 -11q22 0 36 9.5
t24 34.5l36 95q7 18 -0.5 30.5t-24.5 13.5h-1h-234q-14 0 -21 7t0 24l97 240l53 131h526l-68 -166h-302z" />
    <glyph glyph-name="six" unicode="6" horiz-adv-x="592" 
d="M349 491q67 0 114 -20t71 -59t23.5 -95.5t-28.5 -128.5l-8 -23q-36 -96 -101.5 -136t-171.5 -40h-101q-40 0 -76.5 10.5t-61 36t-32.5 66.5t10 103q3 9 6 18.5t8 19.5l64 187q3 11 7 23t9 26l8 22l12 32q19 48 47 87.5t65 67.5t82 43.5t98 15.5h44q89 0 142 -35
q10 -7 12.5 -13t0.5 -11.5t-7 -10t-10 -7.5l-151 -83q-10 -5 -25.5 -11.5t-30.5 -11.5q-17 -2 -25.5 -12.5t-16.5 -31.5l-11 -29h34zM320 265q8 18 0.5 31t-25.5 13q-25 0 -36 -9.5t-21 -35.5l-21 -54q-16 -38 -9.5 -49t25.5 -11q22 0 36 9.5t24 34.5z" />
    <glyph glyph-name="seven" unicode="7" horiz-adv-x="503" 
d="M132 735h490l-431 -735h-214l335 559h-249l69 176v0z" />
    <glyph glyph-name="eight" unicode="8" horiz-adv-x="597" 
d="M430 747q67 0 114 -20t71 -59t23.5 -95.5t-28.5 -128.5l-7 -17q-14 -32 -26.5 -58t-26.5 -46q2 -60 -28 -135l-8 -23q-18 -48 -43 -81.5t-58.5 -54.5t-76 -30.5t-95.5 -9.5h-101q-43 0 -82 12.5t-63 42.5t-27 79.5t27 123.5l11 30q17 45 42 80q-2 51 26 122l20 54
q19 48 47 87.5t65 67.5t82 43.5t98 15.5h44zM313 265q8 18 0 31t-25 13q-25 0 -36 -9.5t-21 -35.5l-21 -54q-16 -38 -9.5 -49t25.5 -11q22 0 36 9.5t24 34.5zM401 521q8 18 0.5 31t-25.5 13h-4h-2h-3q-2 0 -2 -1h-3q-3 0 -5 -1h-1h-1q-1 0 -1 -0.5t-1 -0.5q-12 -4 -19.5 -14
t-14.5 -28l-7 -16q-15 -38 -9 -49t25 -11q22 0 36 9.5t25 34.5z" />
    <glyph glyph-name="nine" unicode="9" horiz-adv-x="609" 
d="M424 747q67 0 114.5 -20t71.5 -59t23.5 -95.5t-28.5 -128.5l-39 -102l-134 -342h-231l63 160h-74q-43 0 -82 12.5t-63 42.5t-27 79.5t27 123.5l43 115q39 96 112.5 155t179.5 59h44zM260 381q-16 -38 -9.5 -49t25.5 -11q22 0 36 9.5t24 34.5l60 156q7 18 -0.5 31
t-24.5 13q-26 0 -36.5 -9.5t-21.5 -35.5z" />
    <glyph glyph-name="sterling" unicode="&#xa3;" horiz-adv-x="616" 
d="M467 565q-25 0 -36 -9.5t-21 -35.5l-45 -111h170l-46 -114q-10 -24 -38 -24h-141l-49 -121h281l-59 -150h-585l48 120q12 30 39 30h60q3 43 25 97l3 6q2 3 3.5 7.5l3.5 10.5h-75l44 112q5 12 13.5 19t23.5 7h49q12 30 24.5 61.5t25.5 62.5q19 48 47 87.5t65 67.5t82 43.5
t98 15.5h44q86 0 139 -34l-100 -100q-20 -20 -40.5 -34t-52.5 -14z" />
    <glyph glyph-name="dollar" unicode="$" horiz-adv-x="643" 
d="M418 525q2 6 2 9q7 22 5 36.5t-22 14.5q-25 0 -40 -15t-29 -50q-8 -21 8 -39t42.5 -38.5t57 -45t52 -58t26.5 -77.5t-19 -103q-17 -42 -38.5 -72.5t-50 -50.5t-66 -31t-86.5 -15l-38 -94q-11 -30 -39 -30h-166l58 144q-75 29 -99 94t14 158h176q22 0 35 -11.5t0 -40.5
q-2 -4 -2.5 -7t-0.5 -5q-5 -20 -2.5 -34t21.5 -14q25 0 40 15t29 50q8 20 -8 38.5t-42.5 39t-57.5 45.5t-52 58t-26.5 77.5t18.5 103.5q16 41 37 70.5t49 49.5t63.5 31.5t82.5 15.5l42 105q12 29 39 29h166l-60 -149h-1q80 -28 106 -94t-12 -161h-178q-19 0 -31.5 8t-7.5 29
q2 4 2.5 7t2.5 7z" />
    <glyph glyph-name="Euro" unicode="&#x20ac;" horiz-adv-x="697" 
d="M735 596q0 -6 1 -9q-1 -14 -10.5 -18t-20.5 -4h-231q-26 0 -36.5 -9.5t-21.5 -35.5l-3 -8h225l-50 -126h-226l-20 -50h224l-51 -126h-223q-16 -38 -9.5 -49t25.5 -11h246q12 0 17.5 -8t-2.5 -25q-24 -42 -48.5 -67t-53.5 -38.5t-64 -18t-80 -4.5h-101q-40 0 -77 11
t-61.5 36.5t-32 68t12.5 105.5h-112l50 126h110q5 11 10 23.5t11 26.5h-109l50 126h109q2 5 4 10.5t4 10.5q19 48 47 87.5t65 67.5t82 43.5t98 15.5h44q94 0 147 -38.5t61 -110.5v-2v0z" />
    <glyph glyph-name="ampersand" unicode="&#x26;" horiz-adv-x="425" 
d="M184 441l-26 -60h167l-45 -113h-166l-26 -60h209l-50 -122h-88l-41 -105q-8 -21 -28 -21h-120l49 126h-11q-53 0 -69 27t10 92l100 247q18 45 55.5 75.5t88.5 30.5h7l42 106q8 21 28 21h121l-51 -127h100l-48 -117h-208z" />
    <glyph glyph-name="period" unicode="." 
d="M126 126l-50 -126h-137q-11 0 -19.5 6.5t-1.5 23.5l37 96h171z" />
    <glyph glyph-name="space" unicode=" " horiz-adv-x="337" 
 />
    <glyph glyph-name="comma" unicode="," 
d="M126 126l-74 -185h-63q-11 0 -16 7.5t-1 17.5l3 9q6 14 -4 19.5t-32 5.5h3q-12 0 -22 5t-3 23l38 98h171z" />
    <glyph glyph-name="colon" unicode=":" 
d="M126 126l-51 -126h-136q-11 0 -19.5 6.5t-1.5 23.5l37 96h171zM236 403l-50 -126h-136q-11 0 -19.5 6.5t-2.5 22.5l38 97h170z" />
    <glyph glyph-name="semicolon" unicode=";" 
d="M126 126l-74 -185h-63q-11 0 -16 7.5t-1 17.5l3 9q6 14 -4 19.5t-32 5.5h3q-12 0 -22 5t-3 23l38 98h171zM238 403l-50 -126h-137q-11 0 -19.5 6.5t-1.5 22.5l37 97h171z" />
    <glyph glyph-name="quotesingle" unicode="'" horiz-adv-x="139" 
d="M286 784l-73 -184h-64q-11 0 -16 7t0 17l3 9q6 15 -4 20.5t-32 5.5h3q-6 0 -12.5 1t-10.5 4t-5 8.5t3 14.5l38 97h170z" />
    <glyph glyph-name="exclam" unicode="!" horiz-adv-x="289" 
d="M98 0h-215l34 84h215zM415 785l-267 -662h-215l250 618q8 20 22 31.5t35 11.5z" />
  </font>
</defs>
</svg>
