<?xml version="1.0" standalone="no"?>
<!DOCTYPE svg PUBLIC "-//W3C//DTD SVG 1.1//EN" "http://www.w3.org/Graphics/SVG/1.1/DTD/svg11.dtd" >
<svg xmlns="http://www.w3.org/2000/svg" xmlns:xlink="http://www.w3.org/1999/xlink" version="1.1">
<metadata>
Created by FontForge 20170910 at Tue Jan  8 00:44:21 2019
 By Jimmy Wärting
</metadata>
<defs>
<font id="HolidayFreeRegular" horiz-adv-x="0" >
  <font-face 
    font-family="HolidayFree"
    font-weight="400"
    font-stretch="normal"
    units-per-em="1000"
    panose-1="0 0 0 0 0 0 0 0 0 0"
    ascent="800"
    descent="-200"
    x-height="282.509"
    cap-height="934.86"
    bbox="-537.999 -752.407 1786.27 1147.28"
    underline-thickness="50"
    underline-position="-100"
    unicode-range="U+000A-F019"
  />
<missing-glyph horiz-adv-x="527" 
d="M50 700h427v-700h-427v700zM78 680l185 -309l186 309h-371zM251 350l-180 300v-601zM264 329l-185 -308h370zM276 350l181 -303v605z" />
    <glyph glyph-name=".notdef" horiz-adv-x="527" 
d="M50 700h427v-700h-427v700zM78 680l185 -309l186 309h-371zM251 350l-180 300v-601zM264 329l-185 -308h370zM276 350l181 -303v605z" />
    <glyph glyph-name=".null" 
 />
    <glyph glyph-name=".null" 
 />
    <glyph glyph-name="controlLF" unicode="&#xa;" 
 />
    <glyph glyph-name="controlCR" unicode="&#xd;" 
 />
    <glyph glyph-name="space" unicode=" " horiz-adv-x="377" 
 />
    <glyph glyph-name="exclam" unicode="!" horiz-adv-x="575" 
d="M438.084 829.555c34.2412 28.3467 111.39 -52.7598 79.29 -79.3018c-42.7041 -35.3623 -61.6191 -95.5332 -84.0215 -144.804c-22.5244 -49.5566 -44.3867 -99.4287 -65.5449 -149.597c-44.8047 -106.251 -86.3262 -213.837 -125.033 -322.453
c-15.6826 -44.0195 -102.05 26.043 -88.2842 64.668c40.8584 114.652 84.8682 228.143 132.538 340.145c23.8301 55.9902 48.5264 111.604 74.0693 166.84c20.4551 44.2236 38.5342 92.6689 76.9863 124.503zM103.026 81.1602
c25.625 42.2148 108.585 -31.2432 88.293 -64.668c-28.6934 -47.2617 -46.6699 -98.8477 -50.3613 -154.186c-3.69141 -55.2764 -93.5049 6.99512 -90.9043 46.0693c4.10938 61.752 20.7607 119.73 52.9727 172.784z" />
    <glyph glyph-name="ampersand" unicode="&#x26;" horiz-adv-x="555" 
d="M418.094 144.855c34.9238 27.7861 111.638 -53.6025 79.3242 -79.3193c-31.7832 -25.2881 -63.832 -56.042 -97.3086 -84.124c2.95703 -8.45312 5.95508 -16.8965 9.01367 -25.2988c8.90137 -24.4111 -10.585 -35.2607 -31.4072 -31.4062
c-11.2881 2.09082 -21.5049 8.46387 -30.2949 16.7744c-59.998 -39.5332 -125.88 -59.3154 -203.427 -19.2109c-127.674 66.0137 -106.576 206.229 -46.5684 312.348c39.9102 70.5615 91.8428 132.16 143.724 193.851c1.25391 23.8809 3.49707 47.7822 7.03516 71.6729
c11.9707 80.9014 67.4717 342.857 197.512 248.303c126.45 -91.9443 -2.87598 -248.74 -71.1641 -333.771c-14.082 -17.5381 -28.8369 -34.9844 -43.7959 -52.4922c-2.70215 -89.834 10.9922 -178.842 33.874 -265.719c17.5186 16.9473 35.0166 33.7002 53.4834 48.3936z
M165.757 -6.4834c28.4492 -4.84375 59.2637 1.86426 85.123 13.9785c18.0996 8.4834 34.7305 19.4961 50.5557 31.8545c-23.8506 73.1719 -42.6836 148.221 -52.9316 224.207c-44.2441 -56.6123 -83.0635 -116.712 -103.6 -185.143
c-9.76855 -32.5273 -20.7812 -77.8213 20.8525 -84.8975z" />
    <glyph glyph-name="comma" unicode="," horiz-adv-x="250" 
d="M117.362 135.062c34.0166 8.26953 65.9961 -28.0508 76.0703 -56.4795c22.6572 -63.8828 -15.0918 -116.713 -57.46 -160.896c-29.8154 -31.1006 -109.34 47.9961 -79.3105 79.3105c12.2871 12.8076 27.001 27.6846 37.7686 44.1318
c-22.8818 19.9346 -38.9014 51.0752 -22.4033 67.8691c12.6133 12.8379 27.8164 21.8008 45.335 26.0635z" />
    <glyph glyph-name="period" unicode="." horiz-adv-x="223" 
d="M172.707 65.6689c0.571289 -4.94531 -0.614258 -9.26758 -3.55078 -12.959c-1.5293 -3.55859 -4.32324 -5.85254 -7.95312 -7.31055c-10.2578 -6.97461 -19.0879 -15.5098 -26.2559 -25.6865c-5.70996 -8.10645 -19.2617 -5.93457 -27.3174 -4.08887
c-13.2256 3.02832 -24.9209 12.3789 -34.5469 21.5352c-9.1875 8.72852 -18.2217 22.1172 -21.5352 34.5469c-2.77344 10.4316 -2.05957 18.5791 4.08887 27.3076c10.4004 14.7754 23.7988 24.7988 39.2881 33.833c6.67871 1.86621 13.3477 1.7334 19.9961 -0.397461
c3.83398 -1.51953 7.66797 -3.03906 11.4922 -4.55859c13.1338 -6.04688 24.0957 -16.9883 32.8037 -28.3174c6.72949 -8.75879 13.5 -22.4531 13.4902 -33.9043z" />
    <glyph glyph-name="zero" unicode="0" horiz-adv-x="466" 
d="M332.338 827.086c21.4033 -10.125 44.1699 -30.377 48.7275 -48.3848c42.582 -167.972 47.4053 -342.571 10.8398 -512.195c-16.9062 -78.4238 -40.9502 -158.744 -80.6768 -228.847c-27.7148 -48.9043 -73.1416 -119.119 -138.523 -104.181
c-68.9404 15.7441 -107.097 91.2207 -117.956 154.665c-14.0508 82.166 5.44531 165.301 27.4502 244.285c47.5781 170.745 115.846 334.873 201.265 490.089c9.80957 17.834 29.9893 15.6523 48.874 4.56836zM313.849 385.421
c14.4287 90.2617 16.0596 182.062 6.02637 272.63c-42.6943 -86.8457 -80.1572 -176.17 -111.441 -267.89c-21.8623 -64.1172 -42.46 -129.529 -56.5312 -195.859c-7.22949 -34.1084 -12.4707 -69.124 -11.1553 -104.109
c1.13184 -30.1826 -2.46777 -81.1973 33.9141 -49.9131c89.2529 76.7412 121.577 235.036 139.188 345.142z" />
    <glyph glyph-name="one" unicode="1" horiz-adv-x="461" 
d="M399.91 797.811c28.3779 -69.7051 -2.89355 -125.156 -29.0078 -190.977c-28.123 -70.8369 -54.4512 -142.367 -78.9746 -214.52c-50.0869 -147.364 -92.2715 -297.206 -127.318 -448.843c-9.98242 -43.2246 -97.5938 24.3906 -88.2842 64.668
c31.4678 136.147 68.6045 270.908 112.206 403.681c21.8008 66.3711 45.1006 132.242 69.9199 197.542c12.4092 32.6504 25.1963 65.1475 38.3604 97.502c0.15332 0.376953 0.336914 0.785156 0.5 1.17285c-18.8027 -11.5635 -36.9121 -24.3604 -54.2471 -38.5947
c-28.0312 -23.0244 -82.8086 -66.4424 -101.132 -106.638c6.60742 -15.7646 5.39355 -30.2031 -10.1562 -35.5664c-1.38672 -0.479492 -2.76367 -0.958984 -4.15039 -1.43848c-27.1953 -9.37109 -61.6201 23.2891 -71.5312 44.9883
c-27.2559 59.7021 43.3877 119.792 83.8076 157.174c54.583 50.4746 119.037 88.7432 188.487 114.826c26.1855 9.83984 62.8125 -23.585 71.5205 -44.9775z" />
    <glyph glyph-name="two" unicode="2" horiz-adv-x="825" 
d="M738.973 68.0156c14.0713 -11.4922 44.6699 -42.1982 33.2598 -64.3154c-11.1348 -21.5869 -39.7568 -12.0732 -55.0117 0.387695c-69.0117 56.3682 -152.9 84.8174 -240.165 88.2842c-94.4736 -94.6973 -217.773 -175.018 -351.005 -188.223
c-26.2158 -2.58984 -50.4941 26.9805 -62.2305 46.293c-77.373 127.368 191.517 215.765 275.967 227.726c22.9023 3.24219 45.917 4.77148 68.8799 4.94531c71.5615 73.7529 128.694 160.915 166.82 256.408c20.5059 51.3613 35.8213 104.864 44.9883 159.417
c5.86328 34.8828 21.1689 114.734 -6.30078 144.54c-34.3838 37.3105 -133.293 -22.1367 -165.974 -43.1016c-51.4531 -32.9863 -94.9629 -75.833 -131.61 -124.513c-24.6963 -32.8027 -106.128 43.6934 -79.3105 79.3105c76.252 101.285 245.458 243.123 379.679 167.341
c119.476 -67.4619 109.391 -218.018 82.9502 -332.64c-27.0625 -117.304 -82.0029 -228.673 -156.735 -323.299c71.0107 -18.3232 138.126 -51.4629 195.799 -98.5615z" />
    <glyph glyph-name="three" unicode="3" horiz-adv-x="711" 
d="M538.626 842.585c104.558 -15.8457 143.205 -135.239 112.543 -223.829c-29.54 -85.4385 -93.0459 -152.666 -158.866 -213.347c55.6133 -36.25 103.926 -84.0938 118.171 -150.24c22.5039 -104.507 -66.7285 -184.012 -143.052 -238.636
c-83.7969 -59.9873 -200.152 -132.272 -305.281 -83.1855c-69.9092 32.6504 -142.725 128.245 -98.8066 206.026c24.1465 42.7549 107.709 -30.2646 88.2842 -64.6787c-45.9463 -81.3701 66.2188 -67.9102 111.4 -50.168c60.9258 23.9219 117.345 62.5068 167.646 103.937
c40.8584 33.6494 94.0859 82.4209 92.9238 140.339c-1.13184 56.541 -65.4639 81.166 -109.015 101.865c-18.8232 8.94238 -66.5439 55.5625 -40.4912 78.8418c45.2021 40.3896 90.6494 81.1973 128.571 128.714c18.5781 23.2588 35.1074 47.9863 47.792 74.9775
c7.70898 16.3965 38.5137 84.0117 21.4541 97.6445c-15.8867 12.7051 -77.0576 -24.2178 -91.6797 -31.7939c-27.0723 -14.0312 -52.7168 -30.3564 -77.0361 -48.7207c-12.7354 -9.62598 -93.4834 -72.9482 -111.787 -106.221
c7.03613 -6.8418 12.9297 -14.8154 17.0186 -23.5645c7.00488 -14.9795 10.4922 -48.2109 -16.1523 -44.6113c-43.8262 5.91406 -83.3896 37.1064 -93.3311 81.8604c-10.5742 47.5889 31.6914 86.5 62.2715 117.213c37.3711 37.5342 79.627 69.3682 125.247 96.1855
c43.2646 25.4307 100.02 59.2939 152.176 51.3916z" />
    <glyph glyph-name="four" unicode="4" horiz-adv-x="737" 
d="M595.951 786.196c22.0352 43.3564 106.413 -28.9971 88.293 -64.6758c-121.332 -238.717 -184.297 -500.907 -182.828 -768.757c0.295898 -54.3691 -90.6904 7.00586 -90.9043 46.0693c-0.612305 110.85 9.54395 221.057 29.876 329.193
c-105.19 28.082 -220.903 1.5293 -306.434 -66.8916c-35.5254 -28.4189 -102.09 43.5498 -79.3105 79.3096c94.127 147.731 158.744 311.431 193.699 482.931c8.72852 42.8574 96.5332 -24.166 88.2842 -64.668c-24.1152 -118.304 -62.6797 -231.447 -114.408 -339.003
c76.6592 16.3145 157.438 10.2266 233.599 -17.7021c31.0391 132.711 77.8828 261.721 140.134 384.194z" />
    <glyph glyph-name="five" unicode="5" horiz-adv-x="699" 
d="M253.315 551.649c57.1025 5.80176 112.744 -6.1377 161.006 -52.2676c63.5664 -60.7832 86.5195 -151.279 75.3545 -236.779c-24.1973 -185.215 -178.383 -339.074 -361.548 -368.869c-41.1035 -6.68945 -106.516 81.4824 -64.6777 88.2832
c134.975 21.9541 253.288 111.462 308.229 237.505c25.5225 58.5498 41.4189 129.02 22.4023 191.883c-27.083 89.5176 -132.518 44.9375 -194.605 19.8428c-33.3232 -13.4697 -88.0898 43.7646 -76.4756 76.4756c34.1084 96.084 75.0283 189.038 122.861 279.086
c8.55469 16.1113 25.6348 16.0605 42.7148 7.8623c1.03027 0.0302734 2.04004 0.0810547 3.18164 0.0400391c93.6064 -3.70117 186.703 0.989258 279.27 15.6113c41.124 6.49512 106.424 -81.6973 64.6777 -88.2842c-98.8682 -15.6211 -197.828 -22.1875 -297.879 -18.2314
c-3.7627 0.15332 -7.71875 1.13184 -11.7568 2.77344c-26.3994 -50.7188 -50.6885 -102.325 -72.7539 -154.931z" />
    <glyph glyph-name="six" unicode="6" horiz-adv-x="630" 
d="M493.889 838.302c30.3555 30.8252 109.626 -48.5264 79.3008 -79.3105c-146.742 -149.016 -303.191 -321.565 -387.132 -515.519c-5.19043 -12.0117 -10.126 -24.2783 -14.7041 -36.7393c67.0137 24.6865 122.239 62.9346 191.384 16.5293
c65.6982 -44.1016 66.9014 -109.178 29.1426 -172.071c-32.6709 -54.4307 -88.417 -117.172 -153.717 -131.243c-61.4463 -13.2461 -120.781 29.8457 -153.4 78.5859c-85.5205 127.786 5.07812 312.807 75.2217 425.971c93.2705 150.454 209.932 287.907 333.904 413.797z
M228.12 115.573c-23.0957 -7.97363 -56.666 18.9668 -71.3184 45.499c-6.81152 -25.2373 -11.624 -50.9541 -13.2148 -76.7422c-1.06055 -17.0898 -4.9043 -62.6699 11.9004 -73.5801c19.5166 -12.6748 54.4102 11.5225 69.2266 22.127
c20.0566 14.3467 38.248 31.6299 54.2471 50.3818c7.10742 8.33105 13.8984 17.0898 20.0977 26.1348c7.50488 10.9414 14.0312 34.2109 23.1367 42.8066c-7.95312 -2.2334 -18.874 -3.85449 -24.2881 -6.07715c-23.5957 -9.71777 -45.5898 -22.1982 -69.7871 -30.5498z" />
    <glyph glyph-name="seven" unicode="7" horiz-adv-x="687" 
d="M396.455 471.972c29.9893 -23.6055 52.2344 -67.0361 22.8574 -73.7764c-35.3828 -8.07617 -70.9287 -14.3066 -106.638 -18.8643c-101.896 -122.301 -182.696 -268.554 -170.45 -432.457c1.99902 -26.7666 -28.6221 -23.8604 -44.6104 -16.1514
c-23.1055 11.1553 -44.335 36.0664 -46.293 62.2314c-10.2578 137.198 40.1143 265.82 115.377 377.71c-0.550781 0.00976562 -1.09082 0 -1.6416 0c-39.4512 0.438477 -100.061 91.4961 -46.0684 90.9043c40.9707 -0.448242 81.4824 1.49902 121.75 5.86328
c45.7119 53.6152 95.3701 103.824 144.61 154.176c30.0605 30.7539 60.1211 61.5283 89.1006 93.3115c9.65625 10.5947 21.8623 22.3008 33.4463 34.9346c-85.0615 -7.43359 -170.103 -15.1729 -255.072 -23.5752c-39.3086 -3.88477 -101.315 85.4395 -46.0693 90.9053
c120.332 11.8994 240.746 22.8203 361.252 32.7822c32.7314 2.70215 65.8408 -39.3496 68.4814 -68.4814c6.83203 -75.4463 -79.8203 -143.815 -126.868 -192.893c-37.4834 -39.0947 -75.7422 -77.4648 -113.164 -116.62z" />
    <glyph glyph-name="eight" unicode="8" horiz-adv-x="500" 
d="M438.104 769.015c27.4297 -124.34 5.41211 -248.232 -65.1602 -353.26c9.80957 -16.0801 12.9404 -33.1797 2.22363 -44.2021c-4.32324 -4.43555 -8.6875 -8.97266 -13.0518 -13.5303c6.92383 -25.625 14.7959 -51.1885 22.4023 -77.0576
c33.6494 -114.388 54.3691 -276.252 -66.8809 -348.455c-105.781 -62.9961 -275.293 -12.9805 -267.37 130.192c3.92578 71.0518 51.8916 137.352 89.5996 194.912c37.4736 57.2041 79.7695 110.758 125.818 161.13c-7.23926 28.1123 -12.8477 56.459 -14.7031 85.2959
c-7.42285 115.265 31.6006 227.664 103.723 316.968c24.1865 29.9482 78.5459 -30.0088 83.3994 -51.9932zM320.062 151.923c4.11914 48.2002 -4.86133 94.8818 -17.5566 141.195c-63.4551 -72.6318 -123.168 -155.104 -152.382 -241.226
c-3.7832 -11.1553 -14.1836 -37.7285 -9.31934 -49.751c-1.03027 -1.7334 -2.06055 -3.47754 -3.09082 -5.21094c7.78027 -2.3252 15.6826 -3.32422 23.707 -2.9873c29.999 -0.856445 65.0146 9.50391 90.1094 26.0127c43.8154 28.8262 64.2188 81.5645 68.5322 131.967z
" />
    <glyph glyph-name="nine" unicode="9" horiz-adv-x="601" 
d="M485.939 820.529c29.1426 -4.03809 70.582 -56.957 64.0361 -80.9912c-50.2393 -183.716 -109.84 -364.719 -179.545 -541.979c-31.6406 -80.4531 -60.4258 -170.97 -105.689 -244.846c-39.2881 -64.1074 -103.64 -59.8145 -156.378 -13.5107
c-13.0928 11.502 -34.2412 45.0693 -17.4473 61.8633c13.541 13.541 34.0059 3.59961 49.1377 -7.27051c1.66211 1.50879 6.27148 2.47754 14.1641 2.86523c7.61719 4.37402 13.9082 10.084 18.874 17.1201c11.2773 13.4805 17.5586 30.5088 24.6553 46.416
c14.2139 31.8857 27.9385 63.9854 41.4189 96.1865c29.418 70.2559 57.3066 141.144 83.6045 212.623c15.1221 41.0928 29.6318 82.3896 43.6934 123.829c-6.32227 -7.23926 -12.6338 -14.499 -19.0684 -21.6572c-55.7461 -61.9561 -127.256 -160.498 -220.648 -153.748
c-31.0898 2.24316 -56.9082 30.0195 -66.7783 57.7852c-36.9629 103.946 36.4639 223.483 96.0234 305.2c60.7627 83.3691 159.284 193.025 273.498 176.344c22.4639 -3.29395 43.6523 -17.0596 56.4492 -36.2295zM292.211 577.797
c51.6162 59.5596 99.0938 122.351 143.246 187.528c-78.1895 -12.9092 -145.438 -92.5566 -190.364 -151.147c-34.8936 -45.498 -84.8574 -117.467 -99.8164 -185.489c17.1201 12.0938 32.4971 27.8174 47.4248 42.582c34.5566 34.1592 67.6855 69.8076 99.5098 106.526z
" />
    <glyph glyph-name="A" unicode="A" horiz-adv-x="1763" 
d="M1711.96 196.123c3.9873 -21.5557 -7.54004 -38.9199 -31.4307 -31.415c-92.7803 29.2139 -190.282 35.9434 -287.519 35.8516c-19.751 -46.6807 -38.584 -93.7598 -55.8984 -141.43c-19.5469 -53.8291 -37.2178 -108.352 -52.3086 -163.598
c-7.12793 -26.0732 -15.0918 -52.5342 -19.7109 -79.1885c-1.49902 -8.67773 -0.367188 -22.9639 -2.89551 -31.4473c-0.0820312 -2.58984 0.0810547 -5.14941 0.31543 -7.69824c16.6514 -10.8701 31.5693 -26.8994 34.9746 -45.3047
c3.85449 -20.8115 -7.58594 -39.9717 -31.4053 -31.4062c-103.253 37.1465 -101.336 134.903 -78.7598 224.666c23.3916 93.0557 54.4814 183.909 89.8643 273.039c-130.957 -4.25195 -261.792 -16.2637 -391.21 -36.7588
c-31.1611 -4.93555 -62.2412 -10.3604 -93.2188 -16.2031c-146.324 -194.933 -272.224 -404.69 -375.904 -625.676c-20.4854 -43.6729 -105.404 28.1738 -88.2842 64.668c86.0605 183.42 187.284 359.601 302.508 526.135
c-171.571 -41.5625 -339.646 -96.9619 -502.61 -165.434c-37.7891 -15.876 -108.32 69.9404 -64.668 88.2842c210.972 88.6406 430.519 155.399 655.072 198.471c46.457 61.4971 94.8408 121.557 145.243 179.934c106.761 123.636 222.046 239.879 344.866 347.567
c126.195 110.646 260.467 224.278 417.345 288.304c25.9717 10.6045 62.8838 -24.2891 71.5303 -44.9785c42.3779 -101.407 -31.875 -213.297 -73.7529 -304.731c-48.0879 -105.017 -99.2246 -208.596 -148.343 -313.123
c-14.9277 -31.7627 -29.6318 -63.6377 -44.0498 -95.6455c75.9258 -3.83398 151.301 -13.8574 224.167 -36.7998c23.3613 -7.35156 51.3926 -30.7637 56.083 -56.082zM1315.75 290.903c50.6982 117.416 106.974 232.294 161.985 347.722
c26.1553 54.8486 52.0449 109.83 76.8643 165.301c13.623 30.4473 26.9502 61.0273 39.8291 91.8008c2.71191 6.47461 6.1377 13.8877 9.66602 21.79c-120.098 -66.0137 -226.95 -158.906 -328.5 -248.812c-118.079 -104.548 -229.112 -217.028 -332.182 -336.402
c-20.9443 -24.2686 -41.46 -48.8838 -61.7207 -73.7031c125.757 17.5791 252.381 28.4082 379.352 31.3555c18.1914 0.428711 36.4336 0.754883 54.7061 0.948242z" />
    <glyph glyph-name="A" unicode="&#xc5;" horiz-adv-x="1763" 
d="M1711.96 196.123c3.9873 -21.5557 -7.54004 -38.9199 -31.4307 -31.415c-92.7803 29.2139 -190.282 35.9434 -287.519 35.8516c-19.751 -46.6807 -38.584 -93.7598 -55.8984 -141.43c-19.5469 -53.8291 -37.2178 -108.352 -52.3086 -163.598
c-7.12793 -26.0732 -15.0918 -52.5342 -19.7109 -79.1885c-1.49902 -8.67773 -0.367188 -22.9639 -2.89551 -31.4473c-0.0820312 -2.58984 0.0810547 -5.14941 0.31543 -7.69824c16.6514 -10.8701 31.5693 -26.8994 34.9746 -45.3047
c3.85449 -20.8115 -7.58594 -39.9717 -31.4053 -31.4062c-103.253 37.1465 -101.336 134.903 -78.7598 224.666c23.3916 93.0557 54.4814 183.909 89.8643 273.039c-130.957 -4.25195 -261.792 -16.2637 -391.21 -36.7588
c-31.1611 -4.93555 -62.2412 -10.3604 -93.2188 -16.2031c-146.324 -194.933 -272.224 -404.69 -375.904 -625.676c-20.4854 -43.6729 -105.404 28.1738 -88.2842 64.668c86.0605 183.42 187.284 359.601 302.508 526.135
c-171.571 -41.5625 -339.646 -96.9619 -502.61 -165.434c-37.7891 -15.876 -108.32 69.9404 -64.668 88.2842c210.972 88.6406 430.519 155.399 655.072 198.471c46.457 61.4971 94.8408 121.557 145.243 179.934c106.761 123.636 222.046 239.879 344.866 347.567
c126.195 110.646 260.467 224.278 417.345 288.304c25.9717 10.6045 62.8838 -24.2891 71.5303 -44.9785c42.3779 -101.407 -31.875 -213.297 -73.7529 -304.731c-48.0879 -105.017 -99.2246 -208.596 -148.343 -313.123
c-14.9277 -31.7627 -29.6318 -63.6377 -44.0498 -95.6455c75.9258 -3.83398 151.301 -13.8574 224.167 -36.7998c23.3613 -7.35156 51.3926 -30.7637 56.083 -56.082zM1315.75 290.903c50.6982 117.416 106.974 232.294 161.985 347.722
c26.1553 54.8486 52.0449 109.83 76.8643 165.301c13.623 30.4473 26.9502 61.0273 39.8291 91.8008c2.71191 6.47461 6.1377 13.8877 9.66602 21.79c-120.098 -66.0137 -226.95 -158.906 -328.5 -248.812c-118.079 -104.548 -229.112 -217.028 -332.182 -336.402
c-20.9443 -24.2686 -41.46 -48.8838 -61.7207 -73.7031c125.757 17.5791 252.381 28.4082 379.352 31.3555c18.1914 0.428711 36.4336 0.754883 54.7061 0.948242z" />
    <glyph glyph-name="A" unicode="&#xc4;" horiz-adv-x="1763" 
d="M1711.96 196.123c3.9873 -21.5557 -7.54004 -38.9199 -31.4307 -31.415c-92.7803 29.2139 -190.282 35.9434 -287.519 35.8516c-19.751 -46.6807 -38.584 -93.7598 -55.8984 -141.43c-19.5469 -53.8291 -37.2178 -108.352 -52.3086 -163.598
c-7.12793 -26.0732 -15.0918 -52.5342 -19.7109 -79.1885c-1.49902 -8.67773 -0.367188 -22.9639 -2.89551 -31.4473c-0.0820312 -2.58984 0.0810547 -5.14941 0.31543 -7.69824c16.6514 -10.8701 31.5693 -26.8994 34.9746 -45.3047
c3.85449 -20.8115 -7.58594 -39.9717 -31.4053 -31.4062c-103.253 37.1465 -101.336 134.903 -78.7598 224.666c23.3916 93.0557 54.4814 183.909 89.8643 273.039c-130.957 -4.25195 -261.792 -16.2637 -391.21 -36.7588
c-31.1611 -4.93555 -62.2412 -10.3604 -93.2188 -16.2031c-146.324 -194.933 -272.224 -404.69 -375.904 -625.676c-20.4854 -43.6729 -105.404 28.1738 -88.2842 64.668c86.0605 183.42 187.284 359.601 302.508 526.135
c-171.571 -41.5625 -339.646 -96.9619 -502.61 -165.434c-37.7891 -15.876 -108.32 69.9404 -64.668 88.2842c210.972 88.6406 430.519 155.399 655.072 198.471c46.457 61.4971 94.8408 121.557 145.243 179.934c106.761 123.636 222.046 239.879 344.866 347.567
c126.195 110.646 260.467 224.278 417.345 288.304c25.9717 10.6045 62.8838 -24.2891 71.5303 -44.9785c42.3779 -101.407 -31.875 -213.297 -73.7529 -304.731c-48.0879 -105.017 -99.2246 -208.596 -148.343 -313.123
c-14.9277 -31.7627 -29.6318 -63.6377 -44.0498 -95.6455c75.9258 -3.83398 151.301 -13.8574 224.167 -36.7998c23.3613 -7.35156 51.3926 -30.7637 56.083 -56.082zM1315.75 290.903c50.6982 117.416 106.974 232.294 161.985 347.722
c26.1553 54.8486 52.0449 109.83 76.8643 165.301c13.623 30.4473 26.9502 61.0273 39.8291 91.8008c2.71191 6.47461 6.1377 13.8877 9.66602 21.79c-120.098 -66.0137 -226.95 -158.906 -328.5 -248.812c-118.079 -104.548 -229.112 -217.028 -332.182 -336.402
c-20.9443 -24.2686 -41.46 -48.8838 -61.7207 -73.7031c125.757 17.5791 252.381 28.4082 379.352 31.3555c18.1914 0.428711 36.4336 0.754883 54.7061 0.948242z" />
    <glyph glyph-name="A" unicode="&#xc3;" horiz-adv-x="1763" 
d="M1711.96 196.123c3.9873 -21.5557 -7.54004 -38.9199 -31.4307 -31.415c-92.7803 29.2139 -190.282 35.9434 -287.519 35.8516c-19.751 -46.6807 -38.584 -93.7598 -55.8984 -141.43c-19.5469 -53.8291 -37.2178 -108.352 -52.3086 -163.598
c-7.12793 -26.0732 -15.0918 -52.5342 -19.7109 -79.1885c-1.49902 -8.67773 -0.367188 -22.9639 -2.89551 -31.4473c-0.0820312 -2.58984 0.0810547 -5.14941 0.31543 -7.69824c16.6514 -10.8701 31.5693 -26.8994 34.9746 -45.3047
c3.85449 -20.8115 -7.58594 -39.9717 -31.4053 -31.4062c-103.253 37.1465 -101.336 134.903 -78.7598 224.666c23.3916 93.0557 54.4814 183.909 89.8643 273.039c-130.957 -4.25195 -261.792 -16.2637 -391.21 -36.7588
c-31.1611 -4.93555 -62.2412 -10.3604 -93.2188 -16.2031c-146.324 -194.933 -272.224 -404.69 -375.904 -625.676c-20.4854 -43.6729 -105.404 28.1738 -88.2842 64.668c86.0605 183.42 187.284 359.601 302.508 526.135
c-171.571 -41.5625 -339.646 -96.9619 -502.61 -165.434c-37.7891 -15.876 -108.32 69.9404 -64.668 88.2842c210.972 88.6406 430.519 155.399 655.072 198.471c46.457 61.4971 94.8408 121.557 145.243 179.934c106.761 123.636 222.046 239.879 344.866 347.567
c126.195 110.646 260.467 224.278 417.345 288.304c25.9717 10.6045 62.8838 -24.2891 71.5303 -44.9785c42.3779 -101.407 -31.875 -213.297 -73.7529 -304.731c-48.0879 -105.017 -99.2246 -208.596 -148.343 -313.123
c-14.9277 -31.7627 -29.6318 -63.6377 -44.0498 -95.6455c75.9258 -3.83398 151.301 -13.8574 224.167 -36.7998c23.3613 -7.35156 51.3926 -30.7637 56.083 -56.082zM1315.75 290.903c50.6982 117.416 106.974 232.294 161.985 347.722
c26.1553 54.8486 52.0449 109.83 76.8643 165.301c13.623 30.4473 26.9502 61.0273 39.8291 91.8008c2.71191 6.47461 6.1377 13.8877 9.66602 21.79c-120.098 -66.0137 -226.95 -158.906 -328.5 -248.812c-118.079 -104.548 -229.112 -217.028 -332.182 -336.402
c-20.9443 -24.2686 -41.46 -48.8838 -61.7207 -73.7031c125.757 17.5791 252.381 28.4082 379.352 31.3555c18.1914 0.428711 36.4336 0.754883 54.7061 0.948242z" />
    <glyph glyph-name="A" unicode="&#xc2;" horiz-adv-x="1763" 
d="M1711.96 196.123c3.9873 -21.5557 -7.54004 -38.9199 -31.4307 -31.415c-92.7803 29.2139 -190.282 35.9434 -287.519 35.8516c-19.751 -46.6807 -38.584 -93.7598 -55.8984 -141.43c-19.5469 -53.8291 -37.2178 -108.352 -52.3086 -163.598
c-7.12793 -26.0732 -15.0918 -52.5342 -19.7109 -79.1885c-1.49902 -8.67773 -0.367188 -22.9639 -2.89551 -31.4473c-0.0820312 -2.58984 0.0810547 -5.14941 0.31543 -7.69824c16.6514 -10.8701 31.5693 -26.8994 34.9746 -45.3047
c3.85449 -20.8115 -7.58594 -39.9717 -31.4053 -31.4062c-103.253 37.1465 -101.336 134.903 -78.7598 224.666c23.3916 93.0557 54.4814 183.909 89.8643 273.039c-130.957 -4.25195 -261.792 -16.2637 -391.21 -36.7588
c-31.1611 -4.93555 -62.2412 -10.3604 -93.2188 -16.2031c-146.324 -194.933 -272.224 -404.69 -375.904 -625.676c-20.4854 -43.6729 -105.404 28.1738 -88.2842 64.668c86.0605 183.42 187.284 359.601 302.508 526.135
c-171.571 -41.5625 -339.646 -96.9619 -502.61 -165.434c-37.7891 -15.876 -108.32 69.9404 -64.668 88.2842c210.972 88.6406 430.519 155.399 655.072 198.471c46.457 61.4971 94.8408 121.557 145.243 179.934c106.761 123.636 222.046 239.879 344.866 347.567
c126.195 110.646 260.467 224.278 417.345 288.304c25.9717 10.6045 62.8838 -24.2891 71.5303 -44.9785c42.3779 -101.407 -31.875 -213.297 -73.7529 -304.731c-48.0879 -105.017 -99.2246 -208.596 -148.343 -313.123
c-14.9277 -31.7627 -29.6318 -63.6377 -44.0498 -95.6455c75.9258 -3.83398 151.301 -13.8574 224.167 -36.7998c23.3613 -7.35156 51.3926 -30.7637 56.083 -56.082zM1315.75 290.903c50.6982 117.416 106.974 232.294 161.985 347.722
c26.1553 54.8486 52.0449 109.83 76.8643 165.301c13.623 30.4473 26.9502 61.0273 39.8291 91.8008c2.71191 6.47461 6.1377 13.8877 9.66602 21.79c-120.098 -66.0137 -226.95 -158.906 -328.5 -248.812c-118.079 -104.548 -229.112 -217.028 -332.182 -336.402
c-20.9443 -24.2686 -41.46 -48.8838 -61.7207 -73.7031c125.757 17.5791 252.381 28.4082 379.352 31.3555c18.1914 0.428711 36.4336 0.754883 54.7061 0.948242z" />
    <glyph glyph-name="A" unicode="&#xc1;" horiz-adv-x="1763" 
d="M1711.96 196.123c3.9873 -21.5557 -7.54004 -38.9199 -31.4307 -31.415c-92.7803 29.2139 -190.282 35.9434 -287.519 35.8516c-19.751 -46.6807 -38.584 -93.7598 -55.8984 -141.43c-19.5469 -53.8291 -37.2178 -108.352 -52.3086 -163.598
c-7.12793 -26.0732 -15.0918 -52.5342 -19.7109 -79.1885c-1.49902 -8.67773 -0.367188 -22.9639 -2.89551 -31.4473c-0.0820312 -2.58984 0.0810547 -5.14941 0.31543 -7.69824c16.6514 -10.8701 31.5693 -26.8994 34.9746 -45.3047
c3.85449 -20.8115 -7.58594 -39.9717 -31.4053 -31.4062c-103.253 37.1465 -101.336 134.903 -78.7598 224.666c23.3916 93.0557 54.4814 183.909 89.8643 273.039c-130.957 -4.25195 -261.792 -16.2637 -391.21 -36.7588
c-31.1611 -4.93555 -62.2412 -10.3604 -93.2188 -16.2031c-146.324 -194.933 -272.224 -404.69 -375.904 -625.676c-20.4854 -43.6729 -105.404 28.1738 -88.2842 64.668c86.0605 183.42 187.284 359.601 302.508 526.135
c-171.571 -41.5625 -339.646 -96.9619 -502.61 -165.434c-37.7891 -15.876 -108.32 69.9404 -64.668 88.2842c210.972 88.6406 430.519 155.399 655.072 198.471c46.457 61.4971 94.8408 121.557 145.243 179.934c106.761 123.636 222.046 239.879 344.866 347.567
c126.195 110.646 260.467 224.278 417.345 288.304c25.9717 10.6045 62.8838 -24.2891 71.5303 -44.9785c42.3779 -101.407 -31.875 -213.297 -73.7529 -304.731c-48.0879 -105.017 -99.2246 -208.596 -148.343 -313.123
c-14.9277 -31.7627 -29.6318 -63.6377 -44.0498 -95.6455c75.9258 -3.83398 151.301 -13.8574 224.167 -36.7998c23.3613 -7.35156 51.3926 -30.7637 56.083 -56.082zM1315.75 290.903c50.6982 117.416 106.974 232.294 161.985 347.722
c26.1553 54.8486 52.0449 109.83 76.8643 165.301c13.623 30.4473 26.9502 61.0273 39.8291 91.8008c2.71191 6.47461 6.1377 13.8877 9.66602 21.79c-120.098 -66.0137 -226.95 -158.906 -328.5 -248.812c-118.079 -104.548 -229.112 -217.028 -332.182 -336.402
c-20.9443 -24.2686 -41.46 -48.8838 -61.7207 -73.7031c125.757 17.5791 252.381 28.4082 379.352 31.3555c18.1914 0.428711 36.4336 0.754883 54.7061 0.948242z" />
    <glyph glyph-name="A" unicode="&#xc0;" horiz-adv-x="1763" 
d="M1711.96 196.123c3.9873 -21.5557 -7.54004 -38.9199 -31.4307 -31.415c-92.7803 29.2139 -190.282 35.9434 -287.519 35.8516c-19.751 -46.6807 -38.584 -93.7598 -55.8984 -141.43c-19.5469 -53.8291 -37.2178 -108.352 -52.3086 -163.598
c-7.12793 -26.0732 -15.0918 -52.5342 -19.7109 -79.1885c-1.49902 -8.67773 -0.367188 -22.9639 -2.89551 -31.4473c-0.0820312 -2.58984 0.0810547 -5.14941 0.31543 -7.69824c16.6514 -10.8701 31.5693 -26.8994 34.9746 -45.3047
c3.85449 -20.8115 -7.58594 -39.9717 -31.4053 -31.4062c-103.253 37.1465 -101.336 134.903 -78.7598 224.666c23.3916 93.0557 54.4814 183.909 89.8643 273.039c-130.957 -4.25195 -261.792 -16.2637 -391.21 -36.7588
c-31.1611 -4.93555 -62.2412 -10.3604 -93.2188 -16.2031c-146.324 -194.933 -272.224 -404.69 -375.904 -625.676c-20.4854 -43.6729 -105.404 28.1738 -88.2842 64.668c86.0605 183.42 187.284 359.601 302.508 526.135
c-171.571 -41.5625 -339.646 -96.9619 -502.61 -165.434c-37.7891 -15.876 -108.32 69.9404 -64.668 88.2842c210.972 88.6406 430.519 155.399 655.072 198.471c46.457 61.4971 94.8408 121.557 145.243 179.934c106.761 123.636 222.046 239.879 344.866 347.567
c126.195 110.646 260.467 224.278 417.345 288.304c25.9717 10.6045 62.8838 -24.2891 71.5303 -44.9785c42.3779 -101.407 -31.875 -213.297 -73.7529 -304.731c-48.0879 -105.017 -99.2246 -208.596 -148.343 -313.123
c-14.9277 -31.7627 -29.6318 -63.6377 -44.0498 -95.6455c75.9258 -3.83398 151.301 -13.8574 224.167 -36.7998c23.3613 -7.35156 51.3926 -30.7637 56.083 -56.082zM1315.75 290.903c50.6982 117.416 106.974 232.294 161.985 347.722
c26.1553 54.8486 52.0449 109.83 76.8643 165.301c13.623 30.4473 26.9502 61.0273 39.8291 91.8008c2.71191 6.47461 6.1377 13.8877 9.66602 21.79c-120.098 -66.0137 -226.95 -158.906 -328.5 -248.812c-118.079 -104.548 -229.112 -217.028 -332.182 -336.402
c-20.9443 -24.2686 -41.46 -48.8838 -61.7207 -73.7031c125.757 17.5791 252.381 28.4082 379.352 31.3555c18.1914 0.428711 36.4336 0.754883 54.7061 0.948242z" />
    <glyph glyph-name="B" unicode="B" horiz-adv-x="1144" 
d="M429.374 -197.748c-0.886719 -54.6953 -91.5361 6.96484 -90.9043 46.0693c4.69043 290.568 89.8232 571.123 245.957 816.02c21.1885 33.2412 103.518 -41.3486 79.3105 -79.3115c-148.976 -233.67 -229.897 -505.884 -234.363 -782.777zM1281.52 904.393
c152.034 -151.881 -9.69043 -337.818 -133.153 -442.57c-99.3877 -84.3379 -213.479 -149.495 -335.627 -192.831c18.0381 -8.65723 35.3418 -18.9658 51.6162 -31.3857c91.9951 -70.2051 120.679 -189.926 63.7803 -291.935
c-59.5801 -106.842 -191.251 -179.106 -298.216 -230.641c-113.888 -54.8789 -240.572 -79.1475 -356.54 -16.8447c-19.4551 10.4414 -48.7402 36.9941 -46.293 62.2207c2.37598 24.4414 25.7061 26.3076 44.6113 16.1514c92.0264 -49.4336 196.85 -18.5986 285.807 23.1162
c83.4307 39.125 171.276 90.2207 237.321 155.327c50.6885 49.9639 118.834 170.837 38.1777 225.757c-59.5186 40.5225 -148.129 39.2783 -216.937 38.7891c-30.417 -0.224609 -99.918 82.3896 -55.3682 89.5889c187.05 30.2334 363.709 109.064 508.371 231.977
c72.9883 62.0166 307.983 303.313 105.495 345.365c-141.358 29.3564 -307.413 -25.7881 -439.717 -71.4492c-140.562 -48.5166 -278.984 -112.328 -401.111 -197.767c-71.1943 -49.8115 -182.329 -128.459 -192.689 -223.83
c-6.03613 -55.5322 -95.126 7.18848 -90.9043 46.0693c15.1729 139.737 168.237 238.116 276.895 304.171c154.736 94.0752 326.216 163.934 502.192 206.424c143.479 34.6484 335.098 71.377 452.289 -45.7031z" />
    <glyph glyph-name="C" unicode="C" horiz-adv-x="830" 
d="M817.567 175.281c29.0811 31.4268 108.93 -47.3057 79.3184 -79.3027c-86.4072 -93.3818 -181.207 -178.454 -284.357 -253.013c-87.1416 -62.9961 -187.02 -136.138 -291.333 -166.708c-82.6553 -24.2275 -168.931 -9.86035 -224.105 61.0479
c-63.7197 81.8799 -49.1992 203.926 -34.1484 299.582c35.1787 223.575 136.678 440.196 264.821 625.207c61.5576 88.8955 130.937 177.281 215.682 245.314c71.4082 57.3262 170.449 120.139 254.838 51.5547c71.5615 -58.1621 74.0898 -148.312 62.5371 -232.588
c-15.8867 -115.876 -51.9932 -226.348 -106.638 -329.713c-22.8203 -43.1631 -106.903 29.4482 -88.2842 64.668c48.6797 92.0771 83.8896 190.578 101.184 293.453c6.82129 40.5732 15.7949 88.2734 5.82227 129.336c-4.33398 17.834 -2.16211 17.9873 -19.8535 16.6816
c-8.50391 -0.62207 -21.8105 -6.91309 -29.9375 -10.2676c-23.5645 -9.70703 -45.834 -23.0039 -66.8398 -37.3506c-139.931 -95.5645 -247.629 -252.687 -329.193 -398.46c-85.0107 -151.953 -154.614 -322.943 -177.689 -496.432
c-6.21973 -46.7725 -9.37012 -95.2783 -5.30176 -142.397c4.05859 -46.9766 18.6914 -64.3516 66.627 -60.5684c79.9229 6.29102 156.083 57.6934 221.954 99.082c142.103 89.2832 270.99 197.757 384.898 320.873z" />
    <glyph glyph-name="C" unicode="&#xc7;" horiz-adv-x="830" 
d="M817.567 175.281c29.0811 31.4268 108.93 -47.3057 79.3184 -79.3027c-86.4072 -93.3818 -181.207 -178.454 -284.357 -253.013c-87.1416 -62.9961 -187.02 -136.138 -291.333 -166.708c-82.6553 -24.2275 -168.931 -9.86035 -224.105 61.0479
c-63.7197 81.8799 -49.1992 203.926 -34.1484 299.582c35.1787 223.575 136.678 440.196 264.821 625.207c61.5576 88.8955 130.937 177.281 215.682 245.314c71.4082 57.3262 170.449 120.139 254.838 51.5547c71.5615 -58.1621 74.0898 -148.312 62.5371 -232.588
c-15.8867 -115.876 -51.9932 -226.348 -106.638 -329.713c-22.8203 -43.1631 -106.903 29.4482 -88.2842 64.668c48.6797 92.0771 83.8896 190.578 101.184 293.453c6.82129 40.5732 15.7949 88.2734 5.82227 129.336c-4.33398 17.834 -2.16211 17.9873 -19.8535 16.6816
c-8.50391 -0.62207 -21.8105 -6.91309 -29.9375 -10.2676c-23.5645 -9.70703 -45.834 -23.0039 -66.8398 -37.3506c-139.931 -95.5645 -247.629 -252.687 -329.193 -398.46c-85.0107 -151.953 -154.614 -322.943 -177.689 -496.432
c-6.21973 -46.7725 -9.37012 -95.2783 -5.30176 -142.397c4.05859 -46.9766 18.6914 -64.3516 66.627 -60.5684c79.9229 6.29102 156.083 57.6934 221.954 99.082c142.103 89.2832 270.99 197.757 384.898 320.873z" />
    <glyph glyph-name="D" unicode="D" horiz-adv-x="1248" 
d="M1114.23 893.961c137.382 -130.683 82.5342 -323.277 -3.8125 -465.513c-94.8408 -156.235 -234.027 -279.861 -380.902 -386.071c-153.421 -110.941 -320.403 -202.029 -496.013 -272.561c-1.86621 -11.9199 -3.64062 -23.8604 -5.21094 -35.8418
c-7.30078 -55.5928 -95.9922 7.33203 -90.9043 46.0693c1.80469 13.7354 3.85449 27.4297 6.00586 41.0938c-3.2832 10.666 -2.47754 20.3936 4.43555 26.7666c53.8799 307.597 196.706 593.179 414.377 819.068c29.9072 31.0488 109.392 -48.0889 79.3115 -79.3115
c-185.663 -192.679 -318.426 -432.191 -382.431 -691.027c142.878 64.3516 279.097 142.602 405.588 235.606c125.655 92.4033 245.702 197.746 334.894 326.797c63.5664 91.9756 194.432 333.589 42.5195 408.056c-61.415 30.1006 -137.045 28.3564 -203.559 23.0029
c-84.3789 -6.80078 -168.156 -22.29 -249.792 -44.5596c-161.446 -44.04 -314.112 -115.52 -451.32 -211.247c-36.9639 -25.7979 -112.165 56.3887 -79.3105 79.3115c178.22 124.329 380.167 211.032 594.463 249.016c152.442 27.0215 339.177 47.874 461.661 -68.6553z" />
    <glyph glyph-name="E" unicode="E" horiz-adv-x="735" 
d="M673.202 -55.7686c37.626 25.0225 112.275 -57.3887 79.3096 -79.291c-117.63 -78.25 -253.003 -136.26 -394.575 -151.056c-109.289 -11.4199 -233.894 22.2705 -287.386 127.083c-63.5771 124.584 34.751 272.081 99.8066 375.823
c53.7578 85.7344 116.784 164.719 187.377 236.616c-27.9805 8.54492 -54.3594 23.7383 -77.9854 48.3945c-64.1992 66.9932 -49.4951 150.158 -5.5166 223.493c83.8379 139.829 238.941 223.382 401.192 222.321c39.4619 -0.264648 100.143 -91.2607 46.0693 -90.9043
c-106.771 0.693359 -209.574 -39.5127 -288.161 -111.92c-39.8896 -36.749 -75.1191 -81.584 -95.666 -132.14c-13.7148 -33.7412 -22.29 -67.4727 19.5273 -79.3418c31.416 -8.92188 75.1807 7.60742 105.924 15.9277c30.6924 8.31055 106.026 -55.001 72 -83.7969
c-87.7637 -74.2432 -166.585 -158.081 -233.904 -251.352c-62.3535 -86.377 -133.068 -191.496 -156.501 -297.074c-12.6338 -56.9385 2.40625 -94.3301 59.2432 -107.882c46.1709 -11.0127 95.207 -7.55566 141.449 0.958984
c116.906 21.5459 228.979 68.4102 327.797 134.139z" />
    <glyph glyph-name="E" unicode="&#xcb;" horiz-adv-x="735" 
d="M673.202 -55.7686c37.626 25.0225 112.275 -57.3887 79.3096 -79.291c-117.63 -78.25 -253.003 -136.26 -394.575 -151.056c-109.289 -11.4199 -233.894 22.2705 -287.386 127.083c-63.5771 124.584 34.751 272.081 99.8066 375.823
c53.7578 85.7344 116.784 164.719 187.377 236.616c-27.9805 8.54492 -54.3594 23.7383 -77.9854 48.3945c-64.1992 66.9932 -49.4951 150.158 -5.5166 223.493c83.8379 139.829 238.941 223.382 401.192 222.321c39.4619 -0.264648 100.143 -91.2607 46.0693 -90.9043
c-106.771 0.693359 -209.574 -39.5127 -288.161 -111.92c-39.8896 -36.749 -75.1191 -81.584 -95.666 -132.14c-13.7148 -33.7412 -22.29 -67.4727 19.5273 -79.3418c31.416 -8.92188 75.1807 7.60742 105.924 15.9277c30.6924 8.31055 106.026 -55.001 72 -83.7969
c-87.7637 -74.2432 -166.585 -158.081 -233.904 -251.352c-62.3535 -86.377 -133.068 -191.496 -156.501 -297.074c-12.6338 -56.9385 2.40625 -94.3301 59.2432 -107.882c46.1709 -11.0127 95.207 -7.55566 141.449 0.958984
c116.906 21.5459 228.979 68.4102 327.797 134.139z" />
    <glyph glyph-name="E" unicode="&#xca;" horiz-adv-x="735" 
d="M673.202 -55.7686c37.626 25.0225 112.275 -57.3887 79.3096 -79.291c-117.63 -78.25 -253.003 -136.26 -394.575 -151.056c-109.289 -11.4199 -233.894 22.2705 -287.386 127.083c-63.5771 124.584 34.751 272.081 99.8066 375.823
c53.7578 85.7344 116.784 164.719 187.377 236.616c-27.9805 8.54492 -54.3594 23.7383 -77.9854 48.3945c-64.1992 66.9932 -49.4951 150.158 -5.5166 223.493c83.8379 139.829 238.941 223.382 401.192 222.321c39.4619 -0.264648 100.143 -91.2607 46.0693 -90.9043
c-106.771 0.693359 -209.574 -39.5127 -288.161 -111.92c-39.8896 -36.749 -75.1191 -81.584 -95.666 -132.14c-13.7148 -33.7412 -22.29 -67.4727 19.5273 -79.3418c31.416 -8.92188 75.1807 7.60742 105.924 15.9277c30.6924 8.31055 106.026 -55.001 72 -83.7969
c-87.7637 -74.2432 -166.585 -158.081 -233.904 -251.352c-62.3535 -86.377 -133.068 -191.496 -156.501 -297.074c-12.6338 -56.9385 2.40625 -94.3301 59.2432 -107.882c46.1709 -11.0127 95.207 -7.55566 141.449 0.958984
c116.906 21.5459 228.979 68.4102 327.797 134.139z" />
    <glyph glyph-name="E" unicode="&#xc9;" horiz-adv-x="735" 
d="M673.202 -55.7686c37.626 25.0225 112.275 -57.3887 79.3096 -79.291c-117.63 -78.25 -253.003 -136.26 -394.575 -151.056c-109.289 -11.4199 -233.894 22.2705 -287.386 127.083c-63.5771 124.584 34.751 272.081 99.8066 375.823
c53.7578 85.7344 116.784 164.719 187.377 236.616c-27.9805 8.54492 -54.3594 23.7383 -77.9854 48.3945c-64.1992 66.9932 -49.4951 150.158 -5.5166 223.493c83.8379 139.829 238.941 223.382 401.192 222.321c39.4619 -0.264648 100.143 -91.2607 46.0693 -90.9043
c-106.771 0.693359 -209.574 -39.5127 -288.161 -111.92c-39.8896 -36.749 -75.1191 -81.584 -95.666 -132.14c-13.7148 -33.7412 -22.29 -67.4727 19.5273 -79.3418c31.416 -8.92188 75.1807 7.60742 105.924 15.9277c30.6924 8.31055 106.026 -55.001 72 -83.7969
c-87.7637 -74.2432 -166.585 -158.081 -233.904 -251.352c-62.3535 -86.377 -133.068 -191.496 -156.501 -297.074c-12.6338 -56.9385 2.40625 -94.3301 59.2432 -107.882c46.1709 -11.0127 95.207 -7.55566 141.449 0.958984
c116.906 21.5459 228.979 68.4102 327.797 134.139z" />
    <glyph glyph-name="E" unicode="&#xc8;" horiz-adv-x="735" 
d="M673.202 -55.7686c37.626 25.0225 112.275 -57.3887 79.3096 -79.291c-117.63 -78.25 -253.003 -136.26 -394.575 -151.056c-109.289 -11.4199 -233.894 22.2705 -287.386 127.083c-63.5771 124.584 34.751 272.081 99.8066 375.823
c53.7578 85.7344 116.784 164.719 187.377 236.616c-27.9805 8.54492 -54.3594 23.7383 -77.9854 48.3945c-64.1992 66.9932 -49.4951 150.158 -5.5166 223.493c83.8379 139.829 238.941 223.382 401.192 222.321c39.4619 -0.264648 100.143 -91.2607 46.0693 -90.9043
c-106.771 0.693359 -209.574 -39.5127 -288.161 -111.92c-39.8896 -36.749 -75.1191 -81.584 -95.666 -132.14c-13.7148 -33.7412 -22.29 -67.4727 19.5273 -79.3418c31.416 -8.92188 75.1807 7.60742 105.924 15.9277c30.6924 8.31055 106.026 -55.001 72 -83.7969
c-87.7637 -74.2432 -166.585 -158.081 -233.904 -251.352c-62.3535 -86.377 -133.068 -191.496 -156.501 -297.074c-12.6338 -56.9385 2.40625 -94.3301 59.2432 -107.882c46.1709 -11.0127 95.207 -7.55566 141.449 0.958984
c116.906 21.5459 228.979 68.4102 327.797 134.139z" />
    <glyph glyph-name="F" unicode="F" horiz-adv-x="660" 
d="M531.985 929.946c41.0215 7.3418 106.8 -80.7461 64.6768 -88.3018c-51.3408 -9.19727 -72.7129 -66.3193 -95.0947 -107.646c-24.8594 -45.9062 -48.71 -92.3633 -71.5605 -139.31c-45.7021 -93.8926 -87.3359 -189.753 -124.778 -287.234
c-17.7324 -46.1611 -34.4141 -92.7197 -50.2598 -139.574c73.7842 7.40332 148.333 4.61914 223.279 -7.69824c40.0635 -6.57715 89.2734 -98.1035 24.6768 -87.4883c-74.5693 12.2568 -149.506 12.4102 -223.219 1.63184
c42.7246 -25.4609 77.1182 -71.7744 79.4639 -122.229c5.53711 -118.762 -114.377 -234.648 -204.854 -294.229c-15.8154 -10.4209 -36.6064 -4.18066 -50.5254 7.69824c-92.2402 78.709 -43.3467 192.72 -17.7217 294.045c8.02441 31.7119 16.498 63.3223 25.3691 94.8096
c-1.06055 0.703125 -2.12109 1.3252 -3.1709 2.04883c-15.0908 10.3906 -57.9375 64.2803 -21.4639 76.0986c17.3447 5.62891 34.7607 10.585 52.2275 14.9795c18.0586 58.0908 37.5342 115.723 58.4785 172.835c43.3564 118.222 92.8418 234.189 148.241 347.271
c28.3574 57.8877 58.0508 115.234 89.7324 171.388c22.7695 40.3486 47.4863 82.125 96.502 90.9043zM262.748 5.04785c-10.9004 8.90137 -41.8682 9.30859 -55.165 11.8066c-1.46875 -5.05762 -3.05957 -10.0742 -4.50781 -15.1416
c-14.3262 -50.209 -27.5723 -100.724 -39.7061 -151.504c-4.30273 -17.9971 -8.33008 -36.0654 -12.3574 -54.124c48.4551 44.1416 90.2109 97.6953 109.952 157.643c6.72949 20.4443 14.041 41.2969 1.78418 51.3203z" />
    <glyph glyph-name="G" unicode="G" horiz-adv-x="958" 
d="M793.959 762.097c7.59668 29.4785 14.0166 59.25 18.9209 89.2393c0.479492 2.92676 0.816406 32.334 2.27441 52.1162c-1.59082 -0.387695 -3.2832 -0.805664 -5.13867 -1.25391c-24.0547 -5.84277 -46.7227 -18.7314 -67.4932 -31.6504
c-145.365 -90.333 -256.897 -240.838 -346.925 -383.246c-95.0645 -150.362 -174.263 -315.152 -223.248 -486.479c-11.4199 -39.9209 -21.9229 -80.7998 -27.3779 -122.016c-4.24219 -32.0488 -11.2266 -84.7871 6.32227 -114.297
c48.8428 -82.1348 209.891 59.6416 251.524 95.1572c157.255 134.159 287.743 297.431 384.357 480.096c22.8203 43.1426 106.699 -29.3057 88.2842 -64.668c-90.5166 -173.906 -142.062 -363.444 -149.801 -559.447c-2.17188 -55.002 -92.4443 6.9541 -90.9043 46.0693
c2.53906 64.1992 9.44238 127.827 20.6484 190.527c-8.93262 -10.2686 -17.8545 -20.5469 -27.0518 -30.6006c-45.7832 -50.0361 -94.626 -97.2471 -146.222 -141.276c-51.9932 -44.3564 -108.585 -92.7197 -174.212 -115.459
c-100.999 -34.9951 -205.547 18.5889 -242.296 118.272c-33.8232 91.751 -6.02637 198.399 20.251 288.672c62.1084 213.327 169.348 417.946 299.847 597.227c61.375 84.3174 130.061 164.974 210.564 231.712c62.0576 51.4424 160.059 128.285 243.692 80.4727
c90.5684 -51.7891 70.8984 -153.869 52.7588 -239.41c-29.2344 -137.881 -86.6016 -267.543 -156.786 -389.19c-24.584 -42.6123 -107.974 30.5391 -88.2832 64.668c62.6084 108.535 114.948 223.127 146.293 344.765zM817.948 921.153
c-2.40625 -3.14062 -2.67188 -5.36328 -1.7334 -6.98438c0.489258 3.53809 1.06055 6.10742 1.7334 6.98438z" />
    <glyph glyph-name="H" unicode="H" horiz-adv-x="1135" 
d="M1304.79 579.788c39.2578 4.22168 101.355 -84.9512 46.0479 -90.8955c-110.125 -11.8486 -219.985 -25.7676 -329.55 -41.5928c-63.5264 -165.494 -119.364 -333.955 -167.269 -504.895c-12.2363 -43.7031 -99.4189 24.9316 -88.2842 64.6689
c39.9512 142.571 85.4902 283.389 136.331 422.229c-124.207 -19.6084 -247.986 -41.7656 -371.296 -66.4111c-71 -181.156 -134.383 -365.249 -189.976 -551.851c9.15625 -13.0723 14.1836 -27.1953 10.6553 -38.7588c-10.6758 -34.9951 -27.2559 -64.4131 -50.8311 -92.25
c-28.5615 -33.7207 -92.3828 41.083 -83.7969 72c55.0117 197.991 118.793 393.301 191.037 585.429c-93.4023 -19.9854 -186.529 -41.3477 -279.32 -64.1982c-40.4707 -9.97266 -107.729 77.6787 -64.667 88.2832c128.296 31.5996 257.225 60.4365 386.684 86.54
c57.7139 145.886 120.302 289.875 187.835 431.682c20.7705 43.6221 105.598 -28.3262 88.2832 -64.6777c-53.7979 -112.98 -104.507 -227.338 -152.096 -342.938c121.831 22.8613 244.111 43.2959 366.769 61.3242c63.3115 162.965 134.036 323.044 212.153 479.728
c21.6582 43.4482 106.169 -28.7861 88.2842 -64.6689c-65.0254 -130.427 -124.881 -263.229 -179.668 -398.062c80.748 10.8086 161.64 20.5977 242.674 29.3154z" />
    <glyph glyph-name="I" unicode="I" horiz-adv-x="702" 
d="M641.172 934.86c33.9961 -56.4805 -21.9316 -124.738 -47.1074 -174.784c-33.9043 -67.4004 -68.1758 -134.617 -101.591 -202.263c-135.271 -273.886 -259.886 -561.568 -269.95 -871.438c-1.78418 -54.9199 -92.1787 6.9541 -90.9043 46.0693
c7.07617 217.916 67.4717 427.511 151.279 627.612c43.0811 102.845 91.6582 203.283 141.459 303.018c25.6045 51.29 51.5762 102.396 77.3535 153.604c7.20898 14.3057 14.3467 28.6523 21.5049 42.9785c-19.415 -8.94238 -38.5439 -18.4658 -57.2041 -28.9277
c-46.5283 -26.0938 -90.0889 -57.4893 -130.336 -92.4639c-81.1865 -70.5518 -147.303 -155.909 -194.952 -252.3c-21.4951 -43.4795 -106.067 28.7041 -88.2842 64.668c65.0049 131.478 161.181 245.264 282.89 327.685c72.6523 49.1895 238.585 168.278 305.843 56.542z
" />
    <glyph glyph-name="I" unicode="&#xcf;" horiz-adv-x="702" 
d="M641.172 934.86c33.9961 -56.4805 -21.9316 -124.738 -47.1074 -174.784c-33.9043 -67.4004 -68.1758 -134.617 -101.591 -202.263c-135.271 -273.886 -259.886 -561.568 -269.95 -871.438c-1.78418 -54.9199 -92.1787 6.9541 -90.9043 46.0693
c7.07617 217.916 67.4717 427.511 151.279 627.612c43.0811 102.845 91.6582 203.283 141.459 303.018c25.6045 51.29 51.5762 102.396 77.3535 153.604c7.20898 14.3057 14.3467 28.6523 21.5049 42.9785c-19.415 -8.94238 -38.5439 -18.4658 -57.2041 -28.9277
c-46.5283 -26.0938 -90.0889 -57.4893 -130.336 -92.4639c-81.1865 -70.5518 -147.303 -155.909 -194.952 -252.3c-21.4951 -43.4795 -106.067 28.7041 -88.2842 64.668c65.0049 131.478 161.181 245.264 282.89 327.685c72.6523 49.1895 238.585 168.278 305.843 56.542z
" />
    <glyph glyph-name="I" unicode="&#xce;" horiz-adv-x="702" 
d="M641.172 934.86c33.9961 -56.4805 -21.9316 -124.738 -47.1074 -174.784c-33.9043 -67.4004 -68.1758 -134.617 -101.591 -202.263c-135.271 -273.886 -259.886 -561.568 -269.95 -871.438c-1.78418 -54.9199 -92.1787 6.9541 -90.9043 46.0693
c7.07617 217.916 67.4717 427.511 151.279 627.612c43.0811 102.845 91.6582 203.283 141.459 303.018c25.6045 51.29 51.5762 102.396 77.3535 153.604c7.20898 14.3057 14.3467 28.6523 21.5049 42.9785c-19.415 -8.94238 -38.5439 -18.4658 -57.2041 -28.9277
c-46.5283 -26.0938 -90.0889 -57.4893 -130.336 -92.4639c-81.1865 -70.5518 -147.303 -155.909 -194.952 -252.3c-21.4951 -43.4795 -106.067 28.7041 -88.2842 64.668c65.0049 131.478 161.181 245.264 282.89 327.685c72.6523 49.1895 238.585 168.278 305.843 56.542z
" />
    <glyph glyph-name="I" unicode="&#xcd;" horiz-adv-x="702" 
d="M641.172 934.86c33.9961 -56.4805 -21.9316 -124.738 -47.1074 -174.784c-33.9043 -67.4004 -68.1758 -134.617 -101.591 -202.263c-135.271 -273.886 -259.886 -561.568 -269.95 -871.438c-1.78418 -54.9199 -92.1787 6.9541 -90.9043 46.0693
c7.07617 217.916 67.4717 427.511 151.279 627.612c43.0811 102.845 91.6582 203.283 141.459 303.018c25.6045 51.29 51.5762 102.396 77.3535 153.604c7.20898 14.3057 14.3467 28.6523 21.5049 42.9785c-19.415 -8.94238 -38.5439 -18.4658 -57.2041 -28.9277
c-46.5283 -26.0938 -90.0889 -57.4893 -130.336 -92.4639c-81.1865 -70.5518 -147.303 -155.909 -194.952 -252.3c-21.4951 -43.4795 -106.067 28.7041 -88.2842 64.668c65.0049 131.478 161.181 245.264 282.89 327.685c72.6523 49.1895 238.585 168.278 305.843 56.542z
" />
    <glyph glyph-name="I" unicode="&#xcc;" horiz-adv-x="702" 
d="M641.172 934.86c33.9961 -56.4805 -21.9316 -124.738 -47.1074 -174.784c-33.9043 -67.4004 -68.1758 -134.617 -101.591 -202.263c-135.271 -273.886 -259.886 -561.568 -269.95 -871.438c-1.78418 -54.9199 -92.1787 6.9541 -90.9043 46.0693
c7.07617 217.916 67.4717 427.511 151.279 627.612c43.0811 102.845 91.6582 203.283 141.459 303.018c25.6045 51.29 51.5762 102.396 77.3535 153.604c7.20898 14.3057 14.3467 28.6523 21.5049 42.9785c-19.415 -8.94238 -38.5439 -18.4658 -57.2041 -28.9277
c-46.5283 -26.0938 -90.0889 -57.4893 -130.336 -92.4639c-81.1865 -70.5518 -147.303 -155.909 -194.952 -252.3c-21.4951 -43.4795 -106.067 28.7041 -88.2842 64.668c65.0049 131.478 161.181 245.264 282.89 327.685c72.6523 49.1895 238.585 168.278 305.843 56.542z
" />
    <glyph glyph-name="J" unicode="J" horiz-adv-x="1222" 
d="M1147.92 150.187c11.4004 -13.2148 35.4727 -43.8232 17.4443 -61.8613c-16.7637 -16.7637 -49.9746 3.6709 -61.8643 17.4463c-69.8174 80.9014 -166.585 111.543 -266.605 109.982c-88.1924 -125.084 -185.603 -243.693 -291.395 -354.298
c-63.0264 -65.9023 -128.948 -129.021 -197.583 -189.06c-60.5488 -52.9727 -124.87 -105.812 -209.555 -103.151c-26.4502 0.835938 -50.5449 24.2988 -62.2305 46.293c-68.8486 129.561 10.3096 248.598 98.9609 343c92.9746 99.0215 192.454 193.587 310.655 262.018
c84.2969 48.8125 181.34 78.3018 278.098 83.3389c1.25391 1.77441 2.53906 3.52832 3.7832 5.3125c85.1943 122.29 177.873 255.317 224.085 398.297c13.4092 41.4912 51.8916 180.392 -22.5859 180.208c-67.8594 -0.163086 -144.203 -31.6914 -205.955 -57.4482
c-131.569 -54.8691 -247.303 -138.932 -342.755 -244.489c-28.5918 -31.6309 -108.637 46.8643 -79.3105 79.3105c126.257 139.635 291.282 243.602 473.224 293.352c73.5498 20.1182 149.914 34.6895 213.827 -17.4268c55.542 -45.2939 78.291 -117.019 73.7021 -186.918
c-10.9102 -166.412 -119.139 -322.494 -210.329 -458.529c96.625 -18.2627 186.836 -64.7705 256.389 -145.376zM490.436 -33.5781c66.4424 71.123 129.448 145.457 188.896 222.524c-45.875 -14.459 -89.7012 -33.9551 -128.897 -56.6836
c-98.2158 -56.9385 -182.798 -135.943 -261.507 -216.927c-60.0898 -61.833 -157.571 -153.991 -149.903 -249.25c65.667 18.5781 120.362 76.6484 169.134 120.831c63.21 57.2656 124.044 117.172 182.278 179.505z" />
    <glyph glyph-name="K" unicode="K" horiz-adv-x="1086" 
d="M1707.64 888.884c40.002 11.4609 108.094 -75.8477 64.6553 -88.2676c-370.062 -106.026 -711.063 -301.03 -992.271 -561.018c8.36133 -189.232 113.235 -386.755 291.944 -461.609c43.1328 -18.0684 -31.3955 -100.622 -69.2051 -84.7764
c-181.666 76.0889 -291.71 266.626 -312.827 458.815c-102.732 -105.108 -196.166 -219.395 -278.536 -341.552c-40.9707 -68.6758 -82.4717 -137.024 -123.942 -205.262c-25.4307 -41.8574 -107.066 29.6426 -88.2842 64.6689
c40.4609 75.4355 84.7051 148.761 132.528 219.689c147.527 247.966 287.468 500.867 391.21 770.521c16.5596 43.0303 33.6191 86.499 46.875 130.692c4.98633 16.6514 9.62598 33.4355 9.64648 50.9844c0.46875 8.07617 -0.316406 16.0293 -2.36621 23.8711
c3.45703 -17.3857 -2.83398 -26.4199 -18.8633 -27.1133c-29.1123 -20.8418 -76.0273 -30.0898 -108.953 -45.3037c-40.8076 -18.8535 -80.7891 -39.5225 -119.792 -61.8838c-148.894 -85.3672 -281.462 -197.175 -393.994 -326.48
c-27.7861 -31.9365 -108.167 46.1611 -79.3105 79.3105c114.847 131.967 250.057 243.377 401.347 331.223c65.6064 38.0957 134.017 71.3887 204.548 99.3486c62.9756 24.9619 122.015 35.8926 171.938 -20.2715c39.2471 -44.1523 42.3877 -101.917 27.5312 -156.99
c-20.9033 -77.5566 -53.8389 -153.89 -84.7451 -227.878c-29.3154 -70.1846 -61.0068 -139.217 -94.3604 -207.413c289.028 272.928 642.643 477.088 1025.23 586.693z" />
    <glyph glyph-name="L" unicode="L" horiz-adv-x="599" 
d="M892.4 -150.181c11.4814 -15.6211 22.7266 -43.5312 0.365234 -55.0234c-21.7188 -11.1553 -53.0029 17.9258 -64.291 33.2715c-25.9717 35.3115 -103.549 21.8516 -140.369 15.9785c-63.8936 -10.1973 -127.42 -26.8994 -189.069 -46.3447
c-126.868 -40.0322 -248.067 -96.7061 -360.1 -168.431c-29.8662 -19.1191 -81.8594 27.4189 -87.1104 58.6416c-2.30469 7.52539 -2.58984 14.8164 0.0712891 21.1484l223.77 532.395c69.165 164.535 158.01 334.067 180.759 513.103
c2.89551 22.7393 5.2207 45.917 4.86426 68.8701c0.0820312 8.03516 -0.356445 16.04 -1.31543 24.0244c-0.367188 15.8252 -2.87598 17.7217 -7.5459 5.69922c-28.5713 -3.41602 -66.2793 -43.5508 -86.0098 -62.0371c-47.2725 -44.3154 -85.3779 -97.665 -113.99 -155.675
c-47.6602 -96.6348 -78.3525 -211.063 -62.9551 -319.221c3.84375 -27.0625 -29.9795 -23.208 -44.6123 -16.1514c-24.2178 11.6758 -42.5312 35.8018 -46.2939 62.2217c-16.1006 113.154 15.7236 236.739 65.5762 337.83c27.001 54.7471 61.2822 106.812 103.497 151.015
c36.79 38.5137 95.3193 95.2998 151.983 96.248c58.9678 0.989258 106.353 -53.0947 122.902 -105.466c20.1797 -63.832 7.01562 -137.82 -6.10742 -201.825c-34.9033 -170.338 -117.038 -331.468 -184.021 -490.833c-50.3516 -119.802 -100.703 -239.594 -151.055 -359.386
c101.162 51.5957 207.453 92.373 318.231 120.23c128.622 32.334 282.196 62.9551 372.825 -60.2832z" />
    <glyph glyph-name="M" unicode="M" horiz-adv-x="1522" 
d="M1413.16 627.315c108.443 -54.2568 39.4766 -190.227 8.29492 -269.119c-32.6914 -82.6553 -68.7373 -164.057 -98.2266 -247.956c-17.9258 -51.0146 -58.998 -143.724 -32.5879 -197.746c9.43164 -19.3027 9.20703 -42.1533 -16.1621 -44.6104
c-24.9717 -2.41699 -52.3398 26.0732 -62.2207 46.2939c-28.582 58.4785 -17.4775 123.851 -1.34668 184.399c23.3809 87.7539 60.1709 171.786 94.4932 255.655c22.4229 54.7871 49.0566 111.145 65.6064 168.838c-10.2783 -6.33203 -20.1689 -13.2969 -29.917 -20.4043
c-40.043 -29.1934 -77.2305 -62.3633 -113.123 -96.4609c-88.5078 -84.1035 -169.98 -176.201 -244.213 -273.091c-65.8301 -85.918 -130.427 -177.638 -168.522 -279.738c-17.1104 -45.835 -90.4355 25.6445 -89.5996 55.3682
c1.8252 64.8818 31.916 129.509 56.3887 188.345c38.7686 93.168 81.7578 184.531 122.249 276.944c54.1758 123.636 126.522 267.686 133.1 406.576c-38.9824 -22.1885 -72.7646 -58.4072 -103.335 -89.7314c-122.106 -125.084 -227.235 -267.696 -329.02 -409.37
c-140.889 -196.084 -273.151 -398.439 -399.062 -604.436c-25.6445 -41.9697 -108.055 30.5908 -88.2832 64.6689c128.307 221.077 257.153 442.929 357.847 678.321c44.6719 104.426 84.6641 211.655 114.194 321.414c7.6377 28.4189 14.7451 57.4189 16.458 86.9082
c0.15332 2.48828 -1.22363 13.2666 -2.37598 23.7998c-6.93359 -0.81543 -14.0205 -1.61035 -20.3428 -3.89453c-39.6348 -14.3057 -74.7012 -39.9502 -107.137 -66.2783c-91.8018 -74.498 -170.929 -168.472 -232.997 -268.859
c-57.4795 -92.9639 -109.697 -204.231 -101.417 -316.172c1.97852 -26.7568 -28.6016 -23.8711 -44.6104 -16.1523c-23.0957 11.1455 -44.3564 36.0664 -46.2939 62.2314c-10.8496 146.589 68.4609 290.292 150.576 405.761
c71.3574 100.337 159.325 198.512 265.953 262.241c80.5547 48.1387 182.676 49.5664 220.23 -54.5732c17.1514 -47.5479 8.73926 -100.418 -1.96777 -148.445c-16.9473 -76.0479 -41.8984 -151.056 -69.9805 -224.503c93.5557 125.92 192.475 261.181 316.151 357.714
c30.998 24.1973 70.042 52.2891 111.655 41.8066c47.9043 -12.0625 78.8721 -59.9463 84.1338 -106.678c6.92383 -61.5068 -11.9609 -128.5 -28.3271 -187.029c-24.625 -88.0898 -60.334 -172.988 -96.7568 -256.775c66.3203 76.7002 137.382 150.056 215.051 214.774
c47.6396 39.6963 127.634 113.888 195.442 79.9629zM1067.36 794.078c4.08887 -1.41699 4.95605 4.27246 0 0zM622.054 855.728c3.36523 -4.05859 4.2627 1.24414 0 0zM1036.3 823.414c-0.112305 -0.213867 3.49707 0.733398 -0.398438 1.51855
c-0.886719 0.183594 -0.611328 -0.540039 0.37793 -1.79395c0.0205078 0.0615234 0.0107422 0.245117 0.0205078 0.275391zM1382.25 583.819c-1.10156 -0.408203 -0.763672 -1.6416 0.398438 -3.32422c0.101562 2.16211 0.00976562 3.47754 -0.398438 3.32422z" />
    <glyph glyph-name="N" unicode="N" horiz-adv-x="1283" 
d="M1097.64 778.84c120.189 23.9521 144.375 -123.431 133.465 -208.044c-11.6855 -90.5986 -37.708 -179.239 -65.29 -266.065c-20.6279 -64.9639 -43.1631 -129.326 -66.6465 -193.312c-25.8486 -70.4189 -86.2646 -172.784 -55.2158 -248.699
c27.7559 -67.8496 -60.9561 -40.9404 -78.3828 1.68262c-32.9766 80.6162 -14.3066 153.299 15.4375 231.854c27.8984 73.6621 55.0322 147.619 79.9639 222.352c32.0889 96.1963 64.2598 195.146 78.8516 295.84c3.36523 23.2285 5.44531 46.9258 4.49707 70.4395
c-9.62598 -3.44629 -18.9355 -7.41309 -28.1533 -12.6641c-100.397 -57.2344 -182.665 -157.907 -257.57 -243.581c-203.712 -232.986 -391.7 -487.121 -552.677 -751.575c-25.4609 -41.8477 -107.065 29.6318 -88.2832 64.668
c166.341 310.207 309.096 629.622 436.087 957.775c16.5693 42.8164 36.5244 85.8262 48.6895 130.131c3.86426 14.0713 7.1582 28.8057 6.87305 43.499c-9.61523 -1.31543 -18.8838 -4.01758 -27.7959 -8.11621c-82.8896 -31.2842 -163.057 -98.5215 -231.049 -154.125
c-65.5352 -53.6045 -126.675 -112.604 -182.533 -176.231c-55.9092 -63.71 -146.314 -154.809 -125.309 -247.772c14.3672 -63.5869 -78.6582 -14.3975 -87.4883 24.6768c-20.6992 91.6592 24.5947 167.156 79.4326 237.259
c55.6338 71.1123 117.804 137.197 185.112 197.358c63.1279 56.4189 130.916 107.638 202.446 152.932c57.8262 36.6162 124.493 86.2949 194.811 54.2666c157.571 -71.7549 44.6006 -269.083 2.25293 -377.281c-37.3506 -95.4316 -76.4141 -189.956 -116.937 -283.787
c77.4756 100.133 158.081 198.032 244.54 290.354c64.168 68.5225 152.9 176.639 250.871 196.166zM1140.29 713.96c0.0302734 -0.0302734 0.0615234 -0.0810547 0.0917969 -0.101562c-0.12207 0.550781 -0.142578 0.489258 -0.0917969 0.101562z" />
    <glyph glyph-name="N" unicode="&#xd1;" horiz-adv-x="1283" 
d="M1097.64 778.84c120.189 23.9521 144.375 -123.431 133.465 -208.044c-11.6855 -90.5986 -37.708 -179.239 -65.29 -266.065c-20.6279 -64.9639 -43.1631 -129.326 -66.6465 -193.312c-25.8486 -70.4189 -86.2646 -172.784 -55.2158 -248.699
c27.7559 -67.8496 -60.9561 -40.9404 -78.3828 1.68262c-32.9766 80.6162 -14.3066 153.299 15.4375 231.854c27.8984 73.6621 55.0322 147.619 79.9639 222.352c32.0889 96.1963 64.2598 195.146 78.8516 295.84c3.36523 23.2285 5.44531 46.9258 4.49707 70.4395
c-9.62598 -3.44629 -18.9355 -7.41309 -28.1533 -12.6641c-100.397 -57.2344 -182.665 -157.907 -257.57 -243.581c-203.712 -232.986 -391.7 -487.121 -552.677 -751.575c-25.4609 -41.8477 -107.065 29.6318 -88.2832 64.668
c166.341 310.207 309.096 629.622 436.087 957.775c16.5693 42.8164 36.5244 85.8262 48.6895 130.131c3.86426 14.0713 7.1582 28.8057 6.87305 43.499c-9.61523 -1.31543 -18.8838 -4.01758 -27.7959 -8.11621c-82.8896 -31.2842 -163.057 -98.5215 -231.049 -154.125
c-65.5352 -53.6045 -126.675 -112.604 -182.533 -176.231c-55.9092 -63.71 -146.314 -154.809 -125.309 -247.772c14.3672 -63.5869 -78.6582 -14.3975 -87.4883 24.6768c-20.6992 91.6592 24.5947 167.156 79.4326 237.259
c55.6338 71.1123 117.804 137.197 185.112 197.358c63.1279 56.4189 130.916 107.638 202.446 152.932c57.8262 36.6162 124.493 86.2949 194.811 54.2666c157.571 -71.7549 44.6006 -269.083 2.25293 -377.281c-37.3506 -95.4316 -76.4141 -189.956 -116.937 -283.787
c77.4756 100.133 158.081 198.032 244.54 290.354c64.168 68.5225 152.9 176.639 250.871 196.166zM1140.29 713.96c0.0302734 -0.0302734 0.0615234 -0.0810547 0.0917969 -0.101562c-0.12207 0.550781 -0.142578 0.489258 -0.0917969 0.101562z" />
    <glyph glyph-name="O" unicode="O" horiz-adv-x="781" 
d="M587.997 845.567c162.363 -166.667 170.339 -402.598 103.896 -614.405c-55.8271 -177.965 -147.486 -411.063 -316.009 -511.747c-82.8896 -49.5254 -170.205 -27.7148 -233.252 42.2246c-65.7998 72.999 -90.415 177.648 -92.4648 273.58
c-4.25195 199.837 73.0908 406.475 175.109 575.415c51.7998 85.7959 112.716 165.83 183.094 237.259c64.6982 65.6777 136.392 120.995 230.528 130.702c39.2783 4.04785 101.336 -85.2051 46.0693 -90.9053c-37.1875 -3.83398 -70.9082 -17.9258 -101.906 -37.5137
c1.83496 -1.60059 3.51758 -3.16113 4.93457 -4.60938zM616.601 340.604c40.542 151.963 44.4482 339.973 -73.0186 460.56c-2.92676 2.9873 -6.46484 7.12695 -9.90137 11.8994c-26.9502 -23.4326 -51.6777 -49.6592 -74.7119 -74.7129
c-61.9658 -67.3809 -116.906 -141.624 -162.323 -221.139c-80.0752 -140.216 -141.267 -302.742 -153.728 -464.719c-5.94434 -77.21 -5.07715 -181.9 45.0508 -246.385c58.2031 -74.8955 163.689 29.9482 204.67 76.0684c110.554 124.432 181.462 299.134 223.962 458.428z
" />
    <glyph glyph-name="O" unicode="&#xd8;" horiz-adv-x="781" 
d="M587.997 845.567c162.363 -166.667 170.339 -402.598 103.896 -614.405c-55.8271 -177.965 -147.486 -411.063 -316.009 -511.747c-82.8896 -49.5254 -170.205 -27.7148 -233.252 42.2246c-65.7998 72.999 -90.415 177.648 -92.4648 273.58
c-4.25195 199.837 73.0908 406.475 175.109 575.415c51.7998 85.7959 112.716 165.83 183.094 237.259c64.6982 65.6777 136.392 120.995 230.528 130.702c39.2783 4.04785 101.336 -85.2051 46.0693 -90.9053c-37.1875 -3.83398 -70.9082 -17.9258 -101.906 -37.5137
c1.83496 -1.60059 3.51758 -3.16113 4.93457 -4.60938zM616.601 340.604c40.542 151.963 44.4482 339.973 -73.0186 460.56c-2.92676 2.9873 -6.46484 7.12695 -9.90137 11.8994c-26.9502 -23.4326 -51.6777 -49.6592 -74.7119 -74.7129
c-61.9658 -67.3809 -116.906 -141.624 -162.323 -221.139c-80.0752 -140.216 -141.267 -302.742 -153.728 -464.719c-5.94434 -77.21 -5.07715 -181.9 45.0508 -246.385c58.2031 -74.8955 163.689 29.9482 204.67 76.0684c110.554 124.432 181.462 299.134 223.962 458.428z
" />
    <glyph glyph-name="O" unicode="&#xd6;" horiz-adv-x="781" 
d="M587.997 845.567c162.363 -166.667 170.339 -402.598 103.896 -614.405c-55.8271 -177.965 -147.486 -411.063 -316.009 -511.747c-82.8896 -49.5254 -170.205 -27.7148 -233.252 42.2246c-65.7998 72.999 -90.415 177.648 -92.4648 273.58
c-4.25195 199.837 73.0908 406.475 175.109 575.415c51.7998 85.7959 112.716 165.83 183.094 237.259c64.6982 65.6777 136.392 120.995 230.528 130.702c39.2783 4.04785 101.336 -85.2051 46.0693 -90.9053c-37.1875 -3.83398 -70.9082 -17.9258 -101.906 -37.5137
c1.83496 -1.60059 3.51758 -3.16113 4.93457 -4.60938zM616.601 340.604c40.542 151.963 44.4482 339.973 -73.0186 460.56c-2.92676 2.9873 -6.46484 7.12695 -9.90137 11.8994c-26.9502 -23.4326 -51.6777 -49.6592 -74.7119 -74.7129
c-61.9658 -67.3809 -116.906 -141.624 -162.323 -221.139c-80.0752 -140.216 -141.267 -302.742 -153.728 -464.719c-5.94434 -77.21 -5.07715 -181.9 45.0508 -246.385c58.2031 -74.8955 163.689 29.9482 204.67 76.0684c110.554 124.432 181.462 299.134 223.962 458.428z
" />
    <glyph glyph-name="O" unicode="&#xd5;" horiz-adv-x="781" 
d="M587.997 845.567c162.363 -166.667 170.339 -402.598 103.896 -614.405c-55.8271 -177.965 -147.486 -411.063 -316.009 -511.747c-82.8896 -49.5254 -170.205 -27.7148 -233.252 42.2246c-65.7998 72.999 -90.415 177.648 -92.4648 273.58
c-4.25195 199.837 73.0908 406.475 175.109 575.415c51.7998 85.7959 112.716 165.83 183.094 237.259c64.6982 65.6777 136.392 120.995 230.528 130.702c39.2783 4.04785 101.336 -85.2051 46.0693 -90.9053c-37.1875 -3.83398 -70.9082 -17.9258 -101.906 -37.5137
c1.83496 -1.60059 3.51758 -3.16113 4.93457 -4.60938zM616.601 340.604c40.542 151.963 44.4482 339.973 -73.0186 460.56c-2.92676 2.9873 -6.46484 7.12695 -9.90137 11.8994c-26.9502 -23.4326 -51.6777 -49.6592 -74.7119 -74.7129
c-61.9658 -67.3809 -116.906 -141.624 -162.323 -221.139c-80.0752 -140.216 -141.267 -302.742 -153.728 -464.719c-5.94434 -77.21 -5.07715 -181.9 45.0508 -246.385c58.2031 -74.8955 163.689 29.9482 204.67 76.0684c110.554 124.432 181.462 299.134 223.962 458.428z
" />
    <glyph glyph-name="O" unicode="&#xd4;" horiz-adv-x="781" 
d="M587.997 845.567c162.363 -166.667 170.339 -402.598 103.896 -614.405c-55.8271 -177.965 -147.486 -411.063 -316.009 -511.747c-82.8896 -49.5254 -170.205 -27.7148 -233.252 42.2246c-65.7998 72.999 -90.415 177.648 -92.4648 273.58
c-4.25195 199.837 73.0908 406.475 175.109 575.415c51.7998 85.7959 112.716 165.83 183.094 237.259c64.6982 65.6777 136.392 120.995 230.528 130.702c39.2783 4.04785 101.336 -85.2051 46.0693 -90.9053c-37.1875 -3.83398 -70.9082 -17.9258 -101.906 -37.5137
c1.83496 -1.60059 3.51758 -3.16113 4.93457 -4.60938zM616.601 340.604c40.542 151.963 44.4482 339.973 -73.0186 460.56c-2.92676 2.9873 -6.46484 7.12695 -9.90137 11.8994c-26.9502 -23.4326 -51.6777 -49.6592 -74.7119 -74.7129
c-61.9658 -67.3809 -116.906 -141.624 -162.323 -221.139c-80.0752 -140.216 -141.267 -302.742 -153.728 -464.719c-5.94434 -77.21 -5.07715 -181.9 45.0508 -246.385c58.2031 -74.8955 163.689 29.9482 204.67 76.0684c110.554 124.432 181.462 299.134 223.962 458.428z
" />
    <glyph glyph-name="O" unicode="&#xd3;" horiz-adv-x="781" 
d="M587.997 845.567c162.363 -166.667 170.339 -402.598 103.896 -614.405c-55.8271 -177.965 -147.486 -411.063 -316.009 -511.747c-82.8896 -49.5254 -170.205 -27.7148 -233.252 42.2246c-65.7998 72.999 -90.415 177.648 -92.4648 273.58
c-4.25195 199.837 73.0908 406.475 175.109 575.415c51.7998 85.7959 112.716 165.83 183.094 237.259c64.6982 65.6777 136.392 120.995 230.528 130.702c39.2783 4.04785 101.336 -85.2051 46.0693 -90.9053c-37.1875 -3.83398 -70.9082 -17.9258 -101.906 -37.5137
c1.83496 -1.60059 3.51758 -3.16113 4.93457 -4.60938zM616.601 340.604c40.542 151.963 44.4482 339.973 -73.0186 460.56c-2.92676 2.9873 -6.46484 7.12695 -9.90137 11.8994c-26.9502 -23.4326 -51.6777 -49.6592 -74.7119 -74.7129
c-61.9658 -67.3809 -116.906 -141.624 -162.323 -221.139c-80.0752 -140.216 -141.267 -302.742 -153.728 -464.719c-5.94434 -77.21 -5.07715 -181.9 45.0508 -246.385c58.2031 -74.8955 163.689 29.9482 204.67 76.0684c110.554 124.432 181.462 299.134 223.962 458.428z
" />
    <glyph glyph-name="O" unicode="&#xd2;" horiz-adv-x="781" 
d="M587.997 845.567c162.363 -166.667 170.339 -402.598 103.896 -614.405c-55.8271 -177.965 -147.486 -411.063 -316.009 -511.747c-82.8896 -49.5254 -170.205 -27.7148 -233.252 42.2246c-65.7998 72.999 -90.415 177.648 -92.4648 273.58
c-4.25195 199.837 73.0908 406.475 175.109 575.415c51.7998 85.7959 112.716 165.83 183.094 237.259c64.6982 65.6777 136.392 120.995 230.528 130.702c39.2783 4.04785 101.336 -85.2051 46.0693 -90.9053c-37.1875 -3.83398 -70.9082 -17.9258 -101.906 -37.5137
c1.83496 -1.60059 3.51758 -3.16113 4.93457 -4.60938zM616.601 340.604c40.542 151.963 44.4482 339.973 -73.0186 460.56c-2.92676 2.9873 -6.46484 7.12695 -9.90137 11.8994c-26.9502 -23.4326 -51.6777 -49.6592 -74.7119 -74.7129
c-61.9658 -67.3809 -116.906 -141.624 -162.323 -221.139c-80.0752 -140.216 -141.267 -302.742 -153.728 -464.719c-5.94434 -77.21 -5.07715 -181.9 45.0508 -246.385c58.2031 -74.8955 163.689 29.9482 204.67 76.0684c110.554 124.432 181.462 299.134 223.962 458.428z
" />
    <glyph glyph-name="P" unicode="P" horiz-adv-x="1240" 
d="M1108.2 834.238c140.247 -164.647 81.9062 -393.22 -42.6885 -548.17c-68.0938 -84.6641 -154.409 -153.676 -250.219 -204.568c-79.6367 -42.3066 -180.585 -86.6836 -272.938 -71.623c-38.5439 6.28125 -73.9883 25.4307 -99.8682 52.666
c-34.5361 -127.97 -62.5059 -257.775 -83.7256 -388.978c-6.82129 -42.1738 -94.8711 23.9219 -88.2842 64.668c56.0928 346.864 159.224 684.062 306.771 1002.96c20.2207 43.7139 105.241 -28.041 88.2842 -64.6777
c-42.8877 -92.6885 -81.9004 -186.958 -117.212 -282.522c15.6211 11.2373 31.6709 21.3828 47.7617 30.3252c34.8828 19.3945 107.29 -64.5859 64.667 -88.2832c-73.2539 -40.7363 -154.787 -119.466 -169.021 -206.302
c-4.40527 -26.8682 2.89551 -29.835 28.1738 -31.7822c18.8535 -1.45801 38.1357 0.999023 56.541 4.82324c39.9717 8.32031 79.6885 23.4219 117.07 39.5635c144.284 62.3027 280.534 174.172 353.441 315.326c69.0322 133.64 90.2314 324.941 -70.2148 399.704
c-158.356 73.7734 -349.924 6.90332 -498.521 -60.9668c-73.6104 -33.6191 -143.785 -74.7734 -205.629 -127.216c-30.4883 -25.8594 -58.9268 -54.2471 -84.0615 -85.3574c-12.2568 -15.1631 -24.3193 -30.8555 -34.3428 -47.5889
c-2.9668 -4.95605 -22.2695 -38.1055 -21.0254 -40.0938c39.5742 -63.2715 -33.9648 -69.6143 -63.9131 -21.7402c-63.4746 101.488 44.1631 204.904 117.906 268.92c91.8838 79.7598 202.998 136.332 316.479 178.435c203.079 75.3545 450.28 93.6172 604.568 -87.5186z
" />
    <glyph glyph-name="Q" unicode="Q" horiz-adv-x="942" 
d="M809.624 216.436c-46.6201 -104.629 -112.674 -201.658 -194.778 -281.621c-13.2148 -12.8789 -27.0625 -25.6348 -41.3994 -38.0752c2.91602 -103.712 59.2227 -201.979 162.221 -237.953c23.3408 -8.14746 51.2803 -30.1523 56.083 -56.083
c3.88477 -20.9854 -7.57617 -39.7275 -31.4062 -31.4072c-122.372 42.7344 -223.33 145.569 -261.64 268.4c-53.0537 -34.7715 -111.44 -60.5898 -173.916 -67.2383c-110.778 -11.7773 -208.545 58.6523 -249.006 159.601
c-42.1123 105.067 -24.6963 226.43 -3.51758 334.353c44.4072 226.308 154.176 437.442 310.625 606.25c32.334 45.3447 70.0312 84.9795 113.378 112.593c111.176 70.8271 249.475 -4.53711 315.672 -102.172c126.889 -187.152 84.3779 -472.061 -2.31543 -666.646z
M527.562 2.48047c86.9277 82.5732 155.748 188.735 199.88 292.631c36.5049 85.959 60.4873 177.894 67.2783 271.153c6.72949 92.4443 5.92383 203.59 -41.3691 286.235c-25.166 43.9688 -70.46 73.4473 -122.494 70.1025
c-49.5566 -3.18164 -86.7646 -37.0244 -118.079 -72.5605c-0.999023 -4.03809 -2.95703 -7.72949 -6.16895 -10.8604c-5.68945 -5.54688 -11.1855 -11.2568 -16.7637 -16.9062c-61.0479 -76.6797 -105.832 -164.291 -136.065 -257.541
c-7.41309 -22.8613 -34.4248 -15 -56.8682 3.2832c-55.0322 -96.5742 -96.9307 -200.653 -123.819 -309.698c-22.6572 -91.8838 -42.3574 -194.77 -27.2354 -289.457c7.6582 -47.9043 24.6357 -92.9639 76.4248 -104.578c45.875 -10.2988 96.3896 5.50586 138.074 23.8701
c43.3564 19.1084 84.2148 44.835 122.27 75.1602c0.376953 7.73926 0.916992 15.4893 1.82422 23.2695c2.93652 25.1143 22.7285 26.0117 43.1123 15.8965z" />
    <glyph glyph-name="R" unicode="R" horiz-adv-x="1125" 
d="M585.064 172.763c-36.5049 -11.084 -74.9062 -23.5 -113.48 -30.8418c-4.85352 -13.1025 -9.46289 -26.2871 -14.1025 -39.4609c74.7217 -60.2734 156.234 -113.012 237.574 -159.193c176.181 -100.03 377.078 -177.883 582.859 -162.914
c27.1436 1.97852 21.8008 -30.8242 13.8066 -45.3955c-12.7871 -23.2998 -38.0547 -41.042 -64.5664 -42.9688c-211.268 -15.3662 -420.353 63.751 -601.305 166.494c-69.3174 39.3594 -139.022 83.2871 -204.863 132.334
c-20.1182 -66.5439 -37.7686 -133.904 -52.5742 -202.009c-9.36035 -43.0508 -97.0635 24.2783 -88.2842 64.668c15.2031 69.9395 33.4346 138.972 54.2568 207.117c-41.0723 36.0352 -79.5244 74.5176 -114.03 115.672c-28.1533 33.5781 55.9902 107.698 83.3584 75.0479
c4.82324 -5.75098 9.80957 -11.3896 14.7852 -17.0391c21.3418 -9.15625 46.0693 -11.2979 72.1934 -9.0957c72.418 190.456 166.892 372.193 281.656 541.99c22.4023 33.1494 104.456 -42.1133 79.3105 -79.3115c-91.8428 -135.893 -170.062 -280.075 -234.058 -430.325
c23.4424 8.40234 45.2734 16.8047 63.9033 23.0449c86.1523 28.877 170.653 63.1484 251.453 104.812c142.144 73.2842 273.264 172.091 370.46 300.183c38.5332 50.7803 111.461 167.452 27.9795 211.217c-61.3848 32.1709 -139.696 27.6533 -206.516 23.4014
c-173.927 -11.0732 -345.56 -55.4902 -504.263 -127.266c-80.8506 -36.5557 -158.377 -80.3105 -231.019 -131.295c-46.752 -32.8027 -178.913 -115.173 -148.629 -188.651c27.9395 -67.7783 -60.8438 -40.8691 -78.3818 1.68164
c-47.3438 114.856 48.1191 194.738 133.69 256.337c95.1562 68.4922 198.521 126.033 306.954 170.624c180.677 74.2832 401.846 131.212 598.746 108.81c80.1064 -9.11621 160.814 -38.126 212.451 -103.141c62.1084 -78.209 51.9521 -170.327 1.97754 -252.167
c-101.887 -166.87 -274.62 -287.855 -447.333 -372.377c-91.3018 -44.6719 -186.815 -80.4727 -284.012 -109.982z" />
    <glyph glyph-name="S" unicode="S" horiz-adv-x="1381" 
d="M1431.53 206.891c7.06641 -15.1221 10.4629 -48.0059 -16.1504 -44.6201c-154.502 19.6699 -316.091 -74.7627 -441.124 -154.594c-6.00586 -3.83398 -11.8789 -7.88184 -17.8438 -11.7773c6.17969 -5.65918 12.1348 -11.584 17.5898 -18.1611
c70.2861 -84.8271 -7.30176 -152.31 -76.6602 -203.518c-85.3574 -63.0059 -182.492 -106.118 -286.214 -127.96c-34.5166 -7.27051 -77.4961 33.0068 -77.792 67.1768c-0.81543 96.3799 77.374 159.457 145.621 215.814c25.9814 21.4541 52.585 42.1533 79.5049 62.4551
c-0.163086 0.0410156 -0.316406 0.0712891 -0.479492 0.112305c-76.6699 18.8438 -153.34 37.6768 -230.02 56.5205c-176.833 43.4482 -438.941 99.8672 -474.956 316.62c-18.6299 112.145 52.5947 209.585 128 284.379c83.1855 82.5332 178.016 152.952 278.994 212.165
c103.386 60.6201 214.479 108.229 329.825 140.838c100.938 28.541 237.26 69.7568 340.227 34.0273c89.6807 -31.1309 148.944 -121.831 159.232 -213.653c13.2764 -118.426 -60.1299 -220.322 -127.164 -310.248c-24.4824 -32.8545 -105.976 43.54 -79.3105 79.3105
c63.4551 85.123 165.586 221.699 97.1963 332.375c-34.0674 55.1133 -126.461 31.793 -178.771 23.0029c-57.7139 -9.70703 -114.785 -23.2178 -170.796 -40.1855c-208.26 -63.0674 -401.152 -174.376 -558.122 -325.288
c-69.5928 -66.9111 -165.219 -173.732 -122.494 -279.146c30.8857 -76.2002 133.303 -107.933 204.874 -128.999c111.91 -32.9355 227.012 -56.9697 340.277 -84.8066c46.4873 -11.4209 100.112 -19.4971 150.26 -34.6396c16.4375 11.1758 32.9668 22.209 49.71 32.9053
c135.271 86.459 306.78 187.52 474.364 166.188c26.165 -3.33398 50.9941 -22.2793 62.2207 -46.293zM897.928 -77.1914c19.792 20.0977 25.7061 22.8809 -0.183594 33.3018c-42.6123 -29.958 -84.2764 -61.3027 -124.717 -94.0957
c-31.9258 -25.8994 -72.1729 -55.2559 -102.794 -89.8945c84.8779 34.21 162.476 84.46 227.694 150.688z" />
    <glyph glyph-name="T" unicode="T" horiz-adv-x="748" 
d="M1408.49 841.887c42.8574 -17.2119 69.6738 -105.686 1.68164 -78.3789c-192.668 77.3838 -421.637 56.7656 -624.94 53.7471c-39.543 -0.591797 -79.0859 -1.47852 -118.619 -2.50879c18.4863 -17.0488 31.2529 -40.665 22.9932 -56.7559
c-161.119 -313.756 -269.144 -653.31 -315.886 -1003.05c-7.43359 -55.5928 -96.0742 7.35156 -90.9043 46.0684c47.1699 352.952 151.973 694.29 313.521 1011.69c-159.631 -5.2207 -319.14 -13.9287 -478.414 -26.043c-39.4102 -2.9873 -101.162 86.7139 -46.0684 90.9043
c235.546 17.9053 471.581 28.5 707.8 31.1201c210.615 2.33496 429.815 13.1436 628.837 -66.7891z" />
    <glyph glyph-name="U" unicode="U" horiz-adv-x="1251" 
d="M1151 774.659c29.6221 -13.0625 59.5684 -51.1777 46.7305 -72.9785c-116.264 -247.548 -242.163 -495.697 -331.874 -754.635c-30.3359 -87.5703 -54.2988 -172.214 -24.9932 -249.995c9.19727 -24.4014 -10.8086 -35.2197 -31.4062 -31.4062
c-26.5732 4.9248 -47.2217 32.5586 -56.083 56.083c-11.6553 30.9268 -18.1709 63.8828 -18.0693 96.9922c0.295898 98.8887 42.2256 198.276 78.0469 288.426c22.1475 55.7666 45.3047 111.146 69.1553 166.239c-167.034 -184.338 -359.958 -344.509 -574.488 -475.426
c-20.6592 -12.6035 -53.7275 19.6797 -64.291 33.2725c-48.4551 62.3633 -18.2109 124.574 12.1855 187.244c38.4014 79.1582 80.5039 156.45 122.668 233.64c80.9727 148.241 163.435 296.972 220.078 456.633c13.5615 38.2178 25.5938 76.9756 35.7295 116.254
c4.93555 19.1084 7.99414 38.6553 12.0732 57.876c-8.01465 -2.75293 -15.8457 -5.93457 -23.4424 -9.70703c-70.6436 -32.4561 -136.79 -76.6289 -197.665 -124.707c-63.5059 -50.1475 -121.658 -107.138 -173.121 -169.562
c-43.2246 -52.4316 -142.919 -159.305 -105.486 -231.427c9.97266 -19.1904 8.82031 -42.1846 -16.1514 -44.6113c-25.3496 -2.45703 -51.7998 26.2061 -62.2207 46.2939c-38.8193 74.7832 -10.4619 145.365 32.5479 211.399
c45.5898 70.001 99.7959 134.659 159.865 192.658c52.4014 50.5967 109.636 96.1768 170.674 135.903c51.2793 33.3848 113.438 79.6377 175.323 87.7236c60.4365 7.90234 117.264 -38.2793 130.285 -96.6045c14.1738 -63.3936 -19.333 -143.897 -38.8799 -203.304
c-49.2305 -149.598 -122.535 -289.682 -197.553 -427.645c-37.8604 -69.6338 -76.3535 -138.921 -112.939 -209.238c-15.3975 -29.5908 -30.3252 -59.4268 -44.8555 -89.4561c311.563 210.992 575.671 491.435 766.605 815.754
c7.42285 15.8154 23.2988 16.4375 39.7051 9.12598c0.408203 -0.163086 0.816406 -0.356445 1.22461 -0.540039c0.204102 -0.0917969 0.417969 -0.173828 0.62207 -0.275391z" />
    <glyph glyph-name="U" unicode="&#xdc;" horiz-adv-x="1251" 
d="M1151 774.659c29.6221 -13.0625 59.5684 -51.1777 46.7305 -72.9785c-116.264 -247.548 -242.163 -495.697 -331.874 -754.635c-30.3359 -87.5703 -54.2988 -172.214 -24.9932 -249.995c9.19727 -24.4014 -10.8086 -35.2197 -31.4062 -31.4062
c-26.5732 4.9248 -47.2217 32.5586 -56.083 56.083c-11.6553 30.9268 -18.1709 63.8828 -18.0693 96.9922c0.295898 98.8887 42.2256 198.276 78.0469 288.426c22.1475 55.7666 45.3047 111.146 69.1553 166.239c-167.034 -184.338 -359.958 -344.509 -574.488 -475.426
c-20.6592 -12.6035 -53.7275 19.6797 -64.291 33.2725c-48.4551 62.3633 -18.2109 124.574 12.1855 187.244c38.4014 79.1582 80.5039 156.45 122.668 233.64c80.9727 148.241 163.435 296.972 220.078 456.633c13.5615 38.2178 25.5938 76.9756 35.7295 116.254
c4.93555 19.1084 7.99414 38.6553 12.0732 57.876c-8.01465 -2.75293 -15.8457 -5.93457 -23.4424 -9.70703c-70.6436 -32.4561 -136.79 -76.6289 -197.665 -124.707c-63.5059 -50.1475 -121.658 -107.138 -173.121 -169.562
c-43.2246 -52.4316 -142.919 -159.305 -105.486 -231.427c9.97266 -19.1904 8.82031 -42.1846 -16.1514 -44.6113c-25.3496 -2.45703 -51.7998 26.2061 -62.2207 46.2939c-38.8193 74.7832 -10.4619 145.365 32.5479 211.399
c45.5898 70.001 99.7959 134.659 159.865 192.658c52.4014 50.5967 109.636 96.1768 170.674 135.903c51.2793 33.3848 113.438 79.6377 175.323 87.7236c60.4365 7.90234 117.264 -38.2793 130.285 -96.6045c14.1738 -63.3936 -19.333 -143.897 -38.8799 -203.304
c-49.2305 -149.598 -122.535 -289.682 -197.553 -427.645c-37.8604 -69.6338 -76.3535 -138.921 -112.939 -209.238c-15.3975 -29.5908 -30.3252 -59.4268 -44.8555 -89.4561c311.563 210.992 575.671 491.435 766.605 815.754
c7.42285 15.8154 23.2988 16.4375 39.7051 9.12598c0.408203 -0.163086 0.816406 -0.356445 1.22461 -0.540039c0.204102 -0.0917969 0.417969 -0.173828 0.62207 -0.275391z" />
    <glyph glyph-name="U" unicode="&#xdb;" horiz-adv-x="1251" 
d="M1151 774.659c29.6221 -13.0625 59.5684 -51.1777 46.7305 -72.9785c-116.264 -247.548 -242.163 -495.697 -331.874 -754.635c-30.3359 -87.5703 -54.2988 -172.214 -24.9932 -249.995c9.19727 -24.4014 -10.8086 -35.2197 -31.4062 -31.4062
c-26.5732 4.9248 -47.2217 32.5586 -56.083 56.083c-11.6553 30.9268 -18.1709 63.8828 -18.0693 96.9922c0.295898 98.8887 42.2256 198.276 78.0469 288.426c22.1475 55.7666 45.3047 111.146 69.1553 166.239c-167.034 -184.338 -359.958 -344.509 -574.488 -475.426
c-20.6592 -12.6035 -53.7275 19.6797 -64.291 33.2725c-48.4551 62.3633 -18.2109 124.574 12.1855 187.244c38.4014 79.1582 80.5039 156.45 122.668 233.64c80.9727 148.241 163.435 296.972 220.078 456.633c13.5615 38.2178 25.5938 76.9756 35.7295 116.254
c4.93555 19.1084 7.99414 38.6553 12.0732 57.876c-8.01465 -2.75293 -15.8457 -5.93457 -23.4424 -9.70703c-70.6436 -32.4561 -136.79 -76.6289 -197.665 -124.707c-63.5059 -50.1475 -121.658 -107.138 -173.121 -169.562
c-43.2246 -52.4316 -142.919 -159.305 -105.486 -231.427c9.97266 -19.1904 8.82031 -42.1846 -16.1514 -44.6113c-25.3496 -2.45703 -51.7998 26.2061 -62.2207 46.2939c-38.8193 74.7832 -10.4619 145.365 32.5479 211.399
c45.5898 70.001 99.7959 134.659 159.865 192.658c52.4014 50.5967 109.636 96.1768 170.674 135.903c51.2793 33.3848 113.438 79.6377 175.323 87.7236c60.4365 7.90234 117.264 -38.2793 130.285 -96.6045c14.1738 -63.3936 -19.333 -143.897 -38.8799 -203.304
c-49.2305 -149.598 -122.535 -289.682 -197.553 -427.645c-37.8604 -69.6338 -76.3535 -138.921 -112.939 -209.238c-15.3975 -29.5908 -30.3252 -59.4268 -44.8555 -89.4561c311.563 210.992 575.671 491.435 766.605 815.754
c7.42285 15.8154 23.2988 16.4375 39.7051 9.12598c0.408203 -0.163086 0.816406 -0.356445 1.22461 -0.540039c0.204102 -0.0917969 0.417969 -0.173828 0.62207 -0.275391z" />
    <glyph glyph-name="U" unicode="&#xda;" horiz-adv-x="1251" 
d="M1151 774.659c29.6221 -13.0625 59.5684 -51.1777 46.7305 -72.9785c-116.264 -247.548 -242.163 -495.697 -331.874 -754.635c-30.3359 -87.5703 -54.2988 -172.214 -24.9932 -249.995c9.19727 -24.4014 -10.8086 -35.2197 -31.4062 -31.4062
c-26.5732 4.9248 -47.2217 32.5586 -56.083 56.083c-11.6553 30.9268 -18.1709 63.8828 -18.0693 96.9922c0.295898 98.8887 42.2256 198.276 78.0469 288.426c22.1475 55.7666 45.3047 111.146 69.1553 166.239c-167.034 -184.338 -359.958 -344.509 -574.488 -475.426
c-20.6592 -12.6035 -53.7275 19.6797 -64.291 33.2725c-48.4551 62.3633 -18.2109 124.574 12.1855 187.244c38.4014 79.1582 80.5039 156.45 122.668 233.64c80.9727 148.241 163.435 296.972 220.078 456.633c13.5615 38.2178 25.5938 76.9756 35.7295 116.254
c4.93555 19.1084 7.99414 38.6553 12.0732 57.876c-8.01465 -2.75293 -15.8457 -5.93457 -23.4424 -9.70703c-70.6436 -32.4561 -136.79 -76.6289 -197.665 -124.707c-63.5059 -50.1475 -121.658 -107.138 -173.121 -169.562
c-43.2246 -52.4316 -142.919 -159.305 -105.486 -231.427c9.97266 -19.1904 8.82031 -42.1846 -16.1514 -44.6113c-25.3496 -2.45703 -51.7998 26.2061 -62.2207 46.2939c-38.8193 74.7832 -10.4619 145.365 32.5479 211.399
c45.5898 70.001 99.7959 134.659 159.865 192.658c52.4014 50.5967 109.636 96.1768 170.674 135.903c51.2793 33.3848 113.438 79.6377 175.323 87.7236c60.4365 7.90234 117.264 -38.2793 130.285 -96.6045c14.1738 -63.3936 -19.333 -143.897 -38.8799 -203.304
c-49.2305 -149.598 -122.535 -289.682 -197.553 -427.645c-37.8604 -69.6338 -76.3535 -138.921 -112.939 -209.238c-15.3975 -29.5908 -30.3252 -59.4268 -44.8555 -89.4561c311.563 210.992 575.671 491.435 766.605 815.754
c7.42285 15.8154 23.2988 16.4375 39.7051 9.12598c0.408203 -0.163086 0.816406 -0.356445 1.22461 -0.540039c0.204102 -0.0917969 0.417969 -0.173828 0.62207 -0.275391z" />
    <glyph glyph-name="U" unicode="&#xd9;" horiz-adv-x="1251" 
d="M1151 774.659c29.6221 -13.0625 59.5684 -51.1777 46.7305 -72.9785c-116.264 -247.548 -242.163 -495.697 -331.874 -754.635c-30.3359 -87.5703 -54.2988 -172.214 -24.9932 -249.995c9.19727 -24.4014 -10.8086 -35.2197 -31.4062 -31.4062
c-26.5732 4.9248 -47.2217 32.5586 -56.083 56.083c-11.6553 30.9268 -18.1709 63.8828 -18.0693 96.9922c0.295898 98.8887 42.2256 198.276 78.0469 288.426c22.1475 55.7666 45.3047 111.146 69.1553 166.239c-167.034 -184.338 -359.958 -344.509 -574.488 -475.426
c-20.6592 -12.6035 -53.7275 19.6797 -64.291 33.2725c-48.4551 62.3633 -18.2109 124.574 12.1855 187.244c38.4014 79.1582 80.5039 156.45 122.668 233.64c80.9727 148.241 163.435 296.972 220.078 456.633c13.5615 38.2178 25.5938 76.9756 35.7295 116.254
c4.93555 19.1084 7.99414 38.6553 12.0732 57.876c-8.01465 -2.75293 -15.8457 -5.93457 -23.4424 -9.70703c-70.6436 -32.4561 -136.79 -76.6289 -197.665 -124.707c-63.5059 -50.1475 -121.658 -107.138 -173.121 -169.562
c-43.2246 -52.4316 -142.919 -159.305 -105.486 -231.427c9.97266 -19.1904 8.82031 -42.1846 -16.1514 -44.6113c-25.3496 -2.45703 -51.7998 26.2061 -62.2207 46.2939c-38.8193 74.7832 -10.4619 145.365 32.5479 211.399
c45.5898 70.001 99.7959 134.659 159.865 192.658c52.4014 50.5967 109.636 96.1768 170.674 135.903c51.2793 33.3848 113.438 79.6377 175.323 87.7236c60.4365 7.90234 117.264 -38.2793 130.285 -96.6045c14.1738 -63.3936 -19.333 -143.897 -38.8799 -203.304
c-49.2305 -149.598 -122.535 -289.682 -197.553 -427.645c-37.8604 -69.6338 -76.3535 -138.921 -112.939 -209.238c-15.3975 -29.5908 -30.3252 -59.4268 -44.8555 -89.4561c311.563 210.992 575.671 491.435 766.605 815.754
c7.42285 15.8154 23.2988 16.4375 39.7051 9.12598c0.408203 -0.163086 0.816406 -0.356445 1.22461 -0.540039c0.204102 -0.0917969 0.417969 -0.173828 0.62207 -0.275391z" />
    <glyph glyph-name="V" unicode="V" horiz-adv-x="889" 
d="M1056.7 980.277c25.4414 42.2959 108.473 -31.1094 88.2832 -64.6572c-113.603 -188.906 -227.246 -377.955 -350.077 -561.059c-107.964 -160.916 -221.587 -322.78 -353.533 -465.168c-52.8398 -57.0303 -123.688 -127.021 -202.172 -145.396
c-74.0488 -17.3545 -137.085 36.9736 -164.524 101.979c-33.5986 79.5762 -26.7568 176.874 -15.1934 260.294c13.0215 93.9736 36.5654 186.765 64.6172 277.302c55.1748 178.036 134.159 346.691 231.946 505.181c20.5264 33.2725 102.988 -40.9395 79.3115 -79.3096
c-96.1562 -155.838 -172.163 -323.993 -225.635 -499.134c-23.1055 -75.7012 -43.1621 -152.993 -56.2246 -231.101c-7.82129 -46.7217 -12.4502 -94.1572 -11.3896 -141.572c0.458984 -20.4443 -2.91602 -93.0762 16.417 -106.077
c25.2578 -16.9678 99.6846 42.6836 118.1 57.0508c28.6016 22.3203 54.8174 47.5781 79.6768 73.957c53.4414 56.7451 102.08 118.344 149.862 179.861c205.312 264.321 378.312 551.463 550.535 837.85z" />
    <glyph glyph-name="W" unicode="W" horiz-adv-x="1297" 
d="M1155.84 684.407c6.17969 55.542 95.2148 -7.2041 90.9014 -46.0742c-17.3242 -155.776 -60.752 -306.475 -133.517 -445.59c-35.4033 -67.6758 -77.0371 -132.415 -124.218 -192.475c-40.2266 -51.208 -96.4619 -122.841 -164.046 -137.238
c-59.1514 -12.5928 -112.664 37.9326 -131.304 90.0381c-21.291 59.4883 -5.89355 128.316 0.591797 189.304c4.10938 38.6973 8.49414 77.5059 13.46 116.295c-43.0098 -66.4727 -88.0488 -131.65 -135.402 -195.166c-54.5732 -73.2031 -111.94 -144.315 -171.948 -213.134
c-49.8525 -57.1631 -101.265 -116.773 -177.139 -137.523c-33.1191 -9.06543 -79.1475 34.4854 -77.791 67.1768c6.49512 156.582 76.5166 299.888 134.975 442.5c62.5469 152.605 125.104 305.221 187.662 457.836c16.5898 40.4707 33.7715 80.7578 49.791 121.464
c5.58789 14.1943 12.3887 28.5107 15.2236 43.582c0.183594 2.05957 0.367188 4.10938 0.560547 6.16895c-1.27441 -0.15332 -2.54883 -0.306641 -4.07812 -0.388672c-26.8281 -21.0156 -65.9121 -32.915 -95.248 -51.4629
c-28.8262 -18.2314 -56.6025 -38.2168 -83.165 -59.6094c-106.24 -85.5303 -224.91 -208.442 -208.504 -355.837c2.99805 -26.9395 -29.3564 -23.5029 -44.6113 -16.1514c-23.7178 11.4404 -43.3672 35.9023 -46.2939 62.2305
c-18.7109 168.094 116.601 310.839 240.277 404.822c53.8184 40.8994 135.515 107.097 205.271 112.134c64.79 4.68066 121.76 -59.5693 127.735 -120.688c3.75195 -38.2988 -12.4102 -73.5186 -26.543 -108.146c-20.3428 -49.8721 -40.8486 -99.6729 -61.2725 -149.505
c-38.2988 -93.4336 -76.5977 -186.877 -114.896 -280.311c-37.9014 -92.4648 -76.374 -184.735 -113.653 -277.465c-20.1182 -50.0459 -39.1045 -100.479 -52.6357 -152.229c27.8574 25.8086 52.4424 56.083 76.9863 84.5117
c55.6846 64.4951 109.044 131.019 159.977 199.337c103.885 139.329 196.992 286.122 279.606 439.013c3.99707 13.0625 14.541 16.0498 27.0322 12.8271c32.4463 -4.58887 75.3037 -51.4941 61.2529 -77.5059c-35.4033 -115.713 -54.0635 -236.116 -68.4209 -356.021
c-6.80078 -56.7559 -14.04 -113.939 -17.6699 -171.001c-0.652344 -10.2578 -0.948242 -20.3936 -0.397461 -30.6816c0.132812 -2.41699 0.224609 -4.45605 0.295898 -6.28125c0.326172 1.4375 0.794922 2.63086 1.50879 3.18164
c25.6045 19.7305 52.0342 33.415 75.5381 56.7559c174.65 173.458 277.24 429.714 304.108 671.307z" />
    <glyph glyph-name="X" unicode="X" horiz-adv-x="914" 
d="M1279.51 901.109c37.5244 25.1348 112.259 -57.2441 79.3125 -79.2998c-278.852 -186.744 -539.584 -398.919 -779.097 -633.037c76.2314 -171.622 187.01 -322.79 355.838 -427.511c41.6436 -25.8281 -35.5156 -105.68 -69.2061 -84.7764
c-172.979 107.28 -287.784 259.101 -367.462 431.671c-127.908 -130.355 -249.475 -267.044 -363.883 -409.83c-26.0225 -32.4873 -107.036 44.7021 -79.3115 79.3105c124.218 155.012 256.857 302.865 396.921 443.184c-74.7627 205.2 -110.299 430.794 -139.921 642.143
c-5.78125 41.2764 85.5615 102.702 91.5469 59.957c28.2656 -201.642 61.1299 -420.669 130.927 -621.046c229.917 220.781 478.943 421.505 744.335 599.235z" />
    <glyph glyph-name="Y" unicode="Y" horiz-adv-x="1029" 
d="M907.123 734.146c31.957 3.19141 83.8506 -49.041 69.708 -78.0098c-15.2646 -88.9258 -44.6719 -176.088 -74.5693 -260.956c-71.3877 -202.661 -158.999 -413.266 -292.444 -583.685c-45.7832 -58.4688 -105.485 -122.78 -180.462 -141.399
c-47.6084 -11.8184 -89.374 0.0917969 -123.758 35.9336c-54.3799 56.6836 -49.0371 127.235 -25.9512 196.828c14.5811 43.9688 101.233 -25.6445 88.2832 -64.668c-5.1084 -15.4072 -26.2158 -63.6279 -17.3447 -81.1465
c1.86621 -0.560547 5.58789 -1.25391 10.9209 0.561523c17.6504 6.00586 34.4854 10.7676 50.8408 20.2402c35.9434 20.832 66.4111 51.9219 93.4736 82.9707c73.9473 84.8369 129.122 185.571 178.22 286.224c26.8682 55.0732 53.3701 111.981 78.1895 170.113
c-32.293 -40.2871 -66.1875 -79.3203 -102.039 -116.62c-57.5811 -59.9268 -119.445 -115.744 -185.031 -166.779c-56.8066 -44.2129 -120.23 -82.8486 -175.813 -11.6855c-46.5791 59.6514 -3.75293 145.417 18.7412 206.894
c29.7539 81.3096 66.6562 159.733 101.805 238.789c34.9648 78.6279 68.7471 158.184 91.8936 241.227c12.7559 45.7432 27.6025 96.9111 23.7686 144.795c-2.28418 28.5098 -6.55664 40.8584 -36.7803 36.7598c-19.6797 -2.67188 -38.7275 -10.707 -57 -18.1709
c-72.999 -29.8457 -138.605 -75.3232 -193.393 -131.967c-29.7539 -30.7734 -56.7852 -64.8916 -78.79 -101.661c-8.51465 -14.2246 -18.0791 -29.5811 -23.6875 -45.1514c-1.54004 -4.28223 -2.47852 -11.5322 -4.81348 -15.2842
c0.0820312 -0.754883 0.0615234 -1.27539 0.123047 -1.96875c24.4521 -29.3564 35.8213 -72.9375 -9.25879 -63.1484c-57.3369 12.4609 -92.4033 73.9072 -79.1572 129.796c15.2949 64.5459 71.1016 130.04 116.273 176.741c82.9307 85.7549 263.108 222.8 381.463 132.559
c136.933 -104.405 56.2148 -308.535 4.99609 -437.902c-31.8652 -80.4727 -69.3896 -158.539 -103.794 -237.932c-16.04 -37.0039 -31.5088 -74.2734 -45.3662 -112.154c-7.4541 -20.3633 -14.4385 -40.8789 -20.8418 -61.5889
c16.2031 13.2461 30.8965 26.6143 36.3418 31.0293c25.8281 20.9336 51.0547 42.5918 75.6387 64.9639c53.2686 48.4961 103.478 100.316 150.362 154.991c95.7578 111.655 176.088 234.985 240.644 367.095c1.86621 10.8799 9.06543 14.5508 18.6094 13.3682z" />
    <glyph glyph-name="Y" unicode="&#xdd;" horiz-adv-x="1029" 
d="M907.123 734.146c31.957 3.19141 83.8506 -49.041 69.708 -78.0098c-15.2646 -88.9258 -44.6719 -176.088 -74.5693 -260.956c-71.3877 -202.661 -158.999 -413.266 -292.444 -583.685c-45.7832 -58.4688 -105.485 -122.78 -180.462 -141.399
c-47.6084 -11.8184 -89.374 0.0917969 -123.758 35.9336c-54.3799 56.6836 -49.0371 127.235 -25.9512 196.828c14.5811 43.9688 101.233 -25.6445 88.2832 -64.668c-5.1084 -15.4072 -26.2158 -63.6279 -17.3447 -81.1465
c1.86621 -0.560547 5.58789 -1.25391 10.9209 0.561523c17.6504 6.00586 34.4854 10.7676 50.8408 20.2402c35.9434 20.832 66.4111 51.9219 93.4736 82.9707c73.9473 84.8369 129.122 185.571 178.22 286.224c26.8682 55.0732 53.3701 111.981 78.1895 170.113
c-32.293 -40.2871 -66.1875 -79.3203 -102.039 -116.62c-57.5811 -59.9268 -119.445 -115.744 -185.031 -166.779c-56.8066 -44.2129 -120.23 -82.8486 -175.813 -11.6855c-46.5791 59.6514 -3.75293 145.417 18.7412 206.894
c29.7539 81.3096 66.6562 159.733 101.805 238.789c34.9648 78.6279 68.7471 158.184 91.8936 241.227c12.7559 45.7432 27.6025 96.9111 23.7686 144.795c-2.28418 28.5098 -6.55664 40.8584 -36.7803 36.7598c-19.6797 -2.67188 -38.7275 -10.707 -57 -18.1709
c-72.999 -29.8457 -138.605 -75.3232 -193.393 -131.967c-29.7539 -30.7734 -56.7852 -64.8916 -78.79 -101.661c-8.51465 -14.2246 -18.0791 -29.5811 -23.6875 -45.1514c-1.54004 -4.28223 -2.47852 -11.5322 -4.81348 -15.2842
c0.0820312 -0.754883 0.0615234 -1.27539 0.123047 -1.96875c24.4521 -29.3564 35.8213 -72.9375 -9.25879 -63.1484c-57.3369 12.4609 -92.4033 73.9072 -79.1572 129.796c15.2949 64.5459 71.1016 130.04 116.273 176.741c82.9307 85.7549 263.108 222.8 381.463 132.559
c136.933 -104.405 56.2148 -308.535 4.99609 -437.902c-31.8652 -80.4727 -69.3896 -158.539 -103.794 -237.932c-16.04 -37.0039 -31.5088 -74.2734 -45.3662 -112.154c-7.4541 -20.3633 -14.4385 -40.8789 -20.8418 -61.5889
c16.2031 13.2461 30.8965 26.6143 36.3418 31.0293c25.8281 20.9336 51.0547 42.5918 75.6387 64.9639c53.2686 48.4961 103.478 100.316 150.362 154.991c95.7578 111.655 176.088 234.985 240.644 367.095c1.86621 10.8799 9.06543 14.5508 18.6094 13.3682z" />
    <glyph glyph-name="Z" unicode="Z" horiz-adv-x="976" 
d="M1142.77 898.876c43.2852 -19.2109 105.105 -68.7988 83.5186 -123.454c-19.7207 -49.9746 -98.6436 -77.1699 -140.521 -103.783c-192.312 -122.198 -377.21 -257.092 -559.264 -393.953c-86.9375 -65.3516 -173.314 -131.641 -257.051 -201.091
c-3.64062 -3.02832 -7.4541 -6.08691 -11.2168 -9.13574c126.206 10.6963 255.716 2.2334 377.374 -16.7734c166.3 -25.9814 367.289 -80.1465 454.859 -238.91c10.5234 -19.0684 8.39258 -42.2256 -16.1514 -44.6113c-25.7471 -2.49805 -51.2285 26.3584 -62.2207 46.293
c-28.2549 51.2188 -92.5762 79.2803 -144.661 98.8174c-79.5449 29.8252 -164.362 46.3945 -248.547 56.1123c-160.854 18.5781 -334.414 20.5967 -491.547 -23.4639c-36.8203 -10.3291 -95.3604 48.374 -71.9893 83.7979c34.5469 52.3506 94.0957 93.6064 141.715 132.905
c87.7637 72.4277 178.25 141.603 269.338 209.778c169.195 126.634 340.889 251.015 518.466 365.708c44.3662 28.6533 100.326 52.5957 139.89 88.9473c-3.32422 0.907227 -6.6377 1.83496 -9.99219 2.65039c-147.649 35.6787 -317.478 21.6992 -465.902 -0.988281
c-80.4014 -12.2871 -161.323 -29.958 -236.953 -60.4668c-51.0039 -20.5869 -111.776 -49.9736 -138.716 -101.101c-22.749 -43.1836 -106.862 29.4072 -88.2842 64.668c36.8105 69.8584 113.286 107.28 184.562 133.2c95.748 34.8115 197.89 52.0947 298.848 63.0566
c90.5684 9.83008 182.248 13.5107 273.255 8.51465c66.7275 -3.66016 139.318 -9.24805 201.192 -36.7178zM1157.03 815.455c0.683594 -1.00977 1.1123 -1.59961 1.08203 -1.47754c-0.204102 0.81543 -0.224609 1.26367 -0.204102 1.58984
c-0.173828 -0.0917969 -0.469727 -0.12207 -0.87793 -0.112305z" />
    <glyph glyph-name="a" unicode="a" horiz-adv-x="652" 
d="M641.719 218.666c32.5586 29.5508 91.8447 -28.4395 60.4385 -56.9297c-77.9141 -70.7051 -158.499 -140.757 -249.159 -194.841c-41.8174 -24.9512 -91.9756 -52.126 -142.511 -46.2119c-50.8721 5.94434 -93.8311 47.5166 -108.464 95.6455
c-9.74805 32.0996 -5.09863 61.5176 3.80273 90.3232c-91.2207 -60.4775 -166.86 -149.169 -270.593 -189.895c-36.127 -14.1836 -83.8271 43.5098 -76.4756 76.4756c22.7188 101.795 78.1689 207.138 163.353 270.593c67.4922 50.2705 154.858 38.0244 202.926 -25.3994
c9.30957 3.38574 18.8438 6.38379 28.6533 8.91309c11.5938 2.99805 25.4102 -2.11035 38.2178 -11.1553c20.0059 -13.1846 38.4414 -34.9238 39.5322 -52.8398c1.31543 -5.95508 1.05078 -11.3184 -1.1416 -15.5811c-3.45703 -26.9912 -12.4502 -52.2588 -21.668 -78.0664
c-9.53418 -26.665 -13.8066 -51.5146 -18.8848 -77.6494c1.31543 0.183594 2.62109 0.458984 4.00781 0.62207c102.61 12.2568 283.665 147.64 347.966 205.996zM24.7227 104.328c43.8564 36.0557 86.7744 73.5586 134.771 102.396
c-0.509766 0.132812 -0.897461 0.224609 -1.42773 0.367188c-6.56641 -1.11133 -13.1328 -2.21289 -19.6992 -3.32422c-19.0576 -4.49707 -35.4844 -17.6201 -50.1982 -29.9688c-23.0859 -19.3838 -43.4697 -42.7549 -61.5488 -66.7783
c-0.663086 -0.886719 -1.24414 -1.80469 -1.89648 -2.69141z" />
    <glyph glyph-name="a" unicode="&#xe5;" horiz-adv-x="652" 
d="M641.719 218.666c32.5586 29.5508 91.8447 -28.4395 60.4385 -56.9297c-77.9141 -70.7051 -158.499 -140.757 -249.159 -194.841c-41.8174 -24.9512 -91.9756 -52.126 -142.511 -46.2119c-50.8721 5.94434 -93.8311 47.5166 -108.464 95.6455
c-9.74805 32.0996 -5.09863 61.5176 3.80273 90.3232c-91.2207 -60.4775 -166.86 -149.169 -270.593 -189.895c-36.127 -14.1836 -83.8271 43.5098 -76.4756 76.4756c22.7188 101.795 78.1689 207.138 163.353 270.593c67.4922 50.2705 154.858 38.0244 202.926 -25.3994
c9.30957 3.38574 18.8438 6.38379 28.6533 8.91309c11.5938 2.99805 25.4102 -2.11035 38.2178 -11.1553c20.0059 -13.1846 38.4414 -34.9238 39.5322 -52.8398c1.31543 -5.95508 1.05078 -11.3184 -1.1416 -15.5811c-3.45703 -26.9912 -12.4502 -52.2588 -21.668 -78.0664
c-9.53418 -26.665 -13.8066 -51.5146 -18.8848 -77.6494c1.31543 0.183594 2.62109 0.458984 4.00781 0.62207c102.61 12.2568 283.665 147.64 347.966 205.996zM24.7227 104.328c43.8564 36.0557 86.7744 73.5586 134.771 102.396
c-0.509766 0.132812 -0.897461 0.224609 -1.42773 0.367188c-6.56641 -1.11133 -13.1328 -2.21289 -19.6992 -3.32422c-19.0576 -4.49707 -35.4844 -17.6201 -50.1982 -29.9688c-23.0859 -19.3838 -43.4697 -42.7549 -61.5488 -66.7783
c-0.663086 -0.886719 -1.24414 -1.80469 -1.89648 -2.69141z" />
    <glyph glyph-name="a" unicode="&#xe4;" horiz-adv-x="652" 
d="M641.719 218.666c32.5586 29.5508 91.8447 -28.4395 60.4385 -56.9297c-77.9141 -70.7051 -158.499 -140.757 -249.159 -194.841c-41.8174 -24.9512 -91.9756 -52.126 -142.511 -46.2119c-50.8721 5.94434 -93.8311 47.5166 -108.464 95.6455
c-9.74805 32.0996 -5.09863 61.5176 3.80273 90.3232c-91.2207 -60.4775 -166.86 -149.169 -270.593 -189.895c-36.127 -14.1836 -83.8271 43.5098 -76.4756 76.4756c22.7188 101.795 78.1689 207.138 163.353 270.593c67.4922 50.2705 154.858 38.0244 202.926 -25.3994
c9.30957 3.38574 18.8438 6.38379 28.6533 8.91309c11.5938 2.99805 25.4102 -2.11035 38.2178 -11.1553c20.0059 -13.1846 38.4414 -34.9238 39.5322 -52.8398c1.31543 -5.95508 1.05078 -11.3184 -1.1416 -15.5811c-3.45703 -26.9912 -12.4502 -52.2588 -21.668 -78.0664
c-9.53418 -26.665 -13.8066 -51.5146 -18.8848 -77.6494c1.31543 0.183594 2.62109 0.458984 4.00781 0.62207c102.61 12.2568 283.665 147.64 347.966 205.996zM24.7227 104.328c43.8564 36.0557 86.7744 73.5586 134.771 102.396
c-0.509766 0.132812 -0.897461 0.224609 -1.42773 0.367188c-6.56641 -1.11133 -13.1328 -2.21289 -19.6992 -3.32422c-19.0576 -4.49707 -35.4844 -17.6201 -50.1982 -29.9688c-23.0859 -19.3838 -43.4697 -42.7549 -61.5488 -66.7783
c-0.663086 -0.886719 -1.24414 -1.80469 -1.89648 -2.69141z" />
    <glyph glyph-name="a" unicode="&#xe3;" horiz-adv-x="652" 
d="M641.719 218.666c32.5586 29.5508 91.8447 -28.4395 60.4385 -56.9297c-77.9141 -70.7051 -158.499 -140.757 -249.159 -194.841c-41.8174 -24.9512 -91.9756 -52.126 -142.511 -46.2119c-50.8721 5.94434 -93.8311 47.5166 -108.464 95.6455
c-9.74805 32.0996 -5.09863 61.5176 3.80273 90.3232c-91.2207 -60.4775 -166.86 -149.169 -270.593 -189.895c-36.127 -14.1836 -83.8271 43.5098 -76.4756 76.4756c22.7188 101.795 78.1689 207.138 163.353 270.593c67.4922 50.2705 154.858 38.0244 202.926 -25.3994
c9.30957 3.38574 18.8438 6.38379 28.6533 8.91309c11.5938 2.99805 25.4102 -2.11035 38.2178 -11.1553c20.0059 -13.1846 38.4414 -34.9238 39.5322 -52.8398c1.31543 -5.95508 1.05078 -11.3184 -1.1416 -15.5811c-3.45703 -26.9912 -12.4502 -52.2588 -21.668 -78.0664
c-9.53418 -26.665 -13.8066 -51.5146 -18.8848 -77.6494c1.31543 0.183594 2.62109 0.458984 4.00781 0.62207c102.61 12.2568 283.665 147.64 347.966 205.996zM24.7227 104.328c43.8564 36.0557 86.7744 73.5586 134.771 102.396
c-0.509766 0.132812 -0.897461 0.224609 -1.42773 0.367188c-6.56641 -1.11133 -13.1328 -2.21289 -19.6992 -3.32422c-19.0576 -4.49707 -35.4844 -17.6201 -50.1982 -29.9688c-23.0859 -19.3838 -43.4697 -42.7549 -61.5488 -66.7783
c-0.663086 -0.886719 -1.24414 -1.80469 -1.89648 -2.69141z" />
    <glyph glyph-name="a" unicode="&#xe2;" horiz-adv-x="652" 
d="M641.719 218.666c32.5586 29.5508 91.8447 -28.4395 60.4385 -56.9297c-77.9141 -70.7051 -158.499 -140.757 -249.159 -194.841c-41.8174 -24.9512 -91.9756 -52.126 -142.511 -46.2119c-50.8721 5.94434 -93.8311 47.5166 -108.464 95.6455
c-9.74805 32.0996 -5.09863 61.5176 3.80273 90.3232c-91.2207 -60.4775 -166.86 -149.169 -270.593 -189.895c-36.127 -14.1836 -83.8271 43.5098 -76.4756 76.4756c22.7188 101.795 78.1689 207.138 163.353 270.593c67.4922 50.2705 154.858 38.0244 202.926 -25.3994
c9.30957 3.38574 18.8438 6.38379 28.6533 8.91309c11.5938 2.99805 25.4102 -2.11035 38.2178 -11.1553c20.0059 -13.1846 38.4414 -34.9238 39.5322 -52.8398c1.31543 -5.95508 1.05078 -11.3184 -1.1416 -15.5811c-3.45703 -26.9912 -12.4502 -52.2588 -21.668 -78.0664
c-9.53418 -26.665 -13.8066 -51.5146 -18.8848 -77.6494c1.31543 0.183594 2.62109 0.458984 4.00781 0.62207c102.61 12.2568 283.665 147.64 347.966 205.996zM24.7227 104.328c43.8564 36.0557 86.7744 73.5586 134.771 102.396
c-0.509766 0.132812 -0.897461 0.224609 -1.42773 0.367188c-6.56641 -1.11133 -13.1328 -2.21289 -19.6992 -3.32422c-19.0576 -4.49707 -35.4844 -17.6201 -50.1982 -29.9688c-23.0859 -19.3838 -43.4697 -42.7549 -61.5488 -66.7783
c-0.663086 -0.886719 -1.24414 -1.80469 -1.89648 -2.69141z" />
    <glyph glyph-name="a" unicode="&#xe1;" horiz-adv-x="652" 
d="M641.719 218.666c32.5586 29.5508 91.8447 -28.4395 60.4385 -56.9297c-77.9141 -70.7051 -158.499 -140.757 -249.159 -194.841c-41.8174 -24.9512 -91.9756 -52.126 -142.511 -46.2119c-50.8721 5.94434 -93.8311 47.5166 -108.464 95.6455
c-9.74805 32.0996 -5.09863 61.5176 3.80273 90.3232c-91.2207 -60.4775 -166.86 -149.169 -270.593 -189.895c-36.127 -14.1836 -83.8271 43.5098 -76.4756 76.4756c22.7188 101.795 78.1689 207.138 163.353 270.593c67.4922 50.2705 154.858 38.0244 202.926 -25.3994
c9.30957 3.38574 18.8438 6.38379 28.6533 8.91309c11.5938 2.99805 25.4102 -2.11035 38.2178 -11.1553c20.0059 -13.1846 38.4414 -34.9238 39.5322 -52.8398c1.31543 -5.95508 1.05078 -11.3184 -1.1416 -15.5811c-3.45703 -26.9912 -12.4502 -52.2588 -21.668 -78.0664
c-9.53418 -26.665 -13.8066 -51.5146 -18.8848 -77.6494c1.31543 0.183594 2.62109 0.458984 4.00781 0.62207c102.61 12.2568 283.665 147.64 347.966 205.996zM24.7227 104.328c43.8564 36.0557 86.7744 73.5586 134.771 102.396
c-0.509766 0.132812 -0.897461 0.224609 -1.42773 0.367188c-6.56641 -1.11133 -13.1328 -2.21289 -19.6992 -3.32422c-19.0576 -4.49707 -35.4844 -17.6201 -50.1982 -29.9688c-23.0859 -19.3838 -43.4697 -42.7549 -61.5488 -66.7783
c-0.663086 -0.886719 -1.24414 -1.80469 -1.89648 -2.69141z" />
    <glyph glyph-name="a" unicode="&#xe0;" horiz-adv-x="652" 
d="M641.719 218.666c32.5586 29.5508 91.8447 -28.4395 60.4385 -56.9297c-77.9141 -70.7051 -158.499 -140.757 -249.159 -194.841c-41.8174 -24.9512 -91.9756 -52.126 -142.511 -46.2119c-50.8721 5.94434 -93.8311 47.5166 -108.464 95.6455
c-9.74805 32.0996 -5.09863 61.5176 3.80273 90.3232c-91.2207 -60.4775 -166.86 -149.169 -270.593 -189.895c-36.127 -14.1836 -83.8271 43.5098 -76.4756 76.4756c22.7188 101.795 78.1689 207.138 163.353 270.593c67.4922 50.2705 154.858 38.0244 202.926 -25.3994
c9.30957 3.38574 18.8438 6.38379 28.6533 8.91309c11.5938 2.99805 25.4102 -2.11035 38.2178 -11.1553c20.0059 -13.1846 38.4414 -34.9238 39.5322 -52.8398c1.31543 -5.95508 1.05078 -11.3184 -1.1416 -15.5811c-3.45703 -26.9912 -12.4502 -52.2588 -21.668 -78.0664
c-9.53418 -26.665 -13.8066 -51.5146 -18.8848 -77.6494c1.31543 0.183594 2.62109 0.458984 4.00781 0.62207c102.61 12.2568 283.665 147.64 347.966 205.996zM24.7227 104.328c43.8564 36.0557 86.7744 73.5586 134.771 102.396
c-0.509766 0.132812 -0.897461 0.224609 -1.42773 0.367188c-6.56641 -1.11133 -13.1328 -2.21289 -19.6992 -3.32422c-19.0576 -4.49707 -35.4844 -17.6201 -50.1982 -29.9688c-23.0859 -19.3838 -43.4697 -42.7549 -61.5488 -66.7783
c-0.663086 -0.886719 -1.24414 -1.80469 -1.89648 -2.69141z" />
    <glyph glyph-name="b" unicode="b" horiz-adv-x="439" 
d="M297.213 831.381c25.3496 42.3271 108.421 -31.0488 88.3027 -64.6885c-93.4844 -156.113 -174.987 -322.056 -244.713 -492.424c41.8574 39.7471 91.9131 69.4404 144.437 36.0459c76.415 -48.5977 62.1396 -146.456 40.7871 -221.443
c-23.5645 -82.7676 -87.5186 -153.533 -178.912 -148.832c-39.2676 2.0293 -99.2754 93.6475 -46.0684 90.9043c65.7383 -3.375 111.114 48.1084 131.498 105.985c8.79004 24.9922 10.748 50.709 14.46 76.1504c-7.10742 -5.41406 -15.3877 -10.584 -20.751 -15.499
c-91.21 -83.5527 -167.574 -187.01 -218.803 -299.603c-3.55859 -11.7979 -12.4805 -15.3672 -23.3506 -13.5928c-31.5996 2.29395 -77.6484 50.3105 -64.9326 78.2598c90.7412 300.448 216.641 599.194 378.046 868.736z" />
    <glyph glyph-name="c" unicode="c" horiz-adv-x="534" 
d="M522.312 216.749c37.4014 16.4473 77.5156 -40.3574 33.9443 -59.4971l-305.812 -134.414c-79.1172 -34.7715 -179.127 -92.5771 -262.996 -39.9922c-154.043 96.584 5.32324 396.135 170.889 298.541c19.2314 -11.3291 48.8125 -36.3008 46.2939 -62.2207
c-2.31445 -23.8506 -25.9502 -27.1543 -44.6104 -16.1621c-64.8105 38.207 -115.458 -54.9404 -132.619 -102.692c-15.5703 -43.3057 -0.417969 -47.4248 5.84277 -46.8643c80.3301 7.16797 366.554 109.452 489.068 163.302z" />
    <glyph glyph-name="c" unicode="&#xe7;" horiz-adv-x="534" 
d="M522.312 216.749c37.4014 16.4473 77.5156 -40.3574 33.9443 -59.4971l-305.812 -134.414c-79.1172 -34.7715 -179.127 -92.5771 -262.996 -39.9922c-154.043 96.584 5.32324 396.135 170.889 298.541c19.2314 -11.3291 48.8125 -36.3008 46.2939 -62.2207
c-2.31445 -23.8506 -25.9502 -27.1543 -44.6104 -16.1621c-64.8105 38.207 -115.458 -54.9404 -132.619 -102.692c-15.5703 -43.3057 -0.417969 -47.4248 5.84277 -46.8643c80.3301 7.16797 366.554 109.452 489.068 163.302z" />
    <glyph glyph-name="d" unicode="d" horiz-adv-x="551" 
d="M677.724 977.572c28.2861 -8.20801 61.4834 -44.1621 57.7314 -69.2871c-0.367188 -2.47754 -1.09082 -4.85352 -2.22266 -7.08691c-173.825 -343.54 -347.344 -688.478 -471.316 -1053.82c-14.9277 -43.999 -101.479 25.7676 -88.2842 64.668
c25.2061 74.2832 52.5439 147.68 81.4316 220.434c-85.9385 -93.1172 -186.102 -170.267 -310.798 -215.724c-36.3213 -13.2461 -83.9707 42.8975 -76.4756 76.4756c22.7188 101.795 78.1689 207.138 163.353 270.593c59.7842 44.5293 135.067 39.8594 184.92 -5.82227
c6.08789 7.52539 12.1143 15.0605 18.0488 22.5957c164.647 209.248 291.088 448.547 410.85 685.266c0.683594 1.35645 1.42773 2.60059 2.2334 3.73242c4.8125 6.80176 11.6445 9.71777 19.4043 9.71777c0.163086 0 0.336914 -0.0302734 0.5 -0.0302734
c3.40527 -0.0410156 6.97461 -0.652344 10.625 -1.71289zM6.18945 61.7676c62.4863 37.7686 116.876 88.958 165.78 144.062c-1.49902 0.376953 -3.05957 0.774414 -4.88477 1.26367c-6.55664 -1.11133 -13.123 -2.21289 -19.6895 -3.32422
c-19.0684 -4.49707 -35.4951 -17.6201 -50.209 -29.9688c-23.0859 -19.3838 -43.4697 -42.7549 -61.5488 -66.7783c-10.9209 -14.5205 -20.6484 -29.6631 -29.4482 -45.2539z" />
    <glyph glyph-name="e" unicode="e" horiz-adv-x="454" 
d="M444.493 214.414c35.7803 27.6641 91.9131 -32.5898 58.916 -54.1357c-135.22 -88.2529 -277.077 -189.619 -430.62 -244.233c-56.4287 -20.0674 -114.448 -23.9219 -154.379 29.3564c-61.9248 82.625 18.2422 203.957 74.3447 265.546
c50.7695 55.7354 140.797 118.089 208.137 47.7412c96.8086 -101.142 -130.927 -189.181 -192.495 -218.649c-0.15332 -0.0712891 -0.327148 -0.112305 -0.480469 -0.183594c-5.35352 -12.4707 -9.89062 -25.2881 -13.4082 -38.4316
c101.591 13.3066 348.863 134.812 449.985 212.99z" />
    <glyph glyph-name="e" unicode="&#xeb;" horiz-adv-x="454" 
d="M444.493 214.414c35.7803 27.6641 91.9131 -32.5898 58.916 -54.1357c-135.22 -88.2529 -277.077 -189.619 -430.62 -244.233c-56.4287 -20.0674 -114.448 -23.9219 -154.379 29.3564c-61.9248 82.625 18.2422 203.957 74.3447 265.546
c50.7695 55.7354 140.797 118.089 208.137 47.7412c96.8086 -101.142 -130.927 -189.181 -192.495 -218.649c-0.15332 -0.0712891 -0.327148 -0.112305 -0.480469 -0.183594c-5.35352 -12.4707 -9.89062 -25.2881 -13.4082 -38.4316
c101.591 13.3066 348.863 134.812 449.985 212.99z" />
    <glyph glyph-name="e" unicode="&#xea;" horiz-adv-x="454" 
d="M444.493 214.414c35.7803 27.6641 91.9131 -32.5898 58.916 -54.1357c-135.22 -88.2529 -277.077 -189.619 -430.62 -244.233c-56.4287 -20.0674 -114.448 -23.9219 -154.379 29.3564c-61.9248 82.625 18.2422 203.957 74.3447 265.546
c50.7695 55.7354 140.797 118.089 208.137 47.7412c96.8086 -101.142 -130.927 -189.181 -192.495 -218.649c-0.15332 -0.0712891 -0.327148 -0.112305 -0.480469 -0.183594c-5.35352 -12.4707 -9.89062 -25.2881 -13.4082 -38.4316
c101.591 13.3066 348.863 134.812 449.985 212.99z" />
    <glyph glyph-name="e" unicode="&#xe9;" horiz-adv-x="454" 
d="M444.493 214.414c35.7803 27.6641 91.9131 -32.5898 58.916 -54.1357c-135.22 -88.2529 -277.077 -189.619 -430.62 -244.233c-56.4287 -20.0674 -114.448 -23.9219 -154.379 29.3564c-61.9248 82.625 18.2422 203.957 74.3447 265.546
c50.7695 55.7354 140.797 118.089 208.137 47.7412c96.8086 -101.142 -130.927 -189.181 -192.495 -218.649c-0.15332 -0.0712891 -0.327148 -0.112305 -0.480469 -0.183594c-5.35352 -12.4707 -9.89062 -25.2881 -13.4082 -38.4316
c101.591 13.3066 348.863 134.812 449.985 212.99z" />
    <glyph glyph-name="e" unicode="&#xe8;" horiz-adv-x="454" 
d="M444.493 214.414c35.7803 27.6641 91.9131 -32.5898 58.916 -54.1357c-135.22 -88.2529 -277.077 -189.619 -430.62 -244.233c-56.4287 -20.0674 -114.448 -23.9219 -154.379 29.3564c-61.9248 82.625 18.2422 203.957 74.3447 265.546
c50.7695 55.7354 140.797 118.089 208.137 47.7412c96.8086 -101.142 -130.927 -189.181 -192.495 -218.649c-0.15332 -0.0712891 -0.327148 -0.112305 -0.480469 -0.183594c-5.35352 -12.4707 -9.89062 -25.2881 -13.4082 -38.4316
c101.591 13.3066 348.863 134.812 449.985 212.99z" />
    <glyph glyph-name="f" unicode="f" horiz-adv-x="357" 
d="M222.12 68.2627c47.293 -30.9775 40.6562 -104.781 -21.7383 -63.9229c-33.7314 22.0967 -78.3936 13.1338 -117.978 -0.367188c49.1484 -71.6729 44.2744 -168.379 32.7217 -261.14c-15.7441 -126.491 -41.3379 -253.992 -128.837 -351.82
c-9.14648 -10.2168 -28.9688 -5.57715 -38.8193 0.469727c-164.025 100.734 -118.231 322.545 -80.3711 480.045c43.2852 180.034 123.901 348.088 224.33 502.926c21.5459 33.2207 103.793 -41.5625 79.3105 -79.3115
c-40.4102 -62.3027 -77.0781 -127.104 -109.259 -194.035c54.624 8.9834 107.331 2.08008 160.64 -32.8438zM32.4707 -137.313c3.05859 33.6396 12.5312 101.375 -19.7217 125.908c-10.3799 -26.7461 -20.2197 -53.7061 -29.0293 -81.0439
c-25.4209 -78.8516 -44.377 -160.12 -53.9824 -242.459c-3.62988 -31.1816 -19.374 -121.75 -2.3457 -169.613c48.3223 65.168 72.0098 143.133 86.3877 223.198c8.53516 47.5684 14.3271 95.8906 18.6914 144.01z" />
    <glyph glyph-name="g" unicode="g" horiz-adv-x="593" 
d="M586.669 233.961c37.2998 16.5898 86.5107 -59.0498 42.96 -78.4238c-138.952 -61.8027 -267.973 -144.805 -378.394 -248.577c-77.3018 -219.058 -165.565 -434.098 -264.831 -644.305c-21.1582 -44.7949 -79.5244 22.4531 -87.8857 44.6719
c-71.2246 189.201 31.2734 390.099 146.293 539.268c37.0146 48.0068 77.7812 92.6787 121.444 134.251c12.6953 36.127 25.0439 72.3662 37.127 108.697c-84.0117 -56.7451 -156.083 -135.179 -252.147 -172.784c-36.1377 -14.1533 -83.8379 43.4893 -76.4756 76.4756
c22.7188 101.795 78.1689 207.138 163.353 270.593c69.9805 52.126 161.211 36.8916 207.953 -32.7725c3.97656 1.19336 7.97363 2.33496 12.0322 3.38477c34.7402 8.93262 87.6104 -40.542 76.4756 -76.4756c-5.54688 -17.8955 -11.4199 -35.6885 -17.1094 -53.5332
c98.1133 55.5215 182.614 91.0166 269.205 129.53zM38.6533 101.423c46.5684 37.2383 92.25 75.791 144.366 103.425c-2.33496 0.520508 -5.23047 1.23438 -8.97266 2.24414c-6.55664 -1.11133 -13.123 -2.21289 -19.6895 -3.32422
c-19.0684 -4.49707 -35.4951 -17.6201 -50.209 -29.9688c-23.0859 -19.3838 -43.4697 -42.7549 -61.5488 -66.7783c-1.37695 -1.83496 -2.60059 -3.74219 -3.94629 -5.59766zM-9.79199 -468.804c11.7568 27.1641 23.2285 54.4619 34.6289 81.7686
c-13.4395 -26.6133 -25.207 -53.9717 -34.6289 -81.7686z" />
    <glyph glyph-name="h" unicode="h" horiz-adv-x="805" 
d="M796.227 221.848c34.6084 19.6592 82.9912 -40.4746 40.5215 -64.6309c-103.538 -58.8154 -210.054 -134.639 -324.023 -172.255c-64.1279 -21.1582 -138.064 8.93262 -145.019 84.0117c-3.16113 34.0576 9.81934 69.9609 21.1992 101.448
c8.18848 22.668 17.7529 45.2334 24.1768 68.5947c-137.27 -76.8838 -262.456 -176.976 -367.881 -293.576c-12.5928 -13.9395 -39.4004 -1.03027 -50.5254 7.69824c-74.5391 58.499 -63.3936 131.376 -35.1895 212.043c34.5469 98.8174 73.2637 196.177 116.029 291.721
c86.7646 193.82 190.517 379.524 308.229 556.215c22.1064 33.1807 104.222 -41.9082 79.3105 -79.3096c-99.1846 -148.884 -187.703 -304.477 -264.434 -466.096c-38.2988 -80.6562 -73.6924 -162.68 -106.077 -245.896
c-14.2139 -36.5352 -27.7656 -73.3252 -40.8174 -110.289c85.2959 79.1377 179.79 147.568 280.677 206.598c50.3516 29.4688 94.9932 51.3711 143.184 6.03613c38.0342 -35.7803 39.8184 -84.1738 29.6729 -132.221c-8.08594 -38.3096 -25.8076 -74.0898 -37.3809 -111.44
c111.033 33.6494 230.265 85.6328 328.348 141.348z" />
    <glyph glyph-name="i" unicode="i" horiz-adv-x="322" 
d="M310.446 211.65c33.833 28.6533 89.2529 -23.5127 57.3467 -50.5547c-55.46 -46.9766 -113.296 -91.4854 -173.569 -132.13c-48.5371 -32.7422 -103.732 -72.8262 -162.262 -84.624c-66.7178 -13.4492 -130.274 48.6494 -131.916 114.766
c-1.88672 75.7725 55.1846 162.282 92.0459 225.777c24.7275 42.5713 108.056 -30.6318 88.2939 -64.6689c-29.1836 -50.25 -54.7266 -99.8164 -75.1504 -154.298c-2.85547 -7.32129 -5.49609 -14.7246 -8.06543 -22.1475c69.3281 12.3789 233.486 100.296 313.276 167.88z
M164.428 390.523c-13.3779 -43.8564 -100.306 25.2578 -88.2832 64.668c22.3721 73.3555 51.8506 143.356 88.6914 210.614c23.5244 42.959 107.342 -29.877 88.2842 -64.668c-36.8516 -67.2578 -66.3203 -137.259 -88.6924 -210.614z" />
    <glyph glyph-name="i" unicode="&#xef;" horiz-adv-x="322" 
d="M310.446 211.65c33.833 28.6533 89.2529 -23.5127 57.3467 -50.5547c-55.46 -46.9766 -113.296 -91.4854 -173.569 -132.13c-48.5371 -32.7422 -103.732 -72.8262 -162.262 -84.624c-66.7178 -13.4492 -130.274 48.6494 -131.916 114.766
c-1.88672 75.7725 55.1846 162.282 92.0459 225.777c24.7275 42.5713 108.056 -30.6318 88.2939 -64.6689c-29.1836 -50.25 -54.7266 -99.8164 -75.1504 -154.298c-2.85547 -7.32129 -5.49609 -14.7246 -8.06543 -22.1475c69.3281 12.3789 233.486 100.296 313.276 167.88z
M164.428 390.523c-13.3779 -43.8564 -100.306 25.2578 -88.2832 64.668c22.3721 73.3555 51.8506 143.356 88.6914 210.614c23.5244 42.959 107.342 -29.877 88.2842 -64.668c-36.8516 -67.2578 -66.3203 -137.259 -88.6924 -210.614z" />
    <glyph glyph-name="i" unicode="&#xee;" horiz-adv-x="322" 
d="M310.446 211.65c33.833 28.6533 89.2529 -23.5127 57.3467 -50.5547c-55.46 -46.9766 -113.296 -91.4854 -173.569 -132.13c-48.5371 -32.7422 -103.732 -72.8262 -162.262 -84.624c-66.7178 -13.4492 -130.274 48.6494 -131.916 114.766
c-1.88672 75.7725 55.1846 162.282 92.0459 225.777c24.7275 42.5713 108.056 -30.6318 88.2939 -64.6689c-29.1836 -50.25 -54.7266 -99.8164 -75.1504 -154.298c-2.85547 -7.32129 -5.49609 -14.7246 -8.06543 -22.1475c69.3281 12.3789 233.486 100.296 313.276 167.88z
M164.428 390.523c-13.3779 -43.8564 -100.306 25.2578 -88.2832 64.668c22.3721 73.3555 51.8506 143.356 88.6914 210.614c23.5244 42.959 107.342 -29.877 88.2842 -64.668c-36.8516 -67.2578 -66.3203 -137.259 -88.6924 -210.614z" />
    <glyph glyph-name="i" unicode="&#xed;" horiz-adv-x="322" 
d="M310.446 211.65c33.833 28.6533 89.2529 -23.5127 57.3467 -50.5547c-55.46 -46.9766 -113.296 -91.4854 -173.569 -132.13c-48.5371 -32.7422 -103.732 -72.8262 -162.262 -84.624c-66.7178 -13.4492 -130.274 48.6494 -131.916 114.766
c-1.88672 75.7725 55.1846 162.282 92.0459 225.777c24.7275 42.5713 108.056 -30.6318 88.2939 -64.6689c-29.1836 -50.25 -54.7266 -99.8164 -75.1504 -154.298c-2.85547 -7.32129 -5.49609 -14.7246 -8.06543 -22.1475c69.3281 12.3789 233.486 100.296 313.276 167.88z
M164.428 390.523c-13.3779 -43.8564 -100.306 25.2578 -88.2832 64.668c22.3721 73.3555 51.8506 143.356 88.6914 210.614c23.5244 42.959 107.342 -29.877 88.2842 -64.668c-36.8516 -67.2578 -66.3203 -137.259 -88.6924 -210.614z" />
    <glyph glyph-name="i" unicode="&#xec;" horiz-adv-x="322" 
d="M310.446 211.65c33.833 28.6533 89.2529 -23.5127 57.3467 -50.5547c-55.46 -46.9766 -113.296 -91.4854 -173.569 -132.13c-48.5371 -32.7422 -103.732 -72.8262 -162.262 -84.624c-66.7178 -13.4492 -130.274 48.6494 -131.916 114.766
c-1.88672 75.7725 55.1846 162.282 92.0459 225.777c24.7275 42.5713 108.056 -30.6318 88.2939 -64.6689c-29.1836 -50.25 -54.7266 -99.8164 -75.1504 -154.298c-2.85547 -7.32129 -5.49609 -14.7246 -8.06543 -22.1475c69.3281 12.3789 233.486 100.296 313.276 167.88z
M164.428 390.523c-13.3779 -43.8564 -100.306 25.2578 -88.2832 64.668c22.3721 73.3555 51.8506 143.356 88.6914 210.614c23.5244 42.959 107.342 -29.877 88.2842 -64.668c-36.8516 -67.2578 -66.3203 -137.259 -88.6924 -210.614z" />
    <glyph glyph-name="j" unicode="j" horiz-adv-x="184" 
d="M-5.13477 297.141c17.0898 44.0098 103.08 -26.6025 88.2744 -64.667c-14.9277 -38.4424 -30.7842 -76.4658 -47.4766 -114.082c14.2246 -23.1465 16.5801 -47.1699 -11.3281 -48.0166c-3.6709 -0.112305 -7.32129 -0.336914 -10.9512 -0.642578
c-47.5986 -101.642 -101.561 -200.184 -161.926 -295.105c-46.1709 -72.6016 -95.9717 -142.878 -149.22 -210.462c-44.5596 -56.5723 -89.0078 -123.311 -167.237 -127.889c-27.2666 -1.60059 -61.7217 32.8037 -66.7793 57.7861
c-32.6094 161.181 68.9102 317.191 166.442 437.432c74.9873 92.4443 177.761 200.51 300.714 224.819c21.1172 46.375 41.0312 93.3105 59.4873 140.827zM-218.359 -131.032c26.8887 43.0098 52.2168 86.9482 76.3223 131.539
c-52.2998 -40.8584 -98.124 -93.0049 -135.24 -137.667c-66.9619 -80.585 -149.739 -191.658 -167.869 -303.7c38.6865 34.1289 70.9395 87.4883 95.3301 119.577c46.6504 61.3945 90.5781 124.869 131.457 190.251zM153.272 649.737
c34.5166 28.123 111.49 -53.082 79.3096 -79.3086c-47.5781 -38.7686 -79.4121 -87.8662 -94.1562 -147.518c-10.7266 -43.4082 -98.2051 24.543 -88.2832 64.667c15.8047 63.9746 52.0947 120.557 103.13 162.159z" />
    <glyph glyph-name="k" unicode="k" horiz-adv-x="451" 
d="M336.293 950.622c21.4443 43.5 106.027 -28.6738 88.2949 -64.6885c-98.9092 -200.602 -191.211 -404.303 -276.986 -610.768c47.7314 39.9102 104.69 74.6299 156.266 52.1152c23.5547 -10.2881 52.2891 -43.7236 44.9883 -71.5303
c-23.7793 -90.5879 -89.2734 -161.089 -177.058 -192.913c9.14648 -62.8936 51.0449 -117.497 113.97 -145.324c43.0811 -19.0479 -31.8145 -101.315 -69.2061 -84.7764c-89.2217 39.4619 -138.054 120.445 -139.104 209.779
c-26.5732 -35.5664 -49.4346 -73.7021 -67.1875 -115.07c-4.66016 -12.4502 -14.8975 -15.7441 -26.8584 -13.2051c-31.0391 5.67969 -73.0703 50.7393 -61.4258 77.8828c122.035 326.246 260.294 646.089 414.307 958.498z" />
    <glyph glyph-name="l" unicode="l" horiz-adv-x="398" 
d="M391.703 209.743c29.1016 31.416 81.2686 -16.0293 51.6465 -48.0264c-77.9443 -84.1436 -189.538 -157.092 -299.47 -190.762c-52.1357 -15.9678 -103.079 -25.2881 -141.848 20.8223c-40.2471 47.874 -45.4268 106.017 -33.2109 165.393
c16.4678 80.0752 49.0674 158.814 75.4775 236.055c27.7559 81.1973 56.4189 162.089 85.959 242.653c61.375 167.34 126.757 333.15 195.667 497.522c18.415 43.9385 104.007 -27.1641 88.2832 -64.668c-75.293 -179.586 -146.334 -360.926 -212.613 -544.04
c-32.5684 -89.9971 -64.0361 -180.392 -94.3721 -271.174c-14.877 -44.5293 -61.5371 -138.799 -55.5723 -201.601c125.706 18.0479 292.821 106.831 340.053 157.825z" />
    <glyph glyph-name="m" unicode="m" horiz-adv-x="963" 
d="M959.669 212.711c34.7607 27.9189 83.291 -25.9189 51.0078 -51.8496c-82.8799 -66.5547 -167.728 -132.671 -260.324 -185.398c-34.5469 -19.6797 -74.957 -42.7754 -115.958 -44.3359c-42.7344 -1.63184 -84.7041 28.3467 -96.4512 70.1533
c-5.05762 18.0078 -1.5498 36.4131 1.86621 54.3291c0.173828 0.917969 0.316406 1.92773 0.479492 2.88574c-4.60938 -1.87598 -8.87207 -3.65039 -11.4111 -5.2002c-16.5293 -10.085 -31.9062 -22.749 -47.7012 -34.0166
c-31.8037 -22.6777 -63.5977 -45.3555 -95.4014 -68.0332c-35.9746 -25.6553 -91.8535 36.3721 -83.7979 71.9893c8.62695 38.167 17.2432 76.3232 25.8701 114.49c2.1416 9.47266 5.97559 21.0762 9.86035 33.4453c-14.459 -8.60645 -28.1123 -17.5186 -39.2773 -23.6777
c-38.4824 -21.209 -75.7617 -44.4883 -111.797 -69.6338c-67.2783 -46.9463 -129.51 -100.215 -187.336 -158.347c-27.8682 -28.0107 -88.957 33.1602 -85.1133 62.6904c11.584 88.8955 36.9844 172.122 78.832 251.515c22.7588 43.1836 106.872 -29.4072 88.2939 -64.668
c-8.25977 -15.6729 -15.877 -31.6104 -23.0352 -47.7314c78.4541 60.9668 163.566 113.644 253.665 154.237c56.7246 25.543 120.761 -6.49512 128.388 -72.6523c3.12012 -27.1035 -5.35352 -56.7969 -13.042 -84.502c11.9912 8.12695 24.1055 15.999 36.4336 23.3711
c32.6191 19.5068 68.4609 29.3467 104.73 13.5928c35.9746 -15.6211 65.4639 -52.9209 69.3281 -92.2197c0.794922 -8.04492 0.366211 -16.1611 -0.582031 -24.2373c46.3135 11.502 233.853 102.641 322.473 173.804z" />
    <glyph glyph-name="n" unicode="n" horiz-adv-x="690" 
d="M683.833 221.215c36.7598 17.3242 76.833 -42.2441 33.4355 -62.6992c-88.6309 -41.7559 -171.878 -93.3008 -255.022 -144.876c-51.5752 -31.9873 -108.983 -77.5977 -169.186 -91.6387c-59.1211 -13.7959 -114.663 42.8877 -105.598 101.438
c5.25098 33.9043 18.5781 67.9004 35.6377 101.142c-97.3594 -53.8291 -183.89 -125.288 -256.623 -212.471c-28.6221 -34.3125 -91.5869 41.46 -83.7969 71.9893c22.3105 87.458 63.9443 171.204 108.076 249.617c24.0742 42.7959 107.668 -30.2129 88.2842 -64.668
c-1.17285 -2.08008 -2.31445 -4.21094 -3.4873 -6.31152c76.6904 52.6465 161.13 93.9229 250.933 122.015c37.749 11.8076 93.5557 -48.7002 71.9893 -83.7979c-29.8975 -48.6592 -55.4502 -97.8076 -80.1465 -147.69c118.823 59.6006 248.435 112.787 365.504 167.952z
" />
    <glyph glyph-name="n" unicode="&#xf1;" horiz-adv-x="690" 
d="M683.833 221.215c36.7598 17.3242 76.833 -42.2441 33.4355 -62.6992c-88.6309 -41.7559 -171.878 -93.3008 -255.022 -144.876c-51.5752 -31.9873 -108.983 -77.5977 -169.186 -91.6387c-59.1211 -13.7959 -114.663 42.8877 -105.598 101.438
c5.25098 33.9043 18.5781 67.9004 35.6377 101.142c-97.3594 -53.8291 -183.89 -125.288 -256.623 -212.471c-28.6221 -34.3125 -91.5869 41.46 -83.7969 71.9893c22.3105 87.458 63.9443 171.204 108.076 249.617c24.0742 42.7959 107.668 -30.2129 88.2842 -64.668
c-1.17285 -2.08008 -2.31445 -4.21094 -3.4873 -6.31152c76.6904 52.6465 161.13 93.9229 250.933 122.015c37.749 11.8076 93.5557 -48.7002 71.9893 -83.7979c-29.8975 -48.6592 -55.4502 -97.8076 -80.1465 -147.69c118.823 59.6006 248.435 112.787 365.504 167.952z
" />
    <glyph glyph-name="o" unicode="o" horiz-adv-x="316" 
d="M200.146 224.927c9.1875 -88.1309 -14.6338 -176.25 -69.7168 -246.149c-51.3506 -65.168 -130.804 -94.6572 -193.3 -25.2988c-116.498 129.285 76.5781 317.641 185.684 372.244c33.3848 16.7129 97.084 -54.3691 72.5098 -82.3086
c2.46777 -5.95508 4.1709 -12.165 4.82324 -18.4873zM83.7686 111.092c10.9512 23.3301 18.292 47.3838 22.626 71.9375c-16.7227 -14.6123 -32.2627 -30.6416 -46.416 -48.2109c-17.2119 -21.3721 -31.875 -44.3662 -43.6826 -69.1543
c-5.38379 -11.2979 -10.666 -22.8916 -14.5615 -34.8115c-0.999023 -3.05859 -2.20215 -12.6641 -3.66016 -21.0254c13.2051 10.8906 25.4922 17.1006 37.7588 30.2236c19.6084 20.9854 35.7295 45.0596 47.9355 71.041z" />
    <glyph glyph-name="o" unicode="&#xf8;" horiz-adv-x="316" 
d="M200.146 224.927c9.1875 -88.1309 -14.6338 -176.25 -69.7168 -246.149c-51.3506 -65.168 -130.804 -94.6572 -193.3 -25.2988c-116.498 129.285 76.5781 317.641 185.684 372.244c33.3848 16.7129 97.084 -54.3691 72.5098 -82.3086
c2.46777 -5.95508 4.1709 -12.165 4.82324 -18.4873zM83.7686 111.092c10.9512 23.3301 18.292 47.3838 22.626 71.9375c-16.7227 -14.6123 -32.2627 -30.6416 -46.416 -48.2109c-17.2119 -21.3721 -31.875 -44.3662 -43.6826 -69.1543
c-5.38379 -11.2979 -10.666 -22.8916 -14.5615 -34.8115c-0.999023 -3.05859 -2.20215 -12.6641 -3.66016 -21.0254c13.2051 10.8906 25.4922 17.1006 37.7588 30.2236c19.6084 20.9854 35.7295 45.0596 47.9355 71.041z" />
    <glyph glyph-name="o" unicode="&#xf6;" horiz-adv-x="316" 
d="M200.146 224.927c9.1875 -88.1309 -14.6338 -176.25 -69.7168 -246.149c-51.3506 -65.168 -130.804 -94.6572 -193.3 -25.2988c-116.498 129.285 76.5781 317.641 185.684 372.244c33.3848 16.7129 97.084 -54.3691 72.5098 -82.3086
c2.46777 -5.95508 4.1709 -12.165 4.82324 -18.4873zM83.7686 111.092c10.9512 23.3301 18.292 47.3838 22.626 71.9375c-16.7227 -14.6123 -32.2627 -30.6416 -46.416 -48.2109c-17.2119 -21.3721 -31.875 -44.3662 -43.6826 -69.1543
c-5.38379 -11.2979 -10.666 -22.8916 -14.5615 -34.8115c-0.999023 -3.05859 -2.20215 -12.6641 -3.66016 -21.0254c13.2051 10.8906 25.4922 17.1006 37.7588 30.2236c19.6084 20.9854 35.7295 45.0596 47.9355 71.041z" />
    <glyph glyph-name="o" unicode="&#xf5;" horiz-adv-x="316" 
d="M200.146 224.927c9.1875 -88.1309 -14.6338 -176.25 -69.7168 -246.149c-51.3506 -65.168 -130.804 -94.6572 -193.3 -25.2988c-116.498 129.285 76.5781 317.641 185.684 372.244c33.3848 16.7129 97.084 -54.3691 72.5098 -82.3086
c2.46777 -5.95508 4.1709 -12.165 4.82324 -18.4873zM83.7686 111.092c10.9512 23.3301 18.292 47.3838 22.626 71.9375c-16.7227 -14.6123 -32.2627 -30.6416 -46.416 -48.2109c-17.2119 -21.3721 -31.875 -44.3662 -43.6826 -69.1543
c-5.38379 -11.2979 -10.666 -22.8916 -14.5615 -34.8115c-0.999023 -3.05859 -2.20215 -12.6641 -3.66016 -21.0254c13.2051 10.8906 25.4922 17.1006 37.7588 30.2236c19.6084 20.9854 35.7295 45.0596 47.9355 71.041z" />
    <glyph glyph-name="o" unicode="&#xf4;" horiz-adv-x="316" 
d="M200.146 224.927c9.1875 -88.1309 -14.6338 -176.25 -69.7168 -246.149c-51.3506 -65.168 -130.804 -94.6572 -193.3 -25.2988c-116.498 129.285 76.5781 317.641 185.684 372.244c33.3848 16.7129 97.084 -54.3691 72.5098 -82.3086
c2.46777 -5.95508 4.1709 -12.165 4.82324 -18.4873zM83.7686 111.092c10.9512 23.3301 18.292 47.3838 22.626 71.9375c-16.7227 -14.6123 -32.2627 -30.6416 -46.416 -48.2109c-17.2119 -21.3721 -31.875 -44.3662 -43.6826 -69.1543
c-5.38379 -11.2979 -10.666 -22.8916 -14.5615 -34.8115c-0.999023 -3.05859 -2.20215 -12.6641 -3.66016 -21.0254c13.2051 10.8906 25.4922 17.1006 37.7588 30.2236c19.6084 20.9854 35.7295 45.0596 47.9355 71.041z" />
    <glyph glyph-name="o" unicode="&#xf3;" horiz-adv-x="316" 
d="M200.146 224.927c9.1875 -88.1309 -14.6338 -176.25 -69.7168 -246.149c-51.3506 -65.168 -130.804 -94.6572 -193.3 -25.2988c-116.498 129.285 76.5781 317.641 185.684 372.244c33.3848 16.7129 97.084 -54.3691 72.5098 -82.3086
c2.46777 -5.95508 4.1709 -12.165 4.82324 -18.4873zM83.7686 111.092c10.9512 23.3301 18.292 47.3838 22.626 71.9375c-16.7227 -14.6123 -32.2627 -30.6416 -46.416 -48.2109c-17.2119 -21.3721 -31.875 -44.3662 -43.6826 -69.1543
c-5.38379 -11.2979 -10.666 -22.8916 -14.5615 -34.8115c-0.999023 -3.05859 -2.20215 -12.6641 -3.66016 -21.0254c13.2051 10.8906 25.4922 17.1006 37.7588 30.2236c19.6084 20.9854 35.7295 45.0596 47.9355 71.041z" />
    <glyph glyph-name="o" unicode="&#xf2;" horiz-adv-x="316" 
d="M200.146 224.927c9.1875 -88.1309 -14.6338 -176.25 -69.7168 -246.149c-51.3506 -65.168 -130.804 -94.6572 -193.3 -25.2988c-116.498 129.285 76.5781 317.641 185.684 372.244c33.3848 16.7129 97.084 -54.3691 72.5098 -82.3086
c2.46777 -5.95508 4.1709 -12.165 4.82324 -18.4873zM83.7686 111.092c10.9512 23.3301 18.292 47.3838 22.626 71.9375c-16.7227 -14.6123 -32.2627 -30.6416 -46.416 -48.2109c-17.2119 -21.3721 -31.875 -44.3662 -43.6826 -69.1543
c-5.38379 -11.2979 -10.666 -22.8916 -14.5615 -34.8115c-0.999023 -3.05859 -2.20215 -12.6641 -3.66016 -21.0254c13.2051 10.8906 25.4922 17.1006 37.7588 30.2236c19.6084 20.9854 35.7295 45.0596 47.9355 71.041z" />
    <glyph glyph-name="p" unicode="p" horiz-adv-x="529" 
d="M390.278 329.128c45.8242 -43.3564 48.334 -107.442 26.9922 -163.209c-39.2578 -102.447 -148.833 -237.116 -269.104 -235.821c-20.7402 0.224609 -47.3135 25.5029 -60.0293 49.3428c-100.102 -154.217 -176.547 -326.736 -235.475 -498.409
c-15.1221 -44.0498 -101.489 25.8389 -88.2949 64.668c89.8135 264.26 179.576 528.54 269.39 792.8c14.9482 43.999 101.499 -25.7773 88.2842 -64.668c-11.7363 -34.5469 -23.4727 -69.083 -35.209 -103.63c37.9932 49.0264 79.749 94.8096 126.664 134.658
c54.4512 46.2627 115.255 82.4717 176.782 24.2686zM324.622 220.064c4.79297 11.0938 6.59668 24.1865 8.70703 36.6982c-4.03809 -2.51855 -7.96387 -5.19043 -11.6758 -8.18848c-9.94141 -7.11719 -19.5264 -15.1113 -28.8467 -23.0244
c-40.9092 -34.751 -77.3623 -74.5801 -111.032 -116.295c-22.7588 -28.2041 -44.3965 -57.459 -65.1875 -87.417c90.792 10.3193 175.66 123.27 208.035 198.227z" />
    <glyph glyph-name="q" unicode="q" horiz-adv-x="469" 
d="M280.189 247.431c28.6221 11.1455 82.9316 -37.9951 78.0068 -69.8906c0.234375 -5.94434 -1.49902 -11.002 -5.73047 -14.4893c-51.6367 -107.556 -95.9619 -218.405 -134.843 -331.192c-19.2715 -55.9092 -38.2881 -112.227 -52.6758 -169.624
c-11.6445 -46.4668 -43.3467 -147.721 -8.99414 -190.078c12.2773 -15.1426 22.1279 -43.8359 0.37793 -55.0215c-22.2695 -11.4404 -52.2178 18.3848 -64.291 33.2725c-81.6455 100.693 -21.1074 267.492 13.8369 375.833c28.1123 87.1523 59.2734 173.356 94.2686 257.97
c-77.7607 -58.2852 -147.405 -131.539 -238.911 -167.452c-36.127 -14.1836 -83.8271 43.5098 -76.4756 76.4756c22.7188 101.795 78.1689 207.138 163.353 270.593c67.4922 50.2705 154.868 38.0244 202.926 -25.3994c9.30957 3.38574 18.8438 6.38379 28.6533 8.91211
c0.163086 0.0410156 0.335938 0.0507812 0.499023 0.0917969zM50.7119 104.327c43.8564 36.0557 86.7842 73.5586 134.771 102.396c-0.509766 0.132812 -0.897461 0.224609 -1.42773 0.367188c-6.56641 -1.11133 -13.1328 -2.21289 -19.6992 -3.32422
c-19.0576 -4.49707 -35.4844 -17.6201 -50.1982 -29.9688c-23.0859 -19.3838 -43.4697 -42.7549 -61.5488 -66.7783c-0.663086 -0.886719 -1.24414 -1.80469 -1.89648 -2.69141z" />
    <glyph glyph-name="r" unicode="r" horiz-adv-x="415" 
d="M317.165 224.845c11.2471 -18.8848 7.83008 -42.2852 -16.1631 -44.6201c-18.1094 -1.76367 -35.2607 11.5635 -48.0068 26.4609c-22.8408 0.00976562 -72.7949 -37.6777 -85.3779 -47.3037c-25.0029 -19.1191 -47.9658 -40.8691 -69.4297 -63.8633
c-47.374 -50.7598 -87.1924 -108.331 -116.294 -171.398c-20.373 -44.1523 -102.335 27.4492 -88.2842 64.6777c37.9629 100.592 78.8516 200.071 115.529 301.152c13.2764 36.5967 75.0693 -5.68945 87.5605 -43.1318c77.9854 59.4883 161.375 77.2617 220.466 -21.9736z
" />
    <glyph glyph-name="s" unicode="s" horiz-adv-x="326" 
d="M313.69 228.547c38.3398 14.9893 73.5293 -54.2061 29.8154 -71.2959c-62.7207 -24.5234 -122.372 -57.3057 -175.731 -98.46c7.28027 -24.0137 9.78906 -49.292 6.08789 -75.335c-11.7773 -82.8281 -94.6572 -189.986 -181.034 -118.048
c-92.9844 77.4346 -27.0107 173.224 67.9111 250.179c-23.708 29.8359 -53.0342 54.2168 -70.8379 89.3037c-30.6924 60.457 -18.7012 156.317 67.5537 150.016c25.8994 -1.89648 51.5039 -23.3506 62.2305 -46.293c7.52539 -16.1006 10.2783 -46.5381 -16.1514 -44.6113
c-55.3887 4.03809 -38.9824 -58.6719 -18.0381 -83.7969c7.96387 -9.55469 16.3965 -18.6094 24.707 -27.7461c84.9092 40.4912 167.034 61.833 203.487 76.0879z" />
    <glyph glyph-name="s" unicode="&#xdf;" horiz-adv-x="326" 
d="M313.69 228.547c38.3398 14.9893 73.5293 -54.2061 29.8154 -71.2959c-62.7207 -24.5234 -122.372 -57.3057 -175.731 -98.46c7.28027 -24.0137 9.78906 -49.292 6.08789 -75.335c-11.7773 -82.8281 -94.6572 -189.986 -181.034 -118.048
c-92.9844 77.4346 -27.0107 173.224 67.9111 250.179c-23.708 29.8359 -53.0342 54.2168 -70.8379 89.3037c-30.6924 60.457 -18.7012 156.317 67.5537 150.016c25.8994 -1.89648 51.5039 -23.3506 62.2305 -46.293c7.52539 -16.1006 10.2783 -46.5381 -16.1514 -44.6113
c-55.3887 4.03809 -38.9824 -58.6719 -18.0381 -83.7969c7.96387 -9.55469 16.3965 -18.6094 24.707 -27.7461c84.9092 40.4912 167.034 61.833 203.487 76.0879z" />
    <glyph glyph-name="t" unicode="t" horiz-adv-x="236" 
d="M850.562 656.189c19.4863 -10.2578 48.7266 -37.1377 46.2998 -62.2324c-2.38574 -24.5742 -25.665 -26.124 -44.6104 -16.1514c-89.2119 46.9766 -188.835 56.6123 -287.938 63.0469c-97.5322 6.33203 -195.34 8.5752 -293.056 6.83203
c-1.71289 -0.0410156 -3.41602 -0.123047 -5.12891 -0.15332c-149.975 -330.865 -275.711 -676.189 -269.786 -1043.37c0.867188 -54.1855 -90.2715 7.03613 -90.9033 46.0693c-5.62891 348.547 103.854 677.148 241.898 992.821
c-163.832 -8.7793 -326.828 -28.8262 -488.029 -59.998c-40.9297 -7.91309 -107.025 80.0957 -64.668 88.2842c196.207 37.9424 395.177 60.5381 594.922 66.1973c36.0664 79.0254 73.4072 157.266 110.615 234.843c20.9141 43.6016 105.69 -28.3877 88.2842 -64.668
c-26.6748 -55.6035 -53.4512 -111.594 -79.8301 -167.972c181.238 2.3252 382.136 0.581055 541.93 -83.5527z" />
    <glyph glyph-name="u" unicode="u" horiz-adv-x="607" 
d="M601.079 217.392c30.04 30.9775 83.5693 -24.5645 53.417 -55.6543c-67.2373 -69.3584 -136.27 -142.877 -217.171 -196.736c-37.9424 -25.2676 -78.6787 -46.5381 -122.056 -20.5771c-46.4053 27.7764 -59.0898 76.1807 -51.8701 126.512
c0.305664 2.13086 0.723633 4.25195 1.0498 6.37305c-54.3281 -49.5254 -110.665 -96.665 -173.304 -134.383c-56.6836 -34.1289 -118.211 -48.5264 -164.035 11.9717c-60.7627 80.2178 17.1816 220.128 71.9688 284.449c27.3379 32.0889 107.883 -45.7734 79.3115 -79.3105
c-24.4014 -28.6533 -42.0518 -63.1289 -56.8779 -97.5127c-6.14844 -14.2656 -11.8691 -28.8574 -16.4678 -43.7549c28.3271 14.6729 54.3799 34.5059 79.3828 53.8291c83.3789 64.4336 157.877 139.431 236.025 209.911c32.1807 29.0205 94.208 -38.7168 83.7969 -71.999
c-15.5293 -49.6689 -29.9883 -99.8877 -41.8467 -150.576c-1.1416 -4.87402 -2.05957 -9.80957 -2.90625 -14.7754c71.418 16.1006 186.57 115.488 241.582 172.233z" />
    <glyph glyph-name="u" unicode="&#xfc;" horiz-adv-x="607" 
d="M601.079 217.392c30.04 30.9775 83.5693 -24.5645 53.417 -55.6543c-67.2373 -69.3584 -136.27 -142.877 -217.171 -196.736c-37.9424 -25.2676 -78.6787 -46.5381 -122.056 -20.5771c-46.4053 27.7764 -59.0898 76.1807 -51.8701 126.512
c0.305664 2.13086 0.723633 4.25195 1.0498 6.37305c-54.3281 -49.5254 -110.665 -96.665 -173.304 -134.383c-56.6836 -34.1289 -118.211 -48.5264 -164.035 11.9717c-60.7627 80.2178 17.1816 220.128 71.9688 284.449c27.3379 32.0889 107.883 -45.7734 79.3115 -79.3105
c-24.4014 -28.6533 -42.0518 -63.1289 -56.8779 -97.5127c-6.14844 -14.2656 -11.8691 -28.8574 -16.4678 -43.7549c28.3271 14.6729 54.3799 34.5059 79.3828 53.8291c83.3789 64.4336 157.877 139.431 236.025 209.911c32.1807 29.0205 94.208 -38.7168 83.7969 -71.999
c-15.5293 -49.6689 -29.9883 -99.8877 -41.8467 -150.576c-1.1416 -4.87402 -2.05957 -9.80957 -2.90625 -14.7754c71.418 16.1006 186.57 115.488 241.582 172.233z" />
    <glyph glyph-name="u" unicode="&#xfb;" horiz-adv-x="607" 
d="M601.079 217.392c30.04 30.9775 83.5693 -24.5645 53.417 -55.6543c-67.2373 -69.3584 -136.27 -142.877 -217.171 -196.736c-37.9424 -25.2676 -78.6787 -46.5381 -122.056 -20.5771c-46.4053 27.7764 -59.0898 76.1807 -51.8701 126.512
c0.305664 2.13086 0.723633 4.25195 1.0498 6.37305c-54.3281 -49.5254 -110.665 -96.665 -173.304 -134.383c-56.6836 -34.1289 -118.211 -48.5264 -164.035 11.9717c-60.7627 80.2178 17.1816 220.128 71.9688 284.449c27.3379 32.0889 107.883 -45.7734 79.3115 -79.3105
c-24.4014 -28.6533 -42.0518 -63.1289 -56.8779 -97.5127c-6.14844 -14.2656 -11.8691 -28.8574 -16.4678 -43.7549c28.3271 14.6729 54.3799 34.5059 79.3828 53.8291c83.3789 64.4336 157.877 139.431 236.025 209.911c32.1807 29.0205 94.208 -38.7168 83.7969 -71.999
c-15.5293 -49.6689 -29.9883 -99.8877 -41.8467 -150.576c-1.1416 -4.87402 -2.05957 -9.80957 -2.90625 -14.7754c71.418 16.1006 186.57 115.488 241.582 172.233z" />
    <glyph glyph-name="u" unicode="&#xfa;" horiz-adv-x="607" 
d="M601.079 217.392c30.04 30.9775 83.5693 -24.5645 53.417 -55.6543c-67.2373 -69.3584 -136.27 -142.877 -217.171 -196.736c-37.9424 -25.2676 -78.6787 -46.5381 -122.056 -20.5771c-46.4053 27.7764 -59.0898 76.1807 -51.8701 126.512
c0.305664 2.13086 0.723633 4.25195 1.0498 6.37305c-54.3281 -49.5254 -110.665 -96.665 -173.304 -134.383c-56.6836 -34.1289 -118.211 -48.5264 -164.035 11.9717c-60.7627 80.2178 17.1816 220.128 71.9688 284.449c27.3379 32.0889 107.883 -45.7734 79.3115 -79.3105
c-24.4014 -28.6533 -42.0518 -63.1289 -56.8779 -97.5127c-6.14844 -14.2656 -11.8691 -28.8574 -16.4678 -43.7549c28.3271 14.6729 54.3799 34.5059 79.3828 53.8291c83.3789 64.4336 157.877 139.431 236.025 209.911c32.1807 29.0205 94.208 -38.7168 83.7969 -71.999
c-15.5293 -49.6689 -29.9883 -99.8877 -41.8467 -150.576c-1.1416 -4.87402 -2.05957 -9.80957 -2.90625 -14.7754c71.418 16.1006 186.57 115.488 241.582 172.233z" />
    <glyph glyph-name="u" unicode="&#xf9;" horiz-adv-x="607" 
d="M601.079 217.392c30.04 30.9775 83.5693 -24.5645 53.417 -55.6543c-67.2373 -69.3584 -136.27 -142.877 -217.171 -196.736c-37.9424 -25.2676 -78.6787 -46.5381 -122.056 -20.5771c-46.4053 27.7764 -59.0898 76.1807 -51.8701 126.512
c0.305664 2.13086 0.723633 4.25195 1.0498 6.37305c-54.3281 -49.5254 -110.665 -96.665 -173.304 -134.383c-56.6836 -34.1289 -118.211 -48.5264 -164.035 11.9717c-60.7627 80.2178 17.1816 220.128 71.9688 284.449c27.3379 32.0889 107.883 -45.7734 79.3115 -79.3105
c-24.4014 -28.6533 -42.0518 -63.1289 -56.8779 -97.5127c-6.14844 -14.2656 -11.8691 -28.8574 -16.4678 -43.7549c28.3271 14.6729 54.3799 34.5059 79.3828 53.8291c83.3789 64.4336 157.877 139.431 236.025 209.911c32.1807 29.0205 94.208 -38.7168 83.7969 -71.999
c-15.5293 -49.6689 -29.9883 -99.8877 -41.8467 -150.576c-1.1416 -4.87402 -2.05957 -9.80957 -2.90625 -14.7754c71.418 16.1006 186.57 115.488 241.582 172.233z" />
    <glyph glyph-name="v" unicode="v" horiz-adv-x="377" 
d="M209.539 346.238c17.0596 44.0098 103.049 -26.583 88.2939 -64.668c-28.7959 -74.3037 -63.6484 -145.62 -105.925 -213.225c-21.1787 -33.8633 -43.9482 -66.7178 -68.7158 -98.0732c-17.0186 -21.5352 -35.4648 -48.292 -64.3115 -53.5635
c-68.1553 -12.4502 -99.7656 70.7656 -100.785 123.045c-1.54004 78.9541 15.417 158.57 45.7119 231.182c18.334 43.9482 103.946 -27.1338 88.2842 -64.668c-15.6523 -37.5039 -27.8779 -76.0176 -35.1895 -116.03c-1.66211 -9.10547 -3.95605 -20.9131 -6.05664 -33.7607
c5.53711 8.20801 10.248 15.5498 13.5928 20.0869c20.4238 27.7451 39.5635 56.4492 57.1426 86.0811c34.71 58.54 63.3838 120.18 87.958 183.594z" />
    <glyph glyph-name="w" unicode="w" horiz-adv-x="644" 
d="M463.837 373.688c12.2568 43.7031 99.4307 -24.9297 88.2754 -64.667c-21.6582 -77.2715 -52.2998 -150.943 -93.1787 -220.058c-30.0703 -50.8311 -74.7422 -140.869 -140.776 -149.149c-62.9346 -7.89258 -112.338 56.082 -114.724 113.897
c-0.856445 20.7197 -0.183594 41.9395 1.55957 63.373c-28.7246 -29.3262 -57.459 -58.6523 -86.1836 -87.9678c-39.3184 -40.124 -100.326 -118.64 -166.371 -108.29c-63.4746 9.93164 -86.8965 83.3379 -72.1826 136.759c20.332 73.8047 66.9209 144.366 116.049 201.958
c27.3682 32.0791 107.902 -45.7939 79.3105 -79.3105c-28.3672 -33.2617 -53.4102 -68.4102 -73.5283 -107.28c-1.48828 -2.88574 -3.73145 -6.97461 -6.32129 -11.7471c25.9912 24.3496 49.2705 52.8594 71.8662 75.9346l175.802 179.443
c31.9258 32.5791 90.7207 -40.7256 83.7969 -71.999c-9.89062 -44.7334 -18.3438 -89.6602 -24.1045 -135.138c-1.31543 -10.3906 -8.38184 -40.3994 -11.4922 -66.3096c38.0439 34.4043 88.3242 126.196 95.9619 140.258c32.7822 60.416 57.7139 124.177 76.2412 190.293z
" />
    <glyph glyph-name="x" unicode="x" horiz-adv-x="481" 
d="M297.418 303.564c35.7803 27.0117 111.894 -54.7197 79.3145 -79.3242l-198.961 -150.229c48.3936 -48.6895 109.636 -85.1533 170.164 -101.325c42.4395 -11.3291 -29.2646 -95.4424 -69.2051 -84.7764c-69.9502 18.6904 -138.116 61.5479 -190.731 118.313
c-47.252 -35.6787 -94.5039 -71.3672 -141.756 -107.046c-35.7705 -27.0117 -111.88 54.7158 -79.3115 79.3105c52.4111 39.584 104.822 79.1582 157.244 118.742c-25.3389 50.1885 -38.5645 105.271 -33.915 161.222c3.2627 39.2578 97.6338 94.7285 93.1875 41.2461
c-3.94629 -47.4053 7.25 -93.6982 28.6738 -136.056c61.7617 46.6406 123.534 93.2812 185.296 139.922z" />
    <glyph glyph-name="y" unicode="y" horiz-adv-x="739" 
d="M726.486 221.209c34.6279 19.0986 90.1484 -42.3574 47.9951 -67.4316c-157.255 -93.5254 -298.613 -217.824 -429.275 -346.12c-89.6396 -185.112 -197.767 -361.181 -322.942 -525.339c-23.8398 -31.2734 -77.7197 31.4775 -83.3994 51.9932
c-30.0703 108.545 26.165 207.138 89.9053 291.526c56.1436 74.3652 119.976 143.163 185.296 209.483c15.9375 16.1826 32.0791 32.2939 48.3428 48.3135c39.0439 81.3496 74.417 164.474 106.088 249.117c-37.0146 -29.5508 -75.2119 -57.6631 -114.725 -84.0117
c-85.6426 -57.1328 -178.28 -120.496 -282.369 -74.1006c-19.7207 8.7998 -48.4346 38.0137 -46.293 62.2314c8.00488 90.5684 39.8193 171.867 96.9521 242.807c26.1445 32.4561 107.117 -44.7949 79.3105 -79.3115c-36.3008 -45.0596 -61.9561 -95.9824 -75.5791 -151.056
c31.6611 6.9541 63.2715 25.5938 87.876 40.0938c41.2051 24.2891 80.9219 51.4844 119.547 79.6787c74.8857 54.665 144.683 115.529 209.982 181.299c30.9883 31.2021 93.2295 -39.8594 83.7979 -72c-21.8818 -74.6201 -46.7725 -148.21 -74.2324 -220.75
c81.248 67.9209 186.326 115.377 273.723 163.577z" />
    <glyph glyph-name="y" unicode="&#xff;" horiz-adv-x="739" 
d="M726.486 221.209c34.6279 19.0986 90.1484 -42.3574 47.9951 -67.4316c-157.255 -93.5254 -298.613 -217.824 -429.275 -346.12c-89.6396 -185.112 -197.767 -361.181 -322.942 -525.339c-23.8398 -31.2734 -77.7197 31.4775 -83.3994 51.9932
c-30.0703 108.545 26.165 207.138 89.9053 291.526c56.1436 74.3652 119.976 143.163 185.296 209.483c15.9375 16.1826 32.0791 32.2939 48.3428 48.3135c39.0439 81.3496 74.417 164.474 106.088 249.117c-37.0146 -29.5508 -75.2119 -57.6631 -114.725 -84.0117
c-85.6426 -57.1328 -178.28 -120.496 -282.369 -74.1006c-19.7207 8.7998 -48.4346 38.0137 -46.293 62.2314c8.00488 90.5684 39.8193 171.867 96.9521 242.807c26.1445 32.4561 107.117 -44.7949 79.3105 -79.3115c-36.3008 -45.0596 -61.9561 -95.9824 -75.5791 -151.056
c31.6611 6.9541 63.2715 25.5938 87.876 40.0938c41.2051 24.2891 80.9219 51.4844 119.547 79.6787c74.8857 54.665 144.683 115.529 209.982 181.299c30.9883 31.2021 93.2295 -39.8594 83.7979 -72c-21.8818 -74.6201 -46.7725 -148.21 -74.2324 -220.75
c81.248 67.9209 186.326 115.377 273.723 163.577z" />
    <glyph glyph-name="y" unicode="&#xfd;" horiz-adv-x="739" 
d="M726.486 221.209c34.6279 19.0986 90.1484 -42.3574 47.9951 -67.4316c-157.255 -93.5254 -298.613 -217.824 -429.275 -346.12c-89.6396 -185.112 -197.767 -361.181 -322.942 -525.339c-23.8398 -31.2734 -77.7197 31.4775 -83.3994 51.9932
c-30.0703 108.545 26.165 207.138 89.9053 291.526c56.1436 74.3652 119.976 143.163 185.296 209.483c15.9375 16.1826 32.0791 32.2939 48.3428 48.3135c39.0439 81.3496 74.417 164.474 106.088 249.117c-37.0146 -29.5508 -75.2119 -57.6631 -114.725 -84.0117
c-85.6426 -57.1328 -178.28 -120.496 -282.369 -74.1006c-19.7207 8.7998 -48.4346 38.0137 -46.293 62.2314c8.00488 90.5684 39.8193 171.867 96.9521 242.807c26.1445 32.4561 107.117 -44.7949 79.3105 -79.3115c-36.3008 -45.0596 -61.9561 -95.9824 -75.5791 -151.056
c31.6611 6.9541 63.2715 25.5938 87.876 40.0938c41.2051 24.2891 80.9219 51.4844 119.547 79.6787c74.8857 54.665 144.683 115.529 209.982 181.299c30.9883 31.2021 93.2295 -39.8594 83.7979 -72c-21.8818 -74.6201 -46.7725 -148.21 -74.2324 -220.75
c81.248 67.9209 186.326 115.377 273.723 163.577z" />
    <glyph glyph-name="z" unicode="z" horiz-adv-x="648" 
d="M638.767 227.16c37.7686 15.917 76.416 -51.5264 32.7734 -69.9111c-116.886 -49.2402 -230.387 -110.146 -329.296 -189.936c11.3291 -49.0869 7.30176 -103.334 -1.91602 -150.393c-14.8672 -75.834 -44.8359 -149.699 -82.1865 -217.131
c-17.9873 -32.4766 -37.9121 -64.0049 -59.8047 -93.9834c-19.3438 -26.501 -42.6641 -64.0352 -70.1445 -82.3486c-51.5449 -34.3525 -107.546 27.9805 -121.78 74.0088c-22.5352 72.877 -6.26074 157.521 17.8037 227.827
c34.5264 100.887 94.5137 186.876 168.991 260.313c-13.123 -0.234375 -25.7568 1.67285 -38.707 6.56738c-24.0029 9.08496 -87.5801 64.168 -44.6719 87.8857c38.6055 21.3418 72.3369 49.6582 99.9092 84.1641c14.4287 18.0586 26.9404 37.5342 36.7295 58.5088
c1.94727 4.18066 3.66016 11.1455 5.57715 17.9062c-64.0566 -6.49512 -144 -50.4326 -183.482 -75.7002c-38.126 -24.4014 -112.328 58.1826 -79.3105 79.3105c79.8818 51.1064 237.392 133.027 322.097 57.6836c76.9658 -68.4609 30.458 -161.466 -35.9023 -230.631
c3.1709 -2.09082 6.24023 -4.30371 9.21777 -6.65918c132.222 74.8955 244.05 116.151 354.104 162.517zM234.262 -186.21c7.3623 23.2998 13.8564 47.0488 18.2617 71.1436c-43.4893 -45.6719 -81.9922 -96.4209 -110.237 -152.84
c-17.1406 -34.2617 -30.8965 -70.4707 -40.8896 -107.454c-7.23926 -26.7871 -12.4902 -54.0332 -13.7041 -81.8096c9.86035 13.082 18.5986 25.2979 21.0762 28.54c20.8018 27.2871 39.8906 55.8076 56.9297 85.5928c28.3369 49.5156 51.3818 102.427 68.5635 156.827z" />
    <glyph glyph-name="nonbreakingspace" unicode="&#xa0;" horiz-adv-x="377" 
 />
    <glyph glyph-name="softhyphen" unicode="&#xad;" 
 />
    <glyph glyph-name="y.alt1" unicode="&#xf019;" horiz-adv-x="1428" 
d="M1267.42 50.4199c130.855 -18.7012 119.702 -81.9834 93.2012 -79.3525c-168.146 16.6816 -338.982 17.6201 -506.036 -10.3701c-194.586 -32.5996 -385.389 -102.295 -546.305 -217.713c-82.1758 -158.947 -178.097 -310.818 -286.998 -453.635
c-23.8398 -31.2734 -77.71 31.4775 -83.3994 51.9932c-32.9561 118.966 37.4121 230.519 112.145 318.14c53.5635 62.8125 113.49 117.151 178.117 164.098c52.4014 102.58 98.9297 208.147 139.37 316.213c-37.0244 -29.5508 -75.2217 -57.6533 -114.734 -84.0117
c-85.6328 -57.1221 -178.281 -120.495 -282.37 -74.0898c-19.7305 8.79004 -48.4346 38.0039 -46.293 62.2217c8.00488 90.5684 39.8086 171.867 96.9512 242.807c26.1348 32.4561 107.107 -44.8047 79.3105 -79.3105
c-36.3008 -45.0596 -61.9561 -95.9824 -75.5791 -151.065c31.6611 6.96484 63.2607 25.5947 87.8652 40.0947c41.2158 24.2891 80.9219 51.4941 119.547 79.6885c74.8857 54.665 144.683 115.529 209.982 181.299c30.9775 31.2119 93.2285 -39.8496 83.7969 -71.9902
c-36.2393 -123.555 -80.4326 -244.366 -131.794 -361.936c279.464 137.474 569.175 170.358 873.223 126.92z" />
    </font>
</defs>
</svg>
