<svg xmlns="http://www.w3.org/2000/svg">
<defs>
<font id="GuthenBlootsPersonalUse" horiz-adv-x="317" >
  <font-face 
    font-family="Guthen Bloots Personal Use"
    font-weight="400"
    font-stretch="normal"
    units-per-em="1000"
    panose-1="2 0 5 0 0 0 0 0 0 0"
    ascent="800"
    descent="-200"
    x-height="368"
    cap-height="685"
    bbox="-260 -521 908 930"
    underline-thickness="50"
    underline-position="-100"
    unicode-range="U+001D-F002"
  />
<missing-glyph horiz-adv-x="500" 
d="M252 126q2 0 2 4q0 20 -47 20q-5 0 -5 -1q0 -2 28 -15q17 -8 22 -8zM284 283q9 1 9 7q0 11 -24 40q-5 6 -5 9q0 4 3 4q-46 0 -68 10q-2 0 -2 -1q7 -33 7 -36q9 13 21 13q7 0 14 -4q29 -20 38 -38q2 -4 7 -4zM256 284q2 0 2 3q-4 6 -15 12q-15 8 -19 8q-2 0 -2 -3
q0 -2 1 -2q31 -18 33 -18zM290 503q2 1 2 4q0 17 -29 26q-24 8 -38 8q-6 0 -6 -2t5 -5q42 -26 66 -31zM257 583l1 1q0 7 -13 13q-17 8 -20 8q-2 0 -2 -2t1 -3q30 -17 33 -17zM310 174q-4 0 -10 7t-22 22q-37 33 -52 33q-7 0 -7 -7q0 -8 7 -30l1 -5q0 -7 -8 -11q0 -1 -1 -1
q-3 0 -5 5q-9 24 -9 41q0 29 22 29q14 0 40 -20q13 -11 15 -11q1 0 1 1l-1 14q0 10 8 20q5 5 12 5q13 0 13 -9q0 -11 -8.5 -11t-8.5 -4q0 -14 16 -41q5 -8 5 -15q0 -12 -8 -12zM275 261q-21 0 -42 10q-31 16 -31 36q-3 -4 -9 -4q-8 0 -14 42q-5 20 -45 23q-22 2 -22 16
q0 7 10 7q5 0 19 -2.5t20 -2.5q3 0 3 12q0 11 -4.5 35t-4.5 37q0 6 1 16t18 10q4 0 4 -4q0 -2 -1 -5.5t-1 -15.5q0 -91 15 -94q51 -12 79 -12q16 0 37 3q6 0 6 -6q0 -2 -3 -6q-13 -13 -35 -13q12 -4 22 -17.5t10 -29.5q0 -35 -32 -35zM278 383q-17 0 -40 6q-7 2 -13 3t-6 7
q0 14 8 14h5q34 -8 44 -8q3 0 3 2q0 5 -27.5 24.5t-33.5 21.5t-6 8q0 12 8 12q104 -26 151 -26q17 0 27 4q5 2 10 2q6 0 6 -6q0 -21 -44 -21q-28 0 -73 8q-15 3 -20 3q24 -24 25 -36q0 -8 -11 -15q-6 -3 -13 -3zM357 467q-29 0 -87 10q-33 6 -67 10q-10 1 -10 10q0 13 12 13
l39 -4l-5 2q-39 21 -39 37q0 15 20 15q26 0 40 -3q43 -11 43 -36q0 -8 -3 -18q0 -6 21.5 -11t32.5 -6t11 -8q0 -11 -8 -11zM275 558q-19 0 -42 12q-31 15 -31 33q0 14 15 23q4 2 9 2q6 0 13 -4q29 -20 37 -38q3 -7 6 -7q2 0 3 1q8 2 8 9q0 9 -12 25q-7 10 -12 14.5t-5 8.5

<glyph glyph-name="th" unicode="th" horiz-adv-x="608" 
d="M267 -48q-65 0 -66 54q0 17 60 470q0 11 -6 11q-3 0 -68 -12q-9 -2 -13 -13l-20 -79q-34 -141 -34 -239q0 -78 23 -153q2 -6 2 -13q0 -25 -34 -25q-15 0 -28 11q-43 34 -51 80q-4 25 -4 67q0 168 37 310q2 9 2 14q0 9 -6 9q-9 0 -21 -4q-99 -27 -125 -27q-48 0 -54 57
q0 20 21 29.5t61 15t82.5 19.5t65 26t35.5 136q4 44 41 47q8 0 18 -3q36 -9 36 -44q0 -29 -5 -55q-9 -45 -9 -49q0 -12 13 -12q54 8 58.5 12.5t61.5 303.5q6 34 37 34l9 -1q35 -2 35 -38q0 -40 -40 -255l-5 -24q0 -7 6 -7l3 1q212 32 260 32q22 0 45 -2q59 -7 61 -66
q0 -25 -21 -26q-9 0 -16 2q-33 10 -70 10q-28 0 -280 -47q-4 -1 -8.5 -5.5t-7.5 -33.5q-27 -173 -27 -190q0 -10 4 -10q5 0 16 21q42 75 99 137q22 24 49 25q14 0 28 -7q31 -16 33 -49l-1 -22q-24 -202 -24 -273q0 -43 31 -76q16 -16 17 -28q0 -9 -10 -21q-18 -21 -43 -22
q-15 0 -30 8q-48 25 -51.5 78.5t-3.5 117.5q0 35 2 70q3 43 3 52q-1 16 -5 16q-18 0 -71 -145q-42 -116 -45 -145q-6 -54 -52 -55z" />
    <glyph glyph-name="tt" unicode="tt" horiz-adv-x="434" 
d="M137 -169q-8 0 -16 4q-43 19 -57 56q-17 45 -23 145q-2 28 -2 59q0 115 30 329l1 8q0 10 -7 10q-83 -25 -109 -25q-59 0 -59 58q0 24 26.5 33t69.5 18q82 17 102 35q11 9 14 23q30 125 77 282q12 39 40 39q9 0 20 -4q40 -15 40 -44q0 -10 -6 -24q-19 -51 -33 -103
q-34 -135 -34 -144q0 -8 9 -8q85 17 94.5 23t15.5 32q28 130 37 139q18 20 46 20q37 0 38 -42q0 -25 -15 -95q-2 -10 -2 -18q0 -15 17 -15q103 17 159 18q27 0 57 -3q49 -4 58 -68q0 -25 -22 -26q-7 0 -16 2q-18 5 -72 5l-62 -2q-137 -3 -151 -61q-63 -283 -63 -378
q0 -69 21 -138q2 -6 2 -13q0 -13 -11.5 -19.5t-21.5 -6.5q-15 0 -29 12q-49 42 -54 131l-1 44q0 78 11 147t34 197q3 13 3 20q0 11 -6 11q-105 -10 -108 -38q-47 -241 -47 -391q0 -81 9 -131q6 -33 28 -65q5 -7 5 -12q0 -6 -5 -13q-10 -12 -32 -13z" />
    <glyph glyph-name="ck" unicode="ck" horiz-adv-x="565" 
d="M289 -237q-44 1 -47 44q-2 20 -2 52q0 72 11 126q4 17 4 24q0 3 -1 3q-4 0 -14 -10q-49 -52 -107 -52q-28 0 -48 6q-79 24 -81 101v16q0 147 71 265q29 48 70 51l19 -1q61 -4 61 -75q0 -16 -5 -28q-11 -25 -64 -34q-17 -3 -26 -8q-14 -8 -28.5 -56t-14.5 -100
q0 -66 48 -66q73 0 132 166q45 128 92 374q8 40 41 40q7 0 12 -1q35 -11 35 -43q0 -8 -2 -16q-49 -174 -49 -216q0 -15 5 -15q8 0 45 46q30 37 62 71q20 20 42 20q23 0 43 -19q10 -11 10 -22q0 -12 -21 -23q-8 -5 -13 -10q-57 -61 -104 -129q-98 -142 -98 -162q0 -9 20 -9
q85 6 114 6q34 0 88 -17q31 -10 31 -31q0 -20 -11 -20q-19 0 -30 3q-31 8 -75 8q-160 0 -164 -42q-13 -142 -14 -164t-7 -37.5t-30 -15.5z" />
    <glyph glyph-name="xi" unicode="xi" horiz-adv-x="524" 
d="M49 -98h-4q-5 0 -11 2q-33 12 -33 36q0 11 7 24l27 46q44 76 44 128q0 29 -8 77q-18 103 -18 212q0 91 7 109q6 13 30 13q51 0 54 -53q8 -124 15 -194q5 -53 19 -53q13 1 45 42q75 96 167 150q20 12 45 12t51.5 -19t26.5 -50q0 -20 -21 -89q-43 -141 -43 -204
q0 -42 18.5 -59t18.5 -35q0 -19 -22 -28q-6 -3 -14 -3q-14 0 -27 6q-66 29 -66 105q0 46 25 140.5t25 131.5q0 19 -8 19q-7 0 -19 -10q-102 -88 -177 -199q-15 -23 -15 -47q0 -77 71 -95q25 -6 25 -27q0 -24 -26 -25h-16q-59 0 -95 42q-14 15 -24 15q-16 -1 -30 -53
q-17 -65 -44 -67zM495 492h-10q-31 8 -31 50q0 44 27 128q6 18 24 19q14 0 24 -4q41 -16 41 -45q0 -30 -43 -121q-12 -27 -32 -27z" />
    <glyph glyph-name="ff" unicode="ff" horiz-adv-x="506" 
d="M61 -442q8 1 31 132q18 105 18 163q-5 59 -17 70q-3 -3 -6 -7t-8 -39q-26 -173 -26 -294q0 -25 8 -25zM68 -521l-25 1q-66 10 -74 74q-5 40 -5 70q0 101 31 264q3 14 3 26q0 5 -0.5 8.5t-2.5 12t-27 19.5t-27 27q0 3 1 13.5t26 22.5q62 28 74 103q10 65 35 164
q14 56 26 67q7 6 20 6q49 0 49 -39q0 -33 -35 -161q-6 -24 -6 -40q0 -24 15 -24q13 0 67 23.5t58 72.5q12 129 54 253q14 44 48 44q7 0 12 -1q36 -9 36 -51q0 -9 -1 -16q-52 -234 -53 -234q-3 -10 -3 -18q0 -10 7 -10q8 1 24 8q39 17 91 17q68 0 86 -41q0 -36 -38 -36
q-15 0 -28 11q-3 3 -12 3q-21 -1 -90 -31q-63 -26 -75 -78q-9 -40 -9 -72q0 -15 6 -33q35 -97 35 -160q0 -25 -5 -51q-14 -81 -71 -84h-11q-60 3 -64 71q0 108 13 208q2 17 2 30q0 27 -9 59.5t-64 39.5q-23 0 -23 -13q0 -8 3 -14q42 -84 42 -234q0 -41 -4 -103.5t-35 -121.5
q-24 -47 -67 -52z" />
    <glyph glyph-name=".notdef" horiz-adv-x="500" 
d="M252 126q2 0 2 4q0 20 -47 20q-5 0 -5 -1q0 -2 28 -15q17 -8 22 -8zM284 283q9 1 9 7q0 11 -24 40q-5 6 -5 9q0 4 3 4q-46 0 -68 10q-2 0 -2 -1q7 -33 7 -36q9 13 21 13q7 0 14 -4q29 -20 38 -38q2 -4 7 -4zM256 284q2 0 2 3q-4 6 -15 12q-15 8 -19 8q-2 0 -2 -3
q0 -2 1 -2q31 -18 33 -18zM290 503q2 1 2 4q0 17 -29 26q-24 8 -38 8q-6 0 -6 -2t5 -5q42 -26 66 -31zM257 583l1 1q0 7 -13 13q-17 8 -20 8q-2 0 -2 -2t1 -3q30 -17 33 -17zM310 174q-4 0 -10 7t-22 22q-37 33 -52 33q-7 0 -7 -7q0 -8 7 -30l1 -5q0 -7 -8 -11q0 -1 -1 -1
q-3 0 -5 5q-9 24 -9 41q0 29 22 29q14 0 40 -20q13 -11 15 -11q1 0 1 1l-1 14q0 10 8 20q5 5 12 5q13 0 13 -9q0 -11 -8.5 -11t-8.5 -4q0 -14 16 -41q5 -8 5 -15q0 -12 -8 -12zM275 261q-21 0 -42 10q-31 16 -31 36q-3 -4 -9 -4q-8 0 -14 42q-5 20 -45 23q-22 2 -22 16
q0 7 10 7q5 0 19 -2.5t20 -2.5q3 0 3 12q0 11 -4.5 35t-4.5 37q0 6 1 16t18 10q4 0 4 -4q0 -2 -1 -5.5t-1 -15.5q0 -91 15 -94q51 -12 79 -12q16 0 37 3q6 0 6 -6q0 -2 -3 -6q-13 -13 -35 -13q12 -4 22 -17.5t10 -29.5q0 -35 -32 -35zM278 383q-17 0 -40 6q-7 2 -13 3t-6 7
q0 14 8 14h5q34 -8 44 -8q3 0 3 2q0 5 -27.5 24.5t-33.5 21.5t-6 8q0 12 8 12q104 -26 151 -26q17 0 27 4q5 2 10 2q6 0 6 -6q0 -21 -44 -21q-28 0 -73 8q-15 3 -20 3q24 -24 25 -36q0 -8 -11 -15q-6 -3 -13 -3zM357 467q-29 0 -87 10q-33 6 -67 10q-10 1 -10 10q0 13 12 13
l39 -4l-5 2q-39 21 -39 37q0 15 20 15q26 0 40 -3q43 -11 43 -36q0 -8 -3 -18q0 -6 21.5 -11t32.5 -6t11 -8q0 -11 -8 -11zM275 558q-19 0 -42 12q-31 15 -31 33q0 14 15 23q4 2 9 2q6 0 13 -4q29 -20 37 -38q3 -7 6 -7q2 0 3 1q8 2 8 9q0 9 -12 25q-7 10 -12 14.5t-5 8.5
q0 6 8 6q12 0 26 -20q9 -12 9 -29q0 -36 -32 -36zM276 58q-10 0 -14 21q-3 17 -9 20l-101 52q-12 6 -12 18q0 16 8 16l7 -1q73 -19 115 -19q38 0 68 12q4 0 4 -6t-4 -10q-17 -15 -46 -17q-20 -2 -20 -6q0 -11 3 -19.5t20 -10.5q22 -1 22 -8q0 -15 -16 -15q-4 0 -8.5 1.5
t-6.5 1.5q-3 0 -3 -2t3 -9t3 -9q0 -3 -4.5 -6.5t-8.5 -3.5zM427 24v652h-354v-652h354zM451 0h-402v700h402v-700z" />
    <glyph glyph-name=".null" horiz-adv-x="0" 
 />
    <glyph glyph-name=".null" horiz-adv-x="0" 
 />
    <glyph glyph-name="nonmarkingreturn" horiz-adv-x="508" 
 />
    <glyph glyph-name="space" unicode=" " horiz-adv-x="229" 
 />
    <glyph glyph-name="space" unicode="&#xa0;" horiz-adv-x="229" 
 />
    <glyph glyph-name="exclam" unicode="!" horiz-adv-x="321" 
d="M130 -178h-3q-6 0 -14 4q-36 21 -36 97q0 90 51 90q56 -1 58 -34q0 -10 -2 -23q-15 -132 -54 -134zM127 110q-7 0 -20 4q-28 9 -30 130q0 136 82 349q6 15 11 32q16 61 55 61q13 0 26 -5q32 -13 32 -41q0 -11 -5 -24q-106 -252 -112 -454q-1 -29 -17 -42q-11 -9 -22 -10z
" />
    <glyph glyph-name="quotedbl" unicode="&#x22;" horiz-adv-x="418" 
d="M309 423q-7 0 -12 2q-61 27 -66 77q0 79 82 125q10 5 21 6q22 0 39 -19q6 -8 7 -17q0 -19 -27.5 -57.5t-27.5 -68.5l5 -30q0 -15 -21 -18zM176 378l-15 1q-74 25 -74 101q0 36 18.5 81.5t49.5 84.5q13 15 29 16q20 0 37.5 -11t18.5 -24q0 -20 -28 -73q-35 -58 -35 -101
q0 -18 14 -60q0 -13 -15 -15z" />
    <glyph glyph-name="numbersign" unicode="#" horiz-adv-x="377" 
d="M162 184q10 0 18 8q5 4 5 15q0 7 -2 16q-7 35 -18 35q-3 0 -6 -3q-20 -15 -20 -29q1 -14 7 -27.5t16 -14.5zM219 26q-9 0 -27 27q-12 17 -17 17q-9 0 -15 -23q-3 -9 -13 -9q-4 0 -8 2q-23 10 -23 32q0 15 9 29t9 26q0 13 -16 34q-5 7 -8.5 13.5t-7.5 6.5q-6 0 -21 -23
q-69 -99 -71 -103q-9 -17 -18 -17q-6 0 -13 5q-20 12 -20 26q0 8 7 19q58 90 90 130q12 16 12 28q0 18 -23 39q-10 10 -10 16q0 3 4.5 8t11.5 5t22 -10q9 -6 13 -12q7 -9 12 -9t14 9q19 19 19 32q0 8 -6 19q-12 21 -25 55q-6 17 -6 25q0 12 14 12q7 0 14 -5q26 -19 34 -50
q5 -15 11 -15t42 46q9 11 19 11t23.5 -9.5t13.5 -21.5q0 -13 -57 -77q-10 -11 -10 -21q0 -9 10 -18q4 -4 8 -4q5 0 19 22q53 82 72 82q9 0 20.5 -8t11.5 -19q0 -8 -7 -18l-74 -102q-10 -13 -10 -27q0 -10 6 -21q20 -33 32 -61.5t12 -60.5q0 -5 -1.5 -13.5t-14.5 -8.5
q-8 0 -42 72l-24 43q-17 -17 -17 -33q0 -30 28 -54q17 -17 17 -27q0 -11 -25 -11z" />
    <glyph glyph-name="percent" unicode="%" horiz-adv-x="468" 
d="M98 440q2 0 9 6q32 30 44 61q11 27 11 41q-3 12 -5 12q-3 -1 -7 -8q-26 -42 -42 -77q-12 -25 -12 -33q0 -2 2 -2zM341 18q4 0 13 15q17 28 23 66q0 12 -4 12q-14 -28 -28 -77q-4 -13 -4 -16zM83 328q-16 0 -33 9q-47 23 -53 59q0 20 5 34q54 130 83 189q15 31 43 31
q22 0 47 -16q50 -30 63 -79q0 -78 -78 -174q-43 -53 -77 -53zM73 -298q-12 0 -24 4q-47 16 -47 82q0 18 2.5 59t45.5 158q90 243 310 636q14 25 27 51q17 40 38 43q18 0 38 -14q14 -10 18 -29q0 -15 -12 -36q-147 -250 -273 -511q-78 -159 -119 -332q-3 -14 -3 -27
q2 -18 11 -26q15 -12 21 -29q0 -6 -5 -14q-9 -13 -28 -15zM333 -105q-33 0 -61 27q-19 18 -21 40l1 14q19 185 81 194l21 1l29 -1q66 -4 66 -85q0 -101 -72 -173q-18 -17 -44 -17z" />
    <glyph glyph-name="ampersand" unicode="&#x26;" horiz-adv-x="470" 
d="M169 -13q6 0 19 6q4 0 8 2q19 78 19 84q0 7 -3 7q-10 0 -29 -23q-32 -41 -32 -64q0 -12 18 -12zM98 245l14 1q68 14 126 46q9 6 16 8q10 6 17.5 11t16.5 33q31 115 61 209l3 13q0 9 -7 9q-24 0 -133 -98q-103 -88 -144 -182q-5 -15 -6 -26q0 -24 36 -24zM209 -383
q-11 0 -34 7q-23 12 -23 79q0 98 20 178l3 17q0 7 -14 7q-84 5 -121 79q-9 20 -9 37q0 39 60 93q16 17 16 28q0 12 -29 22q-123 48 -123 138q0 48 31 105q100 164 423 334q2 3 2 6q23 65 49 128q12 25 41 25q52 0 52 -34q0 -16 -24 -74q49 -8 84 -32q16 -12 16 -34
q-2 -22 -25 -22l-23 1q-8 0 -15 -2l-32 -15q-28 -11 -42 -25q-28 -27 -130 -356q34 -34 34 -57q0 -16 -31 -33q-42 -19 -45 -52q-31 -112 -33 -134q0 -6 3 -6q13 4 24 4q40 0 62 -51q4 -9 4 -16q0 -21 -34 -24q-10 -2 -18 -6q-20 -9 -34.5 -11.5t-23.5 -8.5t-13 -26
q-21 -125 -21 -200q0 -17 2.5 -24.5t2.5 -16.5q0 -14 -12 -21t-20 -7z" />
    <glyph glyph-name="quotesingle" unicode="'" horiz-adv-x="164" 
d="M39 460q-12 0 -23 9t-11 20t7 35q16 56 29 113q7 27 29 27q58 -6 58 -61q0 -91 -66 -135q-12 -8 -23 -8z" />
    <glyph glyph-name="parenleft" unicode="(" horiz-adv-x="325" 
d="M141 -172h-15q-101 0 -122 178q-4 32 -4 160q0 51 27 179t72.5 220t100.5 95l39 -5q30 -3 30 -32q0 -21 -38 -39q-46 -22 -80 -131t-52 -228q-16 -104 -16 -191q1 -44 18 -101q10 -37 61 -67q9 -5 9 -14q0 -18 -30 -24z" />
    <glyph glyph-name="parenright" unicode=")" horiz-adv-x="336" 
d="M12 -158q-15 0 -25 8q-6 5 -6 13q0 9 9 21q137 200 192 438q16 67 16 133q0 104 -40 203q-9 22 -25.5 38.5t-16.5 25.5q4 17 23 17q21 0 50 -19q94 -64 94 -289q0 -135 -53 -284.5t-165 -280.5q-21 -24 -53 -24z" />
    <glyph glyph-name="asterisk" unicode="*" horiz-adv-x="367" 
d="M157 312q-25 5 -35.5 22.5t-10.5 33.5q0 5 2.5 15t2.5 17q0 5 -12 7q-10 0 -18 -12q-3 -6 -7 -9t-8 -7q-16 -18 -29 -18q-10 0 -23 13q-18 18 -18 36q5 28 32 42q63 33 63 80q0 33 -31 74q-20 26 -20 35q0 12 12 18q7 4 14 4l16 -8q7 -7 29 -43q11 -17 16 -17q8 0 18 50
q6 27 13.5 49t29.5 22q40 0 40 -45q0 -18 -5 -45q-3 -14 -3 -21q0 -6 2 -6q5 0 37 29q13 12 23 12q14 0 23 -22q3 -9 3 -16q0 -17 -20 -35q-67 -60 -67 -89q0 -25 52 -97q15 -21 15 -32q-5 -18 -22 -18q-11 2 -31 24q-15 13 -22 27q-11 20 -22 20q-13 0 -13 -23
q0 -67 -26 -67z" />
    <glyph glyph-name="plus" unicode="+" horiz-adv-x="550" 
d="M305 -54q-15 0 -32 15q-36 35 -38 77l-1 21q0 32 7 64q4 18 4 30q0 27 -18 27q-14 0 -40 -13q-51 -26 -89 -26q-17 0 -29 12q-18 18 -18 43q0 20 31 26q45 9 100 26q31 10 63 19q24 6 32 40l25 108q9 37 35 37q5 0 12 -2q42 -10 42 -49q0 -15 -10 -36q-18 -39 -18 -56
q0 -26 44 -26q23 0 59 3q39 0 39 -45q0 -44 -34 -44l-7 1q-59 14 -87 14q-15 0 -29 -10t-20 -97q-2 -24 -2 -49q0 -46 7 -67q3 -11 3 -21q-1 -11 -14 -18q-9 -4 -17 -4z" />
    <glyph glyph-name="comma" unicode="," horiz-adv-x="182" 
d="M22 -144q-20 0 -20 18q0 12 20 50q33 62 33 104q0 18 -4 37v12q0 14 16 15q10 0 19 -3q58 -20 58 -75q0 -49 -31 -95q-43 -63 -91 -63z" />
    <glyph glyph-name="hyphen" unicode="-" horiz-adv-x="489" 
d="M94 154q-28 0 -48 28q-12 16 -12 28q0 16 12 21q7 2 26 2q132 25 204 25q64 0 142 -24q35 -11 35 -46q0 -26 -18 -26q-6 0 -10 1t-7 1q-87 18 -143 18q-63 0 -161 -25q-10 -3 -20 -3z" />
    <glyph glyph-name="hyphen" unicode="&#xad;" horiz-adv-x="489" 
d="M94 154q-28 0 -48 28q-12 16 -12 28q0 16 12 21q7 2 26 2q132 25 204 25q64 0 142 -24q35 -11 35 -46q0 -26 -18 -26q-6 0 -10 1t-7 1q-87 18 -143 18q-63 0 -161 -25q-10 -3 -20 -3z" />
    <glyph glyph-name="period" unicode="." horiz-adv-x="151" 
d="M69 -57q-57 1 -57 60q0 60 53 60q26 0 45 -10q15 -7 15 -23q-2 -9 -4 -26q-3 -22 -12.5 -41.5t-39.5 -19.5z" />
    <glyph glyph-name="slash" unicode="/" horiz-adv-x="274" 
d="M135 -234h-6q-7 0 -19 1t-28 14t-18 37q1 293 190 841q12 34 43 37q48 0 48 -49q0 -17 -29 -104q-163 -492 -163 -675q0 -42 11 -81q0 -19 -29 -21z" />
    <glyph glyph-name="zero" unicode="0" horiz-adv-x="324" 
d="M102 -4q29 3 56 50t45.5 111.5t18.5 100.5q0 52 -45 84q-9 6 -17 6q-31 0 -75 -192q-15 -65 -15 -105q0 -55 32 -55zM109 -74q-24 0 -48 10q-61 25 -66 99l-1 36q0 172 85 324q19 33 41 35q24 0 45.5 -20.5t49.5 -33.5q23 -12 43 -28q39 -31 39 -114q0 -58 -26 -144
t-93 -139q-33 -25 -69 -25z" />
    <glyph glyph-name="one" unicode="1" horiz-adv-x="182" 
d="M72 -30h-5q-11 0 -26 8q-48 29 -53 81q10 143 32 246q17 72 29 145q4 21 27 24q58 -6 62 -39q0 -18 -4 -37q-44 -167 -56 -330q2 -33 8.5 -47.5t7.5 -27.5q0 -20 -22 -23z" />
    <glyph glyph-name="two" unicode="2" horiz-adv-x="393" 
d="M28 -56q-13 0 -27 11q-32 22 -32 43q0 17 27 40q80 70 150.5 148.5t118.5 174.5q8 15 8 25q0 13 -18 13q-16 0 -43.5 -11.5t-56 -29t-37.5 -27.5t-19 -10q-11 0 -21 9q-25 24 -25 44q0 21 35.5 46.5t112.5 34.5q15 2 30 2q55 0 87 -27q39 -33 39 -72q0 -29 -21 -61
q-53 -85 -122 -159q-17 -18 -17 -25q0 -10 30 -10q71 0 117 -46q9 -9 9 -17q0 -18 -20 -18q-38 14 -71 14q-56 0 -140 -49q-32 -18 -59 -32q-21 -11 -35 -11z" />
    <glyph glyph-name="three" unicode="3" horiz-adv-x="371" 
d="M-11 -159q-28 1 -47.5 12t-19.5 33q0 17 17 17l13 -1q9 0 16 3q198 97 270 279q4 10 4 19q0 19 -24 19l-14 -3q-68 -13 -125 -51q-19 -12 -34 -12q-28 1 -52 38q-8 12 -8 21q0 10 34 35q79 58 140 133q14 17 14 26t-15 9q-23 0 -90 -27q-16 -6 -28 -6q-28 1 -44 39
q-2 4 -2 8q1 15 29 27q55 24 113 24q89 0 119 -59q7 -15 7 -29q-1 -27 -39 -67q-18 -18 -18 -26q0 -9 23 -17q98 -35 98 -108q0 -32 -24 -76q-91 -165 -262 -250q-21 -10 -51 -10z" />
    <glyph glyph-name="four" unicode="4" horiz-adv-x="409" 
d="M270 -55q-16 1 -29 18q-32 39 -32 85q0 39 20 105q7 23 7 31q0 11 -6 11q-12 0 -54 -31t-94 -52q-21 -9 -42 -9q-28 2 -48.5 22.5t-20.5 43.5q2 20 17 40q109 142 220 284q11 15 27 15q17 -1 31 -12q17 -14 17 -32q-1 -15 -12 -29q-156 -194 -156 -204q0 -4 12 -4
q21 0 166 87q10 6 21 6q18 -1 45 -25q12 -10 12 -23q-1 -16 -9 -30q-13 -25 -32 -75q-34 -88 -38 -142q0 -24 4 -36.5t4 -23.5q0 -20 -30 -20z" />
    <glyph glyph-name="five" unicode="5" horiz-adv-x="342" 
d="M97 -73q-58 8 -58 45q0 7 5.5 10.5t16 4t17.5 4.5q63 42 97 108q5 10 5 17q0 16 -23 16q-112 0 -154 72q-11 18 -11 40q0 21 9.5 43t16.5 42q16 45 40 84.5t72 63.5q25 13 43 13q12 0 26.5 -6.5t28.5 -6.5q18 0 36 3t40 3q21 0 50.5 -14t29.5 -35q0 -22 -20 -22
q-8 0 -16 3q-14 5 -46 5q-69 0 -137.5 -47t-87.5 -134l-1 -12q0 -23 34 -25q29 -2 70 -13q101 -27 101 -92q0 -26 -38 -70q-33 -39 -74.5 -69t-71.5 -31z" />
    <glyph glyph-name="six" unicode="6" horiz-adv-x="336" 
d="M99 -19q23 3 75.5 102t52.5 148q-5 33 -41 33q-52 0 -73 -44q-38 -77 -38 -175q0 -64 24 -64zM118 -90q-17 0 -36 8q-77 29 -90 125q-8 69 -8 80q0 55 28 166t72 196q40 76 69 79q36 -6 40 -30q0 -14 -5 -27l-41 -99q-30 -73 -30 -104q0 -16 11 -16q7 0 16 6q30 17 60 17
q27 0 54 -15q36 -22 36 -72q-7 -138 -94 -266q-33 -48 -82 -48z" />
    <glyph glyph-name="seven" unicode="7" 
d="M77 -189q-34 0 -47 34q-10 25 -10 50q0 12 2 24q17 88 49 172q59 155 103 238q25 48 25 54q0 15 -37 15q-28 0 -95 -13q-34 -7 -47 -7q-20 0 -36.5 11t-17.5 34q0 16 11 19q7 1 15 1q150 13 266 55q14 4 26 4q29 0 50 -26q10 -11 10 -22q0 -14 -15 -38
q-131 -208 -204 -442q-19 -61 -19 -105q0 -27 -3.5 -41t-25.5 -17z" />
    <glyph glyph-name="eight" unicode="8" horiz-adv-x="352" 
d="M103 -36q14 0 28 28q26 54 26 134q0 16 -3 42t-21 26q-23 0 -39 -107q-7 -46 -7 -88q0 -28 5.5 -31.5t10.5 -3.5zM181 249q7 0 11 10l23 48q33 70 41 146q0 29 -31 29q-113 -12 -183 -93q-13 -15 -13 -26q0 -16 32 -32q57 -28 102 -73q8 -9 18 -9zM126 -114q-21 0 -48 13
q-60 28 -69 93q-2 20 -2 41q0 46 16 106t42 105q4 7 4 14q0 21 -52 50q-63 35 -63 70q0 10 8 31.5t79 67.5q82 54 174 54q58 0 96 -27q34 -23 34 -69q0 -51 -68 -181q-40 -75 -46 -157q-12 -143 -60 -192q-17 -19 -45 -19z" />
    <glyph glyph-name="nine" unicode="9" horiz-adv-x="425" 
d="M166 -209q-48 0 -107 59q-14 13 -14 21q0 12 15 12q8 0 17 -5q25 -13 46 -13q44 0 77 60q13 25 47 157q31 118 31 163q-1 20 -8 20q-8 0 -75 -79l-107 -126q-32 -36 -65 -37q-15 0 -28 5q-69 28 -71 73q0 52 50 135q98 197 191 254q22 14 46 15q37 0 74 -33q7 -6 7 -18
q0 -19 -13 -20q-5 0 -13.5 3.5t-16.5 3.5q-30 0 -90 -83q-68 -94 -116 -184q-26 -47 -26 -60q0 -4 2 -4q5 0 20 16q128 130 240 274q16 20 31 21q8 0 18 -3q43 -14 43 -52q-16 -140 -25 -204q-43 -294 -143 -359q-16 -11 -37 -12z" />
    <glyph glyph-name="colon" unicode=":" horiz-adv-x="151" 
d="M69 -57q-57 1 -57 60q0 60 53 60q26 0 45 -10q15 -7 15 -23q-2 -9 -4 -26q-3 -22 -12.5 -41.5t-39.5 -19.5zM69 330q-57 1 -57 60q0 60 53 60q26 0 45 -10q15 -7 15 -23q-2 -9 -4 -26q-3 -22 -12.5 -41.5t-39.5 -19.5z" />
    <glyph glyph-name="semicolon" unicode=";" horiz-adv-x="166" 
d="M22 -144q-20 0 -20 18q0 12 20 50q33 62 33 104q0 18 -4 37v12q0 14 16 15q10 0 19 -3q58 -20 58 -75q0 -49 -31 -95q-43 -63 -91 -63zM69 330q-57 1 -57 60q0 60 53 60q26 0 45 -10q15 -7 15 -23q-2 -9 -4 -26q-3 -22 -12.5 -41.5t-39.5 -19.5z" />
    <glyph glyph-name="semicolon" unicode="&#x37e;" horiz-adv-x="166" 
d="M22 -144q-20 0 -20 18q0 12 20 50q33 62 33 104q0 18 -4 37v12q0 14 16 15q10 0 19 -3q58 -20 58 -75q0 -49 -31 -95q-43 -63 -91 -63zM69 330q-57 1 -57 60q0 60 53 60q26 0 45 -10q15 -7 15 -23q-2 -9 -4 -26q-3 -22 -12.5 -41.5t-39.5 -19.5z" />
    <glyph glyph-name="less" unicode="&#x3c;" horiz-adv-x="306" 
d="M253 99q-35 0 -105 17q-131 30 -131 110q0 19 26 56t59 69q36 36 57 36q32 0 48 -30q4 -7 4 -13q0 -14 -18 -30q-2 -1 -19 -18q-39 -39 -62 -60q-19 -19 -19 -29q0 -3 5.5 -10t61 -15.5t102.5 -38.5q20 -13 20 -28q0 -16 -29 -16z" />
    <glyph glyph-name="equal" unicode="=" horiz-adv-x="504" 
d="M44 124q-28 0 -48 28q-12 16 -12 27q0 17 12 22q7 2 26 2q148 25 251 25q80 0 160 -24q33 -11 33 -46q0 -26 -17 -26q-6 0 -10 1q-76 19 -166 19q-87 0 -209 -25q-11 -3 -20 -3zM44 275q-28 0 -48 28q-12 16 -12 27q0 17 12 22q7 2 26 2q148 25 251 25q80 0 160 -24
q33 -11 33 -46q0 -26 -17 -26q-6 0 -10 1q-76 19 -166 19q-87 0 -209 -25q-11 -3 -20 -3z" />
    <glyph glyph-name="greater" unicode="&#x3e;" horiz-adv-x="309" 
d="M71 62q-20 0 -36 20q-8 11 -8 20q0 11 20 28l4 2q39 36 67 59q62 49 62 67q0 1 -2 10t-128 49q-21 7 -35 23q-10 10 -10 25q5 26 14 26t23 -7q9 -5 17 -6q83 -13 156 -55q55 -32 55 -79q0 -26 -22 -51q-64 -73 -148 -122q-15 -9 -29 -9z" />
    <glyph glyph-name="question" unicode="?" horiz-adv-x="434" 
d="M167 -234q-32 0 -33 52q-1 12 -1 26q0 25 7 45t44 24q16 0 32 -7t16 -38q0 -83 -58 -100zM132 -15q-25 0 -56 15t-35 51q0 32 28 70q110 149 177 249q61 91 106 191q25 57 25 91q0 16 -6 28q-13 25 -43 25q-11 0 -40 -7.5t-80 -59.5q-16 -16 -27 -44q-17 -42 -33 -44
q-7 0 -11 1q-44 19 -44 55q0 7 2 15q13 47 59.5 88.5t86.5 46.5q20 3 39 3q49 0 84 -14q106 -40 106 -126q0 -110 -243 -439l-71 -95q-20 -28 -20 -41q1 -11 17.5 -17.5t16.5 -20.5q0 -21 -38 -21z" />
    <glyph glyph-name="at" unicode="@" horiz-adv-x="755" 
d="M211 -173q-211 0 -222 208q0 4 5 60.5t64.5 158t142.5 181.5q150 143 313 144q152 -12 203 -154q17 -46 17 -96q0 -51 -25.5 -134t-134.5 -175q-24 -20 -53 -20q-81 0 -112 87q-10 30 -21 31q-11 0 -32 -18q-28 -24 -100 -70q-22 -14 -41 -14q-30 0 -55 29q-16 19 -16 36
q0 35 110 155q47 51 111 84q17 9 33 9q34 0 51 -25q6 -9 6 -18t-5.5 -19t-14.5 -10q-10 0 -18.5 6t-14.5 6q-10 0 -22 -8q-47 -31 -86 -78q-54 -66 -54 -81q0 -4 4 -4q26 9 89 60q55 44 68 59t28 15q11 0 24 -6q31 -15 31 -49q-1 -15 -8.5 -34t-7.5 -38q0 -16 18 -25
q11 -6 22 -6q28 0 70 44q100 103 100 210q0 55 -29 111q-44 86 -125 86q-18 0 -38 -5q-152 -37 -276 -179.5t-136 -297.5v-12q0 -132 134 -132q68 0 230 48q78 24 90 24q13 0 13 -8q0 -2 -4 -13.5t-49.5 -43.5t-114.5 -56q-92 -23 -162 -23z" />
    <glyph glyph-name="A" unicode="A" horiz-adv-x="362" 
d="M128 192q10 0 24 3q36 8 40 35l5 32q18 93 18 132q0 17 -4 17q-9 0 -67 -117q-36 -75 -36 -94q0 -8 20 -8zM305 -188q-22 0 -42 20q-33 36 -47.5 91.5t-21.5 106.5q-6 38 -12.5 61.5t-17.5 23.5q-47 0 -77 -10t-40 -53q-3 -14 -5 -37q-11 -82 -23 -90q-8 -6 -18 -6
q-15 0 -33 13q-34 23 -34 57q0 16 7.5 36t7.5 30q0 11 -11 11q-9 0 -38 -12.5t-37 -12.5q-15 0 -29.5 17.5t-14.5 39.5q0 23 25.5 35.5t66.5 20.5q70 15 94 37l210 439q27 53 80 53q19 0 40 -6q35 -12 35 -36q0 -21 -10 -52q-78 -288 -78 -466q0 -185 47 -264q10 -16 10 -23
q0 -8 -11 -16t-23 -8z" />
    <glyph glyph-name="A.salt" unicode="&#xe000;" 
d="M143 284q25 4 28 19l2 13q10 48 10 77q0 9 -3 9q-15 -8 -47 -69q-14 -26 -14 -41q1 -8 24 -8zM244 -76q-17 0 -36 18q-38 34 -44 85q-2 29 -2 56q0 22 2 45t2 41q0 33 -20 33q-29 -2 -54 -13t-33 -23q-36 -64 -43 -110q-1 -27 -24 -27q-11 0 -34 14.5t-24 32.5
q0 11 16 36q7 13 7 19q0 5 -6 5q-13 0 -61 -20q-24 -11 -38 -12q-16 0 -28 10q-22 20 -23 44q0 24 31 28q76 19 126 44t56 37q21 43 42 98q28 75 68 152t106 129q14 10 30 11q28 0 46 -22q8 -11 9 -23q0 -8 -2 -16q-19 -59 -36 -186q-28 -201 -28 -340q0 -80 14 -108
q5 -9 6 -18q0 -8 -8.5 -13.5t-16.5 -6.5z" />
    <glyph glyph-name="B" unicode="B" horiz-adv-x="508" 
d="M152 390q14 0 58 46q52 52 95 120q24 39 24 56q0 12 -13 12q-86 0 -155 -109q-4 -6 -9 -28q-11 -43 -11 -71q0 -26 11 -26zM62 -196q-7 0 -34.5 2t-43.5 19q-4 4 -4 9q0 12 33 26q45 17 119.5 68.5t146 119t106.5 131.5q18 32 18 58q0 27 -18 47q-29 28 -80 28
q-9 0 -46.5 -3.5t-92 -31.5t-64.5 -85.5t-10 -93.5q0 -32 3 -58v-9q0 -31 -32 -31q-14 0 -27 9q-27 20 -33 47q-4 18 -4 37q0 31 45 304q11 66 11 90q0 15 -7 15t-23 -20q-28 -32 -50 -32q-3 0 -17 2.5t-21 37.5q0 28 59 75.5t151 91.5q106 51 189 51q72 0 106 -59
q5 -12 5 -24q0 -59 -119 -177q-50 -52 -50 -62q0 -4 9 -5q83 -11 138.5 -41.5t55.5 -114.5q-1 -85 -61.5 -164t-141 -143t-143.5 -97q-35 -17 -73 -17z" />
    <glyph glyph-name="Bsalt" unicode="&#xe001;" horiz-adv-x="387" 
d="M133 395q5 0 25 19q54 51 95 112q25 38 25 57q0 14 -19 14q-61 -5 -100 -101q-26 -65 -26 -101zM59 -66q-49 0 -49 35q0 18 34.5 23.5t97.5 66.5q56 53 99 119q51 77 51 121q0 24 -34 24q-70 0 -147 -56q-20 -17 -20 -98q0 -60 6 -78q3 -9 3 -17q0 -9 -9.5 -15.5
t-18.5 -6.5q-34 0 -59 43q-15 24 -15 50t24 148q30 156 30 193q0 17 -5 17t-16 -14.5t-24 -14.5q-26 0 -38 22q-3 6 -3 12q0 16 21 33q143 117 266 117q89 0 112 -51q6 -14 6 -30q0 -52 -102 -161q-13 -12 -13 -19q0 -10 21 -17q89 -38 89 -117q-1 -79 -65.5 -159
t-141.5 -130q-61 -40 -100 -40z" />
    <glyph glyph-name="C" unicode="C" horiz-adv-x="475" 
d="M129 -175q-138 0 -138 164q16 353 246 623q34 38 78 38q2 0 26 -1t48 -42q12 -21 12 -50q0 -14 -3 -30q-14 -58 -45 -58q-15 0 -18 13t-3 28q0 10 -1 27.5t-11 17.5q-24 0 -55 -48q-113 -163 -149 -351q-19 -97 -19 -159q0 -58 17 -84q8 -16 38 -16q65 0 234 125l13 12
q18 20 32 20q6 0 18 -7t13 -16q0 -27 -33.5 -65.5t-108.5 -81t-154 -55.5q-20 -4 -37 -4z" />
    <glyph glyph-name="Csalt" unicode="&#xe002;" horiz-adv-x="373" 
d="M144 -54q-17 0 -48.5 7t-64.5 51q-28 38 -28 115q0 76 15 150q42 204 178 358q50 53 102 53q3 0 33 -2.5t40 -69.5v-13q0 -47 -25 -66q-27 -23 -41 -23q-27 0 -27 31q0 10 5 20q13 25 13 31q0 2 -2 2q-19 -1 -87 -110q-75 -119 -103 -265q-14 -75 -14 -140q2 -63 37 -63
q16 0 62 39t107 93q23 22 36 23q16 0 17 -18q0 -9 -5 -21q-45 -92 -125 -154q-36 -27 -75 -28z" />
    <glyph glyph-name="D" unicode="D" horiz-adv-x="444" 
d="M99 -8q32 2 119 174q56 109 102 226q56 144 56 200q0 69 -75 69q-40 -1 -68.5 -15.5t-32.5 -35.5q-42 -196 -54 -240q-43 -162 -60 -327q1 -51 13 -51zM49 -113q-18 0 -34 9q-23 13 -23 85q0 66 17 168q26 156 42.5 222t16.5 81q0 19 -24 27t-26 35q0 7 2 15
q31 113 176 166q67 25 119 25q59 0 98 -33q34 -31 34 -113q0 -15 -4 -77t-50 -180.5t-112 -223t-136 -161.5q-55 -45 -96 -45z" />
    <glyph glyph-name="Dsalt" unicode="&#xe003;" horiz-adv-x="352" 
d="M95 83q9 0 24 23q142 221 142 438q0 117 -58 117q-40 -3 -51 -62q-12 -107 -22 -145l-19 -111q-26 -145 -26 -215q0 -45 10 -45zM57 -46q-62 0 -62 121q0 185 54 460q3 14 3 20q0 5 -2 5q-4 0 -22.5 -21t-38.5 -22q-31 0 -31 36q0 20 30 64.5t113 79.5q30 12 63 14
q59 0 111 -23q45 -25 61.5 -60.5t19.5 -87.5q-6 -270 -171 -483q-76 -103 -128 -103z" />
    <glyph glyph-name="E" unicode="E" horiz-adv-x="411" 
d="M156 -101q-29 0 -50 6q-95 35 -102 144q-1 72 -5 79t-17 7q-14 -1 -44 -8q-12 -3 -22 -3q-14 0 -22 7q-21 17 -21 43q0 25 45 32q65 9 90 52q10 12 33 101q20 80 20 97q-1 17 -41 17h-13q-11 0 -19 13t-9 28q0 23 29 34q15 6 30 10q28 8 51 22.5t35.5 48.5t51.5 34
q36 0 36 -19l-1 -6q-4 -17 -4 -22q0 -15 28 -15q88 14 143 14q38 0 60 -7q30 -10 32 -41q0 -25 -19 -25q-259 0 -284 -57q-5 -19 -17 -47q-39 -104 -39 -140q0 -27 36 -27q14 0 59 9q60 13 112 13q87 0 92 -57q0 -24 -29 -26q-23 0 -90 4q-63 0 -124 -18q-55 -17 -70 -39
q-9 -14 -9 -37q0 -158 43 -159q56 0 113 50q13 11 24 11q9 0 17.5 -9t8.5 -20q0 -43 -81 -81q-25 -12 -57 -13z" />
    <glyph glyph-name="Esalt" unicode="&#xe004;" horiz-adv-x="343" 
d="M145 -33h-13q-66 0 -100.5 32.5t-34.5 83.5q0 44 32 80q16 15 16 30t-25 29q-50 30 -50 78q0 38 23 68q31 42 107.5 117t160.5 131q63 42 109 44q19 0 29 -3q44 -15 44 -57q0 -3 -12 -42q-14 0 -20.5 7.5t-18.5 7.5q-29 0 -90 -43q-118 -87 -195 -162q-56 -54 -56 -75
q0 -9 21 -9q70 5 92 5q46 0 50 -36q0 -32 -70 -103q-66 -66 -66 -89t39 -23q2 0 24 0.5t104 24.5q34 10 62 11q28 0 29 -23q0 -23 -32 -40q-84 -42 -159 -44z" />
    <glyph glyph-name="F" unicode="F" horiz-adv-x="357" 
d="M51 -153q-6 0 -33 3t-30.5 42t-3.5 65q0 67 8 126q2 20 2 33q0 26 -13 26l-71 1q-57 2 -57 30q0 3 3.5 21.5t104.5 29.5q20 2 31 4q26 6 33 42q41 205 41 218q-93 -21 -139 -21q-40 0 -44 16q-2 7 -2 13q0 40 144 69q36 5 60.5 20.5t28.5 56.5q3 22 40 22q32 0 43 -32
q6 -21 40 -21q25 0 167 19q41 0 61 -16q12 -11 12 -25q0 -8 -7 -25t-82 -18q-54 -1 -111 -7q-93 -10 -100 -26q-61 -225 -61 -243q2 -12 22 -12l62 1q147 0 147 -33q-6 -37 -35 -37q-53 0 -187 -15q-34 -4 -45.5 -89.5t-11.5 -119.5q0 -35 11 -92v-7q0 -19 -28 -19z" />
    <glyph glyph-name="Fsalt" unicode="&#xe005;" horiz-adv-x="371" 
d="M168 -37q-22 0 -40 17q-50 56 -53 135q0 25 6 151q0 36 -16 36q-13 0 -41 -16.5t-49 -17.5q-29 0 -42 30q0 35 72 63l65 22q50 16 50 125q0 27 -8 27q-10 0 -84 -27q-91 -34 -106 -35q-9 0 -22.5 3.5t-22.5 29.5q-3 10 -3 19q0 26 42 39q187 54 246 69q131 26 201 26
q21 0 36 -2q93 -15 93 -49q0 -8 -4 -16q-23 -42 -44 -42q-22 0 -47 16q-32 21 -63 21q-41 -1 -75 -23q-24 -16 -40 -80q-6 -23 -6 -38q0 -27 18 -28q69 0 103 -23q14 -11 14 -29q0 -3 -1 -15t-15 -13l-66 3q-22 0 -39 -5q-55 -14 -55 -201q0 -84 13 -121q5 -16 5 -27
q0 -24 -22 -24z" />
    <glyph glyph-name="G" unicode="G" horiz-adv-x="599" 
d="M416 -267q-17 0 -32 13q-32 31 -36 113q0 83 28 210q12 62 12 81q0 8 -3 8q-6 0 -99 -106q-64 -71 -130 -140q-34 -33 -75 -34q-31 0 -63 18q-58 42 -58 113q0 23 14.5 88.5t87 186.5t150.5 217.5t122 132.5t88 36q112 0 112 -104q0 -38 -34 -60q-9 -5 -20 -6q-8 0 -15 6
t-7 16t5 20q13 29 13 44q0 14 -11 14q-10 0 -30 -13q-75 -53 -159.5 -159.5t-147 -227t-70.5 -217.5q0 -19 9 -19q10 1 34 23l225 229q6 5 6 15q-1 10 -8.5 11t-14.5 1q-37 0 -57 40q-4 8 -5 16q0 23 29 24t82 11q88 17 142 19q41 0 77 -9q40 -10 49 -64q0 -23 -22 -24
q-9 0 -19 3t-23 3q-105 -3 -105 -385q0 -45 2 -105q0 -39 -43 -39z" />
    <glyph glyph-name="Gsalt" unicode="&#xe006;" horiz-adv-x="463" 
d="M343 -51q-8 0 -19 5q-39 20 -48 48t-9 52q-1 29 -8 32q-6 0 -17 -15q-42 -60 -102 -60q-27 0 -63 15q-89 41 -93 124l-1 19q1 75 46.5 165.5t113 171.5t109.5 108.5t74 27.5q88 0 112 -73l1 -15q0 -20 -13 -38q-18 -26 -48 -26q-14 0 -20 14q-3 6 -3 11q0 7 7 16
q13 19 13 31q0 14 -12 14q-11 0 -32 -11q-83 -53 -146.5 -152t-94.5 -193q-20 -64 -21 -105q0 -53 28 -53q22 0 62 32q18 15 42 49q38 54 39 89q0 20 -16 31q-25 14 -25 41q0 46 105 46q78 -1 117 -17.5t39 -43.5q-1 -20 -38 -20.5t-50 -60.5t-14 -134q0 -66 4.5 -82
t4.5 -21q0 -22 -24 -22z" />
    <glyph glyph-name="H" unicode="H" horiz-adv-x="543" 
d="M399 -247h-5q-30 0 -47 26.5t-21 64.5q-1 10 -3 77q0 130 13 207q3 15 3 27q0 50 -43 50q-62 0 -135 -22q-37 -11 -45 -19q-15 -22 -24 -67q-10 -49 -10 -91q0 -31 10 -81q0 -23 -36 -23q-62 0 -66 44l-1 24q0 44 11 85t11 67q0 28 -31 28q-42 0 -54 10q-16 15 -16 49
q0 20 9.5 25.5t51.5 9.5t58.5 23.5t27.5 62.5q19 86 44 170q5 15 12 41q5 20 32 20q7 0 32 -3.5t25 -29.5q0 -15 -3 -25q-49 -152 -49 -185q0 -46 44 -46q37 0 127 16q51 10 58 43q36 144 61.5 242.5t62.5 99.5q34 0 34 -43q0 -42 -47 -258q-73 -315 -73 -472q0 -41 12 -115
v-6q0 -25 -30 -26z" />
    <glyph glyph-name="H.salt" unicode="&#xe007;" horiz-adv-x="449" 
d="M326 -86q-13 0 -25 7q-38 28 -41 72q-1 8 -1 23l2 87q0 56 -4 76q-3 14 -60 14q-82 0 -99 -37q-6 -19 -6 -40l4 -61l-1 -24q-2 -26 -34 -26q-22 0 -32.5 23.5t-16.5 63.5q-4 28 -11 52.5t-22.5 40t-16.5 30.5q0 4 1.5 14.5t33.5 19.5q27 9 31 39l36 288q5 43 48 43
q55 0 58 -38q0 -9 -2 -21q-39 -169 -39 -236q0 -32 10 -41q2 -2 21 -8q46 -15 80 -15q25 0 28 17q65 340 75 409q8 52 47 52l11 -1q45 -12 45 -47q0 -15 -22 -129q-74 -363 -74 -527q0 -39 7 -84v-7q0 -27 -31 -29z" />
    <glyph glyph-name="I" unicode="I" horiz-adv-x="305" 
d="M-67 -134q-7 0 -24 3t-17 34q0 18 10.5 27.5t45.5 25t49.5 39t50.5 227.5q59 321 59 330q0 13 -6 13q-13 0 -52 -21q-59 -34 -92 -35q-26 0 -41 24q-5 11 -5 26t35 27q206 88 298 96q34 3 58 3q76 0 76 -40q0 -1 -1.5 -12t-34.5 -14q-58 -6 -85.5 -14t-39.5 -33.5
t-35 -120.5q-60 -224 -67 -373l-1 -8q1 -29 16 -29q14 0 32 8q39 16 90 16q51 -1 51 -47q0 -28 -54.5 -30t-113.5 -26.5t-162 -83.5q-20 -12 -40 -12z" />
    <glyph glyph-name="I.salt" unicode="&#xe008;" horiz-adv-x="210" 
d="M-39 -20q-3 0 -14 1t-24 24q-6 13 -6 23q0 29 36.5 38t45.5 28q1 3 8 52q50 346 56 361l1 11q0 13 -11 13q-9 0 -26 -2q-25 0 -41 36q-3 8 -3 15t5 16q7 13 95 37q58 16 78 16q19 0 42 -12t23 -38q0 -23 -31 -33t-74 -213q-33 -157 -33 -211q0 -29 29 -34q51 -10 53 -46
q-1 -10 -22 -20.5t-51 -20.5t-59 -19t-42 -14q-18 -8 -35 -8z" />
    <glyph glyph-name="J" unicode="J" horiz-adv-x="302" 
d="M-111 -311q-49 0 -91 50q-11 12 -11 22q0 6 6 12t13 6q6 0 18 -6q27 -11 50 -11q104 0 172 215q56 177 94 464q12 93 12 103q0 29 -29 29q-41 0 -133 -39q-43 -19 -61 -19q-8 0 -27 32q-4 8 -4 14q0 23 47 40q109 40 324 70q69 10 112 10q18 0 32 -2q41 -13 41 -41
q0 -26 -40 -26q-11 0 -21.5 1.5t-18.5 1.5q-57 0 -86 -7q-24 -6 -32 -28q-6 -17 -14 -86q-80 -744 -328 -802q-13 -3 -25 -3z" />
    <glyph glyph-name="J.salt" unicode="&#xe009;" horiz-adv-x="217" 
d="M-66 -68q-117 0 -117 77q0 3 3 3q7 -1 14 -5q30 -17 60 -18q61 0 111 88.5t71 199.5q26 106 26 175q0 77 -38 78q-18 0 -35.5 -7.5t-29.5 -7.5q-35 0 -41 50q0 32 48 49q69 23 133 23q36 0 96 -11q73 -14 73 -39q0 -26 -19 -26q-2 0 -13 2.5t-22 3.5q-62 0 -67 -37
q-4 -32 -6.5 -91.5t-8.5 -127t-22 -124.5q-28 -111 -90 -182.5t-126 -72.5z" />
    <glyph glyph-name="K" unicode="K" horiz-adv-x="418" 
d="M403 -200q-17 0 -43 9t-72.5 62.5t-94.5 114t-82 129.5q-8 16 -13 16q-17 -2 -17 -132q0 -40 4 -76q0 -33 -32 -33q-61 0 -64 93q0 47 9 99q9 42 9 75q0 42 -33 57q-11 6 -11 16q0 15 19 23q44 20 53 79q30 149 63 295q11 42 43 44q20 0 34.5 -14t15.5 -35q0 -9 -3 -23
q-45 -139 -45 -185q0 -30 8 -30q6 0 19 13l70 71q129 124 241 266q15 17 39 17q2 0 15 -0.5t24 -20.5q4 -6 4 -13q0 -15 -14 -35q-173 -209 -377 -388q-22 -18 -22 -35q0 -9 4 -17q52 -111 120 -210.5t167 -175.5q15 -13 15 -28t-28 -24q-12 -4 -25 -4z" />
    <glyph glyph-name="K.salt" unicode="&#xe010;" horiz-adv-x="406" 
d="M50 -10q-45 1 -45 110q0 24 5 84q0 26 -3 37t-25 20q-13 7 -13 22q0 10 9 15q30 14 41 38q14 30 65 261q8 40 31 42q9 0 21 -4q47 -12 49 -44q0 -16 -9 -44q-26 -79 -26 -110q0 -18 9 -18q6 0 223 152q15 9 32 10q51 0 52 -37q0 -21 -33 -45q-130 -86 -262 -170
q-23 -12 -23 -26q0 -16 13 -31q70 -88 165 -143q72 -41 152 -47q27 -4 28 -17q0 -13 -37.5 -27.5t-75.5 -14.5q-101 0 -219 100q-54 47 -70 47q-1 0 -9 -2t-8 -42l2 -40q0 -23 -5 -48t-34 -28z" />
    <glyph glyph-name="L" unicode="L" horiz-adv-x="350" 
d="M-74 -162h-7q-46 0 -53 37q0 21 48 41q88 37 88 121v22q-2 30 -3 61q0 285 99 612q10 32 36 32q20 0 37.5 -9.5t17.5 -25.5q0 -6 -2 -12q-101 -407 -101 -619l1 -38q10 -76 70 -76q58 0 142 21q44 10 80 16q38 0 56 -20.5t19 -40.5q0 -27 -22 -27h-46q-97 0 -285 -57
q-128 -36 -175 -38z" />
    <glyph glyph-name="L.salt" unicode="&#xe011;" horiz-adv-x="306" 
d="M-110 -73q-25 1 -36 21.5t-11 38.5q0 3 1 15t36.5 17t60 15.5t36.5 40.5q20 49 23 164t27 235q39 187 92 187l28 -1q27 -2 30 -26l1 -13q0 -16 -4 -28q-80 -274 -87 -454q0 -45 18 -50q12 -3 26 -4q212 -13 216 -52l1 -12q0 -31 -15 -31q-11 1 -28 6q-38 12 -82 13
q-64 0 -171 -29q-53 -14 -86 -30q-48 -23 -76 -23z" />
    <glyph glyph-name="M" unicode="M" horiz-adv-x="643" 
d="M501 -157q-55 0 -60.5 48t-5.5 78q1 97 33 251q5 50 42 167q26 86 26 97q-4 0 -35 -72q-27 -61 -65 -142q-94 -200 -158 -254q-17 -15 -32 -15q-16 0 -29 20q-31 59 -33 128t-2 131q0 79 5 153v30q-12 0 -69 -263q-41 -189 -43 -242q-2 -37 -35 -37q-21 0 -40 17t-19 49
q0 15 20 130q40 237 102 426q34 104 81 104q32 0 62 -21t30 -113l-5 -313q0 -20 7 -20q18 0 112 183q48 93 101 187q114 200 172 200q7 0 14 -3q29 -15 29 -43q0 -11 -5 -25q-84 -234 -131 -405q-47 -177 -47 -283q0 -74 29 -106q6 -6 6 -12q0 -7 -11 -16q-14 -14 -46 -14z
" />
    <glyph glyph-name="M.salt" unicode="&#xe012;" horiz-adv-x="524" 
d="M438 -149q-17 0 -34 15q-53 57 -53 185q0 153 53 327q5 17 5 22l-1 1q-7 0 -122 -266q-18 -60 -74 -62q-35 0 -50 19.5t-24 43.5t-11 89t-8 65q-9 0 -37 -112l-31 -107q-20 -52 -55 -52q-32 0 -32 30q17 141 70.5 334.5t93.5 194.5q8 0 30.5 -2t45 -14t24.5 -48
q0 -37 -4 -158q-2 -70 -2 -100q0 -22 1 -22q14 0 108 164q44 74 83.5 137.5t61 79.5t46.5 16q25 -1 39 -20q7 -10 8 -25q0 -13 -8 -42q-110 -318 -110 -507q0 -67 13 -134l1 -14q0 -37 -27 -38z" />
    <glyph glyph-name="N" unicode="N" horiz-adv-x="555" 
d="M73 -141h-4q-10 0 -21 4q-45 16 -50 51q-1 6 -1 53q0 263 51 522q24 176 134 176q56 0 72 -64l18 -115q23 -152 62 -306q14 -50 21 -50q8 1 12 45q39 228 116 522l6 33q10 80 60 80q57 0 63 -40q0 -15 -7 -33q-27 -79 -72 -240q-103 -364 -103 -499q0 -24 6 -51
q0 -16 -16.5 -25.5t-37.5 -9.5q-39 0 -58 35q-103 154 -135 379q-30 199 -36 199q-4 0 -12 -28q-21 -65 -45 -284q-15 -148 -15 -221q0 -30 2 -47.5t13 -32.5q5 -6 11 -23q0 -8 -10.5 -18t-23.5 -12z" />
    <glyph glyph-name="N.salt" unicode="&#xe013;" horiz-adv-x="480" 
d="M44 15q-46 0 -46 116q0 5 1 52.5t26 153.5t59.5 180t85.5 74q2 0 28.5 -1t48 -94t41.5 -218q3 -10 7 -10q27 0 109 353q12 33 52 33q13 0 27 -13t14 -36q0 -16 -32 -119.5t-57 -207.5t-43 -214q-2 -33 -42 -33q-12 0 -52.5 7.5t-54.5 112.5q-36 273 -48 273
q-19 0 -55 -208q-24 -141 -24 -173q0 -27 -45 -28z" />
    <glyph glyph-name="O" unicode="O" horiz-adv-x="456" 
d="M152 -59q19 0 42 15q103 75 171 407q27 132 27 182q0 10 -1 16q-14 109 -102 109q-10 0 -21.5 -1.5t-22.5 -9.5t-49 -95t-71 -222q-27 -111 -27 -230q2 -140 42 -168q4 -3 12 -3zM145 -116q-55 0 -95 43q-48 51 -48 166v22q11 337 176 643q23 46 54 50q13 0 22 -2
q62 -14 68 -58q2 -27 6 -30t22 -9q119 -54 119 -172q0 -65 -27 -204q-48 -256 -157 -381q-59 -68 -140 -68z" />
    <glyph glyph-name="O.salt" unicode="&#xe014;" horiz-adv-x="343" 
d="M122 86q27 0 48 33q27 43 51 108q57 153 57 255q0 16 -3.5 51.5t-42.5 36.5q-39 0 -51 -25.5t-35 -93.5q-61 -182 -61 -292v-36q0 -37 37 -37zM131 16q-45 0 -84 31t-44.5 78.5t-5.5 80.5q0 195 93 367q15 29 33 55t43 26q170 -3 173 -171q0 -176 -28 -259t-63 -138
q-48 -70 -117 -70z" />
    <glyph glyph-name="P" unicode="P" horiz-adv-x="416" 
d="M111 107q7 1 36 30q167 166 259 381q17 46 17 78q0 77 -106 77q-16 0 -56.5 -6.5t-73 -26.5t-39.5 -81q-13 -130 -35.5 -258.5t-22.5 -161.5q0 -32 14 -32h7zM30 -166h-9q-47 0 -47 50q26 303 80 601q4 25 4 37q-1 11 -8 11q-2 0 -6 -1t-14 -42q-6 -43 -34 -43
q-33 0 -33 52q0 28 16 54.5t58 71.5q34 28 41 62q4 17 35 17q63 0 108 13q49 15 94 15q78 0 134 -42q62 -46 62 -126q0 -27 -10 -54q-23 -58 -36 -75q-94 -175 -229 -320q-45 -53 -102 -59q-16 0 -37 2q-30 0 -38 -181q-4 -41 -29 -43z" />
    <glyph glyph-name="P.salt" unicode="&#xe015;" horiz-adv-x="302" 
d="M112 273q10 0 75 118q39 71 65 142q20 51 20 82q-1 30 -20 30q-20 -1 -52 -24.5t-64.5 -149.5t-32.5 -169q0 -29 9 -29zM65 -72q-20 0 -42 24t-27.5 98.5t-5.5 102.5q0 80 15 172q53 324 115 349q44 18 97 18q51 0 100 -30.5t49 -94.5q0 -59 -32 -123q-36 -77 -86 -137.5
t-137 -114.5q-31 -18 -31 -96q0 -69 10 -112q3 -14 3 -24q0 -30 -28 -32z" />
    <glyph glyph-name="Q" unicode="Q" horiz-adv-x="463" 
d="M165 -60q10 0 22 4q50 15 50 64q0 9 -1 15q-21 131 -21 186q0 27 1.5 105.5t46.5 78.5q44 0 45 -40q-1 -50 -1 -141q0 -88 11 -88q4 0 27 90q52 203 52 285q0 11 -1 21q-22 110 -82 110q-25 0 -57 -17q-73 -38 -130 -276q-6 -23 -15 -93q-12 -96 -12 -158q0 -146 65 -146
zM368 -189q-49 0 -90 67q-6 12 -23 12q-6 0 -23 -4q-30 -7 -65 -7q-65 0 -105 45q-54 61 -62 158v40q0 217 80 392q81 179 198 179q102 0 152 -64q40 -53 40 -131q0 -28 -4 -60q-33 -235 -117 -445q-4 -11 -4 -23q0 -25 16 -56t40.5 -44t24.5 -29q0 -30 -58 -30z" />
    <glyph glyph-name="Q.salt" unicode="&#xe016;" horiz-adv-x="413" 
d="M137 71q12 1 27 10q31 19 31 54q-8 77 -10 126q0 30 12 67t47 40q35 0 41 -15q3 -9 3 -45t3 -48q6 7 9 14q29 84 29 182q-3 48 -8.5 67.5t-47.5 23.5q-76 0 -135 -145q-60 -155 -60 -242q0 -72 47 -88q5 -1 12 -1zM367 -96h-4q-34 0 -81 36q-34 26 -47 59q-7 20 -26 20
q-42 -7 -63 -7q-55 0 -102 39q-55 46 -60 115v29q34 234 168 429q21 28 48 29q13 0 23 -8q32 -27 69.5 -41t73.5 -47t36 -124q0 -85 -27 -167.5t-59 -131.5q-11 -20 -11 -65q0 -10 2 -47t65 -70q21 -11 22 -20q0 -4 -2 -10q-7 -16 -25 -18z" />
    <glyph glyph-name="R" unicode="R" horiz-adv-x="399" 
d="M122 232q25 0 82 60t115 142t73.5 112.5t15.5 50.5q-2 37 -58 37q-1 0 -31.5 -0.5t-96.5 -19t-74 -81.5q-54 -234 -54 -287q0 -14 28 -14zM399 -245q-52 0 -105 52q-125 113 -185 272q-11 33 -19 33q-16 0 -16 -133q-1 -53 -34 -54q-9 0 -23 8q-29 17 -33 117
q0 106 32 270q21 102 21 127q0 6 -2 17t-24 26q-26 18 -26 38q0 19 24 39l25 21q45 31 58 68q2 12 11 12q30 -6 43 -6q38 1 98.5 20t132.5 19q69 0 113 -69q11 -19 12 -40q0 -40 -43 -102q-104 -171 -259 -299q-20 -16 -20 -37q1 -11 6 -25q84 -216 237 -327q10 -7 10 -17
q0 -30 -34 -30z" />
    <glyph glyph-name="R.salt" unicode="&#xe017;" horiz-adv-x="387" 
d="M119 390q28 6 78.5 42t90.5 77q33 34 34 54q0 15 -61 15q-54 0 -81.5 -24.5t-41.5 -79.5l-6 -23q-10 -28 -13 -61zM352 -115q-7 0 -43 2.5t-74.5 49.5t-62.5 110q-42 96 -56 197q-5 33 -10 33q-11 0 -26 -108q-10 -73 -12 -102q-8 -50 -44 -50q-2 0 -22 0.5t-20 112.5
q0 67 20 174q3 28 14 71q25 114 26 135q0 11 -10 24q-7 9 -7 24q0 6 2.5 22t52.5 32q1 1 3 1q85 32 163 32q81 -5 130 -46q31 -26 31 -68q0 -31 -23.5 -60t-60.5 -57.5t-62 -43.5q-46 -25 -48 -69q0 -13 3 -28q13 -76 34 -148q53 -185 118 -189q27 0 51.5 17.5t37.5 17.5
q13 -1 13 -17q-1 -17 -19 -33q-44 -36 -99 -36z" />
    <glyph glyph-name="S" unicode="S" horiz-adv-x="376" 
d="M50 -168q-32 0 -32 16q0 13 35 34q28 16 72 62q64 68 64 111q0 28 -102 87t-102 170q0 22 11 83.5t70.5 161.5t141.5 176q23 21 59 40q46 24 83 24q54 0 88 -61q9 -15 9 -30q0 -16 -9.5 -30.5t-24.5 -14.5q-3 0 -14.5 1.5t-11.5 22.5q0 38 -25 38q-9 0 -18 -3
q-57 -19 -110.5 -90.5t-92.5 -156.5q-57 -124 -57 -179q0 -14 5.5 -33t36.5 -35q159 -85 179 -120q13 -23 13 -50q0 -33 -29 -76t-100.5 -95.5t-138.5 -52.5z" />
    <glyph glyph-name="S.salt" unicode="&#xe018;" horiz-adv-x="274" 
d="M63 -28q-33 0 -33 25q0 19 38 40q22 12 36.5 23t14.5 29q-1 14 -11 19t-79 29t-70 126q0 45 24 102q64 151 197 249q32 21 60 21q39 0 61 -27t22 -41q0 -29 -30 -42q-5 -2 -10 -2q-13 0 -24 14q-7 9 -16 9q-14 0 -39 -26q-52 -51 -123 -191q-30 -64 -30 -90
q0 -42 66.5 -62t109.5 -60q13 -13 13 -27q0 -36 -75 -81q-61 -37 -102 -37z" />
    <glyph glyph-name="T" unicode="T" horiz-adv-x="286" 
d="M126 -113h-3q-8 0 -22 5q-60 21 -77 100q-9 50 -9 97q0 132 48 320q26 101 41 148q5 15 5 24t-5 9q-15 0 -122 -55t-132 -55t-34 39q-2 7 -2 13q0 27 34.5 37t143.5 58q99 44 201 78q98 33 204 39l19 -1q72 -4 72 -47q0 -36 -17 -50q-3 -2 -7 -2q-8 0 -30 12
q-26 15 -68 15q-53 0 -104 -28q-46 -26 -62 -75q-97 -324 -97 -505q0 -88 36 -130q9 -9 9 -20q0 -25 -22 -26z" />
    <glyph glyph-name="T.salt" unicode="&#xe019;" horiz-adv-x="239" 
d="M137 9q-10 0 -20 3q-80 33 -87 124q0 192 56 371q0 23 -9 23q-40 -4 -132 -69q-33 -24 -47 -25q-27 0 -38 22t-12 32q0 23 35 40l117 53q118 55 127 76q14 36 40 36q19 0 34 -10q28 -19 73 -19q8 0 21.5 1.5t22.5 1.5q78 0 125 -46q7 -7 7 -15q0 -7 -6 -15
q-10 -12 -19 -12q-4 0 -8 2q-30 12 -97 12q-29 0 -73 -6q-29 -4 -38 -33q-71 -227 -71 -384q0 -97 22 -118q10 -9 11 -22q0 -23 -34 -23z" />
    <glyph glyph-name="U" unicode="U" horiz-adv-x="494" 
d="M382 -122h-8q-40 0 -45 47q-5 88 -5 120q0 69 8 130q10 97 10 133q-2 24 -7 24q-8 -1 -26 -41q-80 -187 -95.5 -222.5t-36.5 -62.5q-27 -38 -85 -38q-53 0 -84 43q-16 30 -16 89q0 38 7.5 111.5t32.5 192t41 172.5q6 22 32 22q6 0 28.5 -3.5t22.5 -28.5q0 -18 -7.5 -45
t-36.5 -208q-26 -154 -26 -213q0 -4 0.5 -34.5t9.5 -30.5q16 1 309 570q15 25 45 25q55 0 56 -26q0 -18 -7 -36q-90 -248 -90 -510q0 -38 2 -77q3 -22 10 -41.5t7 -37.5q0 -19 -46 -24z" />
    <glyph glyph-name="U.salt" unicode="&#xe020;" horiz-adv-x="447" 
d="M367 30q-72 0 -78 91q-2 23 -2 44q0 22 2 43l1 26q-1 12 -3 12q-9 -1 -73 -126q-39 -76 -102 -76q-51 0 -85.5 32.5t-34.5 149.5q0 13 1.5 89.5t71.5 283.5q15 43 50 46q44 0 48 -45q0 -16 -4 -33q-19 -79 -43 -214.5t-24 -190.5q0 -60 12 -60h6q5 0 55 84
q71 119 115.5 200t73.5 170q13 41 45 43q56 0 60 -43q0 -14 -11 -52q-17 -59 -40 -148q-28 -113 -28 -186q0 -71 29 -100q9 -9 10 -21q0 -19 -52 -19z" />
    <glyph glyph-name="V" unicode="V" horiz-adv-x="399" 
d="M73 -163q-39 0 -68 52q-24 47 -24 98q0 100 37 315q43 253 99 253q2 0 21 -2.5t20 -37.5l1 -5q0 -8 -3 -17q-17 -56 -38 -157q-43 -208 -43 -312q0 -50 12 -50q11 1 32 35q148 247 219 384q63 146 63 190q-1 43 -15 53q-9 6 -9 18q0 32 30 45q9 4 17 4t14 -4
q37 -22 40 -80l1 -9q0 -98 -79 -275q-57 -131 -132 -258q-141 -237 -195 -240z" />
    <glyph glyph-name="V.salt" unicode="&#xe021;" horiz-adv-x="373" 
d="M86 27q-1 0 -33.5 0.5t-56.5 101.5q-7 31 -7 80q0 90 26 228q9 46 33 155q9 29 35 31l14 1q55 0 55 -54l-1 -16q-48 -186 -65 -379l-1 -23q0 -32 13 -32q13 1 40 33q155 190 221 413q4 13 4 24l-1 17q0 48 34 49q33 0 36 -78q0 -83 -42 -175q-73 -160 -183 -301
q-59 -75 -121 -75z" />
    <glyph glyph-name="W" unicode="W" horiz-adv-x="595" 
d="M39 -89h-14q-61 4 -65 64q0 117 23 270q16 111 64 374q5 39 32 41q51 0 54 -39q0 -11 -2 -19q-74 -413 -74 -433q0 -19 8 -19q9 0 29.5 64.5t75.5 180.5q67 141 117 141q47 -4 47 -35v-17q-4 -116 -4 -165q0 -90 5 -161q9 -144 34 -144q4 0 11 3t37.5 67.5t63.5 178.5
q47 162 47 292q-4 104 -29 148q-5 9 -5 19q0 7 6 14t17 7q10 0 24 -9q51 -34 61 -82q7 -29 7 -61q0 -60 -21 -180q-17 -99 -48 -208q-71 -250 -158 -250h-44q-45 1 -70 73q-35 111 -35 235q0 20 1 36t1 24q0 14 -5 14l-7 -3q-9 -7 -128 -363q-10 -55 -56 -58z" />
    <glyph glyph-name="W.salt" unicode="&#xe022;" horiz-adv-x="607" 
d="M79 4h-6q-9 0 -18 2q-64 17 -64 111v50q0 49 20.5 181t45.5 235q12 40 51 40q4 0 29.5 -3.5t25.5 -32.5q0 -23 -18 -98q-48 -223 -48 -300q12 17 42 85q81 182 91 227q9 29 53 29q53 0 56 -55q0 -22 -5 -63q-12 -98 -12 -162q0 -39 6 -88q5 -35 33 -43q29 1 67 80.5
t67 170.5q34 106 34 151q0 41 -14 75t-72 51q-21 7 -22 21q0 21 67 25l69 -17q45 -38 52 -135l2 -34q0 -59 -26.5 -159t-84.5 -197q-62 -104 -146 -113q-45 0 -83 34.5t-48 117.5t-12 83q-6 -1 -43 -134q-10 -37 -22 -76q-19 -57 -67 -59z" />
    <glyph glyph-name="X" unicode="X" horiz-adv-x="480" 
d="M404 -160q-31 0 -76.5 63t-62.5 113q-56 159 -62 168q-44 -39 -82.5 -128t-53.5 -148q-12 -44 -33 -44q-34 0 -34 45q0 17 6.5 58.5t46.5 118t92 164.5q21 34 21 46t-29.5 99.5t-70.5 246.5q0 19 18 31q24 16 48 17q40 0 50 -38q45 -196 50.5 -222t17.5 -26q24 0 113 87
q178 174 262 177q20 0 42 -19t23 -37q0 -19 -39 -38q-15 -7 -29 -8q-88 -4 -220 -144q-86 -92 -99 -111q-23 -22 -23 -39q0 -18 5 -33q15 -40 29 -81q61 -195 139 -248q21 -14 21 -28q0 -10 -19.5 -25.5t-50.5 -16.5z" />
    <glyph glyph-name="X.salt" unicode="&#xe023;" horiz-adv-x="357" 
d="M348 -63h-8q-109 1 -170 91q-11 17 -52 90q-9 17 -22 17q-19 0 -35 -30q-14 -25 -42 -85q-12 -26 -31 -26q-17 0 -39.5 13t-22.5 31q0 15 10 31q18 27 33 54q39 66 86 127q11 14 11 30q-1 15 -12 57q-20 71 -25 205q0 39 58 39q34 0 44.5 -23.5t13.5 -50.5l4 -40
q8 -73 27 -73h9q10 0 62.5 45t119.5 67q17 6 30 6q31 0 43 -33q3 -8 3 -13t-5 -8.5t-17.5 -5t-25.5 -9.5q-120 -71 -164 -129.5t-44 -78.5q0 -19 14.5 -58.5t44.5 -89.5t51 -70q17 -15 34 -19t38 -30q7 -9 7 -15q0 -13 -28 -16z" />
    <glyph glyph-name="Y" unicode="Y" horiz-adv-x="483" 
d="M362 -409h-4q-96 4 -101 244q0 19 2.5 70.5t20 170t29.5 161.5q10 39 10 46q-3 0 -23 -39q-129 -263 -219 -263q-5 0 -43.5 5.5t-50.5 93.5q-5 29 -5 143q0 103 34 271q21 98 33 141q19 52 57 52q40 0 40 -37q0 -24 -16 -87q-51 -189 -51 -369q0 -39 2 -80q2 -34 14 -34
t26 14q22 25 96.5 154.5t150 267.5t99.5 190q11 22 36 23q24 0 35 -13t11 -26t-7 -28q-33 -68 -77 -212t-71 -314q-29 -183 -29 -308q0 -24 1 -47q6 -97 51 -141q10 -9 10 -18q0 -10 -21 -20t-40 -11z" />
    <glyph glyph-name="Y.salt" unicode="&#xe024;" horiz-adv-x="427" 
d="M329 -295q-80 0 -99 104q-10 46 -10 115q0 86 17 205q5 34 5 46q0 3 -1 5q-1 0 -14 -19q-61 -104 -129 -111q-44 0 -87 53q-19 28 -22 60q-1 14 -1 31q0 51 29 308q4 45 44 49l8 1q45 -3 49 -40v-16q-4 -10 -18 -154q-11 -107 -11 -160q0 -48 11 -48q31 3 160 265
q80 162 91 194q14 34 43 36q19 0 33 -5q27 -10 29 -28q0 -17 -7 -36q-65 -192 -109 -411q-27 -137 -27 -232q0 -115 43 -161q9 -9 10 -20q0 -19 -20 -28q-6 -3 -17 -3z" />
    <glyph glyph-name="Z" unicode="Z" horiz-adv-x="471" 
d="M-135 -182q-28 0 -47 38q-7 14 -7 24q0 22 77.5 67.5t214.5 173t182 193.5t45 78q0 27 -48 48q-69 30 -179 30q-40 0 -65 -6q-10 -2 -18 -2q-37 0 -43 48q0 47 115 47q41 0 110 -10t142.5 -47.5t89.5 -100.5q2 -10 2 -21q0 -56 -71 -132q-73 -73 -150.5 -144.5
t-77.5 -77.5q0 -10 37 -10q34 0 167 17q110 11 181 11q25 0 46 -2q38 -7 67 -35t30 -47q0 -19 -24 -19q-10 0 -24 3q-117 23 -180 23q-73 0 -232 -24t-306 -111q-19 -12 -34 -12z" />
    <glyph glyph-name="Z.salt" unicode="&#xe025;" horiz-adv-x="433" 
d="M-30 -19q-20 0 -42 13q-29 17 -29 53q0 21 59 74.5t181 124.5q96 58 179 121q73 55 73 105q0 6 -5.5 36.5t-202.5 30.5q-84 0 -123 -9q-8 -2 -15 -2q-33 0 -37 43q0 43 111 43q66 0 146 -12q207 -30 207 -146q0 -82 -100.5 -156t-175.5 -117.5t-75 -53.5q0 -7 26 -7
q41 0 172 18l19 1q92 0 92 -63q0 -27 -26 -27q-193 0 -321 -39q-99 -31 -113 -31z" />
    <glyph glyph-name="bracketleft" unicode="[" horiz-adv-x="292" 
d="M88 -207h-23q-23 0 -54 38q-27 32 -27 79q18 285 120 576q6 17 7 26q0 13 -12 15q-17 4 -17 32q0 49 45 61q37 9 76 12q23 1 38.5 4t30.5 3q33 0 62 -17q25 -14 25 -33t-30 -19h-25q-80 0 -108 -88q-103 -321 -122 -573v-21q0 -27 15 -27q13 0 38 20q20 17 34 17
q20 0 20 -21q0 -14 -14 -34q-36 -50 -79 -50z" />
    <glyph glyph-name="backslash" unicode="\" horiz-adv-x="187" 
d="M247 -179q-4 0 -19 2t-30 31q-114 256 -198 523q-49 145 -63 300q0 23 15 37q22 21 51 21q32 0 32 -21q-5 -23 -5 -52q0 -134 119 -437q37 -95 132 -324q8 -21 8 -36q0 -16 -8 -26q-13 -18 -34 -18z" />
    <glyph glyph-name="bracketright" unicode="]" horiz-adv-x="402" 
d="M46 -267q-36 0 -70 28q-18 14 -18 29q0 5 4 12t12 7q8 -1 18.5 -4.5t19.5 -3.5q28 0 39 15q56 75 120 330q81 326 81 393q0 28 -12.5 42.5t-75.5 20.5q-15 1 -26 9.5t-11 21.5l2 6q3 17 21 17q37 0 110 -21q84 -26 84 -110q0 -17 -3 -36q-22 -148 -73 -309
q-30 -95 -58 -191l-51 -167q-18 -60 -74 -81q-20 -8 -39 -8z" />
    <glyph glyph-name="a" unicode="a" horiz-adv-x="349" 
d="M294 -5q-8 0 -14 2q-79 25 -79 118q0 33 -7 33q-1 0 -49 -61q-27 -35 -52 -63.5t-51 -28.5q-20 0 -39 11q-41 23 -41 70q0 12 3 25q25 125 120 250q39 51 81 51q26 0 47 -16.5t21 -28.5t-4 -19q-11 -21 -24 -21q-14 0 -22 5t-14 6q-6 0 -16 -14q-43 -58 -86 -174
q-6 -15 -6 -21q0 -5 3 -5q15 0 86 89q90 113 110 119q11 3 19 3t13 -2q28 -15 28 -57q0 -18 -5 -37q-18 -73 -18 -128q0 -41 17 -79q4 -8 4 -13q0 -14 -25 -14z" />
    <glyph glyph-name="a.salt" unicode="&#xe026;" horiz-adv-x="344" 
d="M294 -59h-3q-87 0 -87 131q0 21 3 35q2 8 2 13q0 4 -2 4q-6 0 -66 -68q-36 -40 -61 -63q-20 -19 -48 -19q-25 0 -45 15.5t-20 48.5q0 53 49 157q69 145 117 204t91 59q29 0 56 -27q13 -14 13 -34q0 -5 -2.5 -21.5t-30.5 -27.5q-5 -2 -9 -2q-10 0 -11 20t-8 20
q-14 0 -28 -22q-72 -110 -124 -231q-3 -7 -3 -12q0 -7 5 -7q10 0 161 185q21 26 47 26q13 0 28 -8q26 -14 26 -36q0 -17 -7 -36q-42 -108 -42 -217q0 -9 1 -15q2 -13 19 -24q11 -8 11 -19q0 -25 -32 -29z" />
    <glyph glyph-name="a.ss01" unicode="&#xe027;" horiz-adv-x="333" 
d="M298 -59q-60 0 -80 43.5t-25 83.5q-4 31 -10 32q-5 0 -27 -40q-47 -85 -110 -85q-38 0 -67 32q-19 22 -19 45q0 26 30.5 106t84.5 148t93 68q32 0 47 -19.5t15 -29.5q0 -2 -1 -8t-59 -47.5t-114 -176.5q-3 -7 -3 -12q0 -11 8 -11q9 0 171 211q18 24 42 24q8 0 18 -3
q32 -11 32 -45q0 -15 -8.5 -36t-20 -64t-11.5 -115q0 -14 4.5 -29t31.5 -22q13 -4 13 -18q0 -32 -35 -32z" />
    <glyph glyph-name="b" unicode="b" horiz-adv-x="369" 
d="M172 -148h-34q-55 0 -55 31q0 2 0.5 11t10.5 10q9 0 16.5 -1.5t15.5 -1.5q4 0 13.5 0.5t20.5 14.5q105 130 116 297q0 35 -13 35q-16 0 -30 -9q-141 -91 -149 -240q-3 -56 -46 -56q-38 0 -38 94q0 13 3.5 81.5t37.5 256.5q18 101 32 203q6 45 40 45q56 0 59 -43v-20
q-49 -259 -49 -294q0 -18 5 -18q8 0 29 13q62 39 105 39q101 0 101 -101q0 -176 -130 -316q-27 -29 -61 -31z" />
    <glyph glyph-name="b.salt" unicode="&#xe028;" horiz-adv-x="344" 
d="M114 -83q18 1 75 83.5t57 241.5q0 29 -5 51t-13 22q-9 -1 -32 -39.5t-46 -108.5q-52 -158 -52 -218q0 -32 16 -32zM158 -122q-40 0 -75 15q-66 31 -77 80q-6 23 -6 56q0 26 4 64q23 279 96 670q8 41 49 41q2 0 25.5 -1t26.5 -32q0 -14 -1 -22q-75 -412 -75 -426
q0 -12 6 -12q4 0 13 13q40 64 92 64q8 0 18 -2q77 -22 87 -103q3 -32 3 -62q0 -171 -90 -302q-31 -41 -96 -41z" />
    <glyph glyph-name="b.ss01" unicode="&#xe029;" horiz-adv-x="362" 
d="M145 -226q-51 0 -81 52q-4 8 -4 15q0 9 6.5 16t12.5 7q8 0 19 -9q20 -17 37 -17q24 0 44 39q80 154 99 326q2 20 2 35q0 39 -20 39q-16 0 -32 -14q-120 -101 -137 -256q-4 -34 -9.5 -45.5t-30.5 -11.5q-51 5 -51 70q8 126 43 266q80 320 101 360q11 20 31 20q10 0 19 -4
q35 -16 35 -42q0 -14 -24 -85q-60 -171 -60 -226q0 -21 13 -21q6 0 15 6q60 39 100 39q25 0 51 -13q38 -18 38 -96q0 -82 -43 -231q-18 -64 -45 -112q-60 -107 -129 -107z" />
    <glyph glyph-name="c" unicode="c" horiz-adv-x="272" 
d="M109 -38q-65 0 -107 62q-18 26 -18 67q0 78 53 197q32 73 62 110q22 28 60 28q72 0 72 -45q0 -9 -5.5 -13t-30.5 -12q-33 -10 -56 -56q-54 -110 -54 -230q0 -32 22 -45q7 -4 13 -4q22 0 93 78q9 10 23 10h13q11 0 11 -12q-6 -47 -33 -83q-40 -52 -118 -52z" />
    <glyph glyph-name="c.salt" unicode="&#xe030;" horiz-adv-x="303" 
d="M115 -30h-9q-30 0 -63 16q-59 29 -59 93q0 41 31 157q45 178 131 178q27 0 55 -22q34 -23 36 -38q0 -7 -2 -16q-13 -36 -47 -40l-18 -1q-33 -3 -43 -38q-35 -91 -46 -187q0 -30 11 -30q10 1 64 59q84 95 101 97q12 0 20.5 -7.5t9.5 -17.5q0 -13 -4.5 -22t-14.5 -28
q-52 -109 -120 -143q-16 -8 -33 -10z" />
    <glyph glyph-name="c.ss01" unicode="&#xe031;" horiz-adv-x="270" 
d="M95 -39q-108 0 -108 142q0 183 110 319q31 38 74 38q26 0 55 -20q19 -13 19 -29q0 -19 -15 -38.5t-26 -19.5q-9 0 -16 13t-13 13q-8 0 -19 -17q-83 -131 -83 -286v-21q0 -24 17 -33q5 -2 10 -2q36 0 104 69q28 28 37 28q6 0 10 -2q12 -6 12 -16v-9q0 -53 -57 -96
q-39 -30 -111 -33z" />
    <glyph glyph-name="d" unicode="d" horiz-adv-x="395" 
d="M92 2q9 0 31 68t67.5 188.5t45.5 147.5q0 12 -6 12q-7 0 -23 -17q-124 -137 -124 -364v-23q0 -12 9 -12zM364 -287h-2q-38 0 -71 92q-32 87 -32 233q0 174 5 213q0 6 -2 6q-3 0 -14 -32q-61 -189 -77 -234q-31 -88 -78 -88q-67 0 -85 72q-10 41 -10 90q0 190 116 365
q34 51 91.5 51.5t74 38t36.5 102.5l45 151q13 44 36 45q13 0 22 -2q41 -10 42 -39q0 -21 -17 -80q-41 -137 -64 -230q-41 -163 -41 -385q0 -11 0.5 -133.5t50.5 -198.5q12 -7 12 -21q0 -15 -38 -16z" />
    <glyph glyph-name="d.salt" unicode="&#xe032;" horiz-adv-x="444" 
d="M104 -122q-9 0 -19 2q-78 16 -87 96q0 210 115 384q28 43 70 43q23 0 48 -13q18 -10 20 -25q1 -1 1 -9q0 -9 -18 -15q-83 -27 -117 -176q-21 -90 -21 -147q0 -49 8 -49q4 1 10 20q33 105 81 206q82 176 153 458q13 52 51 52q10 0 21 -4q35 -9 35 -38q0 -15 -7 -35
q-78 -243 -78 -410q0 -67 12 -139q11 -66 51 -113q12 -14 13 -19q0 -29 -45 -29q-30 0 -50 20q-36 36 -53 109q-13 56 -21 110q-3 18 -4 18q-19 -16 -105 -249q-19 -48 -64 -48z" />
    <glyph glyph-name="d.ss01" unicode="&#xe033;" horiz-adv-x="467" 
d="M84 115q5 0 62 124q27 59 78 161q-19 19 -29 19q-12 -1 -17 -16q-94 -268 -94 -288zM42 -85h-8q-50 0 -56 60q-1 13 -1 27q0 59 18 148q35 168 73 257q32 74 88 79q42 0 83 -24q10 -6 17 -6q14 0 50.5 119.5t66.5 255.5q9 39 37 41q54 0 57 -37q0 -14 -3 -25
q-38 -152 -72 -369q-21 -131 -21 -240q0 -77 10 -132q10 -61 47 -86q16 -10 17 -20q0 -5 -3 -11q-8 -16 -24 -16h-11q-99 13 -113 123q-14 104 -14 177q0 44 4 90q0 19 -5 19q-6 0 -17 -25q-92 -205 -166 -362q-19 -40 -54 -43z" />
    <glyph glyph-name="e" unicode="e" horiz-adv-x="316" 
d="M102 174q26 18 50 63q36 66 36 82q0 8 -10 8q-7 0 -11 -5q-75 -128 -75 -138q0 -8 10 -10zM140 -36q-152 0 -152 141q0 13 5.5 59t42.5 120q67 132 143 132q62 0 94 -62q10 -19 10 -40q0 -26 -15 -54q-86 -127 -162 -163q-27 -13 -27 -27q0 -6 2 -12q9 -32 36 -32
q40 0 107 49q44 32 63 49q24 24 38 24q7 0 14 -5q11 -10 11 -25q0 -16 -20.5 -47t-67 -66t-83.5 -39q-21 -2 -39 -2z" />
    <glyph glyph-name="e.salt" unicode="&#xe034;" horiz-adv-x="322" 
d="M95 224q9 0 45 50q59 81 75 141q0 18 -17 18q-12 0 -20 -10q-46 -64 -74 -163q-11 -30 -11 -33t2 -3zM137 -36h-7q-140 13 -142 178q16 167 84 293q45 74 104 74q1 0 31 -0.5t68 -44.5q25 -29 25 -64q0 -18 -7 -38q-65 -145 -189 -245q-22 -19 -22 -37q0 -20 12.5 -39.5
t27.5 -19.5q16 0 38 12q64 39 105 101q15 21 28 21q6 0 14 -4q15 -10 15 -30q0 -7 -2 -15q-15 -57 -74 -101q-55 -41 -109 -41z" />
    <glyph glyph-name="e.ss01" unicode="&#xe035;" horiz-adv-x="616" 
d="M116 212q4 2 26 24q55 51 95 120q7 11 7 15q0 6 -7 11t-12 5q-9 0 -19 -10q-57 -54 -87 -126q-13 -22 -13 -29q0 -8 10 -10zM143 -36l-20 1q-135 21 -135 164q0 40 15 99.5t52 117t102 94.5q25 13 49 13q49 0 97 -57q18 -23 18 -44q0 -28 -33 -71q-49 -40 -49 -47
q0 -1 3 -1q6 0 29 8q130 41 245 47q43 0 71.5 -21t28.5 -40q0 -7 -3 -15q-7 -13 -17 -13q-7 0 -34 9q-18 2 -36 2q-40 0 -79 -12q-166 -39 -287 -90q-21 -8 -40 -9q-40 -4 -40 -23q7 -49 39 -49l14 1q63 16 109 63q1 2 3 3q15 17 26 17q8 0 18 -8t10 -20q0 -13 -6 -29
q-18 -42 -69 -69q-41 -21 -81 -21z" />
    <glyph glyph-name="f" unicode="f" 
d="M120 -344q8 1 31 132q18 105 18 163q-5 59 -17 70q-3 -3 -6 -7t-8 -39q-26 -173 -26 -294q0 -25 8 -25zM127 -423l-25 1q-66 10 -74 74q-5 40 -5 70q0 101 31 264q3 14 3 26q0 5 -0.5 8.5t-2.5 12t-27 19.5t-27 27q0 3 1 13.5t26 22.5q62 28 74 103q10 65 35 164
q14 56 26 67q7 6 20 6q49 0 49 -39q0 -33 -35 -161q-6 -24 -6 -40q0 -24 15 -24q13 0 44 8t53 8q7 0 19.5 -1t34.5 -22q18 -16 18 -32q0 -10 -9 -21t-26 -11q-11 0 -23 7q-19 12 -36 12q-23 0 -58 -16q-14 -7 -29 -13q-5 -2 -5 -8q0 -8 3 -14q42 -84 42 -234
q0 -41 -4 -103.5t-35 -121.5q-24 -47 -67 -52z" />
    <glyph glyph-name="f.salt" unicode="&#xe036;" horiz-adv-x="323" 
d="M116 -512q-76 0 -78 82q0 184 24 355q5 39 5 55q0 10 -3.5 21t-30.5 18q-33 8 -33 36q0 13 9 18.5t26 10.5q51 17 58 83q15 130 55 253q10 32 34 33q11 0 18 -2q41 -13 42 -42q0 -11 -2 -18q-47 -197 -47 -212q1 -18 13 -18q9 0 25 7q36 15 72 15q76 0 76 -33
q0 -21 -27 -22q-45 -1 -86 -17q-59 -23 -84 -38q-19 -11 -19 -29q0 -9 4 -15q28 -44 29 -91q0 -67 -5 -101.5t-6 -70.5q-2 -41 -16 -203q-2 -29 -11 -52t-42 -23z" />
    <glyph glyph-name="f.ss01" unicode="&#xe037;" horiz-adv-x="430" 
d="M105 -421h-11q-60 3 -64 71q0 108 13 208q2 17 2 30q0 27 -11 50t-59 33q-32 6 -32 32q1 20 30 24q108 18 118 132q12 129 54 253q14 44 48 44q7 0 12 -1q36 -9 36 -51q0 -9 -1 -16q-52 -234 -53 -234q-3 -10 -3 -18q0 -10 7 -10q8 1 24 8q77 32 129 32q68 0 86 -41
q0 -36 -38 -36q-15 0 -28 11q-3 3 -12 3q-21 -1 -128 -46q-63 -26 -75 -78q-9 -40 -9 -72q0 -15 6 -33q35 -97 35 -160q0 -25 -5 -51q-14 -81 -71 -84z" />
    <glyph glyph-name="g" unicode="g" horiz-adv-x="397" 
d="M133 -405q-63 0 -122 59q-21 22 -21 49q0 33 29 33q17 0 23 -20q20 -66 82 -66q22 0 35.5 15.5t25.5 39.5q53 100 72 204q25 135 25 237q0 11 -8 11q-3 0 -10 -3.5t-131 -146.5q-33 -38 -71 -38q-25 0 -53 17q-42 26 -42 68q0 19 9 42q68 184 201 326q31 34 67 34
q4 0 25.5 -2t47.5 -42q9 -13 9 -22q0 -10 -10 -18t-19 -8q-10 0 -19 11.5t-16 11.5q-8 0 -20 -14q-46 -52 -106 -146.5t-69 -160.5q26 17 72 67t87 104t53 82q7 15 26 15q44 0 59 -40q11 -27 11 -110q0 -294 -105 -494q-51 -95 -137 -95z" />
    <glyph glyph-name="g.salt" unicode="&#xe038;" horiz-adv-x="368" 
d="M146 -354q-50 0 -99 40q-16 13 -16 25q0 5 4.5 12t13.5 7q8 0 21 -5q35 -15 57 -15q13 0 28.5 8.5t30.5 68.5q37 150 52 304q0 25 -4 25q-8 0 -40 -39q-49 -60 -83 -96q-28 -31 -62 -31q-25 0 -53 17q-35 21 -35 57q0 19 8 40q31 83 72.5 160t107.5 139q43 41 92 41
q43 0 73 -30q14 -14 14 -25q0 -8 -9 -17.5t-23 -9.5q-9 0 -17 8q-12 13 -22 13q-25 0 -92 -92q-96 -132 -100 -192q49 30 160 175q31 40 57 40q10 0 23 -5q28 -11 34 -30q3 -12 3 -37q-7 -241 -73 -452q-33 -104 -123 -104z" />
    <glyph glyph-name="g.ss01" unicode="&#xe039;" horiz-adv-x="907" 
d="M82 -415q21 0 39 22q53 62 77 135.5t39 150.5q1 3 1 10q0 10 -6 10q-4 0 -11 -5q-64 -54 -115 -117.5t-62 -159.5q0 -30 22 -41q9 -5 16 -5zM102 -470h-7q-63 0 -107 53q-29 35 -29 70q0 45 41 113q86 144 225 242q31 22 31 58q0 17 -5 48q-3 22 -6 22q-11 0 -115 -136
q-33 -43 -74 -43q-26 0 -55 19q-36 23 -36 53q0 29 16 64q72 153 182 282q33 40 74 40q25 0 52 -15q21 -12 21 -33q0 -23 -16 -25q-37 -1 -58.5 -20.5t-87.5 -120.5q-48 -73 -48 -82q0 -1 1 -1q2 0 7 4q45 41 124 150q21 31 44 31q8 0 17 -3q51 -14 52 -57q1 -21 3 -43
t2 -66q0 -30 17 -30q11 0 28 9q147 73 268 73q48 0 98 -10q84 -16 132 -85q15 -21 15 -39q0 -29 -36 -57q-9 -8 -20 -8q-8 0 -16 4q-12 6 -12 19q0 4 1 7q9 26 9 45q0 60 -121 60q-169 0 -344 -107q-21 -13 -24 -47q-22 -240 -129 -376q-47 -60 -114 -62z" />
    <glyph glyph-name="h" unicode="h" horiz-adv-x="397" 
d="M346 -70h-7q-94 0 -94 202v136q0 15 -6 15q-5 0 -15 -15q-83 -132 -117 -285q-8 -39 -41 -41q-66 0 -66 51l1 14q21 124 40 248.5t20 129.5q17 147 42 292q9 56 44 56q58 -1 58 -50q0 -13 -3 -25q-10 -32 -33 -178q-17 -107 -17 -146q0 -15 2 -17q3 0 24 26q45 58 94 58
q81 0 81 -77q0 -12 -2 -26q-9 -66 -9 -130q0 -126 28 -189q2 -5 5 -9q5 -9 6 -18q0 -6 -4 -10q-11 -11 -31 -12z" />
    <glyph glyph-name="h.salt" unicode="&#xe040;" horiz-adv-x="370" 
d="M67 -49h-6q-60 0 -61 55l1 19q35 370 102 736q6 36 39 36q47 0 47 -37q0 -35 -41 -256q-34 -180 -34 -216q0 -14 3 -16q6 1 22 25l68 101q38 57 74 57q15 0 27 -6q33 -17 33 -60l-1 -9q-20 -214 -20 -275q0 -20 3 -34.5t21 -29.5q25 -20 26 -37q0 -11 -9 -23
q-18 -22 -44 -22q-14 0 -28 7q-49 25 -54 80q-5 51 -5 120q0 45 2 112q0 20 -5 20q-6 -1 -15 -18q-81 -154 -95 -272q-6 -55 -50 -57z" />
    <glyph glyph-name="h.ss01" unicode="&#xe041;" horiz-adv-x="365" 
d="M81 -57h-16q-65 8 -65 59l1 9q89 677 134 681q62 0 62 -43q0 -10 -2 -18q-14 -43 -42 -180q-22 -111 -22 -148q0 -18 8 -18q7 0 20 23q31 57 92 57q17 0 35 -7q29 -11 39 -33q12 -26 12 -89v-41q0 -68 25 -114q3 -5 3 -9q0 -15 -24 -15q-75 5 -91 49q-11 33 -11 90.5
t-8 57.5q-9 -1 -34 -45q-58 -100 -76 -213q-8 -52 -40 -53z" />
    <glyph glyph-name="i" unicode="i" horiz-adv-x="142" 
d="M60 -57h-3q-51 0 -55 69q-2 34 -2 66q0 121 24 224q7 29 38 29q54 0 54 -43q0 -12 -2 -22q-25 -127 -31 -258q0 -11 2.5 -20t2.5 -19q0 -8 -1.5 -16t-26.5 -10zM92 346l-14 1q-28 6 -30 37v20q0 36 32 116l5 14q8 19 30 20q10 0 20 -4q34 -15 35 -36q0 -22 -51 -148
q-9 -20 -27 -20z" />
    <glyph glyph-name="i.salt" unicode="&#xe042;" horiz-adv-x="175" 
d="M125 456h-8q-28 5 -33 33q-2 9 -2 31q0 37 12 82q8 31 33 31q8 0 19 -4q45 -15 45 -43q0 -20 -23 -92q-12 -37 -43 -38zM77 -56h-5q-39 0 -64 46q-8 14 -8 40q0 38 28 214q6 34 10.5 69t45.5 35q49 0 50 -36l-3 -19q-31 -217 -31 -260q0 -22 4 -35.5t4 -37.5
q-1 -13 -31 -16z" />
    <glyph glyph-name="i.ss01" unicode="&#xe043;" horiz-adv-x="175" 
d="M100 -122h-4q-9 0 -20 4q-76 30 -76 121q0 87 34 235q14 59 23 113q2 14 13 15q7 0 37.5 -18t30.5 -52q0 -31 -22 -125q-20 -86 -24 -174l1 -12q1 -25 22.5 -40t22.5 -30q0 -9 -7 -19q-14 -17 -31 -18zM112 405h-5q-30 0 -36 35v27q0 136 49 136q9 0 16 -2q42 -13 42 -43
q0 -33 -31 -122q-11 -30 -35 -31z" />
    <glyph glyph-name="j" unicode="j" horiz-adv-x="277" 
d="M-109 -352h-5q-85 0 -123 101q-3 14 -3 25q0 38 31 38q25 0 30 -34l4 -15q14 -57 40 -57t55 23q113 87 182 260q52 129 52 237q0 38 -6 73q-13 71 -50 71q-24 0 -65 -46q-16 -18 -32 -18q-21 0 -35 18q-4 6 -4 15q0 41 40 62q65 33 112 33q45 0 90 -46q40 -40 40 -147
q0 -145 -66 -307q-56 -138 -144 -211.5t-143 -74.5zM46 523q-9 0 -32 2q-31 3 -31 58q0 34 23.5 39.5t78.5 5.5q86 0 86 -36q-11 -45 -74 -62q-24 -7 -51 -7z" />
    <glyph glyph-name="j.salt" unicode="&#xe044;" horiz-adv-x="234" 
d="M-124 -386q-73 0 -125 84q-11 21 -11 34q0 10 12 18q6 3 11 3q15 0 34 -26q37 -51 73 -51q84 0 154 193q69 177 83 335q2 24 2 44q0 33 -4 52q-10 48 -33 48q-15 0 -33 -19q-7 -5 -14 -5q-20 0 -31 22q-4 9 -4 17q1 13 20 24q35 20 66 20q55 0 93 -63q32 -53 32 -137
q0 -45 -17 -158q-14 -88 -78 -226q-97 -209 -230 -209zM47 521q-11 0 -35 3q-31 3 -31 53q0 30 22 34.5t72 4.5q96 0 96 -34q0 -5 -2 -10q-14 -33 -75 -46q-22 -5 -47 -5z" />
    <glyph glyph-name="j.ss01" unicode="&#xe045;" horiz-adv-x="239" 
d="M-120 -370q-46 0 -70 24q-20 20 -20 40q0 21 17 38q12 11 21 11q13 0 30 -32q5 -9 10 -9q19 0 88 138q46 93 89 206q56 148 56 236q0 61 -36 78q-8 4 -16 4q-24 0 -72 -41q-17 -17 -39 -17q-41 1 -41 26q0 14 20 33q55 53 120 53q35 0 70 -16q59 -24 74 -66
q10 -28 10 -64q0 -16 -2 -31q-34 -317 -227 -570q-31 -41 -82 -41zM-15 504q-5 0 -27 0.5t-34 33.5l-1 20q0 39 24 47q10 3 23 5q71 9 115 9q72 0 72 -33q0 -43 -114 -74q-27 -8 -58 -8z" />
    <glyph glyph-name="k" unicode="k" horiz-adv-x="304" 
d="M46 -203h-4q-36 5 -41 71q-1 17 -1 36q0 126 55 395q13 67 21 106t14 78q7 45 33 45q63 0 63 -51q0 -16 -10 -52q-21 -77 -21 -104q0 -13 6 -13q11 0 36 29q48 52 94 52q17 0 29 -4q25 -9 26 -21q0 -13 -19 -27q-102 -77 -183 -240q-8 -17 -8 -30q0 -29 37 -44
q57 -23 114 -49q15 -7 16 -19q0 -20 -19 -20q-11 0 -29 6q-67 21 -116 42q-9 4 -17 4q-11 -1 -19 -10q-14 -17 -18 -84t-10 -81t-29 -15z" />
    <glyph glyph-name="k.salt" unicode="&#xe046;" horiz-adv-x="388" 
d="M66 -245q-17 0 -29 14q-32 35 -36 112q-1 14 -1 70q0 57 23 175q79 416 146 416q11 0 23 -5q24 -11 25 -27q0 -16 -8 -35q-11 -27 -68 -216q-3 -11 -5.5 -20t-2.5 -13t3 -4q17 0 104 111q28 37 57 38q19 0 35 -15q11 -10 11 -20q0 -12 -25 -31q-66 -67 -114 -137
q-97 -143 -97 -159q0 -7 10 -7t19 4q102 42 210 67q8 2 16 2q5 0 15.5 -2t10.5 -24q0 -17 -29 -25q-58 -17 -112 -44q-67 -33 -140 -51q-18 -4 -18 -45q0 -27 8 -107q0 -21 -31 -22z" />
    <glyph glyph-name="k.ss01" unicode="&#xe047;" horiz-adv-x="513" 
d="M50 -244h-6q-43 0 -44 43q0 165 60 444q33 154 51 269q8 48 40 49q16 0 22 -1q43 -13 43 -49q0 -20 -17 -83q-25 -92 -36 -170q25 18 45 53q36 61 69 61q17 0 37 -13q15 -11 15 -24q0 -12 -17 -35l-143 -184q-11 -13 -11 -25q1 -14 14 -26q62 -57 111 -58l22 1
q65 3 135 77q36 38 51 39q6 0 11 -4q10 -9 11 -21q0 -12 -4 -21q-62 -128 -197 -128q-83 0 -168 54q-17 11 -21 11q-15 -1 -33 -212q-4 -44 -40 -47z" />
    <glyph glyph-name="l" unicode="l" horiz-adv-x="276" 
d="M112 -92q-76 0 -98 73q-14 44 -14 107q0 106 42.5 267.5t84.5 322.5q10 38 41 38q9 0 20 -4q24 -9 24 -33q0 -11 -4 -26q-117 -448 -117 -608q0 -75 27 -75q35 0 147 105q1 0 1 1q11 10 23 11q7 0 14 -6t7 -15q0 -10 -7 -22q-80 -136 -191 -136z" />
    <glyph glyph-name="l.salt" unicode="&#xe048;" horiz-adv-x="246" 
d="M103 -91h-3q-46 0 -73 26.5t-27 71.5q0 87 26 212q18 87 70 295q7 28 34 29q23 0 42 -17q14 -12 15 -32q0 -14 -7 -40q-53 -210 -88 -425l-2 -20q0 -10 6 -10q19 0 86 88q23 30 42 31q4 0 13 -1t9 -27q0 -27 -24 -66.5t-60 -75.5t-59 -39z" />
    <glyph glyph-name="l.ss01" unicode="&#xe049;" horiz-adv-x="202" 
d="M120 -101q-20 0 -41 10q-79 38 -79 201q0 65 12 142q30 183 96 376q10 30 41 30q12 0 22 -3q31 -10 31 -40q0 -11 -3 -21q-23 -67 -51 -186q-49 -210 -49 -333q0 -112 27 -112q8 0 19.5 12t24.5 12q11 0 19 -11t8 -24q0 -17 -17 -31q-28 -22 -60 -22z" />
    <glyph glyph-name="m" unicode="m" horiz-adv-x="584" 
d="M76 -80h-5q-13 0 -27 5q-43 15 -44 55v26q60 358 112 358q20 0 32.5 -13.5t13.5 -31.5q0 -9 -3 -20q-29 -121 -29 -163q0 -20 6 -20q16 1 93 136q30 52 63 104q20 30 49 31q26 0 41 -15q12 -12 13 -32q0 -14 -1 -21q-15 -80 -15 -104q0 -11 2 -11q6 1 30 47q17 32 40 69
q48 77 88 77q7 0 13 -2q36 -14 36 -47q0 -32 -12 -75q-34 -115 -34 -191q0 -53 12 -75q6 -10 6 -17q0 -8 -11 -17q-8 -6 -18 -6q-46 0 -70 49q-11 22 -11 64q0 14 1 24.5t1 17.5q0 30 -6 30t-19 -20q-18 -29 -32 -66q-39 -102 -92 -102q-11 0 -21 3q-45 14 -49 50
q0 51 13 126q-30 -30 -56 -93q-53 -126 -110 -130z" />
    <glyph glyph-name="m.salt" unicode="&#xe050;" horiz-adv-x="543" 
d="M472 -75l-13 1q-50 13 -50 60q0 11 5 31q19 88 19 138q0 24 -6 24q-5 0 -15 -13q-102 -135 -105 -141q-15 -27 -36 -27q-5 0 -11 2q-50 14 -56 71q-1 11 -11 11q-12 0 -34 -36l-18 -30q-26 -41 -58 -41q-13 0 -26 6q-57 26 -57 72q0 23 61 206l13 41q12 34 35 34
q9 0 17 -3q41 -15 41 -45q0 -16 -7 -31q-36 -82 -37 -102q0 -8 5 -8t113 116q16 17 35 17q15 0 28 -9q25 -17 25 -51q0 -13 -2 -26q0 -5 2 -5q4 0 16 14q97 104 97 108q21 28 41 28q9 0 19 -3q41 -16 41 -56q0 -20 -48 -329q-4 -24 -23 -24z" />
    <glyph glyph-name="m.ss01" unicode="&#xe051;" horiz-adv-x="577" 
d="M484 -143q-14 0 -32 10t-25 36q-12 47 -12 83q0 55 14 146q3 17 3 30q-1 13 -4 13q-26 -2 -91 -163q-19 -49 -50 -50q-17 0 -24 1q-57 12 -57 50q0 8 3 21q8 39 8 66q0 11 -4 11q-10 -1 -43 -71q-31 -66 -40 -82q-23 -40 -59 -43q-5 0 -30 1.5t-40 57.5l-1 15
q0 98 69 370l10 36q6 23 30 24q12 0 21 -3q31 -10 33 -37q0 -7 -56 -256q2 -6 6 -6q18 1 80 100t100 170q16 31 45 32q15 0 33 -9t18 -30q0 -14 -5 -27q-47 -127 -47 -152q0 -6 1 -6q8 1 39 58q50 89 98 192q21 45 48 46q13 0 22 -3q32 -9 32 -37q0 -30 -16 -106
q-53 -244 -53 -363q0 -33 4 -57q2 -13 2 -29q0 -38 -30 -39z" />
    <glyph glyph-name="n" unicode="n" horiz-adv-x="388" 
d="M82 -26q-14 0 -27 6q-54 22 -55 67q0 13 2 22q29 127 56 253q8 39 34 40q7 0 17 -3q41 -13 42 -43q0 -9 -5 -26q-21 -66 -21 -93q0 -11 4 -11q5 0 19 20q66 93 121 160q28 35 56 36q15 0 29 -8q33 -19 34 -62q0 -11 -3 -24q-46 -189 -46 -245q0 -51 7 -58q2 -6 2 -11
q0 -7 -8 -12.5t-17 -5.5q-20 0 -38 16q-38 32 -40 88q0 76 2 94.5t2 26.5q0 6 -2 6q-5 0 -110 -188q-25 -45 -55 -45z" />
    <glyph glyph-name="n.salt" unicode="&#xe052;" horiz-adv-x="406" 
d="M330 -83q-68 0 -68 124q0 106 36 275q7 31 7 48q0 12 -2 12q-22 -2 -112 -190q-74 -155 -84 -199q-8 -34 -46 -34h-9q-52 11 -52 50q0 26 41 256q25 136 26 157q3 38 37 38q48 0 52 -37l-1 -12q-9 -74 -9 -102q0 -18 5 -18q7 1 31 45q79 146 142 154q22 0 33 -4
q49 -20 49 -71q0 -34 -13 -112q-34 -200 -34 -282q0 -34 6.5 -48.5t6.5 -23.5q0 -3 -0.5 -9.5t-19 -11.5t-22.5 -5z" />
    <glyph glyph-name="n.ss01" unicode="&#xe053;" horiz-adv-x="370" 
d="M306 -96q-80 0 -80 129q0 36 6 81q3 27 3 43t-5 16q-16 -2 -97 -160q-27 -52 -66 -52q-13 0 -23 4q-44 14 -44 58q0 8 64 381q7 37 39 37q46 -2 46 -39q0 -8 -1 -13q-31 -165 -31 -203q0 -9 2 -9q8 0 42 54q104 166 152 166q14 0 29 -8q26 -12 26 -42q0 -13 -4 -27
q-50 -192 -50 -269q0 -74 39 -88q17 -7 17 -28q0 -12 -11 -19q-20 -12 -53 -12z" />
    <glyph glyph-name="o" unicode="o" horiz-adv-x="272" 
d="M95 53q31 17 54 64q29 61 29 123q0 37 -14 64q-21 -18 -40 -67q-33 -86 -33 -152q0 -19 4 -32zM111 -32q-22 0 -52.5 16t-48.5 61q-10 25 -10 56q0 48 25 129t58 139q20 35 54 35q56 0 64 -50q1 -8 14 -21q42 -40 42 -118q0 -4 -1.5 -42.5t-31.5 -105.5t-79 -91
q-17 -8 -34 -8z" />
    <glyph glyph-name="o.salt" unicode="&#xe054;" horiz-adv-x="308" 
d="M109 -1q12 1 22 15q106 157 106 313q-3 25 -7 49q-3 18 -30 18q-43 0 -66 -46q-15 -32 -36 -104q-27 -94 -27 -165q0 -55 27 -76q5 -4 11 -4zM119 -65q-15 0 -32 5q-87 26 -97 127q-2 19 -2 39q0 64 22.5 147t55.5 139q36 63 104 63q91 0 120 -50q18 -31 18 -86
q0 -171 -83 -313q-42 -71 -106 -71z" />
    <glyph glyph-name="o.ss01" unicode="&#xe055;" horiz-adv-x="277" 
d="M89 0q27 2 52.5 67t42.5 140q15 67 15 99q0 30 -12 49.5t-26 19.5q-17 0 -24 -19q-18 -47 -47 -192q-16 -77 -16 -120q0 -44 15 -44zM94 -80q-13 0 -26 4q-80 25 -80 153q0 37 9 94.5t32.5 130.5t40.5 114q10 22 32 24q9 1 19 1q50 0 99 -40q57 -46 57 -128
q0 -35 -11 -88q-35 -167 -104 -236q-29 -29 -68 -29z" />
    <glyph glyph-name="p" unicode="p" horiz-adv-x="394" 
d="M164 82q2 2 5 3q31 11 85 112q28 53 28 78q0 17 -10 17q-26 0 -89 -119q-36 -68 -36 -77q0 -3 0.5 -8t16.5 -6zM30 -302q-59 0 -60 57l1 10q27 306 103 603q9 34 36 34q7 0 16 -3q32 -9 32 -38q0 -15 -10.5 -46t-10.5 -63q0 -8 4 -8q10 0 60 69q37 54 80 55q22 0 46 -12
q36 -18 37 -59q0 -15 -3 -32q-18 -115 -97 -198q-32 -33 -72 -33q-19 0 -38 7q-9 4 -16 4l-10 -1q-10 -2 -47 -151q-17 -71 -17 -121l1 -35q0 -13 -3 -26t-32 -13z" />
    <glyph glyph-name="p.salt" unicode="&#xe056;" horiz-adv-x="381" 
d="M146 31q53 0 76 36q19 30 37 85q35 108 35 164q0 29 -8 29q-9 0 -24 -24q-78 -124 -126 -263q-4 -11 -4 -17q1 -10 14 -10zM6 -285q-34 5 -36 38q18 202 50 373q26 142 41 283q5 46 45 46q51 0 56 -42l-1 -19q-18 -143 -18 -155q0 -3 1 -3q2 1 12 23q22 49 89 133
q24 31 63 31q11 0 22 -5q45 -19 49 -80l2 -56q0 -41 -19 -111.5t-39 -106.5q-45 -82 -116 -82q-34 0 -76 18q-30 0 -51 -99q-19 -92 -22.5 -138.5t-34.5 -46.5z" />
    <glyph glyph-name="p.ss01" unicode="&#xe057;" horiz-adv-x="404" 
d="M146 40q24 0 94 109q47 72 76 143q14 34 14 56q0 32 -28 32q-24 0 -54 -40t-59.5 -107t-45.5 -122q-12 -40 -12 -56q0 -15 15 -15zM11 -334q-41 0 -41 39q0 9 2 20q38 208 98 562q24 139 41 220q6 26 33 26q62 0 62 -47l-1 -8q-7 -34 -7 -48q0 -17 11 -17q13 0 48.5 19
t63.5 19q27 0 55 -26t28 -102q0 -77 -44 -166t-137 -160q-23 -17 -43 -17q-7 0 -15 2q-16 5 -27 5q-17 0 -26 -14t-14 -64q-25 -243 -87 -243z" />
    <glyph glyph-name="q" unicode="q" horiz-adv-x="341" 
d="M204 -414q-67 0 -79 72q-7 40 -7 67q0 100 40 261q8 31 8 45q0 11 -4 11q-10 -1 -40 -38q-39 -48 -76 -48q-33 0 -64.5 19t-31.5 56q0 20 6 37q91 250 237 395q23 23 54 24l22 2q18 0 42 -18q17 -14 18 -34l-2 -13q-10 -59 -65 -84q-8 -4 -13 -4q-9 0 -9 17q0 14 4.5 28
t4.5 19q0 3 -2 3q-13 -1 -79 -105q-111 -175 -111 -226q44 28 153 176q35 47 75 47q18 0 33 -7q23 -12 23 -33q0 -19 -9 -40q-20 -46 -58 -184q-33 -122 -51 -242q-8 -52 -8 -90q0 -53 14 -82q4 -8 4 -15q0 -16 -29 -16z" />
    <glyph glyph-name="q.salt" unicode="&#xe058;" horiz-adv-x="312" 
d="M180 -369q-11 0 -21 4q-48 21 -49 99q0 163 55 366q5 17 5 24q0 5 -3 5q-8 -1 -44 -46q-22 -27 -46 -52q-29 -32 -53 -33q-24 0 -46 14q-28 18 -28 54q0 58 48 147q122 223 193 223q32 0 55 -20q16 -14 16 -32q0 -22 -25 -23q-11 0 -21 1q-9 0 -17 -7t-28 -38
q-80 -125 -80 -143l1 -1q11 1 74 83q21 25 40.5 48.5t45.5 24.5q17 0 35 -10q24 -12 25 -39q0 -17 -15 -72q-93 -353 -93 -473q0 -43 12 -62q4 -7 4 -13q0 -8 -8 -15q-13 -13 -32 -14z" />
    <glyph glyph-name="q.ss01" unicode="&#xe059;" horiz-adv-x="353" 
d="M64 141q26 21 92 110q50 67 90 111q11 11 14 17q-17 23 -37 23q-43 0 -89 -85q-30 -54 -49 -106t-21 -70zM224 -438q-15 0 -27 7q-53 35 -53 170q0 153 65 416q2 8 3 14t2.5 12t1.5 11t-1 5q-23 0 -115 -143l-19 -29q-23 -36 -59 -36q-20 0 -37 10q-35 22 -35 76
q0 77 60 191q45 86 103 149q66 72 117 72q47 0 68 -71q3 -11 6 -12q49 -16 49 -48q0 -27 -12 -65q-108 -403 -108 -571q0 -70 18 -103q8 -16 8 -28q0 -24 -28 -26z" />
    <glyph glyph-name="r" unicode="r" horiz-adv-x="229" 
d="M61 -30q-29 0 -50 19q-11 11 -11 30q23 204 44 337q5 28 30 28q61 0 61 -55q0 -10 -5 -27q-6 -21 -6 -38q0 -15 4 -15q3 0 7 8q22 48 82 74q19 9 38 9q17 0 28 -18q6 -9 6 -16q0 -12 -23 -23q-6 -3 -10 -6q-119 -91 -156 -260q-11 -47 -39 -47z" />
    <glyph glyph-name="r.salt" unicode="&#xe060;" horiz-adv-x="269" 
d="M50 -43q-50 0 -50 89q0 107 53 319q14 58 19 89q8 53 43 53q53 0 53 -62q0 -8 -6 -36q-20 -99 -21 -111q0 -11 6 -11q11 0 48 29q27 20 62 42q51 31 93 31q7 0 21.5 -3t17.5 -28q0 -16 -26 -20q-10 -2 -17 -6q-185 -98 -247 -321q-15 -54 -49 -54z" />
    <glyph glyph-name="r.ss01" unicode="&#xe061;" horiz-adv-x="293" 
d="M64 -29h-11q-53 7 -53 61q41 204 62 443q3 33 31 33q47 -7 50 -54l1 -44q0 -19 -3 -40q0 -4 2 -4q4 0 59 48q48 41 104 83q79 59 144 59q17 0 39 -5.5t41 -40.5q6 -11 6 -24t-9.5 -35.5t-32.5 -40.5q-15 -13 -28 -13q-7 0 -13 4q-10 7 -10 17q1 11 7 25q7 19 7 31
q0 19 -16 19q-6 0 -33 -9t-99.5 -77t-132.5 -168t-65 -212q-1 -24 -9.5 -40t-37.5 -16z" />
    <glyph glyph-name="s" unicode="s" horiz-adv-x="242" 
d="M89 -28q-38 0 -38 25q0 13 37 49q50 48 50 74q0 5 -5 16t-53 19q-80 12 -80 90q0 38 24 114q41 133 102 133q9 0 18 -3q41 -13 41 -30q0 -15 -15 -34q-75 -93 -75 -190q1 -34 51 -40q94 -10 96 -57v-28q0 -26 -48 -75q-55 -55 -105 -63z" />
    <glyph glyph-name="s.salt" unicode="&#xe062;" horiz-adv-x="226" 
d="M6 -67q-1 0 -22.5 0.5t-21.5 23.5q0 14 35 28q24 10 64.5 43.5t61.5 71.5q7 14 7 25q0 21 -23 35q-106 64 -106 159q0 90 99 162q16 12 30 12q21 0 41 -23q9 -9 9 -17q0 -16 -26 -36q-22 -17 -46 -55q-31 -50 -31 -90q0 -31 29 -47q120 -53 120 -100q0 -25 -24 -59
q-53 -75 -105.5 -104t-90.5 -29z" />
    <glyph glyph-name="s.ss01" unicode="&#xe063;" horiz-adv-x="202" 
d="M14 -46h-8q-44 0 -44 32q0 18 23 19q34 1 55.5 20.5t39.5 45.5t18 51q0 32 -30 63q-62 62 -62 149v47q0 45 62 108q19 19 40 19q23 0 47 -20q14 -13 14 -24q0 -15 -20 -37q-55 -60 -55 -118q0 -64 64 -128q44 -45 44 -85q0 -14 -12.5 -46t-69 -62.5t-106.5 -33.5z" />
    <glyph glyph-name="t" unicode="t" horiz-adv-x="198" 
d="M137 -159q-8 0 -16 4q-43 19 -57 56q-24 64 -24 201q0 157 42 384q2 14 2 21q0 9 -8 9q-16 0 -37 -9q-27 -11 -73 -11q-19 0 -41 36q-9 15 -9 28q0 25 40 30l129 17q23 3 31 31l68 238q11 39 39 39q9 0 21 -4q39 -15 39 -44q0 -10 -5 -24q-19 -51 -49 -145
q-18 -55 -18 -63q1 -17 28 -17l55 1q19 0 44 -3t58 -24t34 -45q0 -10 -5 -21q-8 -15 -20 -15t-27 8q-26 13 -85 13q-101 0 -108 -16q-4 -8 -7 -20q-46 -207 -46 -424q0 -78 9 -128q6 -33 28 -65q5 -7 5 -12q0 -6 -5 -13q-10 -12 -32 -13z" />
    <glyph glyph-name="t.salt" unicode="&#xe064;" horiz-adv-x="232" 
d="M153 -158h-6q-69 0 -86 72q-11 46 -11 91q0 95 47 427q4 14 4 27q0 11 -2 21q-4 -2 -9 -3q-24 -6 -174 -72q-15 -6 -27 -7q-36 0 -52 38q0 51 220 117q31 10 48 17q25 9 31 50q2 18 17 97q4 39 33 41q28 0 45 -15q8 -8 9 -21q0 -6 -1 -11q-10 -33 -10 -56q0 -32 27 -32
q20 0 204 36q29 7 69 9q67 -11 71 -59q0 -36 -24 -60.5t-58 -24.5q-44 0 -44 16q0 13 18 24q26 17 26 27q0 6 -13 6q-11 0 -22 -3q-255 -39 -273 -88q-10 -35 -39.5 -236t-29.5 -274q0 -80 28 -98q21 -12 22 -25q0 -25 -38 -31z" />
    <glyph glyph-name="t.ss01" unicode="&#xe065;" horiz-adv-x="215" 
d="M105 -58q-15 0 -29 12q-49 42 -53 131l-1 54q0 148 42 277q2 8 2 14q-1 12 -13 12q-7 0 -16 -3q-95 -35 -124 -35q-59 0 -67 45q0 24 26.5 33t70 15t85 18t62.5 45q29 46 37 147q5 63 17 73q25 21 51 21q31 0 32 -41q0 -25 -13 -88q-11 -55 -11 -78q0 -18 9 -20.5
t25 -2.5q44 1 168 25q103 21 157 22q27 0 63 -3q44 -4 52 -72q0 -21 -20 -22q-7 0 -16 2q-18 5 -72 5q-195 0 -322 -28q-66 -15 -72 -41l-22 -87q-39 -149 -39 -246q0 -72 22 -145q2 -6 2 -13q0 -13 -11.5 -19.5t-21.5 -6.5z" />
    <glyph glyph-name="u" unicode="u" horiz-adv-x="392" 
d="M305 -56h-14q-29 0 -44 11q-26 19 -28 80q-1 17 -5 24q-37 -42 -44 -51q-29 -33 -67 -35l-22 -1q-22 0 -51.5 22t-29.5 63q0 33 11 114t39 149q23 58 60 60q42 -7 43 -37q0 -11 -2 -19q-9 -31 -28 -111q-25 -101 -25 -133q0 -12 4 -12q20 1 97 126q65 106 91 161
q14 30 43 31q13 0 27 -6q31 -12 32 -39q0 -13 -4 -25q-67 -193 -67 -292q0 -26 4.5 -39t4.5 -23q0 -2 -0.5 -8.5t-24.5 -9.5z" />
    <glyph glyph-name="u.salt" unicode="&#xe066;" horiz-adv-x="326" 
d="M239 -39q-38 0 -49.5 19t-15 37t-7.5 18q-6 0 -19 -18q-26 -33 -62 -33q-14 0 -30 6q-56 22 -56 81q5 140 47 266q9 27 41 27q18 0 32 -10t14 -29l-1 -9q-42 -172 -42 -213q0 -15 6 -15q11 0 41 48.5t92 157.5q16 29 48 29q20 0 34 -12.5t14 -33.5q0 -26 -23 -102
q-34 -109 -34 -188q0 -26 -30 -26z" />
    <glyph glyph-name="u.ss01" unicode="&#xe067;" horiz-adv-x="401" 
d="M314 -114q-17 0 -32 9q-40 25 -40 102q0 52 17 130q2 10 2 14q0 3 -2 3q-3 0 -24 -32q-56 -88 -116 -125q-22 -13 -47 -13q-14 0 -26 6q-46 22 -46 97v45q0 44 60 241q10 35 42 35q8 0 15 -2q32 -11 32 -43q0 -8 -2 -15q-9 -30 -34 -129q-22 -87 -22 -128q0 -20 6 -20
q10 1 55 77q151 252 208 256q8 0 11 -1q29 -14 30 -36q0 -12 -2 -20q-66 -244 -66 -350q0 -27 10 -48t10 -29q0 -9 -11 -16.5t-28 -7.5z" />
    <glyph glyph-name="v" unicode="v" horiz-adv-x="274" 
d="M92 -5l-20 1q-70 14 -72 85v51q0 68 19 165q5 23 7 46q3 27 12.5 45.5t36.5 18.5q53 0 53 -42l-1 -7q-24 -117 -24 -172q0 -15 4 -15q5 0 16 23q57 121 85 173q15 28 40 28q17 0 31 -8q21 -11 21 -28t-76 -171q-81 -162 -96 -177.5t-36 -15.5z" />
    <glyph glyph-name="v.salt" unicode="&#xe068;" horiz-adv-x="261" 
d="M89 -6h-4q-59 13 -77 69q-8 32 -8 70q0 54 16 136q2 6 3 13q6 64 45 64q50 -10 50 -55v-15q-16 -82 -16 -113q0 -22 8 -23q18 0 89 153q21 45 36 73.5t37 28.5q10 0 21 -4q31 -14 31 -39q0 -19 -93 -193q-88 -165 -138 -165z" />
    <glyph glyph-name="v.ss01" unicode="&#xe069;" 
d="M94 -15q-13 0 -24 3q-70 21 -70 102l1 11q14 286 65 286q43 0 43 -35l-5 -49q-18 -136 -18 -186q0 -29 7 -29q11 0 47 70q181 352 249 352q26 0 26 -19q0 -16 -12 -37l-221 -397q-40 -72 -88 -72z" />
    <glyph glyph-name="w" unicode="w" horiz-adv-x="495" 
d="M88 -30q-18 0 -37 8q-51 21 -51 78q0 9 1 16q24 136 67 265q13 39 39 40q12 0 23 -4q31 -11 32 -39q0 -12 -4 -25q-60 -179 -60 -214q0 -6 3 -6q14 0 141 236q22 40 47 40q9 0 20 -4q30 -13 31 -38q0 -18 -7 -37.5t-21 -101.5q-7 -44 -7 -74q0 -26 5 -32q13 0 36.5 33
t47.5 89q27 64 27 120q0 55 -29 91q-12 16 -12 27q0 7 7 15t16 8q11 0 26 -13q62 -54 65 -126l1 -45q0 -40 -31 -113q-70 -168 -142 -168q-16 0 -29 4q-74 22 -76 82q0 14 0.5 18t0.5 6l-1 1q-1 0 -73 -100q-26 -36 -56 -37z" />
    <glyph glyph-name="w.salt" unicode="&#xe070;" horiz-adv-x="518" 
d="M82 -32h-5q-77 0 -77 116q0 111 42 257q27 96 43 138q11 32 38 32q11 0 23 -5q22 -9 23 -26q0 -16 -5 -32q-21 -68 -44.5 -174t-23.5 -132q0 -11 3 -11q14 0 108 222q18 43 47 44l15 -3q43 -8 46 -54q0 -12 -1 -18t-1 -41t3 -79q6 -102 24 -102q42 0 92 216q22 92 22 123
q0 13 -3 27t-22 30q-12 10 -13 20q0 7 5.5 14t14.5 7q10 0 21 -6q59 -34 61 -128q0 -165 -61 -289q-44 -91 -91 -92q-19 0 -25 1q-98 20 -113 120q-5 32 -14 32q-2 0 -10 -6t-22 -40t-27 -72q-12 -34 -21 -51q-19 -36 -52 -38z" />
    <glyph glyph-name="w.ss01" unicode="&#xe071;" horiz-adv-x="511" 
d="M87 -29h-4q-12 0 -27 5q-56 21 -56 65q0 40 64 339q7 33 38 35q10 0 23 -3q36 -10 38 -41q0 -9 -3 -20q-36 -135 -36 -164q0 -7 3 -7q11 0 92 150q18 33 46 33q25 0 41 -18q14 -14 15 -36q0 -8 -1 -13q-18 -101 -18 -147q0 -45 16 -45q30 0 74 118q34 92 34 161
q0 56 -25 85q-13 15 -14 26q0 6 5.5 12t15.5 6q9 0 24 -7q79 -37 79 -135q0 -38 -7 -71q-27 -136 -110 -248q-29 -39 -61 -40q-15 0 -26 4q-92 31 -104 92q-2 10 -3 10q-3 0 -18 -30q-12 -24 -42 -79q-20 -36 -53 -37z" />
    <glyph glyph-name="x" unicode="x" horiz-adv-x="301" 
d="M56 -59h-2q-54 0 -54 44q0 57 56 183q30 68 30 108l-1 80q0 65 8 132q3 24 10.5 37.5t31.5 13.5q58 0 59 -55q-6 -84 -6 -115q0 -19 2 -19q5 0 17 14q58 75 140 115q13 7 27 7q11 0 18 -13q3 -6 3 -10q0 -7 -22 -26q-100 -84 -168 -195q-18 -29 -18 -63q0 -30 19 -82
t79 -78q17 -7 17 -23q0 -22 -21 -25q-14 -2 -27 -2q-75 0 -121 74q-14 23 -21 23q-13 0 -23 -58q-11 -67 -33 -67z" />
    <glyph glyph-name="x.salt" unicode="&#xe072;" horiz-adv-x="295" 
d="M53 -80h-5q-48 4 -48 47l1 6q11 90 32.5 139.5t21.5 114.5q0 66 -10 143q-15 121 -15 176q0 51 38 51q65 0 65 -75q0 -132 1 -159q2 -33 11 -33q12 0 51 44q91 101 157 101q16 0 32 -5q37 -13 37 -32q0 -18 -41 -18q-25 0 -57 -25q-152 -122 -152 -219q0 -14 7 -56.5
t83 -92.5q22 -14 22 -26q0 -6 -6 -11q-10 -9 -29 -9q-14 0 -44.5 8t-78.5 69q-9 14 -14 14q-13 0 -20 -28q-12 -45 -13 -81q0 -19 -4.5 -31t-21.5 -12z" />
    <glyph glyph-name="x.ss01" unicode="&#xe073;" horiz-adv-x="357" 
d="M49 -71q-8 0 -19 6q-30 15 -30 35q0 11 9 26q18 30 35 62q20 36 42 72q13 21 13 42q-1 21 -5 42q-11 51 -11 160q0 75 9 155q2 22 8.5 33.5t25.5 11.5q55 0 55 -55l-4 -225q0 -21 12 -21q1 0 10 1.5t36 22.5t60 51q68 64 129 97q24 13 38 13l12 -1q11 -2 11 -22
q0 -8 -5.5 -22.5t-38 -41.5t-69.5 -56q-49 -39 -92.5 -75t-62.5 -62t-19 -55q0 -76 67 -96q22 -7 22 -25q0 -23 -33 -23q-66 0 -104 51q-13 18 -22 18q-14 0 -49 -86q-14 -33 -30 -33z" />
    <glyph glyph-name="y" unicode="y" horiz-adv-x="345" 
d="M280 -275q-13 0 -24 5q-43 18 -60 53.5t-17 113.5q0 41 5 113q0 44 -2 44t-11 -13q-34 -44 -79 -44q-14 0 -28 5q-64 25 -64 92q0 258 46 261l12 -1q51 -2 51 -56q-4 -82 -4 -126q0 -53 8 -53q13 1 58 91q27 53 68 127q18 31 48 31q12 0 24 -4q34 -13 34 -47
q0 -10 -2 -18q-16 -52 -38 -158q-30 -146 -30 -247q0 -84 30 -120q10 -12 11 -20q0 -7 -7 -14q-13 -14 -29 -15z" />
    <glyph glyph-name="y.salt" unicode="&#xe074;" horiz-adv-x="385" 
d="M260 -326h-5q-57 0 -78 84q-9 35 -9 61q0 97 42 274q6 26 6 35q0 5 -2 5q-3 0 -17 -18q-52 -68 -108 -68q-31 0 -60 25.5t-29 96.5q0 55 14 129q12 68 21.5 103.5t32.5 36.5q51 0 51 -48q0 -6 -1 -10q-6 -21 -20 -111q-10 -68 -10 -102t11 -34q10 1 192 228q18 23 41 24
q15 0 30 -8q23 -13 23 -35q0 -17 -6 -34q-121 -323 -121 -481q0 -79 36 -113q5 -5 5 -11q0 -24 -39 -29z" />
    <glyph glyph-name="y.ss01" unicode="&#xe075;" horiz-adv-x="391" 
d="M273 -492q-17 0 -39 16q-50 38 -50 170q0 120 33 311q12 66 12 84q0 6 -2 6q-36 -41 -76 -76q-36 -31 -75 -32q-36 0 -63 48q-13 22 -13 56q0 69 24 170q7 29 10 50q5 34 34 36q61 -4 62 -42q0 -9 -5 -29q-31 -134 -31 -177q0 -15 6 -15q23 1 104 114q86 121 97 155
q6 20 34 20q21 0 42 -16q14 -12 14 -31q0 -8 -2 -14q-99 -322 -118 -553q-2 -27 -2 -53q0 -73 21 -134q7 -21 7 -38q0 -25 -24 -26z" />
    <glyph glyph-name="z" unicode="z" horiz-adv-x="337" 
d="M20 -84q-52 0 -52 34q0 17 27 42q34 30 96.5 99t108.5 139q34 51 34 81q0 29 -30 29q-35 0 -115 -32q-14 -6 -27 -6t-32 8.5t-26 27.5q-2 5 -2 9q0 13 22 21q104 37 178 37q82 0 110 -50q11 -20 11 -44q0 -62 -86 -173l-35 -44q-9 -12 -9 -20q0 -9 7 -9q5 0 13 2
q23 7 43 7q45 0 83 -32q26 -22 26 -53q0 -25 -12.5 -40t-30.5 -15q-31 0 -38 18q-5 14 -5 28t-1.5 22.5t-13.5 9.5q-7 0 -20 -4q-83 -27 -158 -71q-37 -21 -66 -21z" />
    <glyph glyph-name="z.salt" unicode="&#xe076;" horiz-adv-x="306" 
d="M-41 -484q-22 0 -34 17q-5 7 -5 13q0 10 20.5 20t86.5 96q48 63 95 141q73 122 73 190q0 32 -20 49q-23 20 -50 20q-38 0 -90 -34q-16 -11 -30 -11q-25 0 -46 29q-8 12 -8 20q0 5 3 10t28 26q110 91 191 211q13 20 13 28q0 6 -8 6q-10 0 -30 -8.5t-44.5 -23t-39 -22.5
t-28.5 -8q-45 0 -45 32q0 15 29 35q91 59 155 59q9 0 35 -3t55 -51q9 -14 9 -28q0 -24 -32 -67q-46 -62 -100 -118q-10 -11 -10 -16q0 -8 18 -15q104 -37 120 -117q5 -23 5 -47q0 -60 -35 -140.5t-101 -159.5t-127 -115q-31 -18 -53 -18z" />
    <glyph glyph-name="z.ss01" unicode="&#xe077;" horiz-adv-x="543" 
d="M126 -321q22 0 82 103q47 82 47 127q0 7 -1 13q-42 -21 -98 -140q-34 -73 -34 -97q0 -6 4 -6zM117 -409q-27 0 -51.5 20.5t-24.5 55.5q0 25 18.5 78t67.5 126.5t77 106.5q5 6 5 11q0 15 -13 15q-8 0 -41.5 -19.5t-73.5 -28.5q-9 -2 -17 -2q-30 0 -55 30q-9 11 -9 21
q0 14 23 30q11 7 63 62q44 46 92 104q81 98 81 131q0 17 -24 17q-16 0 -47 -11t-65 -28.5t-46.5 -27.5t-25.5 -10q-16 0 -30 19q-8 11 -8 20q0 14 21 30q88 65 188 65q71 0 100 -43q15 -22 15 -50q0 -47 -54 -115q-34 -44 -60 -84q-6 -8 -16 -19q-16 -18 -16 -24q0 -4 35 -5
q28 -1 65 -9q20 0 72 39q81 61 139 61q17 0 29 -10t12 -27q0 -20 -34 -24q-48 -5 -86 -27q-94 -52 -94 -75q0 -6 2 -13q6 -26 6 -54q0 -40 -17 -101t-61 -127t-96 -95q-24 -13 -46 -13z" />
    <glyph glyph-name="braceleft" unicode="{" horiz-adv-x="295" 
d="M184 -309h-12q-90 0 -127 89q-21 65 -21 120q0 61 21 150q7 35 7 44l-3.5 10.5t-21.5 13.5q-24 3 -25 27q0 22 15 63q28 77 53 155t54 156q84 230 153 234q23 0 42 -16q27 -17 29 -41q-4 -42 -42 -45q-22 -5 -32.5 -19.5t-19.5 -40.5q-29 -57 -90 -228q-49 -137 -49 -181
q0 -13 6 -16q41 -13 42 -39q0 -27 -9 -54q-31 -109 -31 -186q0 -12 1 -23q8 -121 59 -121q15 0 37 11q10 7 21 7q17 0 21 -23q0 -13 -19 -26q-27 -19 -59 -21z" />
    <glyph glyph-name="bar" unicode="|" horiz-adv-x="136" 
d="M39 -104h-3q-24 0 -42.5 29.5t-18.5 70.5q23 287 87 567q8 38 9 53q2 39 25 41q7 0 17 -2q48 -10 51 -52q0 -13 -3 -28q-100 -392 -100 -579l2 -53q0 -46 -24 -47z" />
    <glyph glyph-name="braceright" unicode="}" horiz-adv-x="363" 
d="M72 -328q-43 0 -43 22q0 10 16 18q45 21 74 64q20 29 20 63q0 13 -3 23q-11 31 -13 60q0 40 12 68q29 68 29 90q-3 40 -18 78.5t-17 69.5q0 30 10 54q19 45 43 94q26 53 49 107q22 50 39 121q3 13 3 29q0 14 -11.5 24t-24.5 10q-14 -1 -30 -9q-35 -18 -65 -19
q-37 0 -48 34q0 23 41 36q23 7 48 9q36 0 75 -5.5t76 -46.5q25 -27 25 -70q0 -54 -48 -152q-84 -171 -84 -246q0 -51 42 -66q25 -9 26 -25q0 -11 -11 -23q-60 -64 -60 -152q0 -33 12 -97q0 -41 -24 -78.5t-71 -63.5q-33 -19 -69 -21z" />
    <glyph glyph-name="multiply" unicode="&#xd7;" horiz-adv-x="326" 
d="M15 -31q-13 0 -28 10q-26 17 -26 35q0 13 14 30q27 33 50 68q14 21 29 41q12 15 12 33q0 12 -6 25q-59 137 -59 155q0 25 24 25q11 0 25 -8q46 -34 63 -90q0 -6 6.5 -17t14.5 -12q6 0 9.5 4t7 10t46.5 59q51 63 63 77t26 14q3 0 12.5 -2t22.5 -17t15 -31l-25 -33
q-26 -33 -52 -68q-32 -44 -68 -84q-17 -17 -17 -34t15 -33q36 -46 84 -78q19 -12 19 -25q0 -7 -5 -14q-7 -11 -17 -11q-25 0 -119 79q-14 12 -27 12q-29 0 -66 -77q-19 -43 -43 -43z" />
    <glyph glyph-name="divide" unicode="&#xf7;" horiz-adv-x="530" 
d="M212 297q-27 5 -27 25q0 23 68 117q11 14 26 14q9 0 19 -5q34 -18 34 -48q-3 -14 -25 -38t-49.5 -43.5t-45.5 -21.5zM179 -56q-23 0 -26 11.5t-3 19.5q0 38 46 79q15 13 26 26.5t23 13.5q17 0 41 -25q9 -9 9 -21l-1 -6q-43 -66 -101 -97zM43 125q-28 0 -43 22
q-16 16 -16 28q0 20 30 25q188 65 381 71q39 0 78 -5.5t42 -48.5q-2 -20 -20 -20l-50 1q-196 0 -373 -66q-15 -7 -29 -7z" />
    <glyph glyph-name="quoteleft" unicode="&#x2018;" horiz-adv-x="157" 
d="M90 431q-12 0 -22 4q-66 22 -66 94q3 29 9 57q12 67 56 67q10 0 23 -3q32 -11 32 -33q0 -17 -8 -37q-15 -41 -15 -69q0 -24 7 -48q3 -9 3 -16q0 -16 -19 -16z" />
    <glyph glyph-name="quoteright" unicode="&#x2019;" horiz-adv-x="215" 
d="M36 384q-11 0 -19 10q-3 5 -3 10q0 6 7 17q36 48 56 131q0 9 -4.5 19.5t-4.5 19.5q0 13 21 13q71 0 79 -72q0 -42 -35 -87q-47 -61 -97 -61z" />
    <glyph glyph-name="quotesinglbase" unicode="&#x201a;" horiz-adv-x="203" 
d="M36 -282q-11 0 -19 10q-3 5 -3 10q0 6 7 17q36 48 56 131q0 9 -4.5 19.5t-4.5 19.5q0 13 21 13q71 0 79 -72q0 -42 -35 -87q-47 -61 -97 -61z" />
    <glyph glyph-name="quotedblleft" unicode="&#x201c;" horiz-adv-x="313" 
d="M215 416q-7 0 -13 3q-58 34 -58 83q0 32 24.5 64.5t69.5 52.5q10 4 19 4q22 0 39 -23q5 -9 5 -16q0 -18 -34 -57t-34 -68q0 -10 3 -24q0 -19 -21 -19zM75 385q-8 0 -13 2q-65 29 -65 92q0 42 25.5 90.5t59.5 83.5q14 14 31 14t34.5 -14t17.5 -27q-2 -21 -35 -70
q-45 -62 -45 -108q0 -21 7 -44l1 -6q0 -13 -18 -13z" />
    <glyph glyph-name="quotedblright" unicode="&#x201d;" horiz-adv-x="288" 
d="M63 417l-9 1q-40 6 -40 35q0 11 7 27q21 42 21 70q0 16 -3 32q0 22 21 22q9 0 20 -5q52 -25 57 -70q-7 -112 -74 -112zM199 408q-21 0 -41.5 10t-20.5 30q0 11 18 54q21 44 21 76q0 28 -21 57l-1 3q0 3 4 10q7 14 27 14q9 0 18 -5q63 -27 66 -109q-6 -57 -39 -119
q-11 -21 -31 -21z" />
    <glyph glyph-name="quotedblbase" unicode="&#x201e;" horiz-adv-x="322" 
d="M154 -253q-10 0 -18 10q-4 6 -4 11q0 6 12 23q36 58 52 124q0 9 -4.5 19.5t-5.5 19.5q0 13 21 13q70 0 80 -72q0 -42 -35.5 -87t-76.5 -57q0 -4 -21 -4zM35 -251q-14 0 -23 10q-4 5 -4 10t22 48q34 66 34 106q0 15 -6 45q0 15 18 16q10 0 18 -3q58 -19 62 -72
q-2 -51 -34 -98q-43 -62 -87 -62z" />
    <glyph glyph-name="minus" unicode="&#x2212;" horiz-adv-x="493" 
d="M44 154q-28 0 -48 28q-12 16 -12 27q0 17 12 22q7 2 26 2q148 25 251 25q80 0 160 -24q33 -11 33 -46q0 -26 -17 -26q-6 0 -10 1q-76 19 -166 19q-87 0 -209 -25q-11 -3 -20 -3z" />
    <glyph glyph-name="uniF001" unicode="&#xf001;" horiz-adv-x="442" 
d="M120 -344q8 1 31 132q18 105 18 163q-5 59 -17 70q-3 -3 -6 -7t-8 -39q-26 -173 -26 -294q0 -25 8 -25zM127 -423l-25 1q-66 10 -74 74q-5 40 -5 70q0 101 31 264q3 14 3 26q0 5 -0.5 8.5t-2.5 12t-27 19.5t-27 27q0 3 1 13.5t26 22.5q62 28 74 103q10 65 35 164
q14 56 26 67q7 6 20 6q49 0 49 -39q0 -33 -35 -161q-6 -24 -6 -40q0 -24 15 -24q13 0 44 8t53 8l22 -1q6 50 17 96q7 29 38 29q54 0 54 -43q0 -12 -2 -22q-25 -127 -31 -258q0 -11 2.5 -20t2.5 -19q0 -8 -1.5 -16t-26.5 -10q-54 0 -58 69q-2 34 -2 66l1 48q-26 13 -38 13
q-23 0 -58 -16q-14 -7 -29 -13q-5 -2 -5 -8q0 -8 3 -14q42 -84 42 -234q0 -41 -4 -103.5t-35 -121.5q-24 -47 -67 -52zM409 346l-14 1q-28 6 -30 37v20q0 36 32 116l5 14q8 19 30 20q10 0 20 -4q34 -15 35 -36q0 -22 -51 -148q-9 -20 -27 -20z" />
    <glyph glyph-name="uniF001" unicode="&#xfb01;" horiz-adv-x="442" 
d="M120 -344q8 1 31 132q18 105 18 163q-5 59 -17 70q-3 -3 -6 -7t-8 -39q-26 -173 -26 -294q0 -25 8 -25zM127 -423l-25 1q-66 10 -74 74q-5 40 -5 70q0 101 31 264q3 14 3 26q0 5 -0.5 8.5t-2.5 12t-27 19.5t-27 27q0 3 1 13.5t26 22.5q62 28 74 103q10 65 35 164
q14 56 26 67q7 6 20 6q49 0 49 -39q0 -33 -35 -161q-6 -24 -6 -40q0 -24 15 -24q13 0 44 8t53 8l22 -1q6 50 17 96q7 29 38 29q54 0 54 -43q0 -12 -2 -22q-25 -127 -31 -258q0 -11 2.5 -20t2.5 -19q0 -8 -1.5 -16t-26.5 -10q-54 0 -58 69q-2 34 -2 66l1 48q-26 13 -38 13
q-23 0 -58 -16q-14 -7 -29 -13q-5 -2 -5 -8q0 -8 3 -14q42 -84 42 -234q0 -41 -4 -103.5t-35 -121.5q-24 -47 -67 -52zM409 346l-14 1q-28 6 -30 37v20q0 36 32 116l5 14q8 19 30 20q10 0 20 -4q34 -15 35 -36q0 -22 -51 -148q-9 -20 -27 -20z" />
    <glyph glyph-name="uniF002" unicode="&#xf002;" horiz-adv-x="593" 
d="M120 -344q8 1 31 132q18 105 18 163q-5 59 -17 70q-3 -3 -6 -7t-8 -39q-26 -173 -26 -294q0 -25 8 -25zM127 -423l-25 1q-66 10 -74 74q-5 40 -5 70q0 101 31 264q3 14 3 26q0 5 -0.5 8.5t-2.5 12t-27 19.5t-27 27q0 3 1 13.5t26 22.5q62 28 74 103q10 65 35 164
q14 56 26 67q7 6 20 6q49 0 49 -39q0 -33 -35 -161q-6 -24 -6 -40q0 -24 15 -24q13 0 44 8t53 8q19 0 25 -2q11 68 33 151l84 322q10 38 41 38q9 0 20 -4q24 -9 24 -33q0 -11 -4 -26q-117 -448 -117 -608q0 -75 27 -75q35 0 147 105q1 0 1 1q11 10 23 11q7 0 14 -6t7 -15
q0 -10 -7 -22q-80 -136 -191 -136q-76 0 -98 73q-14 44 -14 107l1 38q-26 13 -38 13q-23 0 -58 -16q-14 -7 -29 -13q-5 -2 -5 -8q0 -8 3 -14q42 -84 42 -234q0 -41 -4 -103.5t-35 -121.5q-24 -47 -67 -52z" />
    <glyph glyph-name="uniF002" unicode="&#xfb02;" horiz-adv-x="593" 
d="M120 -344q8 1 31 132q18 105 18 163q-5 59 -17 70q-3 -3 -6 -7t-8 -39q-26 -173 -26 -294q0 -25 8 -25zM127 -423l-25 1q-66 10 -74 74q-5 40 -5 70q0 101 31 264q3 14 3 26q0 5 -0.5 8.5t-2.5 12t-27 19.5t-27 27q0 3 1 13.5t26 22.5q62 28 74 103q10 65 35 164
q14 56 26 67q7 6 20 6q49 0 49 -39q0 -33 -35 -161q-6 -24 -6 -40q0 -24 15 -24q13 0 44 8t53 8q19 0 25 -2q11 68 33 151l84 322q10 38 41 38q9 0 20 -4q24 -9 24 -33q0 -11 -4 -26q-117 -448 -117 -608q0 -75 27 -75q35 0 147 105q1 0 1 1q11 10 23 11q7 0 14 -6t7 -15
q0 -10 -7 -22q-80 -136 -191 -136q-76 0 -98 73q-14 44 -14 107l1 38q-26 13 -38 13q-23 0 -58 -16q-14 -7 -29 -13q-5 -2 -5 -8q0 -8 3 -14q42 -84 42 -234q0 -41 -4 -103.5t-35 -121.5q-24 -47 -67 -52z" />
    </font>
</defs>
</svg>
