<?xml version="1.0" standalone="no"?>
<!DOCTYPE svg PUBLIC "-//W3C//DTD SVG 1.1//EN" "http://www.w3.org/Graphics/SVG/1.1/DTD/svg11.dtd" >
<svg xmlns="http://www.w3.org/2000/svg" xmlns:xlink="http://www.w3.org/1999/xlink" version="1.1">
<metadata>
Created by FontForge 20170910 at Thu Sep 13 10:54:11 2018
 By Jimmy Wärting
Copyright (c) 2018, Designed by Andika Fez, email: andikafez@gmail.com
</metadata>
<defs>
<font id="DISPLAYED" horiz-adv-x="500" >
  <font-face 
    font-family="DISPLAYED"
    font-weight="400"
    font-stretch="normal"
    units-per-em="1000"
    panose-1="2 0 5 3 0 0 0 0 0 0"
    ascent="800"
    descent="-200"
    x-height="624"
    cap-height="624"
    bbox="-20 -165 961 926"
    underline-thickness="50"
    underline-position="-150"
    unicode-range="U+0020-FFFD"
  />
<missing-glyph horiz-adv-x="200" 
 />
    <glyph glyph-name=".notdef" unicode="&#xfffd;" horiz-adv-x="200" 
 />
    <glyph glyph-name=".null" horiz-adv-x="0" 
 />
    <glyph glyph-name="nonmarkingreturn" horiz-adv-x="333" 
 />
    <glyph glyph-name="space" unicode=" " 
 />
    <glyph glyph-name="exclam" unicode="!" horiz-adv-x="300" 
d="M200 60v-20q0 -17 -11.5 -28.5t-28.5 -11.5h-20q-17 0 -28.5 11.5t-11.5 28.5v20q0 17 11.5 28.5t28.5 11.5h20q17 0 28.5 -11.5t11.5 -28.5zM200 649l-10 -530h-80l-10 530h100z" />
    <glyph glyph-name="quotedbl" unicode="&#x22;" horiz-adv-x="429" 
d="M200 542q0 -28 -19 -47.5t-49 -19.5v30q8 0 13 5t5 12v3h-10q-17 0 -28.5 11.5t-11.5 28.5v20q0 16 11.5 28t28.5 12h20q17 0 28.5 -12t11.5 -28v-43zM329 542q0 -28 -19 -47.5t-48 -19.5v30q7 0 12 5t5 12v3h-10q-17 0 -28.5 11.5t-11.5 28.5v20q0 16 11.5 28t28.5 12
h20q17 0 28.5 -12t11.5 -28v-43z" />
    <glyph glyph-name="numbersign" unicode="#" horiz-adv-x="745" 
d="M363 474h96l40 150h104l-40 -150h83l-27 -100h-83l-27 -100h88l-27 -100h-88l-40 -150h-103l40 150h-97l-40 -150h-103l40 150h-79l27 100h79l26 100h-83l26 100h84l40 150h104zM432 374h-96l-27 -100h97z" />
    <glyph glyph-name="dollar" unicode="$" 
d="M300 210q0 14 -15 29.5t-37 28.5t-48 31.5t-48 38.5t-37 50.5t-15 65.5v70q0 42 29.5 71t70.5 29v100h100v-100q41 0 70.5 -29t29.5 -71v-67h-100v43q0 10 -7.5 17t-17.5 7h-50q-10 0 -17.5 -7t-7.5 -17v-46q0 -26 20.5 -48t50 -39t59 -36t50 -50t20.5 -71v-86
q0 -41 -29.5 -70.5t-70.5 -29.5v-100h-100v100q-41 0 -70.5 29.5t-29.5 70.5v86h100v-60q0 -11 7.5 -18.5t17.5 -7.5h50q10 0 17.5 7.5t7.5 18.5v60z" />
    <glyph glyph-name="percent" unicode="%" horiz-adv-x="760" 
d="M660 174v-50q0 -41 -29.5 -70.5t-70.5 -29.5h-50q-41 0 -70.5 29.5t-29.5 70.5v50q0 42 29.5 71t70.5 29h50q41 0 70.5 -29t29.5 -71zM267 24h-55l279 600h56zM588 160q0 17 -12.5 29.5t-29.5 12.5h-22q-17 0 -29.5 -12.5t-12.5 -29.5v-21q0 -17 12.5 -29.5t29.5 -12.5
h22q17 0 29.5 12.5t12.5 29.5v21zM350 524v-50q0 -41 -29.5 -70.5t-70.5 -29.5h-50q-41 0 -70.5 29.5t-29.5 70.5v50q0 42 29.5 71t70.5 29h50q41 0 70.5 -29t29.5 -71zM278 510q0 17 -12.5 29.5t-29.5 12.5h-22q-17 0 -29.5 -12.5t-12.5 -29.5v-21q0 -17 12.5 -29.5
t29.5 -12.5h22q17 0 29.5 12.5t12.5 29.5v21z" />
    <glyph glyph-name="ampersand" unicode="&#x26;" horiz-adv-x="550" 
d="M125 324q-25 34 -25 76v124q0 42 29.5 71t70.5 29h175v-100h-150q-10 0 -17.5 -7t-7.5 -17v-100q0 -11 7.5 -18.5t17.5 -7.5h75v50h100v-50h50v-100h-50v-250h-100h-100q-41 0 -70.5 29.5t-29.5 70.5v126q0 41 25 74zM225 274q-10 0 -17.5 -7t-7.5 -17v-100
q0 -11 7.5 -18.5t17.5 -7.5h75v150h-75z" />
    <glyph glyph-name="quotesingle" unicode="'" horiz-adv-x="300" 
d="M200 542q0 -28 -19 -47.5t-49 -19.5v30q8 0 13 5t5 12v3h-10q-17 0 -28.5 11.5t-11.5 28.5v20q0 16 11.5 28t28.5 12h20q17 0 28.5 -12t11.5 -28v-43z" />
    <glyph glyph-name="parenleft" unicode="(" horiz-adv-x="450" 
d="M250 774q-62 0 -106 -43.5t-44 -106.5v-600q0 -62 44 -106t106 -44h100v100h-80q-29 0 -49.5 20.5t-20.5 49.5v560q0 30 20.5 50t49.5 20h80v100h-100z" />
    <glyph glyph-name="parenright" unicode=")" horiz-adv-x="450" 
d="M200 774q62 0 106 -43.5t44 -106.5v-600q0 -62 -44 -106t-106 -44h-100v100h80q29 0 49.5 20.5t20.5 49.5v560q0 30 -20.5 50t-49.5 20h-80v100h100z" />
    <glyph glyph-name="asterisk" unicode="*" horiz-adv-x="401" 
d="M176 577v53h50v-53l47 33l29 -41l-58 -40l58 -40l-29 -41l-47 33v-53h-50v53l-47 -33l-29 41l57 40l-57 40l29 41z" />
    <glyph glyph-name="plus" unicode="+" horiz-adv-x="550" 
d="M100 274v100h125v126h100v-126h125v-100h-125v-124h-100v124h-125z" />
    <glyph glyph-name="comma" unicode="," horiz-adv-x="300" 
d="M200 42q0 -29 -19 -48.5t-49 -19.5v30q8 0 13 5t5 13v2h-10q-17 0 -28.5 11.5t-11.5 28.5v20q0 17 11.5 28.5t28.5 11.5h20q17 0 28.5 -11.5t11.5 -28.5v-42z" />
    <glyph glyph-name="hyphen" unicode="-" horiz-adv-x="550" 
d="M100 274v100h350v-100h-350z" />
    <glyph glyph-name="period" unicode="." horiz-adv-x="300" 
d="M200 84v-20q0 -17 -11.5 -28.5t-28.5 -11.5h-20q-17 0 -28.5 11.5t-11.5 28.5v20q0 17 11.5 28.5t28.5 11.5h20q17 0 28.5 -11.5t11.5 -28.5z" />
    <glyph glyph-name="slash" unicode="/" horiz-adv-x="590" 
d="M210 24h-110l280 600h110z" />
    <glyph glyph-name="zero" unicode="0" 
d="M300 624q41 0 70.5 -29t29.5 -71v-400q0 -41 -29.5 -70.5t-70.5 -29.5h-100q-41 0 -70.5 29.5t-29.5 70.5v400q0 42 29.5 71t70.5 29h100zM300 500q0 10 -7.5 17t-17.5 7h-50q-10 0 -17.5 -7t-7.5 -17v-350q0 -11 7.5 -18.5t17.5 -7.5h50q10 0 17.5 7.5t7.5 18.5v350z
" />
    <glyph glyph-name="one" unicode="1" 
d="M200 124v376q0 10 -7.5 17t-17.5 7h-75v100h100q41 0 70.5 -29t29.5 -71v-400h100v-100h-300v100h100z" />
    <glyph glyph-name="two" unicode="2" 
d="M400 24h-300q0 70 20.5 128t50 97t59 73.5t50 73t20.5 78.5v26q0 10 -7.5 17t-17.5 7h-50q-10 0 -17.5 -7t-7.5 -17v-26h-100v50q0 42 29.5 71t70.5 29h100q41 0 70.5 -29t29.5 -70v-51q0 -41 -21.5 -87.5t-49.5 -82.5t-61 -86.5t-49 -93.5h181v-100z" />
    <glyph glyph-name="three" unicode="3" 
d="M275 274h-75v100h75q10 0 17.5 7.5t7.5 18.5v100q0 10 -7.5 17t-17.5 7h-50q-10 0 -17.5 -7t-7.5 -17v-26h-100v50q0 42 29.5 71t70.5 29h100q41 0 70.5 -29t29.5 -71v-124q0 -42 -25 -76q25 -33 25 -74v-126q0 -41 -29.5 -70.5t-70.5 -29.5h-100q-41 0 -70.5 29.5
t-29.5 70.5v50h100v-24q0 -11 7.5 -18.5t17.5 -7.5h50q10 0 17.5 7.5t7.5 18.5v100q0 10 -7.5 17t-17.5 7z" />
    <glyph glyph-name="four" unicode="4" 
d="M400 624v-600h-100v250h-100q-41 0 -70.5 29.5t-29.5 70.5v250h100v-224q0 -11 7.5 -18.5t17.5 -7.5h75v250h100z" />
    <glyph glyph-name="five" unicode="5" 
d="M105 524q0 42 29.5 71t70.5 29h175v-100h-155q-10 0 -17.5 -7t-7.5 -17v-76h100q41 0 70.5 -29t29.5 -71v-200q0 -41 -29.5 -70.5t-70.5 -29.5h-100q-41 0 -70.5 29.5t-29.5 70.5v100h100v-74q0 -11 7.5 -18.5t17.5 -7.5h50q10 0 17.5 7.5t7.5 18.5v150q0 10 -7.5 17
t-17.5 7h-170v200z" />
    <glyph glyph-name="six" unicode="6" 
d="M300 474v26q0 10 -7.5 17t-17.5 7h-50q-10 0 -17.5 -7t-7.5 -17v-126h100q41 0 70.5 -29t29.5 -71v-150q0 -41 -29.5 -70.5t-70.5 -29.5h-100q-41 0 -70.5 29.5t-29.5 70.5v400q0 42 29.5 71t70.5 29h100q41 0 70.5 -29t29.5 -71v-50h-100zM300 250q0 10 -7.5 17t-17.5 7
h-75v-124q0 -11 7.5 -18.5t17.5 -7.5h50q10 0 17.5 7.5t7.5 18.5v100z" />
    <glyph glyph-name="seven" unicode="7" 
d="M100 624h300v-106l-170 -494h-106l173 500h-197v100z" />
    <glyph glyph-name="eight" unicode="8" 
d="M225 274h50h-50zM125 324q-25 34 -25 76v124q0 42 29.5 71t70.5 29h100q41 0 70.5 -29t29.5 -71v-124q0 -42 -25 -76q25 -33 25 -74v-126q0 -41 -29.5 -70.5t-70.5 -29.5h-100q-41 0 -70.5 29.5t-29.5 70.5v126q0 41 25 74zM300 250q0 10 -7.5 17t-17.5 7h-50
q-10 0 -17.5 -7t-7.5 -17v-100q0 -11 7.5 -18.5t17.5 -7.5h50q10 0 17.5 7.5t7.5 18.5v100zM275 374q10 0 17.5 7.5t7.5 18.5v100q0 10 -7.5 17t-17.5 7h-50q-10 0 -17.5 -7t-7.5 -17v-100q0 -11 7.5 -18.5t17.5 -7.5h50z" />
    <glyph glyph-name="nine" unicode="9" 
d="M200 174v-24q0 -11 7.5 -18.5t17.5 -7.5h50q10 0 17.5 7.5t7.5 18.5v124h-100q-41 0 -70.5 29.5t-29.5 70.5v150q0 42 29.5 71t70.5 29h100q41 0 70.5 -29t29.5 -71v-400q0 -41 -29.5 -70.5t-70.5 -29.5h-100q-41 0 -70.5 29.5t-29.5 70.5v50h100zM200 400
q0 -11 7.5 -18.5t17.5 -7.5h75v126q0 10 -7.5 17t-17.5 7h-50q-10 0 -17.5 -7t-7.5 -17v-100z" />
    <glyph glyph-name="colon" unicode=":" horiz-adv-x="300" 
d="M200 256v-20q0 -17 -11.5 -28.5t-28.5 -11.5h-20q-17 0 -28.5 11.5t-11.5 28.5v20q0 17 11.5 28.5t28.5 11.5h20q17 0 28.5 -11.5t11.5 -28.5zM200 415v-20q0 -17 -11.5 -28.5t-28.5 -11.5h-20q-17 0 -28.5 11.5t-11.5 28.5v20q0 17 11.5 28.5t28.5 11.5h20
q17 0 28.5 -11.5t11.5 -28.5z" />
    <glyph glyph-name="semicolon" unicode=";" horiz-adv-x="300" 
d="M200 214q0 -29 -19 -48.5t-49 -19.5v30q8 0 13 5t5 13v2h-10q-17 0 -28.5 11.5t-11.5 28.5v20q0 17 11.5 28.5t28.5 11.5h20q17 0 28.5 -11.5t11.5 -28.5v-42zM200 415v-20q0 -17 -11.5 -28.5t-28.5 -11.5h-20q-17 0 -28.5 11.5t-11.5 28.5v20q0 17 11.5 28.5t28.5 11.5
h20q17 0 28.5 -11.5t11.5 -28.5z" />
    <glyph glyph-name="less" unicode="&#x3c;" horiz-adv-x="382" 
d="M282 542v-78l-117 -140l117 -139v-78l-182 217z" />
    <glyph glyph-name="equal" unicode="=" horiz-adv-x="550" 
d="M100 196v100h350v-100h-350zM100 357v100h350v-100h-350z" />
    <glyph glyph-name="greater" unicode="&#x3e;" horiz-adv-x="382" 
d="M100 542v-78l117 -140l-117 -139v-78l182 217z" />
    <glyph glyph-name="question" unicode="?" 
d="M250 60v-20q0 -17 -11.5 -28.5t-28.5 -11.5h-20q-17 0 -28.5 11.5t-11.5 28.5v20q0 17 11.5 28.5t28.5 11.5h20q17 0 28.5 -11.5t11.5 -28.5zM300 499v25q0 10 -7.5 17.5t-17.5 7.5h-50q-10 0 -17.5 -7.5t-7.5 -17.5v-75h-100v100q0 41 29.5 70.5t70.5 29.5h100
q41 0 70.5 -29.5t29.5 -70.5v-50q0 -44 -15.5 -82.5t-37.5 -68t-44 -60.5t-37.5 -74.5t-15.5 -94.5h-100q0 66 15.5 115.5t37.5 78.5t44 54.5t37.5 58t15.5 73.5z" />
    <glyph glyph-name="at" unicode="@" horiz-adv-x="800" 
d="M300 524q-41 0 -70.5 -29t-29.5 -71v-200q0 -41 29.5 -70.5t70.5 -29.5h365q15 0 25 -10t10 -24v-30q0 -15 -10 -25.5t-25 -10.5h-365q-83 0 -141.5 59t-58.5 141v200q0 83 58.5 141.5t141.5 58.5h200q83 0 141.5 -58.5t58.5 -141.5v-150q0 -41 -29.5 -70.5t-70.5 -29.5
h-50q-27 0 -50 14q-23 -14 -50 -14h-100q-41 0 -70.5 29.5t-29.5 70.5v100q0 42 29.5 71t70.5 29h100q41 0 70.5 -29t29.5 -71v-74q0 -11 7.5 -18.5t17.5 -7.5t17.5 7.5t7.5 18.5v124q0 42 -29.5 71t-70.5 29h-200zM375 374q-10 0 -17.5 -7t-7.5 -17v-50q0 -11 7.5 -18.5
t17.5 -7.5h50q10 0 17.5 7.5t7.5 18.5v50q0 10 -7.5 17t-17.5 7h-50z" />
    <glyph glyph-name="A" unicode="A" 
d="M200 24h-100v500q0 42 29.5 71t70.5 29h100q41 0 70.5 -29t29.5 -71v-500h-100v200h-100v-200zM300 324v176q0 10 -7.5 17t-17.5 7h-50q-10 0 -17.5 -7t-7.5 -17v-176h100z" />
    <glyph glyph-name="B" unicode="B" horiz-adv-x="490" 
d="M100 24v600h190q41 0 70.5 -29t29.5 -71v-124q0 -42 -25 -76q25 -33 25 -74v-126q0 -41 -29.5 -70.5t-70.5 -29.5h-90h-100zM255 274h-55v-150h65q10 0 17.5 7.5t7.5 18.5v90q0 14 -10.5 24t-24.5 10zM200 524v-150h55q14 0 24.5 10.5t10.5 25.5v90q0 10 -7.5 17t-17.5 7
h-65z" />
    <glyph glyph-name="C" unicode="C" 
d="M400 174v-50q0 -41 -29.5 -70.5t-70.5 -29.5h-100q-41 0 -70.5 29.5t-29.5 70.5v400q0 42 29.5 71t70.5 29h100q41 0 70.5 -29t29.5 -71v-50h-100v26q0 10 -7.5 17t-17.5 7h-50q-10 0 -17.5 -7t-7.5 -17v-350q0 -11 7.5 -18.5t17.5 -7.5h50q10 0 17.5 7.5t7.5 18.5v24
h100z" />
    <glyph glyph-name="D" unicode="D" 
d="M400 524v-400q0 -41 -29.5 -70.5t-70.5 -29.5h-200v600h200q41 0 70.5 -29t29.5 -71zM200 524v-400h75q10 0 17.5 7.5t7.5 18.5v350q0 10 -7.5 17t-17.5 7h-75z" />
    <glyph glyph-name="E" unicode="E" horiz-adv-x="450" 
d="M100 624h250v-100h-150v-150h120v-100h-120v-150h150v-100h-250v600z" />
    <glyph glyph-name="F" unicode="F" horiz-adv-x="430" 
d="M100 624h250v-100h-150v-150h120v-100h-120v-250h-100v600z" />
    <glyph glyph-name="G" unicode="G" 
d="M245 374h155v-250q0 -41 -29.5 -70.5t-70.5 -29.5h-50h-50q-41 0 -70.5 29.5t-29.5 70.5v400q0 42 29.5 71t70.5 29h100q41 0 70.5 -29t29.5 -71v-50h-100v26q0 10 -7.5 17t-17.5 7h-50q-10 0 -17.5 -7t-7.5 -17v-350q0 -11 7.5 -18.5t17.5 -7.5h50q10 0 17.5 7.5
t7.5 18.5v124h-55v100z" />
    <glyph glyph-name="H" unicode="H" 
d="M100 624h100v-250h100v250h100v-600h-100v250h-100v-250h-100v600z" />
    <glyph glyph-name="I" unicode="I" horiz-adv-x="300" 
d="M100 24v600h100v-600h-100z" />
    <glyph glyph-name="J" unicode="J" 
d="M400 624v-500q0 -41 -29.5 -70.5t-70.5 -29.5h-100q-41 0 -70.5 29.5t-29.5 70.5v50h100v-24q0 -11 7.5 -18.5t17.5 -7.5h50q10 0 17.5 7.5t7.5 18.5l-1 474h101z" />
    <glyph glyph-name="K" unicode="K" horiz-adv-x="473" 
d="M408 24h-108l-91 250h-9v-250h-100v600h100v-250h9l90 246h108l-108 -296z" />
    <glyph glyph-name="L" unicode="L" horiz-adv-x="450" 
d="M100 624h100v-500h150v-100h-250v600z" />
    <glyph glyph-name="M" unicode="M" horiz-adv-x="600" 
d="M500 624v-600h-100v328l-65 -178h-70l-65 178v-328h-100v600h107l93 -254l93 254h107z" />
    <glyph glyph-name="N" unicode="N" horiz-adv-x="520" 
d="M319 24l-119 328v-328h-100v600h107l113 -309v309h100v-600h-101z" />
    <glyph glyph-name="O" unicode="O" 
d="M300 624q41 0 70.5 -29t29.5 -71v-400q0 -41 -29.5 -70.5t-70.5 -29.5h-100q-41 0 -70.5 29.5t-29.5 70.5v400q0 42 29.5 71t70.5 29h100zM300 500q0 10 -7.5 17t-17.5 7h-50q-10 0 -17.5 -7t-7.5 -17v-350q0 -11 7.5 -18.5t17.5 -7.5h50q10 0 17.5 7.5t7.5 18.5v350z
" />
    <glyph glyph-name="P" unicode="P" 
d="M200 24h-100v600h200q41 0 70.5 -29t29.5 -71v-175q0 -37 -24.5 -65t-60.5 -34l-115 -1v-225zM300 500q0 10 -7.5 17t-17.5 7h-75v-175h75q10 0 17.5 7.5t7.5 17.5v126z" />
    <glyph glyph-name="Q" unicode="Q" 
d="M209 24h-9q-41 0 -70.5 29t-29.5 71v400q0 41 29.5 70.5t70.5 29.5h100q41 0 70.5 -29.5t29.5 -70.5v-400q0 -37 -23.5 -65t-58.5 -34l28 -61h-110zM300 498q0 11 -7.5 18.5t-17.5 7.5h-50q-10 0 -17.5 -7.5t-7.5 -18.5v-350q0 -10 7.5 -17t17.5 -7h50q10 0 17.5 7
t7.5 17v350z" />
    <glyph glyph-name="R" unicode="R" horiz-adv-x="512" 
d="M414 24h-108l-81 225h-25v-225h-100v600h200q41 0 70.5 -29t29.5 -71v-175q0 -33 -19.5 -59t-49.5 -36zM300 500q0 10 -7.5 17t-17.5 7h-75v-175h75q10 0 17.5 7.5t7.5 17.5v126z" />
    <glyph glyph-name="S" unicode="S" 
d="M300 210q0 14 -15 28.5t-37 26t-48 29.5t-48 37.5t-37 51.5t-15 71v70q0 42 29.5 71t70.5 29h100q41 0 70.5 -29t29.5 -71v-67h-100v43q0 10 -7.5 17t-17.5 7h-50q-10 0 -17.5 -7t-7.5 -17v-46q0 -25 20.5 -46.5t50 -39t59 -37t50 -50.5t20.5 -71v-86q0 -41 -29.5 -70.5
t-70.5 -29.5h-100q-41 0 -70.5 29.5t-29.5 70.5v86h100v-60q0 -11 7.5 -18.5t17.5 -7.5h50q10 0 17.5 7.5t7.5 18.5v60z" />
    <glyph glyph-name="T" unicode="T" horiz-adv-x="460" 
d="M80 624h300v-100h-100v-500h-100v500h-100v100z" />
    <glyph glyph-name="U" unicode="U" 
d="M300 24h-100q-41 0 -70.5 29.5t-29.5 70.5v500h100v-474q0 -11 7.5 -18.5t17.5 -7.5h50q10 0 17.5 7.5t7.5 18.5v474h100v-500q0 -41 -29.5 -70.5t-70.5 -29.5z" />
    <glyph glyph-name="V" unicode="V" 
d="M337 24h-173l-74 600h101l59 -484l60 484h101z" />
    <glyph glyph-name="W" unicode="W" horiz-adv-x="703" 
d="M466 241l47 383h101l-74 -600h-148l-40 327l-40 -327h-148l-74 600h101l47 -383l47 383h134z" />
    <glyph glyph-name="X" unicode="X" horiz-adv-x="489" 
d="M245 433l51 191h104l-80 -300l80 -300h-104l-51 192l-51 -192h-104l80 300l-80 300h104z" />
    <glyph glyph-name="Y" unicode="Y" 
d="M400 624v-250q0 -41 -29.5 -70.5t-70.5 -29.5v-250h-100v250q-41 0 -70.5 29.5t-29.5 70.5v250h100v-224q0 -11 7.5 -18.5t17.5 -7.5h50q10 0 17.5 7.5t7.5 18.5v224h100z" />
    <glyph glyph-name="Z" unicode="Z" horiz-adv-x="510" 
d="M405 524l-195 -400h200v-100h-310v103l194 397h-189v100h300v-100z" />
    <glyph glyph-name="bracketleft" unicode="[" horiz-adv-x="450" 
d="M100 774v-900h250v100h-150v700h150v100h-250z" />
    <glyph glyph-name="backslash" unicode="\" horiz-adv-x="590" 
d="M380 24h110l-280 600h-110z" />
    <glyph glyph-name="bracketright" unicode="]" horiz-adv-x="450" 
d="M350 774v-900h-250v100h150v700h-150v100h250z" />
    <glyph glyph-name="asciicircum" unicode="^" horiz-adv-x="485" 
d="M219 826h47l119 -100h-76l-66 54l-65 -54h-78z" />
    <glyph glyph-name="underscore" unicode="_" horiz-adv-x="710" 
d="M100 24v100h510v-100h-510z" />
    <glyph glyph-name="grave" unicode="`" horiz-adv-x="396" 
d="M219 726h78l-119 100h-78z" />
    <glyph glyph-name="a" unicode="a" 
d="M200 24h-100v500q0 42 29.5 71t70.5 29h100q41 0 70.5 -29t29.5 -71v-500h-100v200h-100v-200zM300 324v176q0 10 -7.5 17t-17.5 7h-50q-10 0 -17.5 -7t-7.5 -17v-176h100z" />
    <glyph glyph-name="b" unicode="b" horiz-adv-x="490" 
d="M100 24v600h190q41 0 70.5 -29t29.5 -71v-124q0 -42 -25 -76q25 -33 25 -74v-126q0 -41 -29.5 -70.5t-70.5 -29.5h-90h-100zM255 274h-55v-150h65q10 0 17.5 7.5t7.5 18.5v90q0 14 -10.5 24t-24.5 10zM200 524v-150h55q14 0 24.5 10.5t10.5 25.5v90q0 10 -7.5 17t-17.5 7
h-65z" />
    <glyph glyph-name="c" unicode="c" 
d="M400 174v-50q0 -41 -29.5 -70.5t-70.5 -29.5h-100q-41 0 -70.5 29.5t-29.5 70.5v400q0 42 29.5 71t70.5 29h100q41 0 70.5 -29t29.5 -71v-50h-100v26q0 10 -7.5 17t-17.5 7h-50q-10 0 -17.5 -7t-7.5 -17v-350q0 -11 7.5 -18.5t17.5 -7.5h50q10 0 17.5 7.5t7.5 18.5v24
h100z" />
    <glyph glyph-name="d" unicode="d" 
d="M400 524v-400q0 -41 -29.5 -70.5t-70.5 -29.5h-200v600h200q41 0 70.5 -29t29.5 -71zM200 524v-400h75q10 0 17.5 7.5t7.5 18.5v350q0 10 -7.5 17t-17.5 7h-75z" />
    <glyph glyph-name="e" unicode="e" horiz-adv-x="450" 
d="M100 624h250v-100h-150v-150h120v-100h-120v-150h150v-100h-250v600z" />
    <glyph glyph-name="f" unicode="f" horiz-adv-x="430" 
d="M100 624h250v-100h-150v-150h120v-100h-120v-250h-100v600z" />
    <glyph glyph-name="g" unicode="g" 
d="M245 374h155v-250q0 -41 -29.5 -70.5t-70.5 -29.5h-50h-50q-41 0 -70.5 29.5t-29.5 70.5v400q0 42 29.5 71t70.5 29h100q41 0 70.5 -29t29.5 -71v-50h-100v26q0 10 -7.5 17t-17.5 7h-50q-10 0 -17.5 -7t-7.5 -17v-350q0 -11 7.5 -18.5t17.5 -7.5h50q10 0 17.5 7.5
t7.5 18.5v124h-55v100z" />
    <glyph glyph-name="h" unicode="h" 
d="M100 624h100v-250h100v250h100v-600h-100v250h-100v-250h-100v600z" />
    <glyph glyph-name="i" unicode="i" horiz-adv-x="300" 
d="M100 24v600h100v-600h-100z" />
    <glyph glyph-name="j" unicode="j" 
d="M400 624v-500q0 -41 -29.5 -70.5t-70.5 -29.5h-100q-41 0 -70.5 29.5t-29.5 70.5v50h100v-24q0 -11 7.5 -18.5t17.5 -7.5h50q10 0 17.5 7.5t7.5 18.5l-1 474h101z" />
    <glyph glyph-name="k" unicode="k" horiz-adv-x="473" 
d="M408 24h-108l-91 250h-9v-250h-100v600h100v-250h9l90 246h108l-108 -296z" />
    <glyph glyph-name="l" unicode="l" horiz-adv-x="450" 
d="M100 624h100v-500h150v-100h-250v600z" />
    <glyph glyph-name="m" unicode="m" horiz-adv-x="600" 
d="M500 624v-600h-100v328l-65 -178h-70l-65 178v-328h-100v600h107l93 -254l93 254h107z" />
    <glyph glyph-name="n" unicode="n" horiz-adv-x="520" 
d="M319 24l-119 328v-328h-100v600h107l113 -309v309h100v-600h-101z" />
    <glyph glyph-name="o" unicode="o" 
d="M300 624q41 0 70.5 -29t29.5 -71v-400q0 -41 -29.5 -70.5t-70.5 -29.5h-100q-41 0 -70.5 29.5t-29.5 70.5v400q0 42 29.5 71t70.5 29h100zM300 500q0 10 -7.5 17t-17.5 7h-50q-10 0 -17.5 -7t-7.5 -17v-350q0 -11 7.5 -18.5t17.5 -7.5h50q10 0 17.5 7.5t7.5 18.5v350z
" />
    <glyph glyph-name="p" unicode="p" 
d="M200 24h-100v600h200q41 0 70.5 -29t29.5 -71v-175q0 -37 -24.5 -65t-60.5 -34l-115 -1v-225zM300 500q0 10 -7.5 17t-17.5 7h-75v-175h75q10 0 17.5 7.5t7.5 17.5v126z" />
    <glyph glyph-name="q" unicode="q" 
d="M209 24h-9q-41 0 -70.5 29t-29.5 71v400q0 41 29.5 70.5t70.5 29.5h100q41 0 70.5 -29.5t29.5 -70.5v-400q0 -37 -23.5 -65t-58.5 -34l28 -61h-110zM300 498q0 11 -7.5 18.5t-17.5 7.5h-50q-10 0 -17.5 -7.5t-7.5 -18.5v-350q0 -10 7.5 -17t17.5 -7h50q10 0 17.5 7
t7.5 17v350z" />
    <glyph glyph-name="r" unicode="r" horiz-adv-x="512" 
d="M414 24h-108l-81 225h-25v-225h-100v600h200q41 0 70.5 -29t29.5 -71v-175q0 -33 -19.5 -59t-49.5 -36zM300 500q0 10 -7.5 17t-17.5 7h-75v-175h75q10 0 17.5 7.5t7.5 17.5v126z" />
    <glyph glyph-name="s" unicode="s" 
d="M300 210q0 14 -15 28.5t-37 26t-48 29.5t-48 37.5t-37 51.5t-15 71v70q0 42 29.5 71t70.5 29h100q41 0 70.5 -29t29.5 -71v-67h-100v43q0 10 -7.5 17t-17.5 7h-50q-10 0 -17.5 -7t-7.5 -17v-46q0 -25 20.5 -46.5t50 -39t59 -37t50 -50.5t20.5 -71v-86q0 -41 -29.5 -70.5
t-70.5 -29.5h-100q-41 0 -70.5 29.5t-29.5 70.5v86h100v-60q0 -11 7.5 -18.5t17.5 -7.5h50q10 0 17.5 7.5t7.5 18.5v60z" />
    <glyph glyph-name="t" unicode="t" horiz-adv-x="460" 
d="M80 624h300v-100h-100v-500h-100v500h-100v100z" />
    <glyph glyph-name="u" unicode="u" 
d="M300 24h-100q-41 0 -70.5 29.5t-29.5 70.5v500h100v-474q0 -11 7.5 -18.5t17.5 -7.5h50q10 0 17.5 7.5t7.5 18.5v474h100v-500q0 -41 -29.5 -70.5t-70.5 -29.5z" />
    <glyph glyph-name="v" unicode="v" 
d="M337 24h-173l-74 600h101l59 -484l60 484h101z" />
    <glyph glyph-name="w" unicode="w" horiz-adv-x="703" 
d="M466 241l47 383h101l-74 -600h-148l-40 327l-40 -327h-148l-74 600h101l47 -383l47 383h134z" />
    <glyph glyph-name="x" unicode="x" horiz-adv-x="489" 
d="M245 433l51 191h104l-80 -300l80 -300h-104l-51 192l-51 -192h-104l80 300l-80 300h104z" />
    <glyph glyph-name="y" unicode="y" 
d="M400 624v-250q0 -41 -29.5 -70.5t-70.5 -29.5v-250h-100v250q-41 0 -70.5 29.5t-29.5 70.5v250h100v-224q0 -11 7.5 -18.5t17.5 -7.5h50q10 0 17.5 7.5t7.5 18.5v224h100z" />
    <glyph glyph-name="z" unicode="z" horiz-adv-x="510" 
d="M405 524l-195 -400h200v-100h-310v103l194 397h-189v100h300v-100z" />
    <glyph glyph-name="braceleft" unicode="{" horiz-adv-x="525" 
d="M262 324q13 24 13 50v276q0 10 7.5 17t17.5 7h125v100h-150q-41 0 -70.5 -29t-29.5 -71v-274q0 -11 -7.5 -18.5t-17.5 -7.5h-50v-100h50q10 0 17.5 -7t7.5 -17v-276q0 -41 29.5 -70.5t70.5 -29.5h150v100h-125q-10 0 -17.5 7.5t-7.5 18.5v274q0 27 -13 50z" />
    <glyph glyph-name="bar" unicode="|" horiz-adv-x="300" 
d="M100 -126v900h100v-900h-100z" />
    <glyph glyph-name="braceright" unicode="}" horiz-adv-x="525" 
d="M263 324q-13 24 -13 50v276q0 10 -7.5 17t-17.5 7h-125v100h150q41 0 70.5 -29t29.5 -71v-274q0 -11 7.5 -18.5t17.5 -7.5h50v-100h-50q-10 0 -17.5 -7t-7.5 -17v-276q0 -41 -29.5 -70.5t-70.5 -29.5h-150v100h125q10 0 17.5 7.5t7.5 18.5v274q0 27 13 50z" />
    <glyph glyph-name="asciitilde" unicode="~" horiz-adv-x="680" 
d="M100 312l54 54q42 42 99 42t99 -42q28 -27 40 -39q14 -14 33 -14t33 14l69 68l54 -60l-57 -55q-42 -43 -99 -43t-99 42l-19.5 19.5l-20.5 20.5q-14 14 -33 14t-33 -14l-66 -66z" />
    <glyph glyph-name="uni007F" horiz-adv-x="200" 
 />
    <glyph glyph-name="uni0080" horiz-adv-x="200" 
 />
    <glyph glyph-name="uni0081" horiz-adv-x="200" 
 />
    <glyph glyph-name="uni0082" horiz-adv-x="200" 
 />
    <glyph glyph-name="uni0083" horiz-adv-x="200" 
 />
    <glyph glyph-name="uni0084" horiz-adv-x="200" 
 />
    <glyph glyph-name="uni0085" unicode="&#x85;" horiz-adv-x="200" 
 />
    <glyph glyph-name="uni0086" horiz-adv-x="200" 
 />
    <glyph glyph-name="uni0087" horiz-adv-x="200" 
 />
    <glyph glyph-name="uni0088" horiz-adv-x="200" 
 />
    <glyph glyph-name="uni0089" horiz-adv-x="200" 
 />
    <glyph glyph-name="uni008A" horiz-adv-x="200" 
 />
    <glyph glyph-name="uni008B" horiz-adv-x="200" 
 />
    <glyph glyph-name="uni008C" horiz-adv-x="200" 
 />
    <glyph glyph-name="uni008D" horiz-adv-x="200" 
 />
    <glyph glyph-name="uni008E" horiz-adv-x="200" 
 />
    <glyph glyph-name="uni008F" horiz-adv-x="200" 
 />
    <glyph glyph-name="uni0090" horiz-adv-x="200" 
 />
    <glyph glyph-name="uni0091" horiz-adv-x="200" 
 />
    <glyph glyph-name="uni0092" horiz-adv-x="200" 
 />
    <glyph glyph-name="uni0093" horiz-adv-x="200" 
 />
    <glyph glyph-name="uni0094" horiz-adv-x="200" 
 />
    <glyph glyph-name="uni0095" horiz-adv-x="200" 
 />
    <glyph glyph-name="uni0096" horiz-adv-x="200" 
 />
    <glyph glyph-name="uni0097" horiz-adv-x="200" 
 />
    <glyph glyph-name="uni0098" horiz-adv-x="200" 
 />
    <glyph glyph-name="uni0099" horiz-adv-x="200" 
 />
    <glyph glyph-name="uni009A" horiz-adv-x="200" 
 />
    <glyph glyph-name="uni009B" horiz-adv-x="200" 
 />
    <glyph glyph-name="uni009C" horiz-adv-x="200" 
 />
    <glyph glyph-name="uni009D" horiz-adv-x="200" 
 />
    <glyph glyph-name="uni009E" horiz-adv-x="200" 
 />
    <glyph glyph-name="uni009F" horiz-adv-x="200" 
 />
    <glyph glyph-name="uni00A0" unicode="&#xa0;" horiz-adv-x="200" 
 />
    <glyph glyph-name="exclamdown" unicode="&#xa1;" horiz-adv-x="300" 
d="M100 565v20q0 16 11.5 28t28.5 12h20q17 0 28.5 -12t11.5 -28v-20q0 -17 -11.5 -28.5t-28.5 -11.5h-20q-17 0 -28.5 11.5t-11.5 28.5zM100 24v415h100v-415h-100z" />
    <glyph glyph-name="cent" unicode="&#xa2;" 
d="M200 524v100h100v-100q41 0 70.5 -29.5t29.5 -70.5v-50h-100v25q0 10 -7.5 17.5t-17.5 7.5h-50q-10 0 -17.5 -7.5t-7.5 -17.5v-149q0 -11 7.5 -18.5t17.5 -7.5h50q10 0 17.5 7.5t7.5 18.5v24h100v-50q0 -41 -29.5 -70.5t-70.5 -29.5v-100h-100v100q-41 0 -70.5 29.5
t-29.5 70.5v200q0 41 29.5 70.5t70.5 29.5z" />
    <glyph glyph-name="sterling" unicode="&#xa3;" horiz-adv-x="580" 
d="M100 119h5q29 0 52 33t23 67v50h-75v100h75v161q0 42 29.5 71t70.5 29h100q41 0 70.5 -29t29.5 -71v-50h-100v25q0 11 -7.5 18t-17.5 7h-50q-10 0 -17.5 -7t-7.5 -18v-136h150v-100h-150v-50q0 -51 -27 -100h227v-100h-380v100z" />
    <glyph glyph-name="currency" unicode="&#xa4;" horiz-adv-x="653" 
d="M100 504l47 47l52 -51q38 24 84 24h80q49 0 90 -27l54 54l47 -47l-55 -55q24 -38 24 -85v-80q0 -46 -24 -84l55 -55l-47 -47l-54 54q-41 -28 -90 -28h-80q-46 0 -84 25l-52 -51l-47 47l51 50q-28 41 -28 89v80q0 49 28 90zM377 458h-107q-33 0 -56.5 -23.5t-23.5 -56.5
v-107q0 -33 23.5 -56.5t56.5 -23.5h107q33 0 56.5 23.5t23.5 56.5v107q0 33 -23.5 56.5t-56.5 23.5z" />
    <glyph glyph-name="yen" unicode="&#xa5;" horiz-adv-x="535" 
d="M420 624v-250q0 -41 -29.5 -70.5t-70.5 -29.5v-15h115v-50h-115v-21h115v-50h-115v-114h-100v114h-120v50h120v21h-120v50h120v15q-41 0 -70.5 29.5t-29.5 70.5v250h100v-224q0 -11 7.5 -18.5t17.5 -7.5h50q10 0 17.5 7.5t7.5 18.5v224h100z" />
    <glyph glyph-name="brokenbar" unicode="&#xa6;" horiz-adv-x="250" 
d="M150 352h-50v230h50v-230zM150 70h-50v230h50v-230z" />
    <glyph glyph-name="section" unicode="&#xa7;" horiz-adv-x="412" 
d="M126 433q-26 32 -26 71v50q0 29 20.5 49.5t50.5 20.5h70q30 0 50.5 -20.5t20.5 -49.5v-48h-71v30q0 7 -5 12.5t-12 5.5h-36q-7 0 -12 -5.5t-5 -12.5v-32q0 -29 40 -55h1v-1q4 -2 25 -15t29 -19.5t21.5 -20t19 -28.5t5.5 -34v-60q0 -32 -24 -53q24 -27 24 -63v-60
q0 -29 -20.5 -50t-50.5 -21h-70q-30 0 -50.5 21t-20.5 50v60h71v-42q0 -7 5 -12.5t12 -5.5h36q7 0 12 5.5t5 12.5v42q0 13 -14.5 25.5t-35 25.5t-41.5 28.5t-35.5 40t-14.5 54.5v49q0 34 26 55zM196 378h-8q-7 0 -12 -5t-5 -13v-31q0 -30 43 -58h10q7 0 12 5t5 13v42
q0 12 -11 22t-34 25z" />
    <glyph glyph-name="dieresis" unicode="&#xa8;" horiz-adv-x="371" 
d="M100 756v15q0 12 9 21t21 9h15q13 0 21.5 -9t8.5 -21v-15q0 -13 -8.5 -21.5t-21.5 -8.5h-15q-12 0 -21 8.5t-9 21.5zM196 756v15q0 12 8.5 21t21.5 9h15q12 0 21 -9t9 -21v-15q0 -13 -9 -21.5t-21 -8.5h-15q-13 0 -21.5 8.5t-8.5 21.5z" />
    <glyph glyph-name="copyright" unicode="&#xa9;" horiz-adv-x="600" 
d="M340 524q66 0 113 -46.5t47 -113.5v-80q0 -66 -47 -113t-113 -47h-80q-66 0 -113 47t-47 113v80q0 67 47 113.5t113 46.5h80zM353 458h-106q-33 0 -56.5 -23.5t-23.5 -56.5v-107q0 -33 23.5 -56.5t56.5 -23.5h106q33 0 56.5 23.5t23.5 56.5v107q0 33 -23.5 56.5
t-56.5 23.5zM380 351h-53v13q0 6 -4 10t-10 4h-26q-6 0 -10 -4t-4 -10v-79q0 -6 4 -9.5t10 -3.5h26q6 0 10 3.5t4 9.5v13h53v-26q0 -23 -15.5 -38.5t-37.5 -15.5h-54q-22 0 -37.5 15.5t-15.5 38.5v106q0 22 15.5 37.5t37.5 15.5h54q22 0 37.5 -15.5t15.5 -37.5v-27z" />
    <glyph glyph-name="ordfeminine" unicode="&#xaa;" horiz-adv-x="200" 
 />
    <glyph glyph-name="guillemotleft" unicode="&#xab;" horiz-adv-x="497" 
d="M397 542v-78l-117 -140l117 -139v-78l-182 217zM282 542v-78l-117 -140l117 -139v-78l-182 217z" />
    <glyph glyph-name="logicalnot" unicode="&#xac;" horiz-adv-x="200" 
 />
    <glyph glyph-name="uni00AD" unicode="&#xad;" horiz-adv-x="550" 
d="M100 274v100h350v-100h-350z" />
    <glyph glyph-name="registered" unicode="&#xae;" horiz-adv-x="437" 
d="M242 474q39 0 67 -27.5t28 -66.5v-111q0 -39 -28 -67t-67 -28h-47q-39 0 -67 28t-28 67v111q0 39 28 66.5t67 27.5h47zM298 388q0 19 -14 33t-34 14h-63q-20 0 -33.5 -14t-13.5 -33v-127q0 -19 13.5 -33t33.5 -14h63q20 0 34 14t14 33v127zM206 230h-32v189h63
q13 0 22.5 -9t9.5 -22v-48q0 -11 -8 -20t-19 -11l37 -79h-35l-37 79h-1v-79zM237 380q0 3 -2.5 5.5t-5.5 2.5h-23v-48h23q3 0 5.5 2.5t2.5 5.5v32z" />
    <glyph glyph-name="macron" unicode="&#xaf;" 
d="M100 726v50h300v-50h-300z" />
    <glyph glyph-name="degree" unicode="&#xb0;" horiz-adv-x="400" 
d="M200 926q41 0 70.5 -29.5t29.5 -71t-29.5 -70.5t-70.5 -29t-70.5 29t-29.5 70.5t29.5 71t70.5 29.5zM200 876q-21 0 -35.5 -15t-14.5 -35.5t14.5 -35t35.5 -14.5t35.5 14.5t14.5 35t-14.5 35.5t-35.5 15z" />
    <glyph glyph-name="plusminus" unicode="&#xb1;" horiz-adv-x="550" 
d="M325 210h-100v124h-125v100h125v126h100v-126h125v-100h-125v-124zM100 95v100h350v-100h-350z" />
    <glyph glyph-name="uni00B2" unicode="&#xb2;" horiz-adv-x="200" 
 />
    <glyph glyph-name="uni00B3" unicode="&#xb3;" horiz-adv-x="200" 
 />
    <glyph glyph-name="acute" unicode="&#xb4;" horiz-adv-x="396" 
d="M178 726h-78l119 100h78z" />
    <glyph glyph-name="mu" unicode="&#xb5;" horiz-adv-x="200" 
 />
    <glyph glyph-name="paragraph" unicode="&#xb6;" horiz-adv-x="200" 
 />
    <glyph glyph-name="periodcentered" unicode="&#xb7;" horiz-adv-x="275" 
d="M100 317v15q0 13 9 21.5t21 8.5h15q13 0 21.5 -8.5t8.5 -21.5v-15q0 -12 -8.5 -21t-21.5 -9h-15q-12 0 -21 9t-9 21z" />
    <glyph glyph-name="cedilla" unicode="&#xb8;" horiz-adv-x="395" 
d="M109 -65l74 127l43 -25l-30 -52h24q31 0 53 -22t22 -53.5t-22 -53t-53 -21.5h-120v50h120q10 0 17.5 7t7.5 17.5t-7.5 18t-17.5 7.5h-75h-36z" />
    <glyph glyph-name="uni00B9" unicode="&#xb9;" horiz-adv-x="200" 
 />
    <glyph glyph-name="ordmasculine" unicode="&#xba;" horiz-adv-x="400" 
d="M200 926q41 0 70.5 -29.5t29.5 -71t-29.5 -70.5t-70.5 -29t-70.5 29t-29.5 70.5t29.5 71t70.5 29.5zM200 876q-21 0 -35.5 -15t-14.5 -35.5t14.5 -35t35.5 -14.5t35.5 14.5t14.5 35t-14.5 35.5t-35.5 15z" />
    <glyph glyph-name="guillemotright" unicode="&#xbb;" horiz-adv-x="497" 
d="M100 542v-78l117 -140l-117 -139v-78l182 217zM215 542v-78l117 -140l-117 -139v-78l182 217z" />
    <glyph glyph-name="onequarter" unicode="&#xbc;" horiz-adv-x="200" 
 />
    <glyph glyph-name="onehalf" unicode="&#xbd;" horiz-adv-x="200" 
 />
    <glyph glyph-name="threequarters" unicode="&#xbe;" horiz-adv-x="200" 
 />
    <glyph glyph-name="questiondown" unicode="&#xbf;" 
d="M250 589v20q0 16 11.5 28t28.5 12h20q17 0 28.5 -12t11.5 -28v-20q0 -17 -11.5 -28.5t-28.5 -11.5h-20q-17 0 -28.5 11.5t-11.5 28.5zM200 74v-25q0 -10 7.5 -17.5t17.5 -7.5h50q10 0 17.5 7.5t7.5 17.5v75h100v-100q0 -41 -29.5 -70.5t-70.5 -29.5h-100
q-41 0 -70.5 29.5t-29.5 70.5v50q0 41 15.5 85.5t37.5 85t44 83t37.5 94t15.5 102.5h100q0 -69 -15.5 -127t-37.5 -97.5t-44 -74t-37.5 -72.5t-15.5 -79z" />
    <glyph glyph-name="Agrave" unicode="&#xc0;" 
d="M263 726h78l-119 100h-78zM200 24h-100v500q0 42 29.5 71t70.5 29h100q41 0 70.5 -29t29.5 -71v-500h-100v200h-100v-200zM300 324v176q0 10 -7.5 17t-17.5 7h-50q-10 0 -17.5 -7t-7.5 -17v-176h100z" />
    <glyph glyph-name="Aacute" unicode="&#xc1;" 
d="M222 726h-78l119 100h78zM200 24h-100v500q0 42 29.5 71t70.5 29h100q41 0 70.5 -29t29.5 -71v-500h-100v200h-100v-200zM300 324v176q0 10 -7.5 17t-17.5 7h-50q-10 0 -17.5 -7t-7.5 -17v-176h100z" />
    <glyph glyph-name="Acircumflex" unicode="&#xc2;" 
d="M219 826h47l119 -100h-76l-66 54l-65 -54h-78zM200 24h-100v500q0 42 29.5 71t70.5 29h100q41 0 70.5 -29t29.5 -71v-500h-100v200h-100v-200zM300 324v176q0 10 -7.5 17t-17.5 7h-50q-10 0 -17.5 -7t-7.5 -17v-176h100z" />
    <glyph glyph-name="Atilde" unicode="&#xc3;" horiz-adv-x="510" 
d="M100 764l35 35q27 27 63.5 27t64.5 -27l26 -26t21 -9t21 9l44 44l35 -38l-36 -36q-28 -27 -64.5 -27t-63.5 27q-4 3 -13 12l-13 13q-9 9 -21 9t-22 -9l-42 -42zM200 24h-100v500q0 42 29.5 71t70.5 29h100q41 0 70.5 -29t29.5 -71v-500h-100v200h-100v-200zM300 324v176
q0 10 -7.5 17t-17.5 7h-50q-10 0 -17.5 -7t-7.5 -17v-176h100z" />
    <glyph glyph-name="Adieresis" unicode="&#xc4;" 
d="M164 756v15q0 12 8.5 21t21.5 9h15q12 0 21 -9t9 -21v-15q0 -13 -9 -21.5t-21 -8.5h-15q-13 0 -21.5 8.5t-8.5 21.5zM260 756v15q0 12 8.5 21t21.5 9h15q12 0 21 -9t9 -21v-15q0 -13 -9 -21.5t-21 -8.5h-15q-13 0 -21.5 8.5t-8.5 21.5zM200 24h-100v500q0 42 29.5 71
t70.5 29h100q41 0 70.5 -29t29.5 -71v-500h-100v200h-100v-200zM300 324v176q0 10 -7.5 17t-17.5 7h-50q-10 0 -17.5 -7t-7.5 -17v-176h100z" />
    <glyph glyph-name="Aring" unicode="&#xc5;" 
d="M248 926q41 0 70.5 -29.5t29.5 -71t-29.5 -70.5t-70.5 -29t-70.5 29t-29.5 70.5t29.5 71t70.5 29.5zM248 876q-21 0 -35.5 -15t-14.5 -35.5t14.5 -35t35.5 -14.5t35.5 14.5t14.5 35t-14.5 35.5t-35.5 15zM200 24h-100v500q0 42 29.5 71t70.5 29h100q41 0 70.5 -29
t29.5 -71v-500h-100v200h-100v-200zM300 324v176q0 10 -7.5 17t-17.5 7h-50q-10 0 -17.5 -7t-7.5 -17v-176h100z" />
    <glyph glyph-name="AE" unicode="&#xc6;" horiz-adv-x="650" 
d="M200 624h350v-100h-150v-150h120v-100h-120v-150h150v-100h-150h-100v200h-100v-200h-100v500q0 42 29.5 71t70.5 29zM300 324v176q0 10 -7.5 17t-17.5 7h-50q-10 0 -17.5 -7t-7.5 -17v-176h100z" />
    <glyph glyph-name="Ccedilla" unicode="&#xc7;" 
d="M400 174v-50q0 -41 -29.5 -70.5t-70.5 -29.5h-25l-23 -39h24q31 0 53 -22t22 -53.5t-22 -53t-53 -21.5h-120v50h120q10 0 17.5 7t7.5 17.5t-7.5 18t-17.5 7.5h-75h-36l52 89h-17q-41 0 -70.5 29.5t-29.5 70.5v400q0 42 29.5 71t70.5 29h100q41 0 70.5 -29t29.5 -71v-50
h-100v26q0 10 -7.5 17t-17.5 7h-50q-10 0 -17.5 -7t-7.5 -17v-350q0 -11 7.5 -18.5t17.5 -7.5h50q10 0 17.5 7.5t7.5 18.5v24h100z" />
    <glyph glyph-name="Egrave" unicode="&#xc8;" horiz-adv-x="450" 
d="M245 726h78l-119 100h-78zM100 624h250v-100h-150v-150h120v-100h-120v-150h150v-100h-250v600z" />
    <glyph glyph-name="Eacute" unicode="&#xc9;" horiz-adv-x="450" 
d="M204 726h-78l119 100h78zM100 624h250v-100h-150v-150h120v-100h-120v-150h150v-100h-250v600z" />
    <glyph glyph-name="Ecircumflex" unicode="&#xca;" horiz-adv-x="485" 
d="M219 826h47l119 -100h-76l-66 54l-65 -54h-78zM117 624h250v-100h-150v-150h120v-100h-120v-150h150v-100h-250v600z" />
    <glyph glyph-name="Edieresis" unicode="&#xcb;" horiz-adv-x="450" 
d="M136 756v15q0 12 9 21t21 9h15q13 0 21.5 -9t8.5 -21v-15q0 -13 -8.5 -21.5t-21.5 -8.5h-15q-12 0 -21 8.5t-9 21.5zM232 756v15q0 12 8.5 21t21.5 9h15q12 0 21 -9t9 -21v-15q0 -13 -9 -21.5t-21 -8.5h-15q-13 0 -21.5 8.5t-8.5 21.5zM100 624h250v-100h-150v-150h120
v-100h-120v-150h150v-100h-250v600z" />
    <glyph glyph-name="Igrave" unicode="&#xcc;" horiz-adv-x="396" 
d="M219 726h78l-119 100h-78zM148 24v600h100v-600h-100z" />
    <glyph glyph-name="Iacute" unicode="&#xcd;" horiz-adv-x="396" 
d="M178 726h-78l119 100h78zM148 24v600h100v-600h-100z" />
    <glyph glyph-name="Icircumflex" unicode="&#xce;" horiz-adv-x="485" 
d="M219 826h47l119 -100h-76l-66 54l-65 -54h-78zM194 24v600h100v-600h-100z" />
    <glyph glyph-name="Idieresis" unicode="&#xcf;" horiz-adv-x="371" 
d="M100 756v15q0 12 9 21t21 9h15q13 0 21.5 -9t8.5 -21v-15q0 -13 -8.5 -21.5t-21.5 -8.5h-15q-12 0 -21 8.5t-9 21.5zM196 756v15q0 12 8.5 21t21.5 9h15q12 0 21 -9t9 -21v-15q0 -13 -9 -21.5t-21 -8.5h-15q-13 0 -21.5 8.5t-8.5 21.5zM136 24v600h100v-600h-100z" />
    <glyph glyph-name="Eth" unicode="&#xd0;" horiz-adv-x="511" 
d="M211 301v-177h75q10 0 17.5 7.5t7.5 18.5v350q0 10 -7.5 17t-17.5 7h-75v-173h65v-50h-65zM411 524v-400q0 -41 -29.5 -70.5t-70.5 -29.5h-200v277h-71v50h71v273h200q41 0 70.5 -29t29.5 -71z" />
    <glyph glyph-name="Ntilde" unicode="&#xd1;" horiz-adv-x="520" 
d="M100 764l35 35q27 27 63.5 27t64.5 -27l26 -26t21 -9t21 9l44 44l35 -38l-36 -36q-28 -27 -64.5 -27t-63.5 27q-4 3 -13 12l-13 13q-9 9 -21 9t-22 -9l-42 -42zM319 24l-119 328v-328h-100v600h107l113 -309v309h100v-600h-101z" />
    <glyph glyph-name="Ograve" unicode="&#xd2;" 
d="M263 726h78l-119 100h-78zM300 624q41 0 70.5 -29t29.5 -71v-400q0 -41 -29.5 -70.5t-70.5 -29.5h-100q-41 0 -70.5 29.5t-29.5 70.5v400q0 42 29.5 71t70.5 29h100zM300 500q0 10 -7.5 17t-17.5 7h-50q-10 0 -17.5 -7t-7.5 -17v-350q0 -11 7.5 -18.5t17.5 -7.5h50
q10 0 17.5 7.5t7.5 18.5v350z" />
    <glyph glyph-name="Oacute" unicode="&#xd3;" 
d="M222 726h-78l119 100h78zM300 624q41 0 70.5 -29t29.5 -71v-400q0 -41 -29.5 -70.5t-70.5 -29.5h-100q-41 0 -70.5 29.5t-29.5 70.5v400q0 42 29.5 71t70.5 29h100zM300 500q0 10 -7.5 17t-17.5 7h-50q-10 0 -17.5 -7t-7.5 -17v-350q0 -11 7.5 -18.5t17.5 -7.5h50
q10 0 17.5 7.5t7.5 18.5v350z" />
    <glyph glyph-name="Ocircumflex" unicode="&#xd4;" 
d="M227 826h47l119 -100h-76l-66 54l-65 -54h-78zM300 624q41 0 70.5 -29t29.5 -71v-400q0 -41 -29.5 -70.5t-70.5 -29.5h-100q-41 0 -70.5 29.5t-29.5 70.5v400q0 42 29.5 71t70.5 29h100zM300 500q0 10 -7.5 17t-17.5 7h-50q-10 0 -17.5 -7t-7.5 -17v-350q0 -11 7.5 -18.5
t17.5 -7.5h50q10 0 17.5 7.5t7.5 18.5v350z" />
    <glyph glyph-name="Otilde" unicode="&#xd5;" horiz-adv-x="510" 
d="M100 764l35 35q27 27 63.5 27t64.5 -27l26 -26t21 -9t21 9l44 44l35 -38l-36 -36q-28 -27 -64.5 -27t-63.5 27q-4 3 -13 12l-13 13q-9 9 -21 9t-22 -9l-42 -42zM300 624q41 0 70.5 -29t29.5 -71v-400q0 -41 -29.5 -70.5t-70.5 -29.5h-100q-41 0 -70.5 29.5t-29.5 70.5
v400q0 42 29.5 71t70.5 29h100zM300 500q0 10 -7.5 17t-17.5 7h-50q-10 0 -17.5 -7t-7.5 -17v-350q0 -11 7.5 -18.5t17.5 -7.5h50q10 0 17.5 7.5t7.5 18.5v350z" />
    <glyph glyph-name="Odieresis" unicode="&#xd6;" 
d="M164 756v15q0 12 8.5 21t21.5 9h15q12 0 21 -9t9 -21v-15q0 -13 -9 -21.5t-21 -8.5h-15q-13 0 -21.5 8.5t-8.5 21.5zM260 756v15q0 12 8.5 21t21.5 9h15q12 0 21 -9t9 -21v-15q0 -13 -9 -21.5t-21 -8.5h-15q-13 0 -21.5 8.5t-8.5 21.5zM300 624q41 0 70.5 -29t29.5 -71
v-400q0 -41 -29.5 -70.5t-70.5 -29.5h-100q-41 0 -70.5 29.5t-29.5 70.5v400q0 42 29.5 71t70.5 29h100zM300 500q0 10 -7.5 17t-17.5 7h-50q-10 0 -17.5 -7t-7.5 -17v-350q0 -11 7.5 -18.5t17.5 -7.5h50q10 0 17.5 7.5t7.5 18.5v350z" />
    <glyph glyph-name="multiply" unicode="&#xd7;" horiz-adv-x="518" 
d="M171 165l-71 71l88 88l-88 89l71 71l88 -89l88 89l71 -71l-88 -89l88 -88l-71 -71l-88 89z" />
    <glyph glyph-name="Oslash" unicode="&#xd8;" horiz-adv-x="534" 
d="M408 567q9 -20 9 -43v-400q0 -41 -29 -70.5t-71 -29.5h-100q-29 0 -54 17l-8 -17h-55l27 58q-10 20 -10 42v400q0 42 29.5 71t70.5 29h100q30 0 55 -16l8 16h55zM317 373l-100 -215v-8q0 -11 7.5 -18.5t17.5 -7.5h50q11 0 18 7.5t7 18.5v223zM317 491v9q0 10 -7 17t-18 7
h-50q-10 0 -17.5 -7t-7.5 -17v-224z" />
    <glyph glyph-name="Ugrave" unicode="&#xd9;" 
d="M263 726h78l-119 100h-78zM300 24h-100q-41 0 -70.5 29.5t-29.5 70.5v500h100v-474q0 -11 7.5 -18.5t17.5 -7.5h50q10 0 17.5 7.5t7.5 18.5v474h100v-500q0 -41 -29.5 -70.5t-70.5 -29.5z" />
    <glyph glyph-name="Uacute" unicode="&#xda;" 
d="M222 726h-78l119 100h78zM300 24h-100q-41 0 -70.5 29.5t-29.5 70.5v500h100v-474q0 -11 7.5 -18.5t17.5 -7.5h50q10 0 17.5 7.5t7.5 18.5v474h100v-500q0 -41 -29.5 -70.5t-70.5 -29.5z" />
    <glyph glyph-name="Ucircumflex" unicode="&#xdb;" 
d="M219 826h47l119 -100h-76l-66 54l-65 -54h-78zM300 24h-100q-41 0 -70.5 29.5t-29.5 70.5v500h100v-474q0 -11 7.5 -18.5t17.5 -7.5h50q10 0 17.5 7.5t7.5 18.5v474h100v-500q0 -41 -29.5 -70.5t-70.5 -29.5z" />
    <glyph glyph-name="Udieresis" unicode="&#xdc;" 
d="M164 756v15q0 12 8.5 21t21.5 9h15q12 0 21 -9t9 -21v-15q0 -13 -9 -21.5t-21 -8.5h-15q-13 0 -21.5 8.5t-8.5 21.5zM260 756v15q0 12 8.5 21t21.5 9h15q12 0 21 -9t9 -21v-15q0 -13 -9 -21.5t-21 -8.5h-15q-13 0 -21.5 8.5t-8.5 21.5zM300 24h-100q-41 0 -70.5 29.5
t-29.5 70.5v500h100v-474q0 -11 7.5 -18.5t17.5 -7.5h50q10 0 17.5 7.5t7.5 18.5v474h100v-500q0 -41 -29.5 -70.5t-70.5 -29.5z" />
    <glyph glyph-name="Yacute" unicode="&#xdd;" 
d="M222 726h-78l119 100h78zM400 624v-250q0 -41 -29.5 -70.5t-70.5 -29.5v-250h-100v250q-41 0 -70.5 29.5t-29.5 70.5v250h100v-224q0 -11 7.5 -18.5t17.5 -7.5h50q10 0 17.5 7.5t7.5 18.5v224h100z" />
    <glyph glyph-name="Thorn" unicode="&#xde;" horiz-adv-x="576" 
d="M200 250h152q10 0 17 7.5t7 17.5v99q0 10 -7 17.5t-17 7.5h-152v-149zM100 24v600h100v-125h176q42 0 71 -29.5t29 -70.5v-149q0 -41 -29 -70.5t-71 -29.5h-176v-126h-100z" />
    <glyph glyph-name="germandbls" unicode="&#xdf;" horiz-adv-x="600" 
d="M250 124h75q31 0 53 22t22 54v50q0 10 -7.5 17t-17.5 7h-100q-10 0 -17.5 7.5t-7.5 18.5v50q0 10 7.5 17t17.5 7t17.5 7.5t7.5 18.5v100q0 10 -7.5 17t-17.5 7h-50q-10 0 -17.5 -7t-7.5 -17v-476h-100v500q0 42 29.5 71t70.5 29h100q41 0 70.5 -29t29.5 -71v-150
q41 0 70.5 -29t29.5 -70v-101q0 -62 -44 -106t-106 -44h-100v100z" />
    <glyph glyph-name="agrave" unicode="&#xe0;" 
d="M263 726h78l-119 100h-78zM200 24h-100v500q0 42 29.5 71t70.5 29h100q41 0 70.5 -29t29.5 -71v-500h-100v200h-100v-200zM300 324v176q0 10 -7.5 17t-17.5 7h-50q-10 0 -17.5 -7t-7.5 -17v-176h100z" />
    <glyph glyph-name="aacute" unicode="&#xe1;" 
d="M222 726h-78l119 100h78zM200 24h-100v500q0 42 29.5 71t70.5 29h100q41 0 70.5 -29t29.5 -71v-500h-100v200h-100v-200zM300 324v176q0 10 -7.5 17t-17.5 7h-50q-10 0 -17.5 -7t-7.5 -17v-176h100z" />
    <glyph glyph-name="acircumflex" unicode="&#xe2;" 
d="M219 826h47l119 -100h-76l-66 54l-65 -54h-78zM200 24h-100v500q0 42 29.5 71t70.5 29h100q41 0 70.5 -29t29.5 -71v-500h-100v200h-100v-200zM300 324v176q0 10 -7.5 17t-17.5 7h-50q-10 0 -17.5 -7t-7.5 -17v-176h100z" />
    <glyph glyph-name="atilde" unicode="&#xe3;" horiz-adv-x="510" 
d="M100 764l35 35q27 27 63.5 27t64.5 -27l26 -26t21 -9t21 9l44 44l35 -38l-36 -36q-28 -27 -64.5 -27t-63.5 27q-4 3 -13 12l-13 13q-9 9 -21 9t-22 -9l-42 -42zM200 24h-100v500q0 42 29.5 71t70.5 29h100q41 0 70.5 -29t29.5 -71v-500h-100v200h-100v-200zM300 324v176
q0 10 -7.5 17t-17.5 7h-50q-10 0 -17.5 -7t-7.5 -17v-176h100z" />
    <glyph glyph-name="adieresis" unicode="&#xe4;" 
d="M164 756v15q0 12 8.5 21t21.5 9h15q12 0 21 -9t9 -21v-15q0 -13 -9 -21.5t-21 -8.5h-15q-13 0 -21.5 8.5t-8.5 21.5zM260 756v15q0 12 8.5 21t21.5 9h15q12 0 21 -9t9 -21v-15q0 -13 -9 -21.5t-21 -8.5h-15q-13 0 -21.5 8.5t-8.5 21.5zM200 24h-100v500q0 42 29.5 71
t70.5 29h100q41 0 70.5 -29t29.5 -71v-500h-100v200h-100v-200zM300 324v176q0 10 -7.5 17t-17.5 7h-50q-10 0 -17.5 -7t-7.5 -17v-176h100z" />
    <glyph glyph-name="aring" unicode="&#xe5;" 
d="M248 926q41 0 70.5 -29.5t29.5 -71t-29.5 -70.5t-70.5 -29t-70.5 29t-29.5 70.5t29.5 71t70.5 29.5zM248 876q-21 0 -35.5 -15t-14.5 -35.5t14.5 -35t35.5 -14.5t35.5 14.5t14.5 35t-14.5 35.5t-35.5 15zM200 24h-100v500q0 42 29.5 71t70.5 29h100q41 0 70.5 -29
t29.5 -71v-500h-100v200h-100v-200zM300 324v176q0 10 -7.5 17t-17.5 7h-50q-10 0 -17.5 -7t-7.5 -17v-176h100z" />
    <glyph glyph-name="ae" unicode="&#xe6;" horiz-adv-x="650" 
d="M200 624h350v-100h-150v-150h120v-100h-120v-150h150v-100h-150h-100v200h-100v-200h-100v500q0 42 29.5 71t70.5 29zM300 324v176q0 10 -7.5 17t-17.5 7h-50q-10 0 -17.5 -7t-7.5 -17v-176h100z" />
    <glyph glyph-name="ccedilla" unicode="&#xe7;" 
d="M400 174v-50q0 -41 -29.5 -70.5t-70.5 -29.5h-25l-23 -39h24q31 0 53 -22t22 -53.5t-22 -53t-53 -21.5h-120v50h120q10 0 17.5 7t7.5 17.5t-7.5 18t-17.5 7.5h-75h-36l52 89h-17q-41 0 -70.5 29.5t-29.5 70.5v400q0 42 29.5 71t70.5 29h100q41 0 70.5 -29t29.5 -71v-50
h-100v26q0 10 -7.5 17t-17.5 7h-50q-10 0 -17.5 -7t-7.5 -17v-350q0 -11 7.5 -18.5t17.5 -7.5h50q10 0 17.5 7.5t7.5 18.5v24h100z" />
    <glyph glyph-name="egrave" unicode="&#xe8;" horiz-adv-x="450" 
d="M204 726h-78l119 100h78zM100 624h250v-100h-150v-150h120v-100h-120v-150h150v-100h-250v600z" />
    <glyph glyph-name="eacute" unicode="&#xe9;" horiz-adv-x="485" 
d="M219 826h47l119 -100h-76l-66 54l-65 -54h-78zM117 624h250v-100h-150v-150h120v-100h-120v-150h150v-100h-250v600z" />
    <glyph glyph-name="ecircumflex" unicode="&#xea;" horiz-adv-x="450" 
d="M136 756v15q0 12 9 21t21 9h15q13 0 21.5 -9t8.5 -21v-15q0 -13 -8.5 -21.5t-21.5 -8.5h-15q-12 0 -21 8.5t-9 21.5zM232 756v15q0 12 8.5 21t21.5 9h15q12 0 21 -9t9 -21v-15q0 -13 -9 -21.5t-21 -8.5h-15q-13 0 -21.5 8.5t-8.5 21.5zM100 624h250v-100h-150v-150h120
v-100h-120v-150h150v-100h-250v600z" />
    <glyph glyph-name="edieresis" unicode="&#xeb;" horiz-adv-x="450" 
d="M204 726h-78l119 100h78zM100 624h250v-100h-150v-150h120v-100h-120v-150h150v-100h-250v600z" />
    <glyph glyph-name="igrave" unicode="&#xec;" horiz-adv-x="396" 
d="M219 726h78l-119 100h-78zM148 24v600h100v-600h-100z" />
    <glyph glyph-name="iacute" unicode="&#xed;" horiz-adv-x="396" 
d="M178 726h-78l119 100h78zM148 24v600h100v-600h-100z" />
    <glyph glyph-name="icircumflex" unicode="&#xee;" horiz-adv-x="485" 
d="M219 826h47l119 -100h-76l-66 54l-65 -54h-78zM194 24v600h100v-600h-100z" />
    <glyph glyph-name="idieresis" unicode="&#xef;" horiz-adv-x="371" 
d="M100 756v15q0 12 9 21t21 9h15q13 0 21.5 -9t8.5 -21v-15q0 -13 -8.5 -21.5t-21.5 -8.5h-15q-12 0 -21 8.5t-9 21.5zM196 756v15q0 12 8.5 21t21.5 9h15q12 0 21 -9t9 -21v-15q0 -13 -9 -21.5t-21 -8.5h-15q-13 0 -21.5 8.5t-8.5 21.5zM136 24v600h100v-600h-100z" />
    <glyph glyph-name="eth" unicode="&#xf0;" 
d="M245 519q-15 5 -30 5h-25v100h10q58 0 107 -30l26 30h65l-52 -62q54 -58 54 -138v-300q0 -41 -29.5 -70.5t-70.5 -29.5h-100q-41 0 -70.5 29.5t-29.5 70.5v150q0 42 29.5 71t70.5 29h100v66q0 27 -16 49l-54 -65h-65zM200 250v-100q0 -11 7.5 -18.5t17.5 -7.5h50
q10 0 17.5 7.5t7.5 18.5v124h-75q-10 0 -17.5 -7t-7.5 -17z" />
    <glyph glyph-name="ntilde" unicode="&#xf1;" horiz-adv-x="520" 
d="M100 764l35 35q27 27 63.5 27t64.5 -27l26 -26t21 -9t21 9l44 44l35 -38l-36 -36q-28 -27 -64.5 -27t-63.5 27q-4 3 -13 12l-13 13q-9 9 -21 9t-22 -9l-42 -42zM319 24l-119 328v-328h-100v600h107l113 -309v309h100v-600h-101z" />
    <glyph glyph-name="ograve" unicode="&#xf2;" 
d="M263 726h78l-119 100h-78zM300 624q41 0 70.5 -29t29.5 -71v-400q0 -41 -29.5 -70.5t-70.5 -29.5h-100q-41 0 -70.5 29.5t-29.5 70.5v400q0 42 29.5 71t70.5 29h100zM300 500q0 10 -7.5 17t-17.5 7h-50q-10 0 -17.5 -7t-7.5 -17v-350q0 -11 7.5 -18.5t17.5 -7.5h50
q10 0 17.5 7.5t7.5 18.5v350z" />
    <glyph glyph-name="oacute" unicode="&#xf3;" 
d="M222 726h-78l119 100h78zM300 624q41 0 70.5 -29t29.5 -71v-400q0 -41 -29.5 -70.5t-70.5 -29.5h-100q-41 0 -70.5 29.5t-29.5 70.5v400q0 42 29.5 71t70.5 29h100zM300 500q0 10 -7.5 17t-17.5 7h-50q-10 0 -17.5 -7t-7.5 -17v-350q0 -11 7.5 -18.5t17.5 -7.5h50
q10 0 17.5 7.5t7.5 18.5v350z" />
    <glyph glyph-name="ocircumflex" unicode="&#xf4;" 
d="M227 826h47l119 -100h-76l-66 54l-65 -54h-78zM300 624q41 0 70.5 -29t29.5 -71v-400q0 -41 -29.5 -70.5t-70.5 -29.5h-100q-41 0 -70.5 29.5t-29.5 70.5v400q0 42 29.5 71t70.5 29h100zM300 500q0 10 -7.5 17t-17.5 7h-50q-10 0 -17.5 -7t-7.5 -17v-350q0 -11 7.5 -18.5
t17.5 -7.5h50q10 0 17.5 7.5t7.5 18.5v350z" />
    <glyph glyph-name="otilde" unicode="&#xf5;" horiz-adv-x="510" 
d="M100 764l35 35q27 27 63.5 27t64.5 -27l26 -26t21 -9t21 9l44 44l35 -38l-36 -36q-28 -27 -64.5 -27t-63.5 27q-4 3 -13 12l-13 13q-9 9 -21 9t-22 -9l-42 -42zM300 624q41 0 70.5 -29t29.5 -71v-400q0 -41 -29.5 -70.5t-70.5 -29.5h-100q-41 0 -70.5 29.5t-29.5 70.5
v400q0 42 29.5 71t70.5 29h100zM300 500q0 10 -7.5 17t-17.5 7h-50q-10 0 -17.5 -7t-7.5 -17v-350q0 -11 7.5 -18.5t17.5 -7.5h50q10 0 17.5 7.5t7.5 18.5v350z" />
    <glyph glyph-name="odieresis" unicode="&#xf6;" 
d="M164 756v15q0 12 8.5 21t21.5 9h15q12 0 21 -9t9 -21v-15q0 -13 -9 -21.5t-21 -8.5h-15q-13 0 -21.5 8.5t-8.5 21.5zM260 756v15q0 12 8.5 21t21.5 9h15q12 0 21 -9t9 -21v-15q0 -13 -9 -21.5t-21 -8.5h-15q-13 0 -21.5 8.5t-8.5 21.5zM300 624q41 0 70.5 -29t29.5 -71
v-400q0 -41 -29.5 -70.5t-70.5 -29.5h-100q-41 0 -70.5 29.5t-29.5 70.5v400q0 42 29.5 71t70.5 29h100zM300 500q0 10 -7.5 17t-17.5 7h-50q-10 0 -17.5 -7t-7.5 -17v-350q0 -11 7.5 -18.5t17.5 -7.5h50q10 0 17.5 7.5t7.5 18.5v350z" />
    <glyph glyph-name="divide" unicode="&#xf7;" horiz-adv-x="550" 
d="M313 470v-20q0 -17 -11.5 -28.5t-28.5 -11.5h-20q-17 0 -28.5 11.5t-11.5 28.5v20q0 17 11.5 28.5t28.5 11.5h20q17 0 28.5 -11.5t11.5 -28.5zM313 205v-20q0 -17 -11.5 -28.5t-28.5 -11.5h-20q-17 0 -28.5 11.5t-11.5 28.5v20q0 17 11.5 28.5t28.5 11.5h20
q17 0 28.5 -11.5t11.5 -28.5zM100 274v100h350v-100h-350z" />
    <glyph glyph-name="oslash" unicode="&#xf8;" horiz-adv-x="534" 
d="M408 567q9 -20 9 -43v-400q0 -41 -29 -70.5t-71 -29.5h-100q-29 0 -54 17l-8 -17h-55l27 58q-10 20 -10 42v400q0 42 29.5 71t70.5 29h100q30 0 55 -16l8 16h55zM317 373l-100 -215v-8q0 -11 7.5 -18.5t17.5 -7.5h50q11 0 18 7.5t7 18.5v223zM317 491v9q0 10 -7 17t-18 7
h-50q-10 0 -17.5 -7t-7.5 -17v-224z" />
    <glyph glyph-name="ugrave" unicode="&#xf9;" 
d="M263 726h78l-119 100h-78zM300 24h-100q-41 0 -70.5 29.5t-29.5 70.5v500h100v-474q0 -11 7.5 -18.5t17.5 -7.5h50q10 0 17.5 7.5t7.5 18.5v474h100v-500q0 -41 -29.5 -70.5t-70.5 -29.5z" />
    <glyph glyph-name="uacute" unicode="&#xfa;" 
d="M222 726h-78l119 100h78zM300 24h-100q-41 0 -70.5 29.5t-29.5 70.5v500h100v-474q0 -11 7.5 -18.5t17.5 -7.5h50q10 0 17.5 7.5t7.5 18.5v474h100v-500q0 -41 -29.5 -70.5t-70.5 -29.5z" />
    <glyph glyph-name="ucircumflex" unicode="&#xfb;" 
d="M219 826h47l119 -100h-76l-66 54l-65 -54h-78zM300 24h-100q-41 0 -70.5 29.5t-29.5 70.5v500h100v-474q0 -11 7.5 -18.5t17.5 -7.5h50q10 0 17.5 7.5t7.5 18.5v474h100v-500q0 -41 -29.5 -70.5t-70.5 -29.5z" />
    <glyph glyph-name="udieresis" unicode="&#xfc;" 
d="M164 756v15q0 12 8.5 21t21.5 9h15q12 0 21 -9t9 -21v-15q0 -13 -9 -21.5t-21 -8.5h-15q-13 0 -21.5 8.5t-8.5 21.5zM260 756v15q0 12 8.5 21t21.5 9h15q12 0 21 -9t9 -21v-15q0 -13 -9 -21.5t-21 -8.5h-15q-13 0 -21.5 8.5t-8.5 21.5zM300 24h-100q-41 0 -70.5 29.5
t-29.5 70.5v500h100v-474q0 -11 7.5 -18.5t17.5 -7.5h50q10 0 17.5 7.5t7.5 18.5v474h100v-500q0 -41 -29.5 -70.5t-70.5 -29.5z" />
    <glyph glyph-name="yacute" unicode="&#xfd;" 
d="M222 726h-78l119 100h78zM400 624v-250q0 -41 -29.5 -70.5t-70.5 -29.5v-250h-100v250q-41 0 -70.5 29.5t-29.5 70.5v250h100v-224q0 -11 7.5 -18.5t17.5 -7.5h50q10 0 17.5 7.5t7.5 18.5v224h100z" />
    <glyph glyph-name="thorn" unicode="&#xfe;" horiz-adv-x="576" 
d="M200 250h152q10 0 17 7.5t7 17.5v99q0 10 -7 17.5t-17 7.5h-152v-149zM100 24v600h100v-125h176q42 0 71 -29.5t29 -70.5v-149q0 -41 -29 -70.5t-71 -29.5h-176v-126h-100z" />
    <glyph glyph-name="ydieresis" unicode="&#xff;" 
d="M164 756v15q0 12 8.5 21t21.5 9h15q12 0 21 -9t9 -21v-15q0 -13 -9 -21.5t-21 -8.5h-15q-13 0 -21.5 8.5t-8.5 21.5zM260 756v15q0 12 8.5 21t21.5 9h15q12 0 21 -9t9 -21v-15q0 -13 -9 -21.5t-21 -8.5h-15q-13 0 -21.5 8.5t-8.5 21.5zM400 624v-250q0 -41 -29.5 -70.5
t-70.5 -29.5v-250h-100v250q-41 0 -70.5 29.5t-29.5 70.5v250h100v-224q0 -11 7.5 -18.5t17.5 -7.5h50q10 0 17.5 7.5t7.5 18.5v224h100z" />
    <glyph glyph-name="dotlessi" unicode="&#x131;" horiz-adv-x="300" 
d="M100 24v415h100v-415h-100z" />
    <glyph glyph-name="Lslash" unicode="&#x141;" horiz-adv-x="466" 
d="M272 486h78l-133 -112v-250h150v-100h-250v267l-59 -50h-78l137 115v268h100v-184z" />
    <glyph glyph-name="lslash" unicode="&#x142;" horiz-adv-x="466" 
d="M272 486h78l-133 -112v-250h150v-100h-250v267l-59 -50h-78l137 115v268h100v-184z" />
    <glyph glyph-name="OE" unicode="&#x152;" horiz-adv-x="650" 
d="M200 624h350v-100h-150v-150h120v-100h-120v-150h150v-100h-350q-41 0 -70.5 29.5t-29.5 70.5v400q0 42 29.5 71t70.5 29zM275 124q10 0 17.5 7.5t7.5 18.5v350q0 10 -7.5 17t-17.5 7h-50q-10 0 -17.5 -7t-7.5 -17v-350q0 -11 7.5 -18.5t17.5 -7.5h50z" />
    <glyph glyph-name="oe" unicode="&#x153;" horiz-adv-x="650" 
d="M200 624h350v-100h-150v-150h120v-100h-120v-150h150v-100h-350q-41 0 -70.5 29.5t-29.5 70.5v400q0 42 29.5 71t70.5 29zM275 124q10 0 17.5 7.5t7.5 18.5v350q0 10 -7.5 17t-17.5 7h-50q-10 0 -17.5 -7t-7.5 -17v-350q0 -11 7.5 -18.5t17.5 -7.5h50z" />
    <glyph glyph-name="Zcaron" unicode="&#x17d;" horiz-adv-x="510" 
d="M231 726h47l119 100h-76l-66 -55l-65 55h-78zM405 524l-195 -400h200v-100h-310v103l194 397h-189v100h300v-100z" />
    <glyph glyph-name="circumflex" unicode="&#x2c6;" horiz-adv-x="485" 
d="M219 826h47l119 -100h-76l-66 54l-65 -54h-78z" />
    <glyph glyph-name="caron" unicode="&#x2c7;" horiz-adv-x="485" 
d="M219 726h47l119 100h-76l-66 -55l-65 55h-78z" />
    <glyph glyph-name="breve" unicode="&#x2d8;" horiz-adv-x="400" 
d="M250 826h50q0 -42 -29.5 -71t-70.5 -29t-70.5 29t-29.5 71h50q0 -21 14.5 -35.5t35.5 -14.5t35.5 14.5t14.5 35.5z" />
    <glyph glyph-name="dotaccent" unicode="&#x2d9;" horiz-adv-x="275" 
d="M100 756v15q0 12 9 21t21 9h15q13 0 21.5 -9t8.5 -21v-15q0 -13 -8.5 -21.5t-21.5 -8.5h-15q-12 0 -21 8.5t-9 21.5z" />
    <glyph glyph-name="ring" unicode="&#x2da;" horiz-adv-x="400" 
d="M200 926q41 0 70.5 -29.5t29.5 -71t-29.5 -70.5t-70.5 -29t-70.5 29t-29.5 70.5t29.5 71t70.5 29.5zM200 876q-21 0 -35.5 -15t-14.5 -35.5t14.5 -35t35.5 -14.5t35.5 14.5t14.5 35t-14.5 35.5t-35.5 15z" />
    <glyph glyph-name="ogonek" unicode="&#x2db;" horiz-adv-x="334" 
d="M155 -96q-35 0 -50 32t8 58l83 100l39 -32q-52 -61 -77 -91q-4 -5 -1.5 -11t9.5 -6h62v-50h-73z" />
    <glyph glyph-name="tilde" unicode="&#x2dc;" horiz-adv-x="510" 
d="M100 764l35 35q27 27 63.5 27t64.5 -27l26 -26t21 -9t21 9l44 44l35 -38l-36 -36q-28 -27 -64.5 -27t-63.5 27q-4 3 -13 12l-13 13q-9 9 -21 9t-22 -9l-42 -42z" />
    <glyph glyph-name="hungarumlaut" unicode="&#x2dd;" horiz-adv-x="531" 
d="M178 726h-78l119 100h78zM312 726h-78l119 100h78z" />
    <glyph glyph-name="endash" unicode="&#x2013;" horiz-adv-x="550" 
d="M100 274v100h350v-100h-350z" />
    <glyph glyph-name="emdash" unicode="&#x2014;" horiz-adv-x="586" 
d="M100 301v50h386v-50h-386z" />
    <glyph glyph-name="quoteleft" unicode="&#x2018;" horiz-adv-x="396" 
d="M219 726h78l-119 100h-78z" />
    <glyph glyph-name="quoteright" unicode="&#x2019;" horiz-adv-x="300" 
d="M200 542q0 -28 -19 -47.5t-49 -19.5v30q8 0 13 5t5 12v3h-10q-17 0 -28.5 11.5t-11.5 28.5v20q0 16 11.5 28t28.5 12h20q17 0 28.5 -12t11.5 -28v-43z" />
    <glyph glyph-name="quotesinglbase" unicode="&#x201a;" horiz-adv-x="300" 
d="M200 42q0 -29 -19 -48.5t-49 -19.5v30q8 0 13 5t5 13v2h-10q-17 0 -28.5 11.5t-11.5 28.5v20q0 17 11.5 28.5t28.5 11.5h20q17 0 28.5 -11.5t11.5 -28.5v-42z" />
    <glyph glyph-name="quotedblleft" unicode="&#x201c;" horiz-adv-x="531" 
d="M353 726h78l-119 100h-78zM219 726h78l-119 100h-78z" />
    <glyph glyph-name="quotedblright" unicode="&#x201d;" horiz-adv-x="531" 
d="M178 726h-78l119 100h78zM312 726h-78l119 100h78z" />
    <glyph glyph-name="quotedblbase" unicode="&#x201e;" horiz-adv-x="531" 
d="M178 -28h-78l119 100h78zM312 -28h-78l119 100h78z" />
    <glyph glyph-name="bullet" unicode="&#x2022;" horiz-adv-x="400" 
d="M200 424q41 0 70.5 -29t29.5 -70.5t-29.5 -71t-70.5 -29.5t-70.5 29.5t-29.5 71t29.5 70.5t70.5 29z" />
    <glyph glyph-name="perthousand" unicode="&#x2030;" horiz-adv-x="1061" 
d="M660 174v-50q0 -41 -29.5 -70.5t-70.5 -29.5h-50q-41 0 -70.5 29.5t-29.5 70.5v50q0 42 29.5 71t70.5 29h50q41 0 70.5 -29t29.5 -71zM588 160q0 17 -12.5 29.5t-29.5 12.5h-22q-17 0 -29.5 -12.5t-12.5 -29.5v-21q0 -17 12.5 -29.5t29.5 -12.5h22q17 0 29.5 12.5
t12.5 29.5v21zM961 174v-50q0 -41 -29.5 -70.5t-70.5 -29.5h-50q-41 0 -70.5 29.5t-29.5 70.5v50q0 42 29.5 71t70.5 29h50q41 0 70.5 -29t29.5 -71zM267 24h-55l279 600h56zM888 160q0 17 -12 29.5t-30 12.5h-20q-18 0 -30 -12.5t-12 -29.5v-21q0 -17 12 -29.5t30 -12.5h20
q18 0 30 12.5t12 29.5v21zM350 524v-50q0 -41 -29.5 -70.5t-70.5 -29.5h-50q-41 0 -70.5 29.5t-29.5 70.5v50q0 42 29.5 71t70.5 29h50q41 0 70.5 -29t29.5 -71zM278 510q0 17 -12.5 29.5t-29.5 12.5h-22q-17 0 -29.5 -12.5t-12.5 -29.5v-21q0 -17 12.5 -29.5t29.5 -12.5h22
q17 0 29.5 12.5t12.5 29.5v21z" />
    <glyph glyph-name="guilsinglleft" unicode="&#x2039;" horiz-adv-x="382" 
d="M282 542v-78l-117 -140l117 -139v-78l-182 217z" />
    <glyph glyph-name="guilsinglright" unicode="&#x203a;" horiz-adv-x="382" 
d="M100 542v-78l117 -140l-117 -139v-78l182 217z" />
    <glyph glyph-name="Euro" unicode="&#x20ac;" horiz-adv-x="560" 
d="M160 440v84q0 42 29.5 71t70.5 29h100q41 0 70.5 -29t29.5 -71v-50h-100v26q0 10 -7.5 17t-17.5 7h-50q-10 0 -17.5 -7t-7.5 -17v-60h70v-100h-70v-30h70v-100h-70v-60q0 -11 7.5 -18.5t17.5 -7.5h50q10 0 17.5 7.5t7.5 18.5v24h100v-50q0 -41 -29.5 -70.5t-70.5 -29.5
h-100q-41 0 -70.5 29.5t-29.5 70.5v86h-60v100h60v30h-60v100h60z" />
    </font>
</defs>
</svg>
