<?xml version="1.0" standalone="no"?>
<!DOCTYPE svg PUBLIC "-//W3C//DTD SVG 1.1//EN" "http://www.w3.org/Graphics/SVG/1.1/DTD/svg11.dtd" >
<svg xmlns="http://www.w3.org/2000/svg" xmlns:xlink="http://www.w3.org/1999/xlink" version="1.1">
<metadata>
Created by FontForge 20170910 at Tue Aug 17 12:18:05 1999
 By Jimmy Wärting
Data copyright (c) URW Software &#38; Type GmbH., additional data copyright The Monotype Corporation. Copyright 1994 Microsoft Corporation. All rights reserved.
</metadata>
<defs>
<font id="CooperBlack" horiz-adv-x="1024" >
  <font-face 
    font-family="Cooper Black"
    font-weight="400"
    font-stretch="normal"
    units-per-em="2048"
    panose-1="2 8 9 4 4 3 11 2 4 4"
    ascent="1638"
    descent="-410"
    x-height="989"
    cap-height="1386"
    bbox="-346 -514 2531 1880"
    underline-thickness="257"
    underline-position="-366"
    unicode-range="U+0020-F002"
  />
<missing-glyph horiz-adv-x="512" 
d="M51 0v1365h410v-1365h-410zM410 51v1263h-308v-1263h308z" />
    <glyph glyph-name=".notdef" horiz-adv-x="512" 
d="M51 0v1365h410v-1365h-410zM410 51v1263h-308v-1263h308z" />
    <glyph glyph-name=".null" horiz-adv-x="0" 
 />
    <glyph glyph-name="nonmarkingreturn" horiz-adv-x="512" 
 />
    <glyph glyph-name="space" unicode=" " horiz-adv-x="512" 
 />
    <glyph glyph-name="space" unicode="&#xa0;" horiz-adv-x="512" 
 />
    <glyph glyph-name="exclam" unicode="!" horiz-adv-x="631" 
d="M321 406q87 0 149 -65q62 -64 62 -150q0 -89 -64 -153.5t-153 -64.5q-87 0 -149 59q-67 64 -67 158q0 87 59 147q66 69 163 69zM316 1351q89 0 151 -64q83 -84 83 -238q0 -102 -35.5 -219.5t-94.5 -209.5q-67 -104 -108 -104q-40 0 -113 133q-54 98 -85.5 210t-31.5 205
q0 114 51 191q63 96 183 96z" />
    <glyph glyph-name="quotedbl" unicode="&#x22;" horiz-adv-x="885" 
d="M233 1385q74 0 120 -63t46 -163q0 -77 -25 -164.5t-67 -156.5q-47 -78 -76 -78q-28 0 -80 99q-83 159 -83 312q0 96 45.5 155t119.5 59zM651 1385q74 0 120 -63t46 -163q0 -77 -25 -164.5t-67 -156.5q-47 -78 -76 -78t-80 99q-83 160 -83 312q0 96 45.5 155t119.5 59z
" />
    <glyph glyph-name="numbersign" unicode="#" horiz-adv-x="1229" 
d="M264 239l7 44q4 38 4 39q0 32 -50 32q-12 0 -74 -5q-12 -1 -22 -1q-42 0 -42 31q0 13 30 71.5t50 84.5q31 41 74 41q12 0 27 -2q11 -1 19 -1q24 0 30 38l7 57q1 7 1 14q-1 27 -31 27q-16 0 -94 -5q-15 -1 -22 -1q-42 0 -42 31q0 14 29 70.5t51 85.5q31 41 75 41
q12 0 27 -2q12 -2 19 -2q24 0 29 39l6 38q6 48 7 138q1 45 28 64q29 19 95.5 43t93.5 24q34 0 34 -30q0 -11 -6 -35q-5 -17 -16 -95l-20 -146q-3 -19 -3 -21q-2 -26 44 -26h52q30 0 40 8.5t14 38.5l5 37q8 55 8 136q0 46 28 66q29 20 95.5 43.5t94.5 23.5q13 0 23 -9t10 -21
q0 -11 -7 -35q-4 -17 -15 -95l-20 -146q-3 -18 -3 -24q0 -23 35 -23q72 0 92 2q21 3 28 3q32 0 32 -33q0 -20 -50 -117q-41 -78 -86 -78q-16 0 -44 5q-13 2 -19 2q-23 0 -28 -38l-6 -47q-3 -19 -3 -25q0 -31 56 -31q39 0 71 4q18 3 27 3q33 0 33 -29q0 -18 -25 -72t-48 -86
q-30 -41 -62 -41q-20 0 -45 5q-13 2 -19 2q-23 0 -28 -36q-15 -93 -17 -186q-2 -57 -30 -79q-23 -19 -95.5 -47t-95.5 -28q-32 0 -32 36q0 9 5 32q17 85 33 198l8 58q2 12 2 22q0 35 -42 35h-59q-42 0 -46 -41l-3 -22q-12 -84 -14 -164q-2 -57 -30 -79q-23 -19 -95.5 -47
t-95.5 -28q-32 0 -32 37q0 8 5 31q17 86 33 198zM572 565h66q26 0 34.5 7t12.5 34l7 56q3 18 3 23q0 24 -37 24h-66q-26 0 -34.5 -7t-11.5 -34l-8 -56q-2 -12 -2 -22q0 -25 36 -25z" />
    <glyph glyph-name="dollar" unicode="$" horiz-adv-x="1229" 
d="M486 1214v47q0 40 13 53t53 13h84q39 0 52 -13t13 -53v-48q0 -32 9 -38.5t66 -16.5q14 -3 56 -16q18 -5 28 -5t27 6q42 15 60 15q53 0 119 -89q70 -94 70 -183q0 -52 -29 -84t-75 -32q-34 0 -55.5 14.5t-113.5 98.5q-90 83 -195 83q-45 0 -73.5 -24.5t-28.5 -63.5
q0 -54 60 -86q23 -13 184 -61q161 -49 244 -123q106 -96 106 -250q0 -157 -113 -263q-63 -60 -147 -100t-158 -46q-27 -2 -34 -10t-7 -37v-46q0 -40 -13 -53t-52 -13h-84q-40 0 -53 13t-13 53v46q0 27 -5.5 35.5t-23.5 10.5q-87 11 -172.5 37.5t-115.5 51.5
q-38 31 -69.5 124t-31.5 173q0 42 19.5 66.5t51.5 24.5q38 0 78 -46q11 -13 68 -101q38 -59 106.5 -92.5t149.5 -33.5q65 0 106.5 24t41.5 62q0 46 -57 78q-19 10 -171 65q-363 129 -363 402q0 153 125 268q97 90 219 114q32 6 38 13t6 36z" />
    <glyph glyph-name="percent" unicode="%" horiz-adv-x="1660" 
d="M455 1386q126 0 228 -80q133 -104 133 -253q0 -74 -36.5 -144t-100.5 -121q-122 -96 -287 -96q-167 0 -271 98q-94 89 -94 227q0 161 115 260q57 50 141.5 79.5t171.5 29.5zM386 1231q-26 0 -43 -20.5t-17 -53.5q0 -99 42 -205q19 -49 36.5 -67.5t45.5 -18.5q56 0 56 77
q0 115 -45 219q-28 67 -75 69zM1271 685q126 0 228 -80q133 -104 133 -253q0 -74 -36.5 -144t-100.5 -121q-122 -96 -287 -96q-167 0 -271 98q-94 89 -94 227q0 161 115 260q57 50 142 79.5t171 29.5zM1202 530q-27 0 -43.5 -20.5t-16.5 -53.5q0 -100 42 -205
q19 -49 36.5 -67.5t45.5 -18.5q56 0 56 77q0 115 -44 219q-29 67 -76 69zM630 498l304 512q121 211 163 297q25 51 48.5 68.5t67.5 17.5q95 0 95 -47q0 -33 -78 -148q-58 -85 -165 -264l-309 -523q-96 -176 -179 -326q-27 -56 -48 -75t-55 -19q-51 0 -83.5 15t-32.5 38
q0 19 21 50q29 43 166 259z" />
    <glyph glyph-name="ampersand" unicode="&#x26;" horiz-adv-x="1780" 
d="M660 1419q139 0 239 -55.5t100 -132.5q0 -44 -34.5 -79t-77.5 -35q-19 0 -31.5 6t-66.5 43q-47 32 -98 32t-84.5 -38t-33.5 -95q0 -78 60 -110q16 -8 91 -18q61 -7 61 -83q0 -82 -67 -121q-30 -17 -111 -28q-47 -7 -47 -91q0 -100 63 -205q58 -95 150 -148
q84 -49 173 -49q121 0 213 72q83 65 83 164q0 48 -37.5 82.5t-90.5 34.5q-82 0 -142 -102q-26 -44 -54 -44q-36 0 -62 42.5t-26 99.5q0 122 86.5 218t250.5 156q132 49 162 77q35 32 35 68q0 20 -14 35t-33 15q-8 0 -36 -11q-6 -2 -14 -2q-17 0 -29.5 12.5t-12.5 30.5
q0 43 41 81q37 35 97 56t121 21q111 0 194 -57q47 -32 74 -85.5t27 -112.5q0 -87 -58 -168t-160 -135q-73 -40 -73 -69q0 -21 49 -51q45 -28 71.5 -76.5t26.5 -104.5q0 -94 -72 -192q-107 -147 -325 -227q-181 -67 -408 -67q-299 0 -511 111q-153 79 -237 231
q-55 99 -55 211q0 121 79 207q47 52 99 78q37 19 37 37q0 9 -10 26q-61 105 -61 178q0 74 42.5 146.5t114.5 121.5q67 45 157 72t175 27z" />
    <glyph glyph-name="quotesingle" unicode="'" horiz-adv-x="467" 
d="M233 1385q74 0 120 -63t46 -163q0 -77 -25 -164.5t-67 -156.5q-47 -78 -76 -78q-28 0 -80 99q-83 159 -83 312q0 96 45.5 155t119.5 59z" />
    <glyph glyph-name="parenleft" unicode="(" horiz-adv-x="1021" 
d="M772 1387q135 0 198 -39q30 -19 30 -64q0 -47 -17.5 -74t-47.5 -27q-17 0 -40 3q-65 10 -82 10q-126 0 -184 -184q-69 -218 -69 -496q0 -199 31.5 -363.5t86.5 -260.5q56 -94 154 -94q26 0 56 3q34 3 41 3q72 0 72 -94q0 -48 -40 -69q-59 -30 -160 -30q-269 0 -450 228
q-214 269 -214 682q0 298 106 515q170 350 529 351z" />
    <glyph glyph-name="parenright" unicode=")" horiz-adv-x="1021" 
d="M86 -187q14 1 40 -3q60 -9 82 -9q126 0 184 184q69 218 69 496q0 199 -31.5 363.5t-87.5 260.5q-55 94 -153 94q-26 0 -56 -3q-34 -3 -41 -3q-72 0 -72 94q0 48 40 69q59 30 160 30q268 0 450 -228q214 -269 214 -682q0 -429 -215 -681q-157 -185 -420 -185
q-135 0 -198 39q-30 18 -30 64q0 97 65 100z" />
    <glyph glyph-name="asterisk" unicode="*" horiz-adv-x="1229" 
d="M342 1163l129 -48q17 -6 23 -6q13 0 16 28l1 6l-6 138v11q0 62 18.5 77.5t90.5 15.5q62 0 82.5 -9.5t24.5 -39.5q4 -27 3 -55l-5 -138q0 -34 17 -34q6 0 22 6l129 48q44 16 66 16q21 0 33 -13t26 -50q24 -65 26 -101q2 -37 -83 -60l-133 -38q-28 -8 -28 -23q0 -6 13 -23
l86 -108q38 -49 38 -74q0 -28 -66 -75q-58 -41 -80 -41q-28 0 -70 61l-76 115q-14 20 -25 20q-10 0 -24 -20l-76 -115q-41 -61 -70 -61q-22 0 -80 41q-66 46 -66 75q0 24 39 74l85 108q13 17 13 24q0 14 -28 22l-132 38q-83 23 -83 58q0 38 30 115q20 50 55 50q23 0 65 -15z
" />
    <glyph glyph-name="plus" unicode="+" horiz-adv-x="1229" 
d="M439 469h-49q-120 0 -199 -6q-12 -1 -22 -1q-19 0 -32.5 11.5t-13.5 27.5q0 17 21.5 78.5t36.5 88.5q26 46 66 46q12 0 30 -2q106 -10 137 -9h25h2q54 0 53 54v65q-1 62 -12 138q-2 10 -2 21q0 36 62 64q38 16 88 30.5t71 14.5q41 0 41 -39q0 -5 -3 -25q-2 -15 -2 -95
v-174q1 -53 55 -54h155q79 0 94 2q21 3 26 3q39 0 39 -40q0 -22 -17 -77.5t-35 -88.5q-24 -47 -57 -47l-159 14h-46q-59 4 -55 -55v-16q0 -67 10 -164q2 -18 2 -30q0 -44 -61 -73q-33 -15 -89.5 -33t-70.5 -18q-18 0 -29.5 13.5t-11.5 33.5q0 9 1 21q6 79 6 199v67
q3 58 -55 55z" />
    <glyph glyph-name="comma" unicode="," horiz-adv-x="614" 
d="M291 458q49 0 97 -23.5t80 -63.5q76 -95 76 -240q0 -80 -29.5 -179.5t-77.5 -180.5q-79 -132 -165 -132q-38 0 -68.5 23t-30.5 53q0 16 38 77q23 36 40.5 81t17.5 68q0 36 -34 49q-67 25 -95 49q-84 72 -84 185q0 90 59 154q73 80 176 80z" />
    <glyph glyph-name="hyphen" unicode="-" horiz-adv-x="582" 
d="M174 714q25 0 53 -3q121 -13 185 -13q65 0 94 5q34 5 45 5q31 0 31 -46q0 -43 -19 -110t-49 -128q-24 -47 -40.5 -64t-38.5 -17q-19 0 -49 5q-89 15 -205 15q-49 0 -90 -4q-33 -3 -50 -3q-41 0 -41 48q0 32 23.5 108t45.5 117q27 48 48.5 66t56.5 19z" />
    <glyph glyph-name="hyphen" unicode="&#xad;" horiz-adv-x="582" 
d="M174 714q25 0 53 -3q121 -13 185 -13q65 0 94 5q34 5 45 5q31 0 31 -46q0 -43 -19 -110t-49 -128q-24 -47 -40.5 -64t-38.5 -17q-19 0 -49 5q-89 15 -205 15q-49 0 -90 -4q-33 -3 -50 -3q-41 0 -41 48q0 32 23.5 108t45.5 117q27 48 48.5 66t56.5 19z" />
    <glyph glyph-name="period" unicode="." horiz-adv-x="614" 
d="M308 445q95 0 165 -66q71 -67 71 -173q0 -99 -71 -167q-70 -66 -165 -66t-165 66q-71 68 -71 170q0 104 71 170q70 65 165 66z" />
    <glyph glyph-name="slash" unicode="/" horiz-adv-x="966" 
d="M114 125l361 823q14 35 27 69q9 23 19 47q9 23 46 112q31 74 47 118q19 55 40.5 73.5t65.5 18.5q166 0 166 -79q0 -34 -25 -81q-116 -225 -173 -358l-360 -820q-75 -169 -99 -235q-51 -135 -71 -163q-29 -39 -84 -39q-66 0 -112 25t-46 60q0 23 8.5 43.5t61.5 122.5
q86 166 128 263z" />
    <glyph glyph-name="zero" unicode="0" horiz-adv-x="1229" 
d="M593 1154q137 0 264 -67q172 -90 257 -268q63 -130 63 -277q0 -268 -205 -439q-157 -130 -358 -130q-222 0 -378 145q-185 171 -185 457q0 279 169 438q149 141 373 141zM570 856q-93 0 -93 -158q0 -207 79 -372q31 -64 83 -64q91 0 91 161q0 90 -19.5 192.5t-49.5 166.5
q-33 71 -91 74z" />
    <glyph glyph-name="one" unicode="1" horiz-adv-x="1229" 
d="M167 195q14 0 66 -7q24 -4 38 -4q85 0 98 134q7 76 7 432q0 54 -22 75t-80 21q-14 0 -40 -3q-20 -2 -35 -2q-34 0 -55 18.5t-21 48.5q0 32 32 63.5t89 55.5q283 120 602 120q87 0 126.5 -20.5t39.5 -65.5q0 -26 -13 -40.5t-52 -31.5q-62 -27 -71 -66t-14 -304
q8 -268 9 -287t8 -53q12 -53 45 -73t116 -24q94 -4 94 -77q0 -76 -133 -100q-185 -33 -380 -33q-128 0 -242 15q-143 20 -222 49q-77 28 -77 84q0 30 25 52t62 23z" />
    <glyph glyph-name="two" unicode="2" horiz-adv-x="1229" 
d="M789 0h-681q-90 0 -90 51q0 26 19 48.5t123 120.5q193 182 286 339q48 80 48 138q0 50 -29 79.5t-78 29.5q-46 0 -70 -12.5t-106 -81.5q-22 -18 -58 -18q-47 0 -86.5 36.5t-39.5 79.5q0 39 36 88.5t95 93.5q216 155 479 155q200 0 331 -77q59 -35 95 -98t36 -132
q0 -175 -242 -380q-86 -72 -86 -108q0 -28 26 -47.5t63 -19.5q88 0 157 68q35 34 46.5 41t31.5 7q88 0 88 -150q0 -75 -28.5 -152t-77.5 -133q-52 -60 -114 -60q-25 0 -40 10.5t-34 39.5q-18 28 -35.5 36t-64.5 8z" />
    <glyph glyph-name="three" unicode="3" horiz-adv-x="1229" 
d="M526 1147q194 0 343 -71q59 -29 93.5 -80.5t34.5 -110.5q0 -108 -113 -198q-32 -26 -32 -41q0 -29 57 -40q270 -50 270 -300q0 -157 -110 -287q-104 -125 -307 -184q-146 -42 -321 -42q-205 0 -352 57q-93 36 -93 105q0 43 31.5 72.5t76.5 29.5q25 0 135 -25
q36 -9 103 -9q120 0 191 55q75 59 75 135q0 71 -58 116.5t-149 45.5q-58 0 -102 -13q-26 -8 -39 -8q-26 0 -53.5 53t-27.5 103q0 24 13 32.5t83 32.5q63 21 121 80q44 45 44 97q0 57 -45 98.5t-108 41.5q-38 0 -64.5 -9t-97.5 -47q-21 -11 -33 -11q-25 0 -47.5 35t-22.5 74
q0 68 120 128q75 38 180.5 61.5t203.5 23.5z" />
    <glyph glyph-name="four" unicode="4" horiz-adv-x="1229" 
d="M1046 1116v-691q0 -31 8.5 -42.5t31.5 -11.5h42q47 1 49 -57v-203q0 -53 -54 -60q-35 -4 -44 -13t-9 -43v-118q4 -63 -58 -66h-342q-36 0 -47 12.5t-11 53.5v103q0 42 -16 58.5t-56 16.5h-390q-70 0 -98.5 29.5t-28.5 101.5q0 96 23 150q28 67 161 226l254 305
q191 229 282 292q41 28 99.5 46t109.5 18q50 0 72 -25t22 -82zM626 597v49q0 90 -50 90q-38 0 -71 -41l-154 -189q-67 -83 -67 -119q0 -26 28 -33.5t139 -10.5l79 -1q51 0 69 11.5t21 45.5q6 55 6 198z" />
    <glyph glyph-name="five" unicode="5" horiz-adv-x="1229" 
d="M374 1133h711q40 0 54 -17t14 -66q0 -68 -24 -133.5t-63 -103.5q-31 -30 -80 -30h-452q-76 0 -76 -60q0 -25 17.5 -35t76.5 -15q219 -22 379 -97q115 -53 184 -156q50 -74 50 -160q0 -140 -120 -265q-95 -99 -248.5 -153t-338.5 -54q-147 0 -267 38q-111 34 -111 115
q0 47 16 81t38 34q12 0 30 -6q40 -12 98.5 -22t93.5 -10q85 0 137 36.5t52 96.5q0 74 -82 124q-79 48 -201 68q-103 17 -123.5 21.5t-38.5 16.5q-35 22 -35 62q0 54 46 212t105 304q47 119 72 146.5t86 27.5z" />
    <glyph glyph-name="six" unicode="6" horiz-adv-x="1229" 
d="M497 1301q43 0 141 -31q53 -17 89 -41t36 -43q0 -15 -11.5 -30.5t-73.5 -85.5q-40 -43 -71.5 -104t-31.5 -92q0 -15 9 -25.5t22 -10.5q11 0 72 22q83 30 156 30q126 0 229 -80q145 -112 145 -300q0 -149 -88 -286q-161 -251 -479 -251q-264 0 -426 152q-90 85 -139 214
q-41 107 -41 215q0 253 203 518q96 125 154.5 177t104.5 52zM606 607q-44 0 -69.5 -31.5t-25.5 -85.5q0 -83 59 -164.5t120 -81.5q41 0 66 24.5t25 64.5q0 67 -30 139.5t-73 107.5q-32 26 -72 27z" />
    <glyph glyph-name="seven" unicode="7" horiz-adv-x="1229" 
d="M1170 1014l-406 -1230q-9 -25 -31 -34t-74 -9q-115 0 -209.5 34t-94.5 75q0 10 8 25l373 713q41 79 41 110q0 38 -47 52t-174 14q-152 0 -217 -19q-28 -9 -49 -38q-28 -38 -50.5 -51.5t-58.5 -13.5q-69 0 -106 57.5t-37 165.5q0 132 48 223q23 43 59.5 71.5t69.5 28.5
q23 0 101 -35q49 -20 124 -20h643q95 0 95 -72q0 -23 -8 -47z" />
    <glyph glyph-name="eight" unicode="8" horiz-adv-x="1229" 
d="M598 1267q210 0 387 -69q97 -38 157 -117q44 -57 44 -132q0 -118 -130 -201q-39 -25 -39 -40q0 -14 47 -46q65 -45 104 -117.5t39 -149.5q0 -116 -84 -226q-149 -196 -472 -196q-223 0 -396 79q-117 54 -183 149q-50 71 -50 166q0 129 119 213q44 32 44 48q0 13 -38 49
q-95 91 -95 218q0 176 176 281q153 91 370 91zM643 1082q-44 0 -73.5 -22.5t-29.5 -55.5q0 -52 73 -105q81 -60 132 -60q26 0 47 35t21 79q0 59 -44 90q-54 39 -126 39zM405 487q-23 0 -36.5 -21.5t-13.5 -55.5q0 -39 20 -85t50 -76q72 -73 176 -73q61 0 97.5 27t36.5 71
q0 49 -34.5 80t-145.5 83q-106 49 -150 50z" />
    <glyph glyph-name="nine" unicode="9" horiz-adv-x="1229" 
d="M607 1147q200 0 365 -91q218 -121 218 -392q0 -219 -142 -460q-157 -267 -371 -425q-50 -36 -86 -36q-61 0 -157 51.5t-96 83.5q0 21 59 60q73 48 126 132q49 77 49 124q0 38 -40 38q-14 0 -68 -6q-8 -1 -28 -1q-160 0 -257 92q-73 68 -113.5 167t-40.5 206
q0 214 163 331q173 126 419 126zM594 861q-43 0 -72 -36t-29 -89q0 -103 50 -177.5t119 -74.5q41 0 66.5 30t25.5 78q0 54 -23 122.5t-52 103.5q-36 42 -85 43z" />
    <glyph glyph-name="colon" unicode=":" horiz-adv-x="614" 
d="M311 1023q96 0 164.5 -68.5t68.5 -164.5q0 -105 -71 -173q-70 -66 -165 -66t-165 66q-71 68 -71 173q0 92 60 155q72 78 179 78zM311 445q96 0 164.5 -68.5t68.5 -164.5q0 -105 -71 -173q-70 -66 -165 -66t-165 66q-71 68 -71 173q0 92 60 155q72 78 179 78z" />
    <glyph glyph-name="semicolon" unicode=";" horiz-adv-x="614" 
d="M291 458q49 0 97 -23.5t80 -63.5q76 -95 76 -240q0 -80 -29.5 -179.5t-77.5 -180.5q-79 -132 -165 -132q-38 0 -68.5 23t-30.5 53q0 16 38 77q23 36 40.5 81t17.5 68q0 36 -34 49q-67 25 -95 49q-84 72 -84 185q0 90 59 154q73 80 176 80zM307 1023q96 0 164.5 -68.5
t68.5 -164.5q0 -105 -71 -173q-70 -66 -165 -66q-96 0 -165 66q-71 68 -71 173q0 92 60 155q72 78 179 78z" />
    <glyph glyph-name="less" unicode="&#x3c;" 
d="M955 1391v-445l-415 -253l413 -253l2 -442l-887 511v372z" />
    <glyph glyph-name="equal" unicode="=" horiz-adv-x="1229" 
d="M441 880h506q77 0 95 2q20 3 25 3q39 0 39 -39q0 -23 -17 -78.5t-34 -88.5q-25 -47 -58 -47l-159 14h-448q-124 0 -199 -6q-13 -1 -22 -1q-19 0 -32.5 11.5t-13.5 27.5q0 17 21.5 78.5t36.5 88.5q26 46 67 46q12 0 29 -2q99 -9 164 -9zM441 525h506q78 0 95 2q20 3 25 3
q39 0 39 -40q0 -22 -17 -77.5t-34 -88.5q-25 -47 -58 -47l-159 14h-448q-124 0 -199 -6q-13 -1 -22 -1q-19 0 -32.5 11.5t-13.5 27.5q0 17 21.5 78.5t36.5 88.5q26 46 67 46q12 0 29 -2q99 -9 164 -9z" />
    <glyph glyph-name="greater" unicode="&#x3e;" 
d="M68 -2v445l415 253l-412 253l-3 442l888 -511v-372z" />
    <glyph glyph-name="question" unicode="?" horiz-adv-x="987" 
d="M465 406q87 0 149 -65q62 -64 62 -150q0 -89 -64 -153.5t-153 -64.5q-87 0 -149 59q-67 64 -67 158q0 87 59 147q66 69 163 69zM487 1364q112 0 227 -48q119 -50 187 -140q66 -86 66 -186q0 -116 -95 -195q-25 -21 -147 -81q-44 -22 -65.5 -42.5t-37.5 -54.5
q-34 -74 -60 -93.5t-89 -19.5q-60 0 -95 35t-35 96q0 55 27 117q7 15 77 120q65 98 65 184q0 43 -19.5 70.5t-49.5 27.5q-31 0 -44 -19.5t-19 -73.5q-10 -102 -67 -155q-57 -54 -149 -54q-64 0 -104 36q-46 41 -46 105q0 97 66.5 188.5t170.5 135.5q110 47 236 47z" />
    <glyph glyph-name="at" unicode="@" horiz-adv-x="1636" 
d="M978 1392q276 0 440 -152q81 -74 127 -184q43 -104 43 -210q0 -159 -89 -299q-96 -152 -284 -218q-96 -34 -180 -34q-73 0 -109.5 26t-52.5 90q-5 19 -18 19q-15 0 -39 -24q-104 -103 -208 -103q-92 0 -147.5 63t-55.5 167q0 184 115 341q64 88 145 137.5t161 49.5
q59 0 133 -44q24 -15 36 -15q11 0 30 10q99 48 157 48q71 0 71 -59q0 -34 -15 -92q-71 -273 -71 -355q0 -36 35 -36q48 0 108 60q50 50 79 125t29 154q0 159 -103 262q-120 120 -350 120q-306 0 -511 -201q-123 -122 -186 -304q-41 -116 -41 -231q0 -221 167 -314
q116 -64 281 -64q207 0 390 86q47 22 78 22q27 0 46 -16.5t19 -40.5q0 -46 -64 -89q-169 -114 -457 -114q-269 0 -428 110q-113 79 -165 210q-39 98 -39 211q0 229 125 445q155 268 438 379q161 64 360 64zM910 888q-32 0 -82 -70q-35 -49 -59 -116.5t-24 -117.5
q0 -46 26 -46q28 0 68 61q39 60 66 132t27 118q0 39 -22 39z" />
    <glyph glyph-name="A" unicode="A" horiz-adv-x="1693" 
d="M1332 691l189 -405q27 -56 45 -73.5t55 -23.5q72 -11 72 -73q0 -73 -88 -105t-288 -32q-226 0 -335 19q-50 9 -79.5 36.5t-29.5 66.5q0 30 15.5 46.5t57.5 30.5q47 16 47 54q0 67 -81 79q-87 12 -245 12q-133 0 -159 -16q-16 -10 -28 -36t-12 -50q0 -22 8.5 -28.5
t55.5 -21.5q61 -18 61 -72q0 -119 -285 -119q-162 0 -238 22q-70 21 -70 92q0 31 15.5 48t55.5 31q65 23 98.5 64.5t95.5 177.5l141 309q78 170 104.5 254.5t27.5 165.5q1 86 10.5 119.5t42.5 65.5q69 70 176 70q101 0 193 -79q128 -108 372 -629zM636 565h196q54 0 54 24
q0 33 -75 162q-34 59 -52 79t-38 20q-36 0 -60 -67q-4 -9 -29 -71q-42 -102 -42 -122q0 -25 46 -25z" />
    <glyph glyph-name="B" unicode="B" horiz-adv-x="1469" 
d="M582 1l-134 -1q-141 -2 -206 -6q-58 -5 -83 -5q-61 0 -97 31q-35 31 -35 74q0 28 13 44t63 50q29 20 40 62.5t24 182.5q19 218 19 537q0 117 -15.5 155.5t-72.5 63.5q-66 28 -66 82q0 44 39.5 72t101.5 28q34 0 87 -3q88 -4 190 -4q75 0 295 6q69 2 125 2
q133 0 214.5 -21.5t141.5 -72.5q98 -83 98 -222q0 -69 -29 -134.5t-78 -104.5q-35 -28 -35 -51q0 -25 42 -42q82 -33 149 -111q69 -81 69 -203q0 -144 -105 -263q-139 -157 -411 -157q-37 0 -182 5q-132 5 -162 6zM651 1086v-206q0 -49 12.5 -69t43.5 -20q74 0 109 45.5
t35 142.5q0 94 -36 145.5t-102 51.5q-35 0 -48.5 -19.5t-13.5 -70.5zM651 510v-95q0 -131 19 -174t77 -43q152 0 152 178q0 222 -170 222q-44 0 -61 -19t-17 -69z" />
    <glyph glyph-name="C" unicode="C" horiz-adv-x="1474" 
d="M802 1393q146 0 282 -64q64 -30 89 -30q18 0 58 9q13 3 29 3q52 0 91 -48q96 -116 96 -288q0 -121 -83 -177q-45 -30 -101 -30q-51 0 -83 22t-62 78q-43 79 -70 113.5t-66 62.5q-97 68 -203 68q-103 0 -163.5 -74.5t-60.5 -199.5q0 -172 87 -315q118 -191 338 -191
q81 0 160.5 27t123.5 70q38 36 62 36q35 0 60 -32.5t25 -78.5q0 -58 -35 -130t-84 -113q-21 -17 -87 -30q-38 -7 -101 -37q-148 -71 -308 -71q-167 0 -333 75q-193 87 -305 267q-110 175 -110 366q0 222 138 405q120 159 313 243q147 64 303 64z" />
    <glyph glyph-name="D" unicode="D" horiz-adv-x="1643" 
d="M459 0h-72q-63 0 -141 -6q-49 -4 -68 -4q-67 0 -109 31t-42 81q0 35 18.5 54.5t60.5 31.5q40 10 54 32.5t22 87.5q8 75 14.5 292t6.5 431q0 84 -13 112t-61 45q-69 26 -69 89q0 49 47.5 76.5t132.5 27.5q28 0 66 -1q84 -3 122 -3q143 0 323 9q38 2 95 2q229 0 362 -52
q198 -78 298 -262q89 -162 89 -386q0 -113 -33 -226.5t-89 -196.5q-116 -168 -320 -236q-120 -40 -256 -40l-121 4l-104 3q-121 4 -213 4zM669 1084v-774q0 -63 27 -89.5t90 -26.5q292 0 292 444q0 245 -68 380q-75 149 -254 149q-48 0 -67.5 -19t-19.5 -64z" />
    <glyph glyph-name="E" unicode="E" horiz-adv-x="1415" 
d="M247 1365h514q156 0 227.5 6.5t139.5 26.5q21 6 33 6q52 0 92 -56q66 -91 66 -220q0 -65 -27.5 -102.5t-75.5 -37.5q-33 0 -51.5 13.5t-49.5 60.5q-44 67 -111.5 89.5t-221.5 22.5q-115 0 -140 -41q-13 -22 -15.5 -59t-2.5 -189q0 -60 20 -74.5t105 -14.5q42 0 61 17.5
t24 62.5q7 58 14.5 79.5t27.5 37.5q21 18 49 18q41 0 70 -39q21 -29 35.5 -102.5t14.5 -153.5q0 -158 -49 -259q-27 -55 -82 -55q-34 0 -47 17.5t-20 72.5q-15 113 -132 113q-45 0 -61.5 -28.5t-16.5 -105.5q0 -47 6.5 -121.5t13.5 -98.5q8 -30 49.5 -41.5t138.5 -11.5
q150 0 226 38.5t124 139.5q28 58 50.5 78t58.5 20q42 0 69.5 -36.5t27.5 -91.5q0 -60 -31 -150t-76 -160q-23 -34 -38 -45.5t-38 -11.5q-19 0 -55 6q-64 12 -171 15h-848q-51 0 -79 22.5t-28 63.5q0 29 12 42t55 33q30 13 44.5 32t22.5 56q33 151 33 407q0 386 -48 487
q-10 20 -22 28t-50 19q-57 17 -57 76q0 32 19 57t50 33q39 9 151 9z" />
    <glyph glyph-name="F" unicode="F" horiz-adv-x="1354" 
d="M773 1159q-69 0 -85 -35q-12 -26 -22.5 -102t-10.5 -138q0 -37 24 -51t90 -14q44 0 65 16t29 54q23 109 94 109q122 0 122 -292q0 -185 -53 -272q-32 -53 -88 -53q-59 0 -68 79q-5 51 -12.5 72t-28.5 40q-33 31 -96 31q-45 0 -61 -16t-14 -61q0 -8 -1 -93q0 -173 36 -211
q12 -15 24.5 -19.5t65.5 -12.5q26 -4 44 -27t18 -53q0 -77 -90 -99q-130 -31 -365 -31q-206 0 -284 24q-35 11 -57 40t-22 64q0 44 32 71q8 6 55 25q56 22 67 102q18 123 18 561q0 189 -13 245t-63 78t-65.5 38.5t-15.5 47.5q0 44 43 73.5t106 29.5q40 0 117 -6
q163 -13 390 -13q363 0 489 20q17 2 26 2q35 0 67 -40q88 -112 88 -248q0 -62 -29 -99t-76 -37q-35 0 -53 14t-92 98q-45 52 -108.5 68t-236.5 21z" />
    <glyph glyph-name="G" unicode="G" horiz-adv-x="1626" 
d="M809 1393q131 0 247 -37q52 -17 71 -17q20 0 84 23q21 7 43 7q56 0 107 -66q82 -106 82 -232q0 -86 -43.5 -139t-114.5 -53q-58 0 -114 42q-17 13 -83 94q-110 135 -253 135q-130 0 -206.5 -95t-76.5 -256q0 -239 122 -407q46 -61 110 -97.5t127 -36.5q52 0 85.5 34.5
t33.5 88.5q0 48 -28 68q-11 8 -20.5 9.5t-57.5 1.5q-43 0 -71.5 27.5t-28.5 69.5q0 83 110 118q121 38 279 38q169 0 284 -35q109 -34 109 -123q0 -36 -25 -62.5t-65 -31.5q-35 -5 -45.5 -15.5t-21.5 -51.5q-43 -159 -168 -266q-86 -73 -207.5 -114t-255.5 -41
q-219 0 -402 101q-188 103 -286 288q-82 154 -82 333q0 181 98 344q104 175 291 270q163 84 372 84z" />
    <glyph glyph-name="H" unicode="H" horiz-adv-x="1642" 
d="M470 1387q312 0 312 -129q0 -35 -16 -57t-61 -49q-39 -24 -49.5 -63t-10.5 -158q0 -70 26 -86q15 -10 45.5 -12t143.5 -2q103 0 128 11t25 55q0 132 -12 184t-47 71q-44 25 -58 42.5t-14 46.5q0 41 31 74.5t81 45.5q104 25 261 25q184 0 271.5 -33.5t87.5 -104.5
q0 -60 -62 -90q-39 -18 -51 -34.5t-19 -61.5q-4 -25 -10 -222t-6 -313q0 -203 15 -258q8 -30 18 -40t63 -40q38 -21 38 -64q0 -76 -90.5 -110.5t-293.5 -34.5q-178 0 -263 35q-77 32 -77 99q0 57 59 89q29 16 39.5 32t20.5 59q18 84 18 206q0 63 -18.5 78t-96.5 15
q-179 0 -228 -20q-20 -8 -25 -47q-6 -48 -6 -118q0 -114 32 -164q11 -16 52 -41q42 -24 42 -79q0 -70 -97 -107t-277 -37q-164 0 -268 34q-45 15 -70.5 42.5t-25.5 60.5t16 51t70 46q28 14 39.5 36t17.5 74q15 117 15 306q0 35 -1 83q-4 240 -4 274q1 86 -14.5 113.5
t-81.5 60.5q-44 21 -44 63q0 101 196 140q114 23 234 23z" />
    <glyph glyph-name="I" unicode="I" horiz-adv-x="847" 
d="M468 1386q114 0 215 -20q136 -27 136 -115q0 -29 -13.5 -43.5t-68.5 -42.5q-46 -23 -60.5 -101t-14.5 -304q0 -382 19 -473q7 -29 21.5 -44.5t50.5 -33.5q66 -30 66 -87q0 -80 -122 -110q-132 -32 -323 -32q-326 0 -326 124q0 45 64 84q49 30 58 82q19 114 19 484
q0 256 -26 328q-14 41 -67 74q-41 27 -55 45t-14 46q0 43 41.5 68.5t146.5 45.5q125 25 253 25z" />
    <glyph glyph-name="J" unicode="J" horiz-adv-x="1284" 
d="M865 1386q112 0 228 -20q95 -16 136 -44t41 -77q0 -31 -15 -48.5t-65 -42.5q-58 -30 -66.5 -70.5t-15.5 -314.5q-3 -265 -5.5 -318t-12.5 -103q-29 -146 -117 -229q-72 -68 -185 -107t-238 -39q-111 0 -222.5 29t-193.5 80q-68 42 -108 113.5t-40 152.5q0 100 63 165.5
t158 65.5q93 0 158 -55q65 -56 65 -138q0 -21 -12 -70q-2 -10 -2 -22q0 -32 23 -52t61 -20q67 0 108 60t41 158l-1 91l-2 245q-9 223 -13.5 262.5t-22.5 64.5q-15 20 -26.5 26t-62.5 19q-24 5 -41 28t-17 49q0 54 42.5 86.5t138.5 52.5q107 22 221 22z" />
    <glyph glyph-name="K" unicode="K" horiz-adv-x="1694" 
d="M1196 1092l-107 -103q-59 -56 -59 -102q0 -25 13.5 -50t50.5 -68l374 -433q50 -58 69 -73.5t57 -32.5q54 -23 76.5 -51t22.5 -73q0 -106 -151 -106h-379q-39 0 -61.5 17t-71.5 84q-78 107 -206 246q-56 60 -78.5 78.5t-41.5 18.5q-58 0 -58 -109q0 -89 38 -123
q7 -5 32 -22q54 -35 54 -87q0 -66 -88 -94.5t-296 -28.5q-185 0 -270 22q-36 10 -58.5 36.5t-22.5 59.5q0 53 60 91q27 18 38.5 39.5t21.5 72.5q20 113 20 348q0 280 -21 397q-8 48 -22 69t-49 41q-56 32 -56 89q0 48 35 77t112 44q102 20 256 20q157 0 233 -30
q68 -28 68 -100q0 -30 -10.5 -46.5t-54.5 -51.5q-16 -14 -29.5 -67t-13.5 -104q0 -84 38 -84q23 0 44.5 20t86.5 100q75 93 75 127q0 18 -19 54q-13 25 -13 46q0 74 80 104.5t273 30.5q154 0 228 -20q91 -25 91 -106q0 -32 -19 -59.5t-47 -35.5q-21 -7 -97 -8
q-53 -1 -79.5 -12.5t-68.5 -51.5z" />
    <glyph glyph-name="L" unicode="L" horiz-adv-x="1296" 
d="M683 928v-459q0 -155 27 -200q33 -53 139 -53q114 0 180 50t92 156q15 65 68 65t86.5 -47.5t33.5 -123.5q0 -124 -92 -265q-29 -45 -51 -61.5t-53 -16.5l-222 27h-699q-69 0 -97 16q-41 23 -41 69q0 28 13.5 41.5t65.5 38.5q57 27 73 76q13 41 13 239q0 92 -5 265
q-5 166 -6 250q0 80 -12.5 109.5t-52.5 42.5q-66 23 -84 37q-32 25 -32 57q0 73 121 111q103 33 276 33q194 0 290 -20q124 -27 124 -108q0 -33 -16.5 -49t-80.5 -43q-38 -17 -48 -58t-10 -179z" />
    <glyph glyph-name="M" unicode="M" horiz-adv-x="1810" 
d="M1030 414l-120 -269q-31 -68 -50 -91.5t-42 -23.5q-22 0 -39 19q-11 12 -50.5 88t-65.5 135l-132 297q-27 62 -57 62q-32 0 -35 -53q-7 -118 -7 -218q0 -104 10 -141q7 -22 18.5 -32t62.5 -36q33 -17 33 -59q0 -112 -287 -112q-242 0 -242 109q0 28 12.5 40.5t64.5 37.5
q33 15 44.5 41t19.5 101q9 80 17 262.5t8 312.5q0 163 -25 221q-9 20 -20.5 30t-43.5 26q-71 34 -71 88q0 35 26.5 64t70.5 41q44 13 117.5 22.5t124.5 9.5q128 0 181 -21q26 -10 41 -27t43 -70l208 -383q34 -63 47 -77t36 -14q20 0 35.5 15t36.5 56l141 275q26 53 34 69
q49 100 97 133q61 43 222 43q283 0 283 -129q0 -29 -11 -46.5t-45 -42.5q-46 -35 -58 -101q-23 -138 -23 -336q0 -255 24 -447q6 -47 18.5 -64t64.5 -51q36 -24 36 -64q0 -70 -93 -99q-48 -16 -101 -21t-163 -5q-169 0 -252 24q-92 27 -92 92q0 24 12 39.5t62 56.5
q26 21 35.5 81t9.5 204q0 80 -7.5 105t-31.5 25q-28 0 -54 -38.5t-78 -153.5z" />
    <glyph glyph-name="N" unicode="N" horiz-adv-x="1700" 
d="M590 1317l498 -436q70 -61 101 -61q52 0 52 111q0 126 -15 172t-63 69q-39 19 -55 40.5t-16 55.5q0 84 115 108q47 10 164 10q151 0 209 -18q92 -28 92 -106q0 -65 -75 -98q-30 -13 -41 -23t-19 -30q-27 -66 -28 -250v-326q0 -75 1 -205q1 -176 -21 -254q-27 -97 -98 -97
q-31 0 -53.5 13t-74.5 60l-593 531q-62 56 -103 56q-61 0 -61 -169q0 -139 15.5 -190t63.5 -75q67 -33 67 -86q0 -139 -299 -139q-135 0 -209.5 35.5t-74.5 100.5q0 34 14 51t63 46q47 28 57 99q17 129 17 371q0 258 -30 376q-11 43 -28 64t-56 40q-45 22 -62.5 43t-17.5 51
q0 96 165 121q56 8 196 8q80 0 116.5 -12.5t86.5 -56.5z" />
    <glyph glyph-name="O" unicode="O" horiz-adv-x="1594" 
d="M808 1393q257 0 449 -147q130 -101 211 -262q79 -160 79 -320q0 -236 -156 -422q-132 -158 -345 -227q-131 -42 -263 -42q-173 0 -331 72q-191 87 -299 263q-105 170 -105 375q0 238 135 420q120 162 323 238q136 52 302 52zM713 1106q-84 0 -133 -75q-38 -56 -38 -133
q0 -113 46 -261.5t116 -263.5q31 -49 76.5 -78t92.5 -29q76 0 122.5 57t46.5 150q0 121 -39 261t-101 239q-38 61 -88 96t-101 37z" />
    <glyph glyph-name="P" unicode="P" horiz-adv-x="1401" 
d="M207 471v526q0 102 -14 129.5t-76 44.5q-90 26 -90 90q0 45 38 69t110 24q24 0 119 -3h60q166 1 194.5 2.5t203.5 17.5q58 6 106 6q164 0 292 -67q223 -116 223 -368q0 -204 -156 -327q-147 -115 -356 -115q-53 0 -130 7q-41 3 -51 3q-29 0 -29 -33v-6l7 -164
q2 -48 17.5 -71.5t63.5 -48.5q65 -35 65 -76q0 -63 -96 -97t-272 -34q-370 0 -370 127q0 30 16 46t75 46q36 19 42 53t8 219zM658 1124v-340q0 -39 17 -47q29 -14 73 -14q66 0 111 37q65 53 65 178q0 130 -76 188q-48 37 -116 37q-74 0 -74 -39z" />
    <glyph glyph-name="Q" unicode="Q" horiz-adv-x="1600" 
d="M807 1393q145 0 303 -64q207 -84 325 -284q109 -185 109 -384q0 -223 -131 -403q-60 -84 -149 -147.5t-182 -89.5q-24 -7 -24 -20q0 -36 88.5 -63t202.5 -27q70 0 133 28q13 6 23 6q16 0 32 -25t16 -50q0 -51 -64 -108q-65 -58 -168.5 -92t-213.5 -34q-129 0 -279.5 49
t-439.5 185q-51 25 -115 41.5t-106 16.5q-14 0 -34 -3q-11 -1 -19 -1q-19 0 -31.5 16.5t-12.5 41.5q0 46 30 77q48 48 118 48l54 -1q22 0 22 20q0 15 -41 63q-93 107 -137 200q-68 145 -68 304q0 210 111 376q108 161 313 251q168 73 335 73zM708 1103q-79 0 -123.5 -53.5
t-44.5 -147.5q0 -111 35.5 -242t96.5 -247q82 -156 204 -156q79 0 130.5 55t51.5 140q0 112 -40 255t-102 251q-80 141 -208 145z" />
    <glyph glyph-name="R" unicode="R" horiz-adv-x="1590" 
d="M694 574q-38 0 -48.5 -23t-10.5 -107q0 -127 16 -198q5 -20 15 -31t38 -27q60 -33 60 -87q0 -66 -83.5 -93.5t-282.5 -27.5q-370 0 -370 140q0 24 11 38.5t50 40.5q44 29 59.5 68.5t21.5 136.5q5 71 5 509q0 139 -14 189t-60 73q-44 21 -59 38.5t-15 45.5q0 37 28.5 64.5
t79.5 40.5q43 11 118 11q33 0 165 -10q25 -2 79 -2q90 0 240 12q95 7 133 7q214 0 354 -103q126 -93 126 -258q0 -92 -44 -167.5t-121 -113.5q-32 -16 -32 -38q0 -29 49 -47q105 -38 154 -115t70 -236q9 -66 26 -85.5t79 -37.5q19 -6 32 -25.5t13 -43.5q0 -31 -24 -62.5
t-62 -49.5q-84 -39 -230 -39q-195 0 -279 103q-38 46 -64.5 116t-62.5 218q-23 95 -58.5 134t-101.5 42zM636 1084l-11 -233v-9q0 -36 10.5 -48t42.5 -12q88 0 128 45.5t40 145.5q0 193 -137 193q-39 0 -55 -18t-18 -64z" />
    <glyph glyph-name="S" unicode="S" horiz-adv-x="1321" 
d="M644 1393q103 0 270 -51q20 -6 32 -6q10 0 60 18q16 6 34 6q67 0 141.5 -106t74.5 -202q0 -56 -33.5 -94.5t-81.5 -38.5q-40 0 -65 16t-110 95q-120 112 -236 112q-56 0 -89.5 -27t-33.5 -71q0 -87 153 -131q207 -61 265 -89q255 -124 255 -365q0 -213 -174 -348
q-178 -138 -465 -138q-128 0 -270 30.5t-205 71.5q-48 32 -86.5 139.5t-38.5 209.5q0 49 20 74q25 32 63 32t73 -39q21 -22 99 -141q37 -56 117.5 -93t166.5 -37q74 0 120 27.5t46 70.5q0 40 -36 69t-117 54q-143 45 -218 82.5t-140 94.5q-158 140 -158 318q0 88 41 171.5
t116 144.5q168 141 410 141z" />
    <glyph glyph-name="T" unicode="T" horiz-adv-x="1435" 
d="M467 1365h527q85 3 155 23q30 8 53 8q81 0 157.5 -120t76.5 -247q0 -87 -53 -127q-40 -30 -96 -30q-53 0 -92 29.5t-77 97.5q-33 62 -52 81t-46 19q-37 0 -53 -31t-16 -102v-560q0 -86 18 -125t68 -60q54 -23 73.5 -43.5t19.5 -56.5q0 -72 -97.5 -107t-299.5 -35
q-248 0 -368 41q-101 34 -101 110q0 41 36 64q9 5 71 24q38 11 52.5 42t23.5 119q8 78 15 252.5t7 302.5q0 90 -14 128t-46 38q-39 0 -76 -56q-67 -102 -110 -135q-51 -39 -99 -39q-54 0 -89 40.5t-35 103.5q0 62 28 136.5t75 137.5q76 102 150 102q20 0 46 -6
q54 -11 88.5 -15t79.5 -4z" />
    <glyph glyph-name="U" unicode="U" horiz-adv-x="1679" 
d="M1506 865v-244q0 -221 -33 -313q-71 -194 -312 -281q-146 -54 -330 -54q-321 0 -514 153q-94 75 -130 174t-36 286q0 73 5 240q3 118 3 156q0 83 -12.5 115t-54.5 60q-66 43 -66 96q0 39 33.5 69t88.5 41q110 22 260 22q165 0 274 -25q107 -24 107 -109q0 -42 -31 -67
q-7 -6 -60 -31q-32 -14 -43.5 -51t-11.5 -122q0 -87 -8 -376q-5 -172 93 -262q80 -74 206 -74q80 0 145 29.5t99 80.5q27 39 37 87t10 131v220q-5 253 -14.5 296.5t-64.5 68.5q-52 23 -71 42t-19 47q0 60 71.5 87.5t229.5 27.5q155 0 224.5 -27t69.5 -86q0 -29 -12 -43
t-63 -43q-53 -30 -60.5 -64.5t-9.5 -256.5z" />
    <glyph glyph-name="V" unicode="V" horiz-adv-x="1644" 
d="M1417 1055l-459 -929q-42 -86 -80 -118.5t-96 -32.5q-48 0 -86 21q-29 16 -45.5 37.5t-41.5 77.5l-409 901q-34 76 -61.5 103.5t-78.5 36.5q-60 11 -60 74q0 77 105 118.5t301 41.5q204 0 300 -31t96 -96q0 -42 -52 -78q-40 -27 -40 -51q0 -22 18 -63l125 -282
q27 -62 61 -62q33 0 59 33t70 130q79 174 92 205.5t13 48.5q0 34 -47 58q-52 27 -52 69q0 119 319 119q159 0 224.5 -25.5t65.5 -87.5q0 -74 -86 -85q-61 -7 -79 -20q-32 -23 -76 -113z" />
    <glyph glyph-name="W" unicode="W" horiz-adv-x="2129" 
d="M929 1010l-29 70q-27 61 -67 81q-72 38 -72 96q0 128 384 128q192 0 292 -31q34 -11 54.5 -35t20.5 -53q0 -25 -9.5 -38t-52.5 -51q-25 -21 -25 -44q0 -35 38 -116l57 -122q39 -83 55.5 -105.5t37.5 -22.5q23 0 39.5 26t42.5 102l48 140q20 60 20 90q0 40 -42 53
q-84 27 -84 96q0 60 65 86t214 26q97 0 151 -22q75 -30 75 -96q0 -29 -13.5 -50t-54.5 -56q-27 -23 -41.5 -49t-44.5 -107l-175 -465q-131 -325 -158 -387t-56 -111q-22 -36 -49 -50.5t-72 -14.5q-60 0 -96.5 26t-61.5 86l-198 470q-16 39 -24 49t-22 10q-21 0 -36 -25
t-57 -129l-136 -338q-38 -92 -72.5 -121.5t-104.5 -29.5q-63 0 -99.5 30t-66.5 106l-368 941q-23 58 -31.5 68.5t-53.5 34.5q-51 26 -51 88q0 141 350 141q179 0 259 -25q77 -25 77 -99q0 -23 -4 -33.5t-29 -46.5q-12 -19 -12 -47q0 -50 67 -208l41 -96q26 -60 34.5 -72.5
t24.5 -12.5q39 0 80 111l41 114q5 12 5 19q0 8 -5 21z" />
    <glyph glyph-name="X" unicode="X" horiz-adv-x="1628" 
d="M1039 800l382 -479q34 -42 53 -57t54 -26q55 -18 77.5 -41t22.5 -61q0 -36 -25 -67.5t-64 -46.5q-60 -23 -150 -32.5t-250 -9.5q-171 0 -256 19q-50 12 -79 39t-29 61q0 43 40 70q40 26 40 44q0 50 -116 203q-15 19 -26 19q-10 0 -23 -16q-48 -58 -84.5 -116t-36.5 -75
q0 -16 41 -48q40 -30 40 -76q0 -69 -78 -93q-102 -32 -243 -32q-160 0 -246 27q-35 11 -59 41t-24 63q0 44 29.5 69t84.5 27q66 2 112 39.5t160 181.5l155 194q13 16 13 25q0 6 -13 22l-256 327q-60 78 -79 95t-61 30q-60 19 -78 35q-34 31 -34 74q0 90 142 122
q150 34 339 34q199 0 270 -26q31 -11 50 -38t19 -59q0 -50 -37 -76q-23 -16 -27.5 -21t-4.5 -16q0 -23 37 -71t55 -48q16 0 58 51t42 71q0 12 -5.5 18t-38.5 31q-30 22 -30 66q0 63 78 91t254 28q129 0 199 -21q88 -26 88 -104q0 -52 -45 -78q-18 -10 -94 -15
q-50 -4 -102.5 -44t-122.5 -129l-118 -148q-13 -17 -13 -25q0 -6 13 -22z" />
    <glyph glyph-name="Y" unicode="Y" horiz-adv-x="1597" 
d="M439 1386q196 0 299 -21q47 -9 75.5 -35.5t28.5 -60.5q0 -26 -22 -53q-32 -41 -32 -59q0 -36 57 -115q37 -51 70 -51q21 0 41 15.5t52 55.5q39 49 39 78q0 18 -4.5 27t-32.5 43q-20 23 -20 62q0 113 306 113q173 0 225 -16q33 -10 54.5 -38t21.5 -60q0 -41 -25 -62
t-87 -32q-57 -11 -99 -43.5t-154 -152.5q-136 -147 -169.5 -216.5t-33.5 -207.5q0 -116 9 -215q5 -61 19 -84.5t58 -46.5q73 -38 73 -95q0 -136 -402 -136q-165 0 -312 32q-124 27 -124 107q0 62 76 89q57 20 71 51q32 69 32 326q0 80 -16 124.5t-70 115.5
q-113 147 -233 265q-52 51 -100 69q-68 25 -82 37q-28 24 -28 64q0 67 101 96.5t338 29.5z" />
    <glyph glyph-name="Z" unicode="Z" horiz-adv-x="1405" 
d="M1255 1207l-442 -762q-75 -130 -75 -156q0 -46 136 -46q53 0 107 11.5t79 27.5q51 34 101 144q20 43 39 59t51 16q70 0 105 -39.5t35 -117.5q0 -160 -84 -279q-59 -83 -112 -83q-15 0 -40 4q-73 14 -138 14h-869q-59 0 -70.5 2t-23.5 14q-20 21 -20 56q0 32 28 80
l515 873q23 39 23 54q0 57 -114 57q-98 0 -141.5 -32t-98.5 -145q-42 -87 -97 -87q-53 0 -94 49t-41 113q0 102 85 245q60 100 97 100q9 0 26 -6q60 -21 265 -21q92 0 421 20q280 16 287 16q43 0 69.5 -25t26.5 -66q0 -27 -36 -90z" />
    <glyph glyph-name="bracketleft" unicode="[" horiz-adv-x="1021" 
d="M626 1050v-1123q0 -93 22 -118t105 -25q23 0 74 5q28 3 48 3q42 0 67.5 -19t25.5 -50q0 -26 -17.5 -50.5t-43.5 -34.5q-68 -27 -312 -27q-227 0 -272 29q-71 45 -71 287v1136q0 244 66 291q45 32 265 32q177 0 265 -13q116 -17 116 -95q0 -72 -105 -72q-13 0 -65 4
q-32 2 -63 2q-72 0 -88.5 -25.5t-16.5 -136.5z" />
    <glyph glyph-name="backslash" unicode="\" horiz-adv-x="966" 
d="M639 48l-361 820q-55 131 -173 357q-25 47 -25 81q0 79 166 79q45 0 66 -18.5t41 -73.5q15 -44 46 -117q40 -94 93 -228l360 -823q44 -101 93 -196q79 -151 92 -180t13 -53q0 -42 -55 -64q-49 -21 -103 -21q-60 0 -94 55q-14 23 -61 147q-25 69 -98 235z" />
    <glyph glyph-name="bracketright" unicode="]" horiz-adv-x="1021" 
d="M396 -54v1123q0 94 -22 119t-105 25q-24 0 -74 -6q-28 -3 -48 -3q-42 0 -67.5 19t-25.5 50q0 27 17.5 51.5t43.5 34.5q68 27 312 27q227 0 272 -29q71 -45 71 -288v-1135q0 -244 -66 -291q-45 -32 -265 -32q-176 0 -265 13q-116 17 -116 95q0 72 105 72q15 0 65 -4
q34 -2 63 -2q72 0 88.5 25.5t16.5 135.5z" />
    <glyph glyph-name="asciicircum" unicode="^" 
d="M387 671h-388l266 706h494l266 -706h-387l-125 405z" />
    <glyph glyph-name="underscore" unicode="_" 
d="M0 -109h1024v-257h-1024v257z" />
    <glyph glyph-name="grave" unicode="`" 
d="M395 1430q71 0 116.5 -16.5t45.5 -42.5q0 -8 -10 -27q-5 -9 -5 -18q0 -14 10 -24.5t55 -43.5q50 -38 60.5 -51.5t10.5 -40.5q0 -74 -103 -74q-183 0 -334 117q-85 65 -85 112t68 78t171 31z" />
    <glyph glyph-name="a" unicode="a" horiz-adv-x="1161" 
d="M609 997q174 0 295 -88q64 -47 89.5 -107.5t25.5 -166.5l-2 -149q0 -155 22 -201q11 -22 21 -28t42 -11t32 -42q0 -48 -38.5 -100t-99.5 -87q-75 -44 -157 -44q-105 0 -166 72q-21 26 -39 26q-20 0 -53 -25q-100 -73 -227 -73q-131 0 -212 56q-53 37 -84 96.5t-31 124.5
q0 104 84 184q131 126 392 127q58 0 73 11.5t15 53.5q0 106 -22 153.5t-72 47.5q-30 0 -53.5 -18t-58.5 -66q-89 -127 -186 -127q-49 0 -80 29t-31 76q0 48 38.5 96t104.5 84q181 96 378 96zM542 418q-44 0 -76.5 -36t-32.5 -86q0 -48 23 -77.5t61 -29.5q80 0 80 135
q0 55 -11.5 74t-43.5 20z" />
    <glyph glyph-name="b" unicode="b" horiz-adv-x="1295" 
d="M582 1305l-13 -390v-22q0 -20 13 -20q7 0 40 27q117 96 258 96q140 0 247 -101q134 -127 134 -331q0 -291 -217 -465q-156 -126 -366 -126q-104 0 -187.5 26.5t-182.5 90.5q-15 9 -24 9q-11 0 -62 -19q-26 -10 -61 -10q-62 0 -62 40q0 13 5 30q20 65 27 161t7 304v276
q0 103 -8 129t-45 41q-52 22 -72 43.5t-20 54.5q0 67 143 131q78 34 194.5 59.5t199.5 25.5q53 0 52 -60zM668 695q-54 0 -78 -37q-19 -28 -19 -114q0 -235 16 -317q14 -76 85 -76q73 0 111 62t38 180q0 174 -64 254q-37 46 -89 48z" />
    <glyph glyph-name="c" unicode="c" horiz-adv-x="1078" 
d="M608 996q178 0 314 -89q129 -85 129 -211q0 -87 -60 -141q-56 -51 -135 -51q-83 0 -125 60q-13 19 -38 97q-27 84 -103 84q-55 0 -92.5 -48t-37.5 -118q0 -120 86 -213q70 -75 176 -75q50 0 84 8.5t89 34.5q14 7 31 7q34 0 60 -32t26 -75q0 -45 -37 -94.5t-97 -86.5
q-130 -80 -307 -80q-206 0 -351 120q-186 152 -186 387q0 226 173 374q165 142 401 142z" />
    <glyph glyph-name="d" unicode="d" horiz-adv-x="1332" 
d="M1207 1285v-913q0 -78 6.5 -100t36.5 -43q36 -25 48.5 -44t12.5 -46q0 -80 -161 -122q-145 -37 -290 -37q-32 0 -41.5 9.5t-12.5 45.5q-5 51 -36 51q-17 0 -53 -30q-102 -83 -227 -83q-155 0 -279 115q-73 69 -118 159q-60 117 -60 237q0 141 78 272q72 121 196 186
q104 54 205 54q116 0 208 -52q15 -8 24 -8q32 0 32 86q0 37 -17.5 56.5t-62.5 33.5q-63 20 -63 70q0 73 145 114q256 71 343 71q86 0 86 -82zM664 782q-65 0 -103 -69q-51 -92 -51 -242q0 -136 49 -205q35 -50 95 -50q65 0 94.5 75.5t29.5 243.5q0 154 -35 205
q-27 40 -79 42z" />
    <glyph glyph-name="e" unicode="e" horiz-adv-x="1086" 
d="M962 448h-470q-31 0 -31 -27q0 -65 70.5 -122.5t151.5 -57.5q48 0 106.5 18.5t96.5 45.5q34 24 54 24q26 0 51 -32t25 -66q0 -72 -90 -139q-159 -119 -367 -119q-210 0 -352 122q-69 60 -114 145q-59 113 -59 238q0 168 102 302q88 116 224 173q102 43 221 43
q190 0 323 -108q67 -54 108 -128q47 -84 47 -164q0 -65 -27 -106.5t-70 -41.5zM518 635h101q64 0 64 59q0 54 -31 88t-81 34q-56 0 -88 -44q-30 -41 -30 -83q0 -30 14.5 -42t50.5 -12z" />
    <glyph glyph-name="f" unicode="f" horiz-adv-x="869" 
d="M627 810h124q31 0 44.5 -9.5t11.5 -31.5l-8 -119q-2 -36 -11 -45.5t-40 -9.5q-7 0 -33 2q-18 1 -30 1q-42 0 -57 -27.5t-15 -104.5q0 -105 23 -177q9 -31 26 -45.5t56 -25.5q88 -26 88 -97q0 -75 -102.5 -108t-336.5 -33q-347 0 -347 138q0 34 14.5 50t63.5 37
q53 24 64 89q17 98 17 210q0 50 -17.5 69.5t-63.5 18.5q-54 0 -69 5.5t-14 26.5l8 126q2 31 10.5 38.5t47.5 9.5q37 2 37 36q0 14 -27 64q-46 83 -46 166q0 122 84 199q123 113 353 113q189 0 302 -89q87 -69 87 -159q0 -65 -43 -109.5t-107 -44.5q-72 0 -138 50
q-16 13 -76 79q-43 46 -86 46q-28 0 -48 -20t-20 -49q0 -79 150 -169q46 -28 62.5 -44t29.5 -45q7 -12 32 -12z" />
    <glyph glyph-name="g" unicode="g" horiz-adv-x="1184" 
d="M1101 1050q25 0 44 -28.5t19 -66.5q0 -41 -25.5 -93t-61.5 -83q-23 -20 -23 -32q0 -3 2 -24q3 -21 3 -38q0 -119 -80 -200q-72 -72 -185.5 -112t-249.5 -40q-33 0 -65 4q-26 3 -40 3q-53 0 -53 -53q0 -34 34.5 -53.5t93.5 -19.5q40 0 118 11q164 23 242 23q118 0 183 -39
q52 -30 82.5 -84t30.5 -116q0 -101 -74 -196q-88 -112 -259 -166q-134 -42 -310 -42q-222 0 -360 68q-64 32 -102 84t-38 108q0 39 21.5 72t54.5 47q30 12 30 26q0 11 -25 32q-80 67 -80 139q0 48 38.5 99t95.5 79q24 12 24 24q0 14 -30 42q-103 95 -103 222q0 67 36.5 128
t101.5 104q161 105 357 105q78 0 174 -20q91 -18 125 -18q109 0 217 86q24 18 37 18zM558 843q-50 0 -80.5 -38t-30.5 -101q0 -108 33 -173t87 -65q53 0 84 40.5t31 108.5q0 107 -32.5 166.5t-91.5 61.5zM340 -67q-25 0 -25 -29q0 -59 64 -95.5t166 -36.5q98 0 153.5 26
t55.5 73q0 25 -21 42.5t-52 17.5q-16 0 -46 -4q-56 -9 -125 -9q-51 0 -98 5q-35 3 -57 8q-10 2 -15 2z" />
    <glyph glyph-name="h" unicode="h" horiz-adv-x="1390" 
d="M594 1316l-13 -419q-2 -75 46 -75q24 0 47 33q97 141 259 141q159 0 253 -97q42 -43 59.5 -102t19.5 -169l9 -361q1 -47 12.5 -69t53.5 -55q29 -23 29 -55q0 -108 -326 -108q-290 0 -290 101q0 17 5 26t35 48q42 55 42 275q0 133 -25 194q-33 83 -118 83q-61 0 -90 -44
q-21 -32 -21 -120v-193q7 -128 12 -145t46 -63q19 -21 19 -49q0 -113 -294 -113q-344 0 -344 117q0 27 11 41.5t54 44.5q38 27 52.5 145.5t14.5 392.5q0 215 -12 298q-4 31 -14.5 45.5t-39.5 29.5q-62 32 -62 74q0 50 47 81t180 67q180 50 287 50q58 0 56 -50z" />
    <glyph glyph-name="i" unicode="i" horiz-adv-x="730" 
d="M594 927v-581q0 -69 12.5 -101t50.5 -59q31 -22 41.5 -37.5t10.5 -39.5q0 -129 -327 -129q-176 0 -279 28q-35 10 -56.5 35t-21.5 57q0 27 11 42t56 48q31 23 44 75t13 155q0 33 -4.5 123.5t-6.5 105.5q-6 41 -56 63q-62 27 -62 80q0 63 81 94q112 43 240 73t198 30
q55 0 55 -62zM396 1365q87 0 138 -32.5t51 -87.5q0 -77 -77 -122q-122 -71 -295 -71q-73 0 -116 28q-58 36 -58 100q0 86 123 135q125 50 234 50z" />
    <glyph glyph-name="j" unicode="j" horiz-adv-x="756" 
d="M620 910v-886q0 -135 -21 -208t-72 -116q-52 -43 -135.5 -69.5t-169.5 -26.5q-98 0 -163.5 39t-65.5 97q0 26 18.5 45t44.5 19q12 0 32 -3t25 -3q18 0 32.5 17t14.5 38q0 10 -3 28q-7 37 -7 69v635q0 45 -15.5 70t-53.5 40q-57 23 -57 69q0 53 46 91.5t150 71.5
q74 23 180 43t157 20q35 0 49 -18t14 -62zM408 1365q87 0 138 -32.5t51 -87.5q0 -77 -77 -122q-122 -71 -295 -71q-72 0 -116 28q-58 37 -58 100q0 86 123 135q125 50 234 50z" />
    <glyph glyph-name="k" unicode="k" horiz-adv-x="1503" 
d="M617 1316l-9 -313q-1 -47 -1 -138q0 -101 3 -119q7 -41 42 -41q30 0 92 38.5t62 57.5q0 11 -22 40q-16 21 -16 40q0 108 266 108q138 0 218 -28q32 -11 53 -38t21 -58q0 -45 -43 -63q-9 -4 -58 -13q-44 -8 -114 -54.5t-70 -67.5q0 -14 84.5 -131.5t157.5 -204.5
q47 -57 73.5 -80t73.5 -49q72 -39 72 -89q0 -53 -45.5 -83t-124.5 -30h-324q-61 1 -95 45l-166 213q-66 84 -80.5 100t-24.5 16q-12 0 -16 -18t-4 -68q0 -45 10 -65.5t46 -49.5q26 -21 26 -62q0 -70 -74 -101t-244 -31q-200 0 -260 17q-34 10 -58 40.5t-24 64.5q0 38 42 66
q36 23 46 35t16 38q23 140 22 432v219q0 112 -11.5 143t-56.5 37q-82 11 -82 68q0 38 36 68.5t118 60.5q262 97 388 97q57 0 55 -49z" />
    <glyph glyph-name="l" unicode="l" horiz-adv-x="748" 
d="M609 793v-321q0 -213 6.5 -248t49.5 -54q37 -16 49.5 -30t12.5 -40q0 -33 -23.5 -60t-62.5 -38q-72 -22 -243 -22q-193 0 -271 29q-36 13 -59 40.5t-23 57.5q0 24 12.5 37t54.5 31q39 17 48 93q16 130 16 370q0 244 -14 314t-70 104q-42 24 -57.5 45.5t-15.5 52.5
q0 49 47 85.5t150 67.5q69 21 179 40t160 19q79 0 79 -98q0 -32 -10 -147q-13 -179 -15 -328z" />
    <glyph glyph-name="m" unicode="m" horiz-adv-x="1975" 
d="M523 989q57 0 57 -81v-17q-1 -16 -1 -26q0 -54 32 -54q17 0 53 43q54 62 136 98.5t168 36.5q167 0 232 -122q25 -45 41 -45q11 0 52 40q130 127 295 127q129 0 211 -71q86 -74 86 -222q0 -32 -2 -108q-2 -26 -2 -157q0 -84 -1 -118q-1 -21 -1 -30q0 -64 40 -112
q24 -29 29.5 -38.5t5.5 -25.5q0 -128 -301 -128q-133 0 -214.5 32t-81.5 84q0 20 5.5 30.5t38.5 55.5q31 41 31 273q0 135 -19 188q-22 63 -88 63q-33 0 -58.5 -20.5t-33.5 -51.5q-9 -36 -10 -192q3 -168 10.5 -204t50.5 -100q10 -15 10 -38q0 -119 -311 -119
q-187 0 -252 28q-52 22 -52 78q0 25 6.5 35t44.5 46q22 21 28.5 39.5t9.5 67.5q7 110 7 222q0 196 -100 196q-75 0 -89 -84q-12 -79 -12 -226q0 -110 4.5 -144t24.5 -71q24 -43 24 -70q0 -65 -91 -90q-99 -27 -218 -27q-154 0 -226 24.5t-72 77.5q0 20 9.5 34t43.5 44
q45 41 52 113q11 124 11 257q0 95 -9.5 132.5t-40.5 60.5q-30 23 -38.5 35t-8.5 33q0 67 105 106q253 91 379 92z" />
    <glyph glyph-name="n" unicode="n" horiz-adv-x="1374" 
d="M1251 627l14 -352q2 -40 12.5 -59t61.5 -73q15 -16 15 -45q0 -66 -79 -92t-282 -26q-138 0 -195 24q-59 25 -59 81q0 20 6 29.5t40 46.5q40 42 40 280q0 138 -32 204q-26 53 -96 53q-67 0 -92 -43t-25 -156v-198q0 -59 7.5 -81t49.5 -85q11 -18 11 -41q0 -59 -82 -87
t-256 -28q-278 0 -278 115q0 24 8.5 36.5t40.5 35.5q26 19 33 43.5t13 120.5q7 114 7 239q0 69 -10.5 90.5t-60.5 52.5q-43 27 -43 66q0 40 35 65.5t144 64.5q96 34 185 57.5t122 23.5q30 0 50.5 -22t20.5 -52q0 -3 -1 -25q-1 -8 -1 -14q0 -48 40 -48q24 0 51 38
q86 124 250 124q126 0 216 -66q63 -47 88 -110.5t31 -186.5z" />
    <glyph glyph-name="o" unicode="o" horiz-adv-x="1233" 
d="M657 997q183 0 321 -95q99 -68 159 -177q62 -114 62 -238q0 -217 -199 -369q-190 -145 -435 -145q-239 0 -387 136q-144 132 -144 344q0 236 176 386q184 158 447 158zM577 766q-44 0 -70.5 -32.5t-26.5 -86.5q0 -60 22.5 -163.5t53.5 -183.5q31 -82 101 -82q89 0 89 113
q0 84 -22.5 191t-54.5 174q-33 68 -92 70z" />
    <glyph glyph-name="p" unicode="p" horiz-adv-x="1363" 
d="M528 991q61 0 76 -10.5t15 -52.5q0 -37 24 -37q10 0 67 38q43 29 109.5 48.5t120.5 19.5q127 0 227 -88q76 -67 118 -169q44 -107 44 -225q0 -252 -170 -415q-131 -127 -298 -127q-85 0 -175 40q-18 8 -29 8q-30 0 -30 -60q0 -79 53 -114q49 -33 58.5 -44.5t9.5 -38.5
q0 -60 -67 -92.5t-189 -32.5q-217 0 -380 87q-83 44 -83 109q0 30 12.5 45.5t48.5 32.5q52 24 63.5 87t17.5 362q-7 246 -18 276q-4 10 -11.5 13t-49.5 11q-32 6 -52 29.5t-20 56.5q0 40 28 70.5t91 59.5q245 111 389 113zM627 613l-15 -275q-1 -17 -1 -33q0 -31 27 -50
t72 -19q138 0 138 227q0 147 -58 207q-36 37 -86 37q-71 0 -77 -94z" />
    <glyph glyph-name="q" unicode="q" horiz-adv-x="1327" 
d="M619 996q66 0 106.5 -6t158.5 -34q32 -7 62 -7q36 0 106 25q61 22 100 22q88 0 88 -71q0 -37 -7 -89q-13 -93 -23 -288t-10 -355q0 -198 11 -280q6 -37 14.5 -52t39.5 -38q42 -32 42 -79q0 -128 -264 -128q-200 0 -333 56q-46 19 -74.5 51t-28.5 65q0 29 13.5 43t65.5 39
q59 29 59 118q0 51 -27 51q-14 0 -82 -34q-65 -32 -162 -32q-196 0 -314 141q-126 152 -126 377q0 229 162 367q161 137 423 138zM649 777q-43 0 -80 -47q-48 -62 -48 -189q0 -154 53 -243q43 -73 102 -73q50 0 68 50q18 49 18 197q0 137 -10 194.5t-37 83.5q-29 26 -66 27z
" />
    <glyph glyph-name="r" unicode="r" horiz-adv-x="1095" 
d="M505 990q53 0 64.5 -15t20.5 -96q5 -44 31 -44q20 0 38 29q80 125 209 125q91 0 149 -59q28 -29 46 -74.5t18 -87.5q0 -47 -22 -96.5t-57 -81.5q-64 -61 -157 -61q-51 0 -85.5 18t-90.5 73q-21 21 -39 21q-28 0 -36.5 -31.5t-8.5 -132.5q0 -151 11 -206q7 -30 19.5 -41.5
t53.5 -23.5q90 -27 90 -94q0 -41 -29 -71.5t-77 -40.5q-96 -20 -282 -20q-177 0 -269 31q-82 28 -82 97q0 52 60 93q29 19 40 34.5t15 42.5q16 91 16 337q0 45 -10 64.5t-40 31.5q-71 28 -71 81q0 48 49 82.5t164 68.5q154 46 262 47z" />
    <glyph glyph-name="s" unicode="s" horiz-adv-x="976" 
d="M438 996q50 0 163 -22q23 -4 38 -4q17 0 66 18q23 9 39 9q46 0 93 -59q38 -47 62 -103t24 -97q0 -40 -28 -66.5t-70 -26.5q-35 0 -62.5 17t-88.5 75q-64 62 -106 62q-28 0 -48.5 -20.5t-20.5 -48.5q0 -49 94 -92q169 -76 259 -166q76 -76 76 -186q0 -139 -122 -232
q-105 -81 -257 -81q-39 0 -142 13q-97 11 -109 11q-13 0 -30 -3q-29 -4 -42 -4q-47 0 -74 24q-41 37 -76 116.5t-35 136.5q0 92 72 92q28 0 51.5 -18.5t98.5 -98.5q41 -44 68 -60.5t58 -16.5q33 0 53 17.5t20 46.5q0 45 -77 82q-161 79 -232.5 163t-71.5 194q0 119 73 205
q104 123 284 123z" />
    <glyph glyph-name="t" unicode="t" horiz-adv-x="948" 
d="M632 734v-338q0 -60 29.5 -98t75.5 -38q39 0 103 36q15 9 30 9q24 0 44 -29t20 -63q0 -62 -68 -119q-142 -121 -344 -121q-160 0 -257 90.5t-97 238.5v462q0 23 -5.5 28.5t-28.5 5.5h-103q-29 0 -37 9.5t-8 44.5v44q1 30 23 44l458 288q17 9 42 9h81q25 0 33.5 -11.5
t8.5 -45.5v-135q0 -30 9.5 -39t40.5 -9h185q37 0 48 -13.5t11 -57.5v-59q0 -48 -14 -66.5t-51 -18.5h-181q-28 0 -38 -10t-10 -38z" />
    <glyph glyph-name="u" unicode="u" horiz-adv-x="1388" 
d="M586 939v-542q0 -174 115 -174q29 0 57 16.5t39 40.5q22 48 22 214q0 164 -11 224q-4 25 -14 36.5t-38 26.5q-57 30 -57 76q0 62 98 86q186 46 367 46q101 0 101 -107q0 -11 -1 -45q-2 -48 -3 -117v-441q0 -34 58 -62q49 -24 49 -70q0 -90 -213 -139q-125 -29 -242 -29
q-48 0 -65.5 11t-20.5 43q-5 62 -38 62q-12 0 -22 -5.5t-61 -40.5q-101 -69 -217 -69q-192 0 -271 111q-67 93 -67 313q0 82 1 140v46q0 86 -15.5 126.5t-56.5 63.5q-39 20 -49.5 32t-10.5 33q0 76 115 101q196 43 392 43q59 0 59 -50z" />
    <glyph glyph-name="v" unicode="v" horiz-adv-x="1285" 
d="M1084 683l-259 -504q-60 -117 -102 -162.5t-90 -45.5q-47 0 -76 34q-61 68 -107 154l-284 539q-23 44 -44.5 63.5t-59.5 29.5q-76 22 -76 82q0 61 94 89t297 28q170 0 250.5 -24.5t80.5 -75.5q0 -36 -38 -69q-24 -22 -31 -33t-7 -28q0 -34 44 -113q44 -77 82 -77
q25 0 41 19t58 98q31 58 31 88q0 24 -32 57q-34 36 -34 67q0 48 63.5 69t208.5 21q204 0 204 -88q0 -51 -73 -74q-57 -18 -77.5 -39t-63.5 -105z" />
    <glyph glyph-name="w" unicode="w" horiz-adv-x="2025" 
d="M1188 173l-103 165q-36 56 -46.5 67t-27.5 11q-36 0 -74 -66l-167 -288q-48 -83 -108 -83q-37 0 -68 25.5t-67 86.5l-300 499q-75 121 -117 158q-20 16 -73 31q-22 7 -36.5 27.5t-14.5 45.5q0 77 119 108q120 30 262 30q319 0 319 -119q0 -22 -31 -67q-6 -9 -6 -19
q0 -22 47 -109q52 -99 90 -99q22 0 56 50t34 81t-15 49.5t-71 58.5q-34 24 -34 57q0 78 160 102q97 15 228 15q151 0 218 -25.5t67 -82.5q0 -23 -8 -37t-43 -50q-11 -12 -11 -31q0 -27 46 -114q40 -76 73 -76q36 0 91 97q40 73 40 97q0 19 -32 59q-23 28 -23 61q0 52 47 72
q66 29 192 29q85 0 151 -13q38 -8 62 -32.5t24 -56.5t-28 -54q-5 -5 -70 -28q-37 -14 -61 -40t-58 -93l-250 -484q-110 -212 -194 -212q-36 0 -79.5 45.5t-109.5 151.5z" />
    <glyph glyph-name="x" unicode="x" horiz-adv-x="1232" 
d="M351 560l-85 106q-55 69 -86 93t-78 34q-79 17 -79 76q0 61 101.5 90.5t313.5 29.5q154 0 229 -17q83 -20 83 -80q0 -23 -33 -75q-6 -10 -6 -21q0 -21 31.5 -61t47.5 -40q18 0 53 44.5t35 66.5q0 16 -22 48q-19 28 -19 44q0 22 16.5 43t41.5 31q45 18 152 18
q93 0 129 -18q50 -26 50 -74q0 -26 -14 -39t-71 -40q-31 -15 -47 -33.5t-111 -146.5l-69 -104q-12 -17 -12 -23q0 -4 11 -22l60 -91q96 -145 142 -189q22 -21 71 -43q46 -20 46 -68q0 -68 -84 -93.5t-307 -25.5q-171 0 -239 16q-90 22 -90 93q0 42 52 66q29 13 29 44
q0 33 -41 90.5t-64 56.5q-24 -1 -71 -72t-47 -107q0 -17 24 -46q21 -24 21 -54q0 -87 -205 -87q-112 0 -161 22t-49 72q0 32 15.5 46.5t57.5 22.5q44 8 67 36t142 216l72 119q10 16 10 23q0 6 -13 23z" />
    <glyph glyph-name="y" unicode="y" horiz-adv-x="1268" 
d="M991 504l-132 -363q-49 -135 -98.5 -220.5t-112.5 -145.5q-130 -124 -313 -124q-148 0 -240 78q-71 60 -71 153q0 77 49.5 129.5t121.5 52.5t116 -48q21 -22 28 -39t21 -75q11 -44 50 -44q31 0 52 27t21 67q0 47 -52 157l-241 513q-38 80 -57 100t-84 49
q-20 8 -34.5 31.5t-14.5 45.5q0 89 177 121q118 21 269 21q106 0 167 -22q82 -29 82 -99q0 -25 -23 -59q-22 -32 -22 -57q0 -24 10.5 -50t44.5 -88q38 -70 67 -70q31 0 64 61.5t33 118.5q0 46 -25 75q-38 45 -38 77q0 51 68 81.5t182 30.5q212 0 212 -102q0 -37 -21.5 -59.5
t-78.5 -42.5q-48 -18 -76 -60q-44 -67 -101 -221z" />
    <glyph glyph-name="z" unicode="z" horiz-adv-x="1053" 
d="M549 971h265q92 0 117.5 -3.5t38.5 -17.5q17 -17 17 -45q0 -37 -33 -95l-265 -471q-33 -59 -33 -83q0 -47 71 -47q51 0 81.5 20.5t57.5 71.5q23 46 38 61.5t36 15.5q44 0 72 -35t28 -90q0 -62 -34 -132.5t-86 -117.5q-39 -35 -74 -35q-15 0 -39 10q-49 21 -116 22h-524
q-133 0 -133 77q0 17 10 36t70 119l229 368q64 102 64 129q0 40 -84 40q-43 0 -68.5 -16.5t-54.5 -61.5q-33 -54 -50.5 -69.5t-46.5 -15.5q-39 0 -64 30.5t-25 77.5q0 90 61 194q58 99 111 99q12 0 32 -7q55 -19 87.5 -22t243.5 -7z" />
    <glyph glyph-name="braceleft" unicode="{" horiz-adv-x="1021" 
d="M626 239v-249q0 -130 11 -151q12 -27 47.5 -37.5t107.5 -10.5q4 0 43 1q14 1 24 1q109 0 109 -70q0 -81 -115 -99q-86 -13 -284 -13q-173 0 -245 67t-72 228v313q0 90 -22.5 127.5t-90.5 56.5q-68 21 -68 95q0 75 68 95t90.5 57t22.5 127v314q0 160 72 227t245 67
q220 0 302 -16q46 -9 71.5 -34.5t25.5 -60.5q0 -70 -109 -70h-24q-38 1 -45 1q-93 0 -128 -20q-31 -17 -35 -69q-1 -16 -1 -110v-248q-2 -181 -97 -241q-8 -6 -8 -15q0 -14 34 -42q35 -30 53 -85.5t18 -135.5z" />
    <glyph glyph-name="bar" unicode="|" 
d="M286 1365h451v-1706h-451v1706z" />
    <glyph glyph-name="braceright" unicode="}" horiz-adv-x="1021" 
d="M396 758v248q0 130 -11 151q-12 27 -47.5 37.5t-107.5 10.5q-5 0 -43 -1h-24q-109 0 -109 70q0 81 115 98q87 13 284 13q173 0 245 -67t72 -227v-314q0 -90 22.5 -127t90.5 -57t68 -95q0 -61 -47 -86q-8 -5 -49 -17q-56 -22 -72 -67q-13 -33 -13 -109v-313
q0 -161 -72 -228t-245 -67q-221 0 -302 16q-46 9 -71.5 34.5t-25.5 61.5q0 70 109 70q13 0 69 -2q95 2 128 20q25 14 30.5 40.5t5.5 138.5v249q0 93 21.5 146.5t75.5 93.5q8 6 8 15q0 14 -34 42q-35 30 -53 85.5t-18 136.5z" />
    <glyph glyph-name="asciitilde" unicode="~" horiz-adv-x="1365" 
d="M398 440l-211 179q44 116 86 179q98 148 245 148q36 0 64 -7.5t161 -51.5q104 -36 127 -36q32 0 51.5 19t53.5 82l211 -179q-41 -103 -70 -153.5t-71 -93.5q-81 -83 -189 -83q-31 0 -63 9t-161 52q-105 37 -131 37q-50 0 -103 -101z" />
    <glyph glyph-name="Adieresis" unicode="&#xc4;" horiz-adv-x="1693" 
d="M1332 691l189 -405q27 -56 45 -73.5t55 -23.5q72 -11 72 -73q0 -73 -88 -105t-288 -32q-226 0 -335 19q-50 9 -79.5 36.5t-29.5 66.5q0 30 15.5 46.5t57.5 30.5q47 16 47 54q0 67 -81 79q-87 12 -245 12q-133 0 -159 -16q-16 -10 -28 -36t-12 -50q0 -22 8.5 -28.5
t55.5 -21.5q61 -18 61 -72q0 -119 -285 -119q-162 0 -238 22q-70 21 -70 92q0 31 15.5 48t55.5 31q65 23 98.5 64.5t95.5 177.5l141 309q78 170 104.5 254.5t27.5 165.5q1 86 10.5 119.5t42.5 65.5q69 70 176 70q101 0 193 -79q128 -108 372 -629zM636 565h196q54 0 54 24
q0 33 -75 162q-34 59 -52 79t-38 20q-36 0 -60 -67q-4 -9 -29 -71q-42 -102 -42 -122q0 -25 46 -25zM574 1825q76 0 119 -36t43 -98q0 -83 -72 -130q-102 -66 -225 -66q-68 0 -110 36.5t-42 96.5q0 76 63 124q43 33 106.5 53.5t117.5 19.5zM1148 1839q75 0 118 -35.5
t43 -98.5q0 -84 -72 -130q-103 -66 -225 -66q-68 0 -110 36.5t-42 96.5q0 76 63 124q43 33 106.5 53.5t118.5 19.5z" />
    <glyph glyph-name="Aring" unicode="&#xc5;" horiz-adv-x="1693" 
d="M1332 691l189 -405q27 -56 45 -73.5t55 -23.5q72 -11 72 -73q0 -73 -88 -105t-288 -32q-226 0 -335 19q-50 9 -79.5 36.5t-29.5 66.5q0 30 15.5 46.5t57.5 30.5q47 16 47 54q0 67 -81 79q-87 12 -245 12q-133 0 -159 -16q-16 -10 -28 -36t-12 -50q0 -22 8.5 -28.5
t55.5 -21.5q61 -18 61 -72q0 -119 -285 -119q-162 0 -238 22q-70 21 -70 92q0 31 15.5 48t55.5 31q65 23 98.5 64.5t95.5 177.5l141 309q78 170 104.5 254.5t27.5 165.5q1 86 10.5 119.5t42.5 65.5q69 70 176 70q101 0 193 -79q128 -108 372 -629zM636 565h196q54 0 54 24
q0 33 -75 162q-34 59 -52 79t-38 20q-36 0 -60 -67q-4 -9 -29 -71q-42 -102 -42 -122q0 -25 46 -25zM797 1880q135 0 218 -48q37 -21 60 -62.5t23 -86.5q0 -100 -77.5 -154t-219.5 -54q-301 0 -301 199q0 98 78 152t219 54zM798 1788q-46 0 -72 -30.5t-26 -85.5
q0 -48 26.5 -78t68.5 -30q46 0 73.5 31.5t27.5 84.5q0 106 -98 108z" />
    <glyph glyph-name="Ccedilla" unicode="&#xc7;" horiz-adv-x="1475" 
d="M736 -155l-44 107q-8 21 -17 27.5t-34 11.5q-103 19 -195 64q-171 83 -280 250q-118 179 -118 381q0 221 138 402q121 160 305 241q145 63 305 63q141 0 290 -64q67 -29 88 -29q18 0 61 10q10 3 26 3q52 0 89 -45q98 -118 98 -291q0 -121 -83 -177q-46 -31 -103 -31
q-49 0 -81.5 22.5t-62.5 77.5q-42 78 -69.5 114t-68.5 64q-96 68 -202 68q-102 0 -162.5 -74.5t-60.5 -199.5q0 -174 87 -317q118 -190 336 -190q82 0 160 26t124 69q40 37 66 37q34 0 58.5 -32.5t24.5 -77.5q0 -53 -31.5 -122.5t-72.5 -107.5q-22 -20 -41.5 -29t-54.5 -13
q-33 -6 -123 -48q-55 -25 -129 -43q-53 -13 -70 -14q-28 0 -28 -20q0 -16 26 -69l70 -134q31 -60 31 -94q0 -62 -60 -96t-169 -34q-116 0 -182.5 31t-66.5 85q0 44 31.5 68t92.5 26q65 2 89.5 14t24.5 41q0 21 -12 49z" />
    <glyph glyph-name="Eacute" unicode="&#xc9;" horiz-adv-x="1415" 
d="M247 1365h514q156 0 227.5 6.5t139.5 26.5q21 6 33 6q52 0 92 -56q66 -91 66 -220q0 -65 -27.5 -102.5t-75.5 -37.5q-33 0 -51.5 13.5t-49.5 60.5q-44 67 -111.5 89.5t-221.5 22.5q-115 0 -140 -41q-13 -22 -15.5 -59t-2.5 -189q0 -60 20 -74.5t105 -14.5q42 0 61 17.5
t24 62.5q7 58 14.5 79.5t27.5 37.5q21 18 49 18q41 0 70 -39q21 -29 35.5 -102.5t14.5 -153.5q0 -158 -49 -259q-27 -55 -82 -55q-34 0 -47 17.5t-20 72.5q-15 113 -132 113q-45 0 -61.5 -28.5t-16.5 -105.5q0 -47 6.5 -121.5t13.5 -98.5q8 -30 49.5 -41.5t138.5 -11.5
q150 0 226 38.5t124 139.5q28 58 50.5 78t58.5 20q42 0 69.5 -36.5t27.5 -91.5q0 -60 -31 -150t-76 -160q-23 -34 -38 -45.5t-38 -11.5q-19 0 -55 6q-64 12 -171 15h-848q-51 0 -79 22.5t-28 63.5q0 29 12 42t55 33q30 13 44.5 32t22.5 56q33 151 33 407q0 386 -48 487
q-10 20 -22 28t-50 19q-57 17 -57 76q0 32 19 57t50 33q39 9 151 9zM776 1812q91 0 162 -27q35 -13 57 -37t21 -48q-2 -45 -85 -109q-151 -116 -334 -116q-103 0 -103 74q0 26 10.5 39.5t60.5 52.5q45 32 55 42.5t10 25.5q0 8 -12 29q-4 7 -4 15q0 26 45 42t117 17z" />
    <glyph glyph-name="Ntilde" unicode="&#xd1;" horiz-adv-x="1700" 
d="M590 1317l498 -436q70 -61 101 -61q52 0 52 111q0 126 -15 172t-63 69q-39 19 -55 40.5t-16 55.5q0 84 115 108q47 10 164 10q151 0 209 -18q92 -28 92 -106q0 -65 -75 -98q-30 -13 -41 -23t-19 -30q-27 -66 -28 -250v-326q0 -75 1 -205q1 -176 -21 -254q-27 -97 -98 -97
q-31 0 -53.5 13t-74.5 60l-593 531q-62 56 -103 56q-61 0 -61 -169q0 -139 15.5 -190t63.5 -75q67 -33 67 -86q0 -139 -299 -139q-135 0 -209.5 35.5t-74.5 100.5q0 34 14 51t63 46q47 28 57 99q17 129 17 371q0 258 -30 376q-11 43 -28 64t-56 40q-45 22 -62.5 43t-17.5 51
q0 96 165 121q56 8 196 8q80 0 116.5 -12.5t86.5 -56.5zM647 1822q37 2 72.5 -8t118.5 -46q85 -37 103 -43q39 -14 42 -15q20 -9 31 -9q25 0 28 26v33q0 26 28.5 45.5t67.5 19.5q60 0 95 -38t35 -102q0 -81 -54.5 -141.5t-127.5 -60.5q-43 0 -124 27t-154 66q-66 35 -95 35
q-13 0 -24 -6.5t-11 -13.5l2 -51q0 -18 -29 -33.5t-64 -15.5q-37 0 -77 34t-40 119q0 80 47 127t130 51z" />
    <glyph glyph-name="Odieresis" unicode="&#xd6;" horiz-adv-x="1594" 
d="M808 1393q257 0 449 -147q130 -101 211 -262q79 -160 79 -320q0 -236 -156 -422q-132 -158 -345 -227q-131 -42 -263 -42q-173 0 -331 72q-191 87 -299 263q-105 170 -105 375q0 238 135 420q120 162 323 238q136 52 302 52zM713 1106q-84 0 -133 -75q-38 -56 -38 -133
q0 -113 46 -261.5t116 -263.5q31 -49 76.5 -78t92.5 -29q76 0 122.5 57t46.5 150q0 121 -39 261t-101 239q-38 61 -88 96t-101 37zM573 1825q76 0 119 -36t43 -98q0 -83 -72 -130q-102 -66 -225 -66q-68 0 -110 36.5t-42 96.5q0 76 63 124q43 33 106.5 53.5t117.5 19.5z
M1147 1839q75 0 118 -35.5t43 -98.5q0 -84 -72 -130q-103 -66 -225 -66q-68 0 -110 36.5t-42 96.5q0 76 63 124q43 33 106.5 53.5t118.5 19.5z" />
    <glyph glyph-name="Udieresis" unicode="&#xdc;" horiz-adv-x="1679" 
d="M1506 865v-244q0 -221 -33 -313q-71 -194 -312 -281q-146 -54 -330 -54q-321 0 -514 153q-94 75 -130 174t-36 286q0 73 5 240q3 118 3 156q0 83 -12.5 115t-54.5 60q-66 43 -66 96q0 39 33.5 69t88.5 41q110 22 260 22q165 0 274 -25q107 -24 107 -109q0 -42 -31 -67
q-7 -6 -60 -31q-32 -14 -43.5 -51t-11.5 -122q0 -87 -8 -376q-5 -172 93 -262q80 -74 206 -74q80 0 145 29.5t99 80.5q27 39 37 87t10 131v220q-5 253 -14.5 296.5t-64.5 68.5q-52 23 -71 42t-19 47q0 60 71.5 87.5t229.5 27.5q155 0 224.5 -27t69.5 -86q0 -29 -12 -43
t-63 -43q-53 -30 -60.5 -64.5t-9.5 -256.5zM669 1825q76 0 119 -36t43 -98q0 -83 -72 -130q-102 -66 -225 -66q-68 0 -110 36.5t-42 96.5q0 76 63 124q43 33 106.5 53.5t117.5 19.5zM1243 1839q75 0 118 -35.5t43 -98.5q0 -84 -72 -130q-103 -66 -225 -66q-68 0 -110 36.5
t-42 96.5q0 76 63 124q43 33 106.5 53.5t118.5 19.5z" />
    <glyph glyph-name="aacute" unicode="&#xe1;" horiz-adv-x="1161" 
d="M609 997q174 0 295 -88q64 -47 89.5 -107.5t25.5 -166.5l-2 -149q0 -155 22 -201q11 -22 21 -28t42 -11t32 -42q0 -48 -38.5 -100t-99.5 -87q-75 -44 -157 -44q-105 0 -166 72q-21 26 -39 26q-20 0 -53 -25q-100 -73 -227 -73q-131 0 -212 56q-53 37 -84 96.5t-31 124.5
q0 104 84 184q131 126 392 127q58 0 73 11.5t15 53.5q0 106 -22 153.5t-72 47.5q-30 0 -53.5 -18t-58.5 -66q-89 -127 -186 -127q-49 0 -80 29t-31 76q0 48 38.5 96t104.5 84q181 96 378 96zM542 418q-44 0 -76.5 -36t-32.5 -86q0 -48 23 -77.5t61 -29.5q80 0 80 135
q0 55 -11.5 74t-43.5 20zM669 1430q91 0 162 -27q35 -13 57 -37t21 -48q-2 -46 -85 -109q-151 -117 -334 -117q-103 0 -103 74q0 27 10.5 40.5t60.5 51.5q45 33 55 43.5t10 24.5q0 9 -12 30q-4 7 -4 15q0 25 45 41.5t117 17.5z" />
    <glyph glyph-name="agrave" unicode="&#xe0;" horiz-adv-x="1161" 
d="M609 997q174 0 295 -88q64 -47 89.5 -107.5t25.5 -166.5l-2 -149q0 -155 22 -201q11 -22 21 -28t42 -11t32 -42q0 -48 -38.5 -100t-99.5 -87q-75 -44 -157 -44q-105 0 -166 72q-21 26 -39 26q-20 0 -53 -25q-100 -73 -227 -73q-131 0 -212 56q-53 37 -84 96.5t-31 124.5
q0 104 84 184q131 126 392 127q58 0 73 11.5t15 53.5q0 106 -22 153.5t-72 47.5q-30 0 -53.5 -18t-58.5 -66q-89 -127 -186 -127q-49 0 -80 29t-31 76q0 48 38.5 96t104.5 84q181 96 378 96zM542 418q-44 0 -76.5 -36t-32.5 -86q0 -48 23 -77.5t61 -29.5q80 0 80 135
q0 55 -11.5 74t-43.5 20zM476 1430q71 0 116.5 -16.5t45.5 -42.5q0 -8 -10 -27q-5 -9 -5 -18q0 -14 10 -24.5t55 -43.5q50 -38 60.5 -51.5t10.5 -40.5q0 -74 -103 -74q-183 0 -334 117q-85 65 -85 112t68 78t171 31z" />
    <glyph glyph-name="acircumflex" unicode="&#xe2;" horiz-adv-x="1161" 
d="M609 997q174 0 295 -88q64 -47 89.5 -107.5t25.5 -166.5l-2 -149q0 -155 22 -201q11 -22 21 -28t42 -11t32 -42q0 -48 -38.5 -100t-99.5 -87q-75 -44 -157 -44q-105 0 -166 72q-21 26 -39 26q-20 0 -53 -25q-100 -73 -227 -73q-131 0 -212 56q-53 37 -84 96.5t-31 124.5
q0 104 84 184q131 126 392 127q58 0 73 11.5t15 53.5q0 106 -22 153.5t-72 47.5q-30 0 -53.5 -18t-58.5 -66q-89 -127 -186 -127q-49 0 -80 29t-31 76q0 48 38.5 96t104.5 84q181 96 378 96zM542 418q-44 0 -76.5 -36t-32.5 -86q0 -48 23 -77.5t61 -29.5q80 0 80 135
q0 55 -11.5 74t-43.5 20zM575 1462q33 0 107 -41.5t152 -102.5q70 -55 96.5 -87t26.5 -61q0 -30 -22 -53t-51 -23q-41 0 -165 60q-38 18 -84 34.5t-60 16.5q-35 0 -142 -57q-105 -56 -152 -56q-34 0 -55.5 22.5t-21.5 58.5q0 33 33 71.5t115 100.5q155 117 223 117z" />
    <glyph glyph-name="adieresis" unicode="&#xe4;" horiz-adv-x="1161" 
d="M609 997q174 0 295 -88q64 -47 89.5 -107.5t25.5 -166.5l-2 -149q0 -155 22 -201q11 -22 21 -28t42 -11t32 -42q0 -48 -38.5 -100t-99.5 -87q-75 -44 -157 -44q-105 0 -166 72q-21 26 -39 26q-20 0 -53 -25q-100 -73 -227 -73q-131 0 -212 56q-53 37 -84 96.5t-31 124.5
q0 104 84 184q131 126 392 127q58 0 73 11.5t15 53.5q0 106 -22 153.5t-72 47.5q-30 0 -53.5 -18t-58.5 -66q-89 -127 -186 -127q-49 0 -80 29t-31 76q0 48 38.5 96t104.5 84q181 96 378 96zM542 418q-44 0 -76.5 -36t-32.5 -86q0 -48 23 -77.5t61 -29.5q80 0 80 135
q0 55 -11.5 74t-43.5 20zM359 1435q78 0 122.5 -36.5t44.5 -99.5q0 -84 -74 -131q-80 -52 -184 -52q-66 0 -107.5 39t-41.5 102q0 83 64 130.5t176 47.5zM874 1432q78 0 123 -36.5t45 -99.5q0 -84 -73 -131q-81 -52 -185 -52q-66 0 -107.5 39t-41.5 102q0 83 63.5 130.5
t175.5 47.5z" />
    <glyph glyph-name="atilde" unicode="&#xe3;" horiz-adv-x="1161" 
d="M609 997q174 0 295 -88q64 -47 89.5 -107.5t25.5 -166.5l-2 -149q0 -155 22 -201q11 -22 21 -28t42 -11t32 -42q0 -48 -38.5 -100t-99.5 -87q-75 -44 -157 -44q-105 0 -166 72q-21 26 -39 26q-20 0 -53 -25q-100 -73 -227 -73q-131 0 -212 56q-53 37 -84 96.5t-31 124.5
q0 104 84 184q131 126 392 127q58 0 73 11.5t15 53.5q0 106 -22 153.5t-72 47.5q-30 0 -53.5 -18t-58.5 -66q-89 -127 -186 -127q-49 0 -80 29t-31 76q0 48 38.5 96t104.5 84q181 96 378 96zM542 418q-44 0 -76.5 -36t-32.5 -86q0 -48 23 -77.5t61 -29.5q80 0 80 135
q0 55 -11.5 74t-43.5 20zM396 1206v-27q0 -36 -27 -57.5t-71 -21.5q-50 0 -82 33t-32 85q0 59 26 110q23 42 67.5 67t99.5 25q53 0 96 -14.5t161 -73.5q55 -28 86 -28q25 0 31 39q5 36 8 44t16 18q28 22 72 22q130 0 130 -132q0 -86 -50.5 -138.5t-133.5 -52.5
q-43 0 -78.5 9.5t-100.5 39.5q-44 20 -95 41q-64 27 -66 29q-20 9 -34 9q-23 0 -23 -26z" />
    <glyph glyph-name="aring" unicode="&#xe5;" horiz-adv-x="1161" 
d="M609 997q174 0 295 -88q64 -47 89.5 -107.5t25.5 -166.5l-2 -149q0 -155 22 -201q11 -22 21 -28t42 -11t32 -42q0 -48 -38.5 -100t-99.5 -87q-75 -44 -157 -44q-105 0 -166 72q-21 26 -39 26q-20 0 -53 -25q-100 -73 -227 -73q-131 0 -212 56q-53 37 -84 96.5t-31 124.5
q0 104 84 184q131 126 392 127q58 0 73 11.5t15 53.5q0 106 -22 153.5t-72 47.5q-30 0 -53.5 -18t-58.5 -66q-89 -127 -186 -127q-49 0 -80 29t-31 76q0 48 38.5 96t104.5 84q181 96 378 96zM542 418q-44 0 -76.5 -36t-32.5 -86q0 -48 23 -77.5t61 -29.5q80 0 80 135
q0 55 -11.5 74t-43.5 20zM578 1498q135 0 218 -48q37 -22 60 -63t23 -87q0 -100 -77.5 -154t-219.5 -54q-301 0 -301 200q0 98 78 152t219 54zM579 1406q-46 0 -72 -30.5t-26 -85.5q0 -48 26.5 -78.5t68.5 -30.5q46 0 73.5 32t27.5 84q0 107 -98 109z" />
    <glyph glyph-name="ccedilla" unicode="&#xe7;" horiz-adv-x="1078" 
d="M523 -115l-53 72q-18 23 -50 31q-36 7 -77 26q-110 49 -195 147q-114 131 -114 314q0 225 172 376q167 145 403 145q179 0 317 -92q125 -84 125 -212q0 -85 -60 -137q-59 -51 -135 -51q-64 0 -99 33t-61 116q-28 92 -103 92q-56 0 -94.5 -49t-38.5 -121q0 -119 86 -210
q71 -75 181 -75q47 0 77 8t90 36q14 7 31 7q36 0 62 -31.5t26 -74.5q0 -98 -136 -183q-103 -65 -228 -78q-14 -1 -14 -12q0 -6 12 -17l89 -81q61 -56 61 -99q0 -51 -60.5 -85t-149.5 -34t-139 37q-37 27 -37 63q0 28 28 48.5t76 27.5q28 4 28 22q0 15 -20 41z" />
    <glyph glyph-name="eacute" unicode="&#xe9;" horiz-adv-x="1086" 
d="M962 448h-470q-31 0 -31 -27q0 -65 70.5 -122.5t151.5 -57.5q48 0 106.5 18.5t96.5 45.5q34 24 54 24q26 0 51 -32t25 -66q0 -72 -90 -139q-159 -119 -367 -119q-210 0 -352 122q-69 60 -114 145q-59 113 -59 238q0 168 102 302q88 116 224 173q102 43 221 43
q190 0 323 -108q67 -54 108 -128q47 -84 47 -164q0 -65 -27 -106.5t-70 -41.5zM518 635h101q64 0 64 59q0 54 -31 88t-81 34q-56 0 -88 -44q-30 -41 -30 -83q0 -30 14.5 -42t50.5 -12zM673 1430q91 0 162 -27q35 -13 57 -37t21 -48q-2 -46 -85 -109q-151 -117 -334 -117
q-103 0 -103 74q0 27 10.5 40.5t60.5 51.5q45 33 55 43.5t10 24.5q0 9 -12 30q-4 7 -4 15q0 25 45 41.5t117 17.5z" />
    <glyph glyph-name="egrave" unicode="&#xe8;" horiz-adv-x="1086" 
d="M962 448h-470q-31 0 -31 -27q0 -65 70.5 -122.5t151.5 -57.5q48 0 106.5 18.5t96.5 45.5q34 24 54 24q26 0 51 -32t25 -66q0 -72 -90 -139q-159 -119 -367 -119q-210 0 -352 122q-69 60 -114 145q-59 113 -59 238q0 168 102 302q88 116 224 173q102 43 221 43
q190 0 323 -108q67 -54 108 -128q47 -84 47 -164q0 -65 -27 -106.5t-70 -41.5zM518 635h101q64 0 64 59q0 54 -31 88t-81 34q-56 0 -88 -44q-30 -41 -30 -83q0 -30 14.5 -42t50.5 -12zM466 1430q71 0 116.5 -16.5t45.5 -42.5q0 -8 -10 -27q-5 -9 -5 -18q0 -14 10 -24.5
t55 -43.5q50 -38 60.5 -51.5t10.5 -40.5q0 -74 -103 -74q-183 0 -334 117q-85 65 -85 112t68 78t171 31z" />
    <glyph glyph-name="ecircumflex" unicode="&#xea;" horiz-adv-x="1086" 
d="M962 448h-470q-31 0 -31 -27q0 -65 70.5 -122.5t151.5 -57.5q48 0 106.5 18.5t96.5 45.5q34 24 54 24q26 0 51 -32t25 -66q0 -72 -90 -139q-159 -119 -367 -119q-210 0 -352 122q-69 60 -114 145q-59 113 -59 238q0 168 102 302q88 116 224 173q102 43 221 43
q190 0 323 -108q67 -54 108 -128q47 -84 47 -164q0 -65 -27 -106.5t-70 -41.5zM518 635h101q64 0 64 59q0 54 -31 88t-81 34q-56 0 -88 -44q-30 -41 -30 -83q0 -30 14.5 -42t50.5 -12zM592 1462q33 0 107 -41.5t152 -102.5q70 -55 96.5 -87t26.5 -61q0 -30 -22 -53t-51 -23
q-41 0 -165 60q-38 18 -84 34.5t-60 16.5q-35 0 -142 -57q-105 -56 -152 -56q-34 0 -55.5 22.5t-21.5 58.5q0 33 33 71.5t115 100.5q155 117 223 117z" />
    <glyph glyph-name="edieresis" unicode="&#xeb;" horiz-adv-x="1086" 
d="M962 448h-470q-31 0 -31 -27q0 -65 70.5 -122.5t151.5 -57.5q48 0 106.5 18.5t96.5 45.5q34 24 54 24q26 0 51 -32t25 -66q0 -72 -90 -139q-159 -119 -367 -119q-210 0 -352 122q-69 60 -114 145q-59 113 -59 238q0 168 102 302q88 116 224 173q102 43 221 43
q190 0 323 -108q67 -54 108 -128q47 -84 47 -164q0 -65 -27 -106.5t-70 -41.5zM518 635h101q64 0 64 59q0 54 -31 88t-81 34q-56 0 -88 -44q-30 -41 -30 -83q0 -30 14.5 -42t50.5 -12zM383 1435q78 0 122.5 -36.5t44.5 -99.5q0 -84 -74 -131q-80 -52 -184 -52
q-66 0 -107.5 39t-41.5 102q0 83 64 130.5t176 47.5zM898 1432q78 0 123 -36.5t45 -99.5q0 -84 -73 -131q-81 -52 -185 -52q-66 0 -107.5 39t-41.5 102q0 83 63.5 130.5t175.5 47.5z" />
    <glyph glyph-name="iacute" unicode="&#xed;" horiz-adv-x="730" 
d="M594 927v-581q0 -69 12.5 -101t50.5 -59q31 -22 41.5 -37.5t10.5 -39.5q0 -129 -327 -129q-176 0 -279 28q-35 10 -56.5 35t-21.5 57q0 27 11 42t56 48q31 23 44 75t13 155q0 33 -4.5 123.5t-6.5 105.5q-6 41 -56 63q-62 27 -62 80q0 63 81 94q112 43 240 73t198 30
q55 0 55 -62zM447 1430q91 0 162 -27q35 -13 57 -37t21 -48q-2 -46 -85 -109q-151 -117 -334 -117q-103 0 -103 74q0 27 10.5 40.5t60.5 51.5q45 33 55 43.5t10 24.5q0 9 -12 30q-4 7 -4 15q0 25 45 41.5t117 17.5z" />
    <glyph glyph-name="igrave" unicode="&#xec;" horiz-adv-x="730" 
d="M594 927v-581q0 -69 12.5 -101t50.5 -59q31 -22 41.5 -37.5t10.5 -39.5q0 -129 -327 -129q-176 0 -279 28q-35 10 -56.5 35t-21.5 57q0 27 11 42t56 48q31 23 44 75t13 155q0 33 -4.5 123.5t-6.5 105.5q-6 41 -56 63q-62 27 -62 80q0 63 81 94q112 43 240 73t198 30
q55 0 55 -62zM254 1430q71 0 116.5 -16.5t45.5 -42.5q0 -8 -10 -27q-5 -9 -5 -18q0 -14 10 -24.5t55 -43.5q50 -38 60.5 -51.5t10.5 -40.5q0 -74 -103 -74q-183 0 -334 117q-85 65 -85 112t68 78t171 31z" />
    <glyph glyph-name="icircumflex" unicode="&#xee;" horiz-adv-x="730" 
d="M594 927v-581q0 -69 12.5 -101t50.5 -59q31 -22 41.5 -37.5t10.5 -39.5q0 -129 -327 -129q-176 0 -279 28q-35 10 -56.5 35t-21.5 57q0 27 11 42t56 48q31 23 44 75t13 155q0 33 -4.5 123.5t-6.5 105.5q-6 41 -56 63q-62 27 -62 80q0 63 81 94q112 43 240 73t198 30
q55 0 55 -62zM359 1462q33 0 107 -41.5t152 -102.5q70 -55 96.5 -87t26.5 -61q0 -30 -22 -53t-51 -23q-41 0 -165 60q-38 18 -84 34.5t-60 16.5q-35 0 -142 -57q-105 -56 -152 -56q-34 0 -55.5 22.5t-21.5 58.5q0 33 33 71.5t115 100.5q155 117 223 117z" />
    <glyph glyph-name="idieresis" unicode="&#xef;" horiz-adv-x="730" 
d="M594 927v-581q0 -69 12.5 -101t50.5 -59q31 -22 41.5 -37.5t10.5 -39.5q0 -129 -327 -129q-176 0 -279 28q-35 10 -56.5 35t-21.5 57q0 27 11 42t56 48q31 23 44 75t13 155q0 33 -4.5 123.5t-6.5 105.5q-6 41 -56 63q-62 27 -62 80q0 63 81 94q112 43 240 73t198 30
q55 0 55 -62zM164 1435q78 0 122.5 -36.5t44.5 -99.5q0 -84 -74 -131q-80 -52 -184 -52q-66 0 -107.5 39t-41.5 102q0 83 64 130.5t176 47.5zM638 1432q78 0 123 -36.5t45 -99.5q0 -84 -74 -131q-80 -52 -184 -52q-66 0 -107.5 39t-41.5 102q0 83 63.5 130.5t175.5 47.5z
" />
    <glyph glyph-name="ntilde" unicode="&#xf1;" horiz-adv-x="1374" 
d="M1251 627l14 -352q2 -40 12.5 -59t61.5 -73q15 -16 15 -45q0 -66 -79 -92t-282 -26q-138 0 -195 24q-59 25 -59 81q0 20 6 29.5t40 46.5q40 42 40 280q0 138 -32 204q-26 53 -96 53q-67 0 -92 -43t-25 -156v-198q0 -59 7.5 -81t49.5 -85q11 -18 11 -41q0 -59 -82 -87
t-256 -28q-278 0 -278 115q0 24 8.5 36.5t40.5 35.5q26 19 33 43.5t13 120.5q7 114 7 239q0 69 -10.5 90.5t-60.5 52.5q-43 27 -43 66q0 40 35 65.5t144 64.5q96 34 185 57.5t122 23.5q30 0 50.5 -22t20.5 -52q0 -3 -1 -25q-1 -8 -1 -14q0 -48 40 -48q24 0 51 38
q86 124 250 124q126 0 216 -66q63 -47 88 -110.5t31 -186.5zM502 1206v-27q0 -36 -27 -57.5t-71 -21.5q-50 0 -82 33t-32 85q0 59 26 110q23 42 67.5 67t99.5 25q53 0 96 -14.5t161 -73.5q55 -28 86 -28q25 0 31 39q5 36 8 44t16 18q28 22 72 22q130 0 130 -132
q0 -86 -50.5 -138.5t-133.5 -52.5q-43 0 -78.5 9.5t-100.5 39.5q-44 20 -95 41q-64 27 -66 29q-20 9 -34 9q-23 0 -23 -26z" />
    <glyph glyph-name="oacute" unicode="&#xf3;" horiz-adv-x="1233" 
d="M657 997q183 0 321 -95q99 -68 159 -177q62 -114 62 -238q0 -217 -199 -369q-190 -145 -435 -145q-239 0 -387 136q-144 132 -144 344q0 236 176 386q184 158 447 158zM577 766q-44 0 -70.5 -32.5t-26.5 -86.5q0 -60 22.5 -163.5t53.5 -183.5q31 -82 101 -82q89 0 89 113
q0 84 -22.5 191t-54.5 174q-33 68 -92 70zM733 1430q91 0 162 -27q35 -13 57 -37t21 -48q-2 -46 -85 -109q-151 -117 -334 -117q-103 0 -103 74q0 27 10.5 40.5t60.5 51.5q45 33 55 43.5t10 24.5q0 9 -12 30q-4 7 -4 15q0 25 45 41.5t117 17.5z" />
    <glyph glyph-name="ograve" unicode="&#xf2;" horiz-adv-x="1233" 
d="M657 997q183 0 321 -95q99 -68 159 -177q62 -114 62 -238q0 -217 -199 -369q-190 -145 -435 -145q-239 0 -387 136q-144 132 -144 344q0 236 176 386q184 158 447 158zM577 766q-44 0 -70.5 -32.5t-26.5 -86.5q0 -60 22.5 -163.5t53.5 -183.5q31 -82 101 -82q89 0 89 113
q0 84 -22.5 191t-54.5 174q-33 68 -92 70zM499 1430q71 0 116.5 -16.5t45.5 -42.5q0 -8 -10 -27q-5 -9 -5 -18q0 -14 10 -24.5t55 -43.5q50 -38 60.5 -51.5t10.5 -40.5q0 -74 -103 -74q-183 0 -334 117q-85 65 -85 112t68 78t171 31z" />
    <glyph glyph-name="ocircumflex" unicode="&#xf4;" horiz-adv-x="1233" 
d="M657 997q183 0 321 -95q99 -68 159 -177q62 -114 62 -238q0 -217 -199 -369q-190 -145 -435 -145q-239 0 -387 136q-144 132 -144 344q0 236 176 386q184 158 447 158zM577 766q-44 0 -70.5 -32.5t-26.5 -86.5q0 -60 22.5 -163.5t53.5 -183.5q31 -82 101 -82q89 0 89 113
q0 84 -22.5 191t-54.5 174q-33 68 -92 70zM611 1462q33 0 107 -41.5t152 -102.5q70 -55 96.5 -87t26.5 -61q0 -30 -22 -53t-51 -23q-41 0 -165 60q-38 18 -84 34.5t-60 16.5q-35 0 -142 -57q-105 -56 -152 -56q-34 0 -55.5 22.5t-21.5 58.5q0 33 33 71.5t115 100.5
q155 117 223 117z" />
    <glyph glyph-name="odieresis" unicode="&#xf6;" horiz-adv-x="1233" 
d="M657 997q183 0 321 -95q99 -68 159 -177q62 -114 62 -238q0 -217 -199 -369q-190 -145 -435 -145q-239 0 -387 136q-144 132 -144 344q0 236 176 386q184 158 447 158zM577 766q-44 0 -70.5 -32.5t-26.5 -86.5q0 -60 22.5 -163.5t53.5 -183.5q31 -82 101 -82q89 0 89 113
q0 84 -22.5 191t-54.5 174q-33 68 -92 70zM395 1435q78 0 122.5 -36.5t44.5 -99.5q0 -84 -74 -131q-80 -52 -184 -52q-66 0 -107.5 39t-41.5 102q0 83 64 130.5t176 47.5zM910 1432q78 0 123 -36.5t45 -99.5q0 -84 -73 -131q-81 -52 -185 -52q-66 0 -107.5 39t-41.5 102
q0 83 63.5 130.5t175.5 47.5z" />
    <glyph glyph-name="otilde" unicode="&#xf5;" horiz-adv-x="1233" 
d="M657 997q183 0 321 -95q99 -68 159 -177q62 -114 62 -238q0 -217 -199 -369q-190 -145 -435 -145q-239 0 -387 136q-144 132 -144 344q0 236 176 386q184 158 447 158zM577 766q-44 0 -70.5 -32.5t-26.5 -86.5q0 -60 22.5 -163.5t53.5 -183.5q31 -82 101 -82q89 0 89 113
q0 84 -22.5 191t-54.5 174q-33 68 -92 70zM432 1206v-27q0 -36 -27 -57.5t-71 -21.5q-50 0 -82 33t-32 85q0 59 26 110q23 42 67.5 67t99.5 25q53 0 96 -14.5t161 -73.5q55 -28 86 -28q25 0 31 39q5 36 8 44t16 18q28 22 72 22q130 0 130 -132q0 -86 -50.5 -138.5
t-133.5 -52.5q-43 0 -78.5 9.5t-100.5 39.5q-44 20 -95 41q-64 27 -66 29q-20 9 -34 9q-23 0 -23 -26z" />
    <glyph glyph-name="uacute" unicode="&#xfa;" horiz-adv-x="1388" 
d="M586 939v-542q0 -174 115 -174q29 0 57 16.5t39 40.5q22 48 22 214q0 164 -11 224q-4 25 -14 36.5t-38 26.5q-57 30 -57 76q0 62 98 86q186 46 367 46q101 0 101 -107q0 -11 -1 -45q-2 -48 -3 -117v-441q0 -34 58 -62q49 -24 49 -70q0 -90 -213 -139q-125 -29 -242 -29
q-48 0 -65.5 11t-20.5 43q-5 62 -38 62q-12 0 -22 -5.5t-61 -40.5q-101 -69 -217 -69q-192 0 -271 111q-67 93 -67 313q0 82 1 140v46q0 86 -15.5 126.5t-56.5 63.5q-39 20 -49.5 32t-10.5 33q0 76 115 101q196 43 392 43q59 0 59 -50zM810 1430q91 0 162 -27q35 -13 57 -37
t21 -48q-2 -46 -85 -109q-151 -117 -334 -117q-103 0 -103 74q0 27 10.5 40.5t60.5 51.5q45 33 55 43.5t10 24.5q0 9 -12 30q-4 7 -4 15q0 25 45 41.5t117 17.5z" />
    <glyph glyph-name="ugrave" unicode="&#xf9;" horiz-adv-x="1388" 
d="M586 939v-542q0 -174 115 -174q29 0 57 16.5t39 40.5q22 48 22 214q0 164 -11 224q-4 25 -14 36.5t-38 26.5q-57 30 -57 76q0 62 98 86q186 46 367 46q101 0 101 -107q0 -11 -1 -45q-2 -48 -3 -117v-441q0 -34 58 -62q49 -24 49 -70q0 -90 -213 -139q-125 -29 -242 -29
q-48 0 -65.5 11t-20.5 43q-5 62 -38 62q-12 0 -22 -5.5t-61 -40.5q-101 -69 -217 -69q-192 0 -271 111q-67 93 -67 313q0 82 1 140v46q0 86 -15.5 126.5t-56.5 63.5q-39 20 -49.5 32t-10.5 33q0 76 115 101q196 43 392 43q59 0 59 -50zM576 1430q71 0 116.5 -16.5
t45.5 -42.5q0 -8 -10 -27q-5 -9 -5 -18q0 -14 10 -24.5t55 -43.5q50 -38 60.5 -51.5t10.5 -40.5q0 -74 -103 -74q-183 0 -334 117q-85 65 -85 112t68 78t171 31z" />
    <glyph glyph-name="ucircumflex" unicode="&#xfb;" horiz-adv-x="1388" 
d="M586 939v-542q0 -174 115 -174q29 0 57 16.5t39 40.5q22 48 22 214q0 164 -11 224q-4 25 -14 36.5t-38 26.5q-57 30 -57 76q0 62 98 86q186 46 367 46q101 0 101 -107q0 -11 -1 -45q-2 -48 -3 -117v-441q0 -34 58 -62q49 -24 49 -70q0 -90 -213 -139q-125 -29 -242 -29
q-48 0 -65.5 11t-20.5 43q-5 62 -38 62q-12 0 -22 -5.5t-61 -40.5q-101 -69 -217 -69q-192 0 -271 111q-67 93 -67 313q0 82 1 140v46q0 86 -15.5 126.5t-56.5 63.5q-39 20 -49.5 32t-10.5 33q0 76 115 101q196 43 392 43q59 0 59 -50zM695 1462q33 0 107 -41.5t152 -102.5
q70 -55 96.5 -87t26.5 -61q0 -30 -22 -53t-51 -23q-41 0 -165 60q-38 18 -84 34.5t-60 16.5q-35 0 -142 -57q-105 -56 -152 -56q-34 0 -55.5 22.5t-21.5 58.5q0 33 33 71.5t115 100.5q155 117 223 117z" />
    <glyph glyph-name="udieresis" unicode="&#xfc;" horiz-adv-x="1388" 
d="M586 939v-542q0 -174 115 -174q29 0 57 16.5t39 40.5q22 48 22 214q0 164 -11 224q-4 25 -14 36.5t-38 26.5q-57 30 -57 76q0 62 98 86q186 46 367 46q101 0 101 -107q0 -11 -1 -45q-2 -48 -3 -117v-441q0 -34 58 -62q49 -24 49 -70q0 -90 -213 -139q-125 -29 -242 -29
q-48 0 -65.5 11t-20.5 43q-5 62 -38 62q-12 0 -22 -5.5t-61 -40.5q-101 -69 -217 -69q-192 0 -271 111q-67 93 -67 313q0 82 1 140v46q0 86 -15.5 126.5t-56.5 63.5q-39 20 -49.5 32t-10.5 33q0 76 115 101q196 43 392 43q59 0 59 -50zM472 1435q78 0 122.5 -36.5
t44.5 -99.5q0 -84 -74 -131q-80 -52 -184 -52q-66 0 -107.5 39t-41.5 102q0 83 64 130.5t176 47.5zM987 1432q78 0 123 -36.5t45 -99.5q0 -84 -73 -131q-81 -52 -185 -52q-66 0 -107.5 39t-41.5 102q0 83 63.5 130.5t175.5 47.5z" />
    <glyph glyph-name="dagger" unicode="&#x2020;" horiz-adv-x="1475" 
d="M927 517v-121q0 -15 -2 -127q-1 -43 -1 -84q0 -180 16.5 -249.5t68.5 -107.5q48 -35 61 -52.5t13 -45.5q0 -33 -25.5 -54t-85.5 -36q-108 -29 -235 -29q-126 0 -236 29q-59 15 -85 36t-26 54q0 28 13 45.5t61 52.5q56 42 70 117q17 92 17 241l-3 210v121q0 36 -22 34
l-44 -3q-108 -6 -130.5 -16.5t-45.5 -64.5q-18 -43 -36.5 -57.5t-54.5 -14.5q-77 0 -109 95q-33 102 -33 237q0 116 31 214q32 99 108 99q29 0 47 -15.5t36 -55.5q22 -47 41 -59t81 -16l77 -5q20 -1 28 -1q19 1 19 33v132q0 43 -12.5 64.5t-45.5 35.5q-54 24 -68 37t-14 39
q0 35 29 68t73 50q101 38 234 38t233 -38q45 -18 73.5 -50.5t28.5 -67.5q0 -26 -14 -39t-68 -37q-33 -14 -45.5 -35.5t-12.5 -64.5v-132q0 -32 19 -33q8 0 28 1l78 5q61 4 80 16t41 59q19 41 36.5 56t47.5 15q75 0 107 -99q31 -98 31 -214q0 -135 -33 -237q-32 -95 -111 -95
q-35 0 -53 15t-36 57q-23 54 -45.5 64.5t-130.5 16.5l-44 3q-20 0 -20 -34z" />
    <glyph glyph-name="degree" unicode="&#xb0;" horiz-adv-x="848" 
d="M448 1386q112 0 196 -58q62 -43 98.5 -111.5t36.5 -142.5q0 -133 -121 -226q-116 -88 -266 -88q-146 0 -236 83q-88 81 -88 210q0 145 107 237q113 96 273 96zM395 1280q-39 0 -62 -24.5t-23 -66.5t19 -119t43 -134q26 -61 83 -61q80 0 80 90q0 53 -19.5 133.5
t-45.5 129.5q-25 50 -75 52z" />
    <glyph glyph-name="cent" unicode="&#xa2;" horiz-adv-x="1229" 
d="M522 1057v27q0 41 13.5 54.5t54.5 13.5h59q41 0 54.5 -13.5t13.5 -54.5q0 -30 6.5 -38.5t29.5 -11.5q132 -14 225.5 -92.5t93.5 -175.5q0 -77 -51 -125t-130 -48q-54 0 -83 26t-51 95q-31 96 -101 96q-50 0 -83.5 -45t-33.5 -115q0 -100 71 -175t165 -75q68 0 154 37
q20 8 32 8q30 0 53.5 -31t23.5 -69q0 -62 -78 -128q-45 -39 -88.5 -58t-129.5 -39q-16 -3 -20.5 -11.5t-4.5 -33.5v-31q0 -42 -13.5 -55.5t-54.5 -13.5h-59q-39 0 -53.5 14.5t-14.5 54.5v39q0 29 -6.5 36.5t-37.5 13.5q-58 12 -126 63t-115 117q-80 113 -80 254
q0 178 116 303q99 108 216 138q22 6 27.5 14t5.5 35z" />
    <glyph glyph-name="sterling" unicode="&#xa3;" horiz-adv-x="1229" 
d="M820 567q-81 0 -100 -10.5t-39 -66.5q-10 -25 -36 -76q-9 -16 -9 -28q0 -26 51 -47q103 -44 169 -44q88 0 149 91q32 47 56.5 65.5t55.5 18.5q45 0 73 -31.5t28 -81.5q0 -63 -32.5 -139.5t-83.5 -131.5q-103 -113 -271 -113q-76 0 -150 32t-111 63q-44 36 -59 36
q-20 0 -82 -48q-105 -82 -201 -82q-94 0 -154 73q-54 66 -54 167q0 97 47.5 153.5t127.5 56.5q33 0 78 -12q24 -6 37 -6q26 0 26 21q0 8 -3 20q-3 11 -8 40q-8 46 -24.5 55t-90.5 9l-55 -2q-41 0 -58 23t-17 77q0 47 18 66q11 10 21 12t61 2q44 1 44 23q0 8 -7 30
q-20 66 -20 119q0 142 102 237q143 134 429 134q108 0 182 -21.5t134 -69.5q112 -90 112 -215q0 -73 -44.5 -116t-118.5 -43q-65 0 -103 34.5t-38 92.5q0 14 1 33v26q0 47 -23.5 67.5t-76.5 20.5q-107 0 -107 -131q0 -56 11.5 -114t26.5 -78q9 -11 20 -13t68 -4l60 1
q43 0 60.5 -22t17.5 -76q0 -51 -22 -68q-10 -9 -68 -9z" />
    <glyph glyph-name="section" unicode="&#xa7;" horiz-adv-x="1475" 
d="M350 -2q44 0 67 -14t69 -67q87 -101 228 -101q68 0 107.5 25t39.5 67q0 70 -142 101q-108 24 -225 65t-184 78q-68 38 -113 113q-45 76 -45 165q0 94 55 175q47 69 108 106q17 10 17 21q0 10 -13 19q-147 106 -147 271q0 158 135 252q160 111 451 111q299 0 468 -102
q90 -54 90 -120q0 -47 -65 -82q-76 -42 -136 -42q-37 0 -54.5 10t-70.5 60q-82 78 -198 78q-55 0 -91.5 -23.5t-36.5 -58.5q0 -41 43.5 -68t134.5 -44q67 -13 162 -42t149 -53q83 -37 135 -114q54 -79 54 -180q0 -81 -42.5 -153t-121.5 -126q-23 -15 -23 -25q0 -14 35 -35
q21 -12 54.5 -43.5t45.5 -50.5q45 -70 45 -168q0 -165 -134 -269q-83 -65 -189.5 -94t-262.5 -29q-331 0 -515 136q-42 30 -71 73.5t-29 76.5q0 43 55 68q79 34 161 33zM639 448l188 -56q9 -3 18 -3q19 0 39.5 35.5t20.5 67.5q0 66 -86 90l-186 53q-10 3 -18 3
q-21 0 -42 -33t-21 -67q0 -63 87 -90z" />
    <glyph glyph-name="bullet" unicode="&#x2022;" horiz-adv-x="1365" 
d="M689 978q113 0 196 -83q84 -83 84 -201t-84 -201q-82 -83 -200 -83t-200 83q-84 83 -84 200q0 121 84 202q84 83 204 83z" />
    <glyph glyph-name="paragraph" unicode="&#xb6;" horiz-adv-x="1229" 
d="M996 1034v-1105q0 -76 9 -163q2 -20 2 -32q0 -43 -55 -71q-29 -16 -80 -34t-64 -18q-37 0 -37 47q0 8 1 21q5 81 5 199v1220q0 36 -9.5 45.5t-45.5 9.5h-32q-37 0 -46 -9t-9 -46v-1169q0 -76 9 -163q2 -20 2 -32q0 -43 -55 -71q-29 -15 -80 -33.5t-64 -18.5q-37 0 -37 47
q0 8 1 21q5 81 5 154v669q0 39 -10 48.5t-55 12.5q-54 3 -101 22q-114 47 -175 167q-48 95 -48 223q0 236 158 347q90 63 205 63q40 0 197 -17q78 -9 229 -9q72 0 183 4q18 1 41 1q78 0 109 -31q25 -25 25 -55q0 -59 -89 -83q-61 -16 -75 -41t-14 -120z" />
    <glyph glyph-name="germandbls" unicode="&#xdf;" horiz-adv-x="1322" 
d="M142 365v378q0 263 122 405q85 99 218 148q124 45 260 45q149 0 233 -66q94 -74 94 -187q0 -39 -9 -62t-44 -77q-6 -9 -6 -23q0 -37 73 -144q124 -182 167.5 -283.5t43.5 -209.5q0 -159 -110 -240q-94 -69 -221 -69q-124 0 -194 79q-19 21 -33.5 50t-14.5 45q0 20 40 36
q76 30 76 110q0 40 -18.5 85.5t-64.5 121.5q-84 137 -102.5 177t-18.5 88q0 69 36 123q24 35 117 113q39 32 39 65q0 31 -23.5 49.5t-61.5 18.5q-90 0 -138 -93q-29 -57 -41 -128.5t-12 -193.5q0 -111 15 -375q4 -61 15.5 -93.5t38.5 -58.5q38 -37 45 -47.5t7 -32.5
q0 -67 -95.5 -103.5t-270.5 -36.5q-284 0 -284 121q0 29 11 43t64 53q50 49 47 169z" />
    <glyph glyph-name="registered" unicode="&#xae;" horiz-adv-x="1594" 
d="M809 1392q201 0 380 -105t275 -282q82 -153 82 -323q0 -200 -110 -370t-296 -261q-161 -78 -341 -78q-209 0 -388 103q-182 103 -280 282q-83 153 -83 324q0 202 111 374q109 168 302 260q159 76 348 76zM807 1257q-255 0 -431 -166q-86 -81 -132 -188q-46 -106 -46 -221
q0 -162 90 -301q89 -138 241 -211q128 -62 270 -62q247 0 423 168q175 168 175 406q0 163 -89 302q-86 136 -237 211q-119 58 -264 62zM743 625q-19 0 -23.5 -11t-4.5 -60q0 -59 9 -95q3 -14 26 -26q37 -20 37 -53q0 -38 -48.5 -54t-162.5 -16q-215 0 -215 81q0 24 38 48
q33 20 39 70t6 305q0 69 -7.5 94t-30.5 36q-45 21 -45 51q0 68 132 68q17 0 94 -5q17 -1 44 -1q50 0 134 5q54 4 75 4q125 0 200 -54t75 -144q0 -51 -26.5 -93.5t-69.5 -61.5q-15 -6 -15 -14q0 -10 23 -18q62 -23 90.5 -65t40.5 -127q4 -32 12.5 -41.5t41.5 -17.5
q30 -8 30 -44q0 -39 -49.5 -62.5t-132.5 -23.5q-107 0 -153 46.5t-83 190.5q-19 83 -81 88zM716 902l-7 -124v-5q-1 -24 22 -24q47 0 67.5 22t20.5 72q0 95 -70 95q-19 0 -25.5 -7.5t-7.5 -28.5z" />
    <glyph glyph-name="copyright" unicode="&#xa9;" horiz-adv-x="1594" 
d="M809 1392q201 0 380 -105t275 -282q82 -153 82 -323q0 -200 -110 -370t-296 -261q-161 -78 -341 -78q-209 0 -388 103q-182 103 -280 282q-83 153 -83 324q0 202 111 374q109 168 302 260q159 76 348 76zM807 1257q-255 0 -431 -166q-86 -81 -132 -188q-46 -106 -46 -221
q0 -162 90 -301q89 -138 241 -211q128 -62 270 -62q247 0 423 168q175 168 175 406q0 163 -89 302q-86 136 -237 211q-119 58 -264 62zM806 1073q84 0 161 -35q34 -15 47 -15q8 0 31 5q8 2 17 2q44 0 78 -56t34 -129q0 -52 -30 -84.5t-80 -32.5q-54 0 -87 57q-39 67 -74 91
q-52 35 -109 35q-55 0 -87 -37.5t-32 -101.5q0 -62 25 -120.5t68 -94.5q54 -47 138 -47q98 0 154 50q24 21 40 21q22 0 38 -19.5t16 -45.5q0 -33 -20.5 -73t-48.5 -62q-13 -10 -52 -17q-20 -4 -55 -20q-85 -38 -176 -38q-149 0 -265 83q-72 51 -115 131q-45 83 -45 168
q0 83 40 159.5t111 130.5q125 95 278 95z" />
    <glyph glyph-name="trademark" unicode="&#x2122;" horiz-adv-x="1948" 
d="M281 1365h316q50 1 93 13q19 5 32 5q48 0 94 -72t46 -148q0 -44 -24 -69t-65 -25q-60 0 -102 76q-20 37 -31 48.5t-28 11.5q-41 0 -41 -80v-335q0 -52 10.5 -75.5t40.5 -35.5q33 -14 44.5 -26.5t11.5 -34.5q0 -85 -237 -85q-282 0 -282 91q0 21 11.5 30.5t52.5 21.5
q23 7 32 26t14 71q13 125 13 333q0 100 -36 100q-23 0 -46 -34q-40 -59 -67 -81.5t-59 -22.5t-53 24.5t-21 62.5q0 74 51 149.5t101 75.5q12 0 28 -3q37 -8 101 -12zM1479 794l-72 -161q-31 -69 -54 -69q-16 0 -36.5 31t-56.5 114l-80 178q-16 37 -35 37q-15 0 -20 -30.5
t-5 -130.5q0 -72 7.5 -89t47.5 -37q20 -11 20 -36q0 -67 -172 -67q-146 0 -146 65q0 17 7.5 24.5t38.5 22.5q20 10 27 25t12 60q15 129 15 344q0 91 -9.5 120.5t-44.5 46.5q-42 20 -42 53q0 46 58 63q67 19 145 19q81 0 108 -12t52 -58l124 -230q20 -36 28 -45t22 -9
q22 0 43 42l85 165q17 33 21 41q32 67 67.5 86.5t122.5 19.5q171 0 171 -77q0 -29 -33 -53q-28 -21 -35 -61q-14 -83 -14 -201q0 -156 15 -269q3 -28 10.5 -38.5t38.5 -30.5q21 -14 21 -38q0 -41 -49 -58t-165 -17q-206 0 -206 69q0 22 44 58q16 13 21.5 49t5.5 122
q0 48 -4.5 63t-18.5 15q-17 0 -32.5 -23t-47.5 -93z" />
    <glyph glyph-name="acute" unicode="&#xb4;" 
d="M629 1430q91 0 162 -27q35 -13 57 -37t21 -48q-2 -46 -85 -109q-151 -117 -334 -117q-103 0 -103 74q0 27 10.5 40.5t60.5 51.5q45 33 55 43.5t10 24.5q0 9 -12 30q-4 7 -4 15q0 25 45 41.5t117 17.5z" />
    <glyph glyph-name="dieresis" unicode="&#xa8;" 
d="M291 1435q78 0 122.5 -36.5t44.5 -99.5q0 -84 -74 -131q-80 -52 -184 -52q-66 0 -107.5 39t-41.5 102q0 83 64 130.5t176 47.5zM806 1432q78 0 123 -36.5t45 -99.5q0 -84 -73 -131q-81 -52 -185 -52q-66 0 -107.5 39t-41.5 102q0 83 63.5 130.5t175.5 47.5z" />
    <glyph glyph-name="notequal" unicode="&#x2260;" horiz-adv-x="1229" 
d="M473 562l10 22q11 24 11 35q0 27 -46 27h-58q-125 0 -199 -6q-13 -1 -22 -1q-19 0 -32.5 11.5t-13.5 27.5q0 17 21.5 78.5t36.5 88.5q26 46 67 46q12 0 29 -2q99 -9 164 -9h121q47 0 63 21t59 137q16 44 34 56.5t66 12.5q83 0 144 -14q34 -8 34 -40q0 -15 -34 -76
q-33 -58 -33 -69q0 -29 59 -29q63 0 87 3q21 3 26 3q39 0 39 -39q0 -23 -17 -78.5t-34 -88.5q-25 -47 -58 -47q-10 0 -67 9q-42 6 -110 6q-42 0 -60 -25q-9 -14 -19 -38t-10 -34q0 -25 43 -25h173q77 0 95 2q20 3 25 3q39 0 39 -39q0 -23 -17 -78.5t-34 -88.5
q-25 -47 -58 -47l-159 14h-179q-43 0 -59 -19t-47 -104q-19 -65 -27 -75q-17 -23 -65 -23q-86 0 -149 17q-43 12 -43 42q0 14 17 40q42 63 42 95q0 26 -42 26q-36 0 -95 -5q-13 -1 -21 -1q-20 0 -33.5 11.5t-13.5 29.5q0 15 22 77.5t36 87.5q26 46 67 46q11 0 30 -2
q60 -6 97 -7q18 -1 22 -1q12 -1 19 -1q40 0 57 37z" />
    <glyph glyph-name="AE" unicode="&#xc6;" horiz-adv-x="2119" 
d="M959 1368h665q122 1 180 23q42 14 57 14q44 0 79 -36t58.5 -106.5t23.5 -138.5q0 -60 -29.5 -100t-74.5 -40q-48 0 -91 64q-53 78 -111 98q-83 29 -210 29q-114 0 -145 -24t-31 -113v-158q0 -39 5.5 -53.5t23.5 -20.5q28 -9 106 -9q39 0 55.5 21.5t19.5 78.5
q3 52 27.5 82t63.5 30q26 0 49 -15.5t34 -39.5q14 -35 24.5 -111t10.5 -147q0 -133 -38 -223q-14 -34 -40.5 -55t-54.5 -21q-53 0 -63 85q-8 68 -36 95t-91 27q-45 0 -63.5 -24t-18.5 -85q0 -66 6.5 -144t14.5 -101q10 -33 54.5 -43t179.5 -10q138 0 223 69q47 38 87 124
q21 45 43.5 63.5t56.5 18.5q42 0 69.5 -37t27.5 -95q0 -55 -26 -136t-63 -143q-31 -51 -51 -66t-57 -15q-25 0 -57 8q-40 10 -109 11l-894 -6q-114 -1 -114 85q0 60 73 91q59 25 59 60q0 42 -45 53.5t-210 11.5q-69 0 -94 -8q-39 -12 -39 -51q0 -20 9.5 -30.5t47.5 -30.5
q63 -33 63 -85q0 -109 -291 -109q-158 0 -233 29q-33 12 -54 38t-21 54q0 34 19 53.5t70 37.5q29 10 45 24t40 49q148 219 271 444l211 387q38 68 38 101l-2 56q0 65 64 95q30 14 59 17t144 3zM896 686v141q0 51 -5 67q-10 28 -36 28q-19 0 -33 -15t-40 -61l-95 -173
q-30 -53 -30 -81q0 -35 30 -48t111 -13q60 0 79 30.5t19 124.5z" />
    <glyph glyph-name="Oslash" unicode="&#xd8;" horiz-adv-x="1593" 
d="M1312 1219l117 100q12 10 30 10q22 0 39 -20l15 -18q14 -18 14 -37t-19 -36l-109 -92q-11 -9 -11 -14t14 -23q67 -88 105.5 -199.5t38.5 -221.5q0 -244 -156 -429q-132 -157 -345 -225q-128 -42 -259 -42q-182 0 -350 84q-90 45 -137 89q-11 11 -17 11q-4 0 -14 -9
l-106 -88q-20 -16 -31 -16q-21 0 -36 16l-22 24q-12 13 -12 31q0 20 21 37l100 87q10 9 10 13q0 5 -13 22q-62 85 -96.5 192.5t-34.5 217.5q0 244 139 431q117 158 320 229q140 49 281 49q195 0 356 -80q88 -44 136 -90q9 -10 16 -10t16 7zM641 637l258 223q34 30 34 47
q0 25 -46 88q-81 111 -177 111q-70 0 -118 -59t-48 -145q0 -83 23 -178q12 -51 13 -54q9 -55 28 -55q8 0 33 22zM949 735l-257 -222q-34 -30 -34 -44q0 -26 48 -98q69 -103 168 -103q78 0 122.5 55.5t44.5 151.5q0 90 -30 229q-12 53 -27 53q-9 0 -35 -22z" />
    <glyph glyph-name="infinity" unicode="&#x221e;" horiz-adv-x="1365" 
d="M690 509q-47 -45 -82 -72q-106 -80 -237 -80q-156 0 -255 108q-83 89 -83 229q0 168 119 263q93 75 216 75q144 0 249 -97q50 -46 59 -53l10 9q82 78 151 109.5t154 31.5q80 0 152.5 -32.5t118.5 -89.5q69 -86 69 -214q0 -160 -107 -255q-96 -84 -229 -84
q-151 0 -270 117q-26 27 -35 35zM824 695q62 -80 121 -80q38 0 64 23.5t26 56.5t-26.5 56.5t-63.5 23.5q-48 0 -90 -44q-34 -34 -31 -36zM541 694q-63 79 -122 79q-38 0 -64 -23t-26 -56q0 -32 26.5 -55.5t63.5 -23.5q49 0 91 43q33 34 31 36z" />
    <glyph glyph-name="plusminus" unicode="&#xb1;" horiz-adv-x="1229" 
d="M439 650h-49q-126 0 -199 -6q-13 -1 -22 -1q-19 0 -32.5 11.5t-13.5 27.5q0 17 21.5 78t36.5 89q26 46 66 46q11 0 30 -2q111 -10 137 -9h25h2q54 0 53 54v10q-1 62 -12 138q-2 10 -2 21q0 36 62 64q38 16 88 30.5t71 14.5q41 0 41 -39q0 -4 -3 -25q-2 -14 -2 -95v-119
q1 -53 55 -54h155q76 0 94 2q20 3 26 3q39 0 39 -40q0 -22 -17 -77.5t-35 -88.5q-24 -47 -57 -47l-159 14h-46q-56 0 -56 -49q0 -8 2 -26q0 -6 2 -30q2 -30 7 -75q2 -19 2 -31q0 -44 -61 -73q-33 -15 -89.5 -33t-70.5 -18q-18 0 -29.5 13.5t-11.5 33.5q0 9 1 21q6 79 6 199
v13q3 57 -55 55zM441 255h506q78 0 95 2q20 3 25 3q39 0 39 -40q0 -22 -17 -77.5t-34 -89.5q-25 -46 -58 -46l-159 14h-448q-120 0 -199 -5q-12 -1 -22 -1q-19 0 -32.5 11.5t-13.5 27.5q0 17 21.5 78t36.5 88q26 46 67 46q12 0 29 -2q99 -9 164 -9z" />
    <glyph glyph-name="lessequal" unicode="&#x2264;" 
d="M955 1417v-417l-400 -82l398 -80l2 -417l-887 313v372zM955 371v-392h-887v392h887z" />
    <glyph glyph-name="greaterequal" unicode="&#x2265;" 
d="M68 421l2 417l398 80l-400 82v417l887 -311v-372zM68 -21v392h887v-392h-887z" />
    <glyph glyph-name="yen" unicode="&#xa5;" horiz-adv-x="1229" 
d="M1016 716h-103q-60 -4 -66 -10q-7 -9 -16.5 -52.5t-9.5 -73.5q0 -33 26 -33h27h91l63 2q57 0 79 -17t22 -61q0 -64 -80 -61q-36 1 -53 -1h-108q-39 0 -51.5 -6.5t-12.5 -25.5q0 -41 7 -98q5 -33 18.5 -51t47.5 -36q65 -35 65 -87q0 -125 -362 -125q-149 0 -279 29
q-112 25 -112 98q0 58 68 83q53 19 64 47q7 19 15.5 64.5t8.5 66.5q0 34 -40 31l-13 -1h-53l-62 -2q-53 0 -75 18t-22 61q0 42 23.5 53.5t105.5 11.5h88q32 0 42.5 6t10.5 24q0 51 -16 94q-15 41 -43 41l-24 -1h-49l-36 -1l-24 -1q-54 0 -76 18t-22 61q0 40 19.5 52t83.5 12
q32 1 39.5 4t7.5 17q0 12 -27 45q-4 5 -23 31q-77 104 -117 122q-49 24 -61.5 39.5t-12.5 49.5q0 66 75.5 93t259.5 27q164 0 252 -19q40 -9 64.5 -33t24.5 -54q0 -27 -25 -51q-38 -36 -38 -55q0 -33 51 -105q34 -47 63 -47q34 0 83 65q36 47 36 71q0 18 -5.5 26t-36.5 39
q-23 23 -23 60q0 102 250 102q121 0 161 -15q26 -9 42.5 -34.5t16.5 -56.5q0 -37 -16.5 -55.5t-59.5 -29.5q-31 -9 -55.5 -28.5t-69.5 -74.5q-63 -77 -73.5 -91t-10.5 -20q0 -14 24 -14q6 0 36 3h29q60 0 83 -17t23 -61q0 -63 -78 -61q-33 1 -56 -1z" />
    <glyph glyph-name="mu" unicode="&#xb5;" horiz-adv-x="1229" 
d="M488 -14q-6 -152 -41 -212q-31 -53 -105.5 -88.5t-155.5 -35.5q-82 0 -136.5 34t-54.5 86q0 25 12.5 41t30.5 16q8 0 19 -2q19 -4 30 -4q23 0 39.5 15t16.5 36q0 8 -3 23q-5 32 -5 61v471q0 157 -10 198.5t-54 65.5q-35 18 -44 28.5t-9 29.5q0 67 102 89q173 38 348 38
q51 0 51 -44v-480q0 -155 101 -155q27 0 51.5 14.5t34.5 36.5q19 42 19 192q0 143 -10 196q-4 22 -12.5 32.5t-33.5 23.5q-51 26 -51 67q0 55 87 77q164 40 325 40q90 0 90 -95l-1 -39l-1 -43l-2 -62v-390q0 -30 51 -55q43 -21 43 -60q0 -76 -167 -119q-119 -31 -237 -31
q-41 0 -56.5 10t-17.5 37q-5 55 -33 55q-14 0 -74 -41q-71 -48 -137 -57z" />
    <glyph glyph-name="partialdiff" unicode="&#x2202;" 
d="M76 1026l47 323q414 -35 641 -220q247 -199 247 -550q0 -333 -189 -488q-131 -107 -337 -107q-205 0 -330 122q-69 67 -108.5 166t-39.5 204q0 96 42.5 181.5t118.5 143.5q107 80 263 80q74 0 114.5 -8.5t69.5 -29.5q-26 54 -59 77.5t-124 51.5q-89 28 -164 39.5
t-192 14.5zM505 571q-52 0 -87 -36.5t-35 -90.5q0 -53 36 -89.5t88 -36.5q50 0 86 37t36 88q0 53 -36 90t-88 38z" />
    <glyph glyph-name="summation" unicode="&#x2211;" horiz-adv-x="1365" 
d="M1318 1536v-571h-380l-48 182h-346l483 -610l-479 -660h360l27 199h401v-588h-1268v447l457 601l-457 550v450h1250z" />
    <glyph glyph-name="product" unicode="&#x220f;" horiz-adv-x="1365" 
d="M23 1536h1319v-337h-144v-1373h144v-338h-634v338h112v1373h-276v-1373h110v-338h-631v338h147v1373h-147v337z" />
    <glyph glyph-name="pi" unicode="&#x3c0;" horiz-adv-x="1397" 
d="M192 0v673h-150v310h1312v-310h-149v-673h-395v673h-223v-673h-395z" />
    <glyph glyph-name="integral" unicode="&#x222b;" 
d="M-2 -492l66 402q57 -21 94 -21q40 0 71.5 19.5t44.5 51.5q7 20 8.5 51.5t1.5 202.5v515v127q0 182 8 253q16 132 73 218q139 210 446 210q84 0 216 -21l-66 -402q-59 21 -97 21q-83 0 -112 -71q-11 -25 -11 -110v-648q0 -271 -1.5 -325t-11.5 -107q-35 -191 -184 -298
q-125 -90 -331 -90q-89 0 -165 15q-33 6 -50 7z" />
    <glyph glyph-name="ordfeminine" unicode="&#xaa;" horiz-adv-x="777" 
d="M408 1148q142 0 218 -75q50 -48 50 -146l-1 -84q0 -85 8.5 -109.5t40.5 -28.5q26 -4 26 -32q0 -53 -62 -98t-134 -45q-71 0 -111 45q-11 13 -20 13q-10 0 -30 -13q-66 -45 -149 -45q-86 0 -139 34q-77 50 -77 137q0 84 86 137t225 53q33 0 41 5t8 26q0 112 -53 112
q-30 0 -66 -47q-59 -77 -124 -77q-35 0 -56.5 19.5t-21.5 50.5q0 47 62 91q47 33 126 55t153 22zM364 793q-25 0 -44 -19.5t-19 -45.5q0 -57 47 -57q45 0 45 78q0 44 -29 44z" />
    <glyph glyph-name="ordmasculine" unicode="&#xba;" horiz-adv-x="823" 
d="M437 1148q120 0 209 -57q65 -41 104 -107q41 -69 41 -144q0 -132 -130 -223q-124 -87 -282 -87q-154 0 -252 82q-95 79 -95 208q0 143 115 233q121 95 290 95zM386 998q-55 0 -55 -63q0 -46 21.5 -124.5t40.5 -101.5q17 -21 42 -21q52 0 52 57q0 62 -19 134t-42 100
q-16 19 -40 19z" />
    <glyph glyph-name="Ohm" unicode="&#x2126;" horiz-adv-x="1365" 
d="M56 0v367h203q-86 57 -128 112q-85 111 -85 285q0 165 83 316q87 157 242 242q141 77 312 77q288 0 470 -201q80 -88 125 -207q42 -113 42 -228q0 -182 -95 -297q-37 -45 -118 -99h203v-367h-568v337q83 40 116 121q12 29 22 105.5t10 138.5q0 124 -34 205
q-22 52 -71.5 86.5t-100.5 34.5q-52 0 -101 -34.5t-72 -87.5q-34 -80 -34 -207q0 -155 35 -240t113 -122v-337h-569z" />
    <glyph glyph-name="ae" unicode="&#xe6;" horiz-adv-x="1637" 
d="M1496 468h-447q-21 0 -27.5 -5.5t-6.5 -22.5q0 -53 48 -107q72 -80 174 -80q50 0 112.5 20.5t101.5 48.5q35 26 51 26q23 0 50 -37.5t27 -71.5q0 -38 -33.5 -82t-91.5 -82q-158 -102 -341 -102q-85 0 -173 28t-146 74q-20 16 -30 16q-8 0 -33 -13q-85 -44 -196 -74.5
t-186 -30.5q-141 0 -225 64q-97 73 -97 202q0 181 184 269q67 32 129 44t188 17q34 1 43 15t9 64q0 87 -25.5 136.5t-69.5 49.5q-30 0 -56.5 -21.5t-63.5 -74.5q-45 -66 -86 -94.5t-89 -28.5q-49 0 -81.5 29.5t-32.5 73.5q0 63 59 120.5t169 100.5q144 58 289 58
q58 0 125 -13t108 -31q21 -10 28 -10t31 10q42 18 114.5 30.5t136.5 12.5q168 0 293 -85q85 -57 135 -141q46 -78 46 -167q0 -67 -28 -104q-14 -19 -31 -25t-55 -6zM1062 653h125q28 0 38.5 10.5t10.5 40.5q0 54 -31 88.5t-80 34.5q-53 0 -85 -37q-36 -41 -36 -90
q0 -28 11.5 -37.5t46.5 -9.5zM540 426q-46 0 -77.5 -35.5t-31.5 -86.5q0 -45 24 -77t59 -32q79 0 79 127q0 63 -10.5 83t-42.5 21z" />
    <glyph glyph-name="oslash" unicode="&#xf8;" horiz-adv-x="1233" 
d="M1184 836l-61 -46q-13 -10 -13 -19q0 -7 9 -21q80 -118 80 -258q0 -229 -203 -379q-188 -140 -430 -140q-207 0 -360 109q-17 12 -26 12t-33 -18l-59 -43q-13 -9 -29 -9q-20 0 -40.5 22.5t-20.5 46.5q0 19 21 35l54 40q23 18 23 30q0 6 -11 26q-51 95 -51 234
q0 234 178 387q175 151 437 151q215 0 347 -109q20 -16 30 -16q7 0 20 9l70 52q17 13 31 13q21 0 41 -23.5t20 -47.5q0 -20 -24 -38zM691 474l-131 -98q-19 -13 -19 -26q0 -27 32 -76q37 -55 87 -55q41 0 64.5 30.5t23.5 83.5t-12 123q-5 34 -17 34q-7 0 -28 -16zM540 510
l132 96q18 13 18 27q0 10 -14 46q-34 87 -104 87q-40 0 -65 -30t-25 -79q0 -23 10 -102q2 -14 2 -19q4 -39 22 -39q7 0 24 13z" />
    <glyph glyph-name="questiondown" unicode="&#xbf;" horiz-adv-x="987" 
d="M528 996q86 0 149 -59q67 -64 67 -158q0 -86 -59 -147q-65 -69 -163 -69q-87 0 -149 65t-62 150q0 90 63.5 153.5t153.5 64.5zM514 465q60 0 95 -35t35 -96q0 -55 -27 -117q-7 -15 -77 -120q-65 -98 -65 -184q0 -43 19.5 -70.5t49.5 -27.5q31 0 44 19.5t19 73.5
q10 102 67 155q57 54 149 54q64 0 104 -36q46 -41 46 -105q0 -112 -89 -217q-61 -72 -163 -113t-220 -41q-113 0 -228 48q-119 50 -187 140q-66 86 -66 186q0 116 95 195q25 21 147 81q43 22 65.5 42.5t37.5 54.5q32 72 59.5 92.5t89.5 20.5z" />
    <glyph glyph-name="exclamdown" unicode="&#xa1;" horiz-adv-x="631" 
d="M316 996q86 0 149 -59q67 -64 67 -158q0 -86 -59 -147q-65 -69 -163 -69q-87 0 -149 65t-62 150q0 90 63.5 153.5t153.5 64.5zM320 453q41 0 113 -133q117 -215 117 -415q0 -113 -51 -191q-62 -96 -183 -96q-89 0 -152 64q-82 85 -82 238q0 101 36 220t94 209
q66 103 108 104z" />
    <glyph glyph-name="logicalnot" unicode="&#xac;" 
d="M518 0v229h-450v392h887v-621h-437z" />
    <glyph glyph-name="radical" unicode="&#x221a;" horiz-adv-x="1365" 
d="M1365 1693v-349h-299l-289 -1344h-503l-77 453h-197v349h435l30 -157q7 -36 14.5 -127t7.5 -137q0 -11 -1 -38h25q-2 180 71 575l174 775h609z" />
    <glyph glyph-name="florin" unicode="&#x192;" horiz-adv-x="1229" 
d="M821 673q-48 -11 -56 -109q-9 -126 -51 -428q-18 -128 -53 -206.5t-104 -143.5q-134 -127 -315 -127q-170 0 -275 100q-56 53 -56 122q0 62 38 102t97 40q50 0 81 -29q28 -26 28 -54l-1 -49q0 -21 15.5 -35t37.5 -14q47 0 71 48.5t50 195.5q20 113 38.5 292.5t18.5 257.5
q0 22 -9.5 30t-34.5 8h-10q-29 -3 -36 -3q-22 0 -22 26q0 14 5.5 56t8.5 55q5 18 16 30.5t20 12.5l63 -3q36 -2 43 44q14 105 33.5 153.5t66.5 100.5q131 145 329 145q148 0 245 -77q82 -66 82 -161q0 -52 -42 -89.5t-99 -37.5q-46 0 -78 28t-32 68v16q1 12 1 15
q0 27 -14.5 43.5t-38.5 16.5q-45 0 -70 -55q-18 -38 -18 -132q0 -48 14.5 -63t58.5 -15h22q16 1 31 1q43 0 43 -49q0 -48 -17 -89t-37 -41z" />
    <glyph glyph-name="approxequal" unicode="&#x2248;" 
d="M224 713l-211 150q44 115 86 178q98 148 245 148q36 0 64 -7.5t161 -51.5q103 -36 127 -36q58 0 105 72l211 -150q-41 -103 -70 -153.5t-71 -93.5q-81 -83 -189 -83q-52 0 -224 62q-102 36 -132 36q-52 0 -102 -71zM224 180l-211 150q44 115 86 178q98 148 245 148
q36 0 64 -7.5t161 -51.5q103 -36 127 -36q59 0 105 72l211 -150q-41 -103 -70 -153t-71 -94q-81 -83 -189 -83q-45 0 -224 61q-104 37 -133 37q-52 0 -101 -71z" />
    <glyph glyph-name="Delta" unicode="&#x2206;" horiz-adv-x="1378" 
d="M20 0l446 1365h440l451 -1365h-1337zM557 367h254l-122 554z" />
    <glyph glyph-name="guillemotleft" unicode="&#xab;" horiz-adv-x="1094" 
d="M441 972q38 0 67 -25.5t29 -58.5q0 -26 -15.5 -54.5t-95.5 -148.5q-67 -99 -67 -152q0 -32 27 -80.5t138 -219.5q19 -28 19 -60q0 -33 -27.5 -60.5t-59.5 -27.5q-40 0 -120 60.5t-178 164.5q-131 141 -131 223q0 44 36 98.5t130 153.5q99 104 153.5 145.5t94.5 41.5z
M964 973q38 0 67 -25.5t29 -58.5q0 -26 -15 -53.5t-96 -149.5q-67 -100 -67 -152q0 -32 27 -81t138 -219q19 -29 19 -60q0 -33 -27 -60.5t-60 -27.5q-40 0 -120 60.5t-178 165.5q-131 140 -131 222q0 44 36 99t129 153q100 104 154.5 145.5t94.5 41.5z" />
    <glyph glyph-name="guillemotright" unicode="&#xbb;" horiz-adv-x="1094" 
d="M654 971q41 0 105 -51t176 -173q75 -82 103 -128t28 -86q0 -91 -163 -256q-190 -192 -266 -192q-33 0 -60 27.5t-27 60.5q0 24 13 47.5t91 142.5q80 122 80 170q0 52 -67 152q-81 121 -96 148.5t-15 53.5q0 34 29 59t69 25zM131 973q41 0 105 -51t176 -174
q75 -81 103 -127t28 -87q0 -90 -163 -255q-190 -193 -266 -193q-33 0 -60 27.5t-27 60.5q0 23 13 47t91 144q80 122 80 170q0 51 -67 151q-81 122 -96 149.5t-15 53.5q0 34 29 59t69 25z" />
    <glyph glyph-name="ellipsis" unicode="&#x2026;" horiz-adv-x="1843" 
d="M308 445q95 0 165 -66q71 -67 71 -173q0 -99 -71 -167q-70 -66 -165 -66t-165 66q-71 68 -71 170q0 104 71 170q70 65 165 66zM922 445q95 0 165 -66q71 -67 71 -173q0 -99 -71 -167q-70 -66 -165 -66t-165 66q-71 68 -71 170q0 104 71 170q70 65 165 66zM1536 445
q96 0 166 -66q71 -67 71 -173q0 -100 -71 -167q-70 -66 -165 -66t-165 66q-71 68 -71 170q0 104 71 170q70 64 164 66z" />
    <glyph glyph-name="Agrave" unicode="&#xc0;" horiz-adv-x="1693" 
d="M1332 691l189 -405q27 -56 45 -73.5t55 -23.5q72 -11 72 -73q0 -73 -88 -105t-288 -32q-226 0 -335 19q-50 9 -79.5 36.5t-29.5 66.5q0 30 15.5 46.5t57.5 30.5q47 16 47 54q0 67 -81 79q-87 12 -245 12q-133 0 -159 -16q-16 -10 -28 -36t-12 -50q0 -22 8.5 -28.5
t55.5 -21.5q61 -18 61 -72q0 -119 -285 -119q-162 0 -238 22q-70 21 -70 92q0 31 15.5 48t55.5 31q65 23 98.5 64.5t95.5 177.5l141 309q78 170 104.5 254.5t27.5 165.5q1 86 10.5 119.5t42.5 65.5q69 70 176 70q101 0 193 -79q128 -108 372 -629zM636 565h196q54 0 54 24
q0 33 -75 162q-34 59 -52 79t-38 20q-36 0 -60 -67q-4 -9 -29 -71q-42 -102 -42 -122q0 -25 46 -25zM701 1812q71 0 116.5 -16.5t45.5 -42.5q0 -8 -10 -27q-5 -9 -5 -17q0 -15 10 -25t55 -43l20 -16q51 -39 51 -76q0 -74 -103 -74q-182 0 -334 116q-85 66 -85 112
q0 47 67.5 77.5t171.5 31.5z" />
    <glyph glyph-name="Atilde" unicode="&#xc3;" horiz-adv-x="1693" 
d="M1332 691l189 -405q27 -56 45 -73.5t55 -23.5q72 -11 72 -73q0 -73 -88 -105t-288 -32q-226 0 -335 19q-50 9 -79.5 36.5t-29.5 66.5q0 30 15.5 46.5t57.5 30.5q47 16 47 54q0 67 -81 79q-87 12 -245 12q-133 0 -159 -16q-16 -10 -28 -36t-12 -50q0 -22 8.5 -28.5
t55.5 -21.5q61 -18 61 -72q0 -119 -285 -119q-162 0 -238 22q-70 21 -70 92q0 31 15.5 48t55.5 31q65 23 98.5 64.5t95.5 177.5l141 309q78 170 104.5 254.5t27.5 165.5q1 86 10.5 119.5t42.5 65.5q69 70 176 70q101 0 193 -79q128 -108 372 -629zM636 565h196q54 0 54 24
q0 33 -75 162q-34 59 -52 79t-38 20q-36 0 -60 -67q-4 -9 -29 -71q-42 -102 -42 -122q0 -25 46 -25zM576 1822q37 2 72.5 -8t118.5 -46q85 -37 103 -43q39 -14 42 -15q20 -9 31 -9q25 0 28 26v33q0 26 28.5 45.5t67.5 19.5q60 0 95 -38t35 -102q0 -81 -54.5 -141.5
t-127.5 -60.5q-43 0 -124 27t-154 66q-66 35 -95 35q-13 0 -24 -6.5t-11 -13.5l2 -51q0 -18 -29 -33.5t-64 -15.5q-37 0 -77 34t-40 119q0 80 47 127t130 51z" />
    <glyph glyph-name="Otilde" unicode="&#xd5;" horiz-adv-x="1594" 
d="M808 1393q257 0 449 -147q130 -101 211 -262q79 -160 79 -320q0 -236 -156 -422q-132 -158 -345 -227q-131 -42 -263 -42q-173 0 -331 72q-191 87 -299 263q-105 170 -105 375q0 238 135 420q120 162 323 238q136 52 302 52zM713 1106q-84 0 -133 -75q-38 -56 -38 -133
q0 -113 46 -261.5t116 -263.5q31 -49 76.5 -78t92.5 -29q76 0 122.5 57t46.5 150q0 121 -39 261t-101 239q-38 61 -88 96t-101 37zM588 1822q37 2 72.5 -8t118.5 -46q85 -37 103 -43q39 -14 42 -15q20 -9 31 -9q25 0 28 26v33q0 26 28.5 45.5t67.5 19.5q60 0 95 -38t35 -102
q0 -81 -54.5 -141.5t-127.5 -60.5q-43 0 -124 27t-154 66q-66 35 -95 35q-13 0 -24 -6.5t-11 -13.5l2 -51q0 -18 -29 -33.5t-64 -15.5q-37 0 -77 34t-40 119q0 80 47 127t130 51z" />
    <glyph glyph-name="OE" unicode="&#x152;" horiz-adv-x="2218" 
d="M1847 0h-857q-48 0 -118 -9q-59 -7 -112 -7q-259 0 -445 150q-99 80 -168 204q-99 176 -99 362q0 210 122 388q113 165 308 243q138 55 281 55q35 0 173 -11q95 -7 148 -7h657q88 0 132.5 6t94.5 25q17 6 35 6q58 0 94 -54q31 -46 51.5 -115t20.5 -126q0 -56 -30.5 -92
t-77.5 -36q-56 0 -101 68q-32 49 -52 67t-55 31q-71 25 -209 25q-94 0 -126 -23q-18 -13 -23 -34t-5 -79v-161q0 -38 5.5 -51t24.5 -19q31 -10 90 -10q62 0 78 43q5 11 13 73q7 45 30.5 71t58.5 26q117 0 117 -294q0 -170 -52 -263q-31 -55 -80 -55q-33 0 -48.5 21t-19.5 73
q-10 113 -123 113q-53 0 -70 -27.5t-17 -112.5q0 -160 27 -223q11 -26 51.5 -34.5t158.5 -8.5q67 0 100.5 10t71.5 41q45 36 93 125q47 85 115 85q43 0 69 -31t26 -83q0 -62 -26.5 -138.5t-70.5 -143.5q-59 -90 -114 -90q-17 0 -76 18q-32 10 -71 9zM693 1110
q-73 0 -119 -59t-46 -153q0 -154 71 -351q49 -135 115.5 -207.5t141.5 -72.5t122 58t47 152q0 115 -39.5 256t-99.5 243q-78 132 -193 134z" />
    <glyph glyph-name="oe" unicode="&#x153;" horiz-adv-x="1811" 
d="M1690 448h-469q-34 0 -34 -22q0 -53 54 -111q67 -73 171 -73q111 0 211 67q28 18 43 18q25 0 51.5 -36t26.5 -70q0 -32 -30.5 -72t-80.5 -73q-158 -103 -345 -103q-83 0 -174.5 24.5t-138.5 59.5q-17 13 -25 13q-9 0 -25 -10q-60 -38 -162 -62.5t-196 -24.5
q-210 0 -351 107q-182 139 -182 370q0 270 217 427q163 119 406 119q166 0 307 -85q9 -5 14 -5q7 0 20 8q133 83 322 83q168 0 301 -104q163 -127 163 -294q0 -64 -27 -113q-20 -38 -67 -38zM1266 639h81q34 0 49 11t15 37q0 59 -29.5 95.5t-77.5 36.5q-52 0 -86 -35.5
t-34 -89.5q0 -36 13.5 -45.5t68.5 -9.5zM575 769q-43 0 -67.5 -31t-24.5 -84q0 -60 19.5 -161.5t45.5 -177.5q15 -45 45 -71t66 -26q85 0 85 126q0 90 -27 208.5t-59 167.5q-31 47 -83 49z" />
    <glyph glyph-name="endash" unicode="&#x2013;" horiz-adv-x="1229" 
d="M510 710h442q114 0 139 4q30 4 37 4q24 0 40.5 -16.5t16.5 -40.5q0 -34 -25 -115.5t-50 -130.5q-36 -68 -85 -68l-232 20h-358q-181 0 -290 -8q-19 -2 -32 -2q-29 0 -48.5 16.5t-19.5 41.5q0 24 31 113.5t54 131.5q37 67 97 67q17 0 44 -3q140 -14 239 -14z" />
    <glyph glyph-name="emdash" unicode="&#x2014;" horiz-adv-x="1749" 
d="M465 710h1051q114 0 139 4q30 4 37 4q24 0 40.5 -16.5t16.5 -40.5q0 -34 -25 -116t-50 -130q-36 -68 -85 -68l-232 20h-967q-181 0 -290 -8q-19 -2 -32 -2q-29 0 -48.5 16.5t-19.5 41.5q0 24 31 113.5t54 131.5q37 67 97 67q17 0 44 -3q140 -14 239 -14z" />
    <glyph glyph-name="quotedblleft" unicode="&#x201c;" horiz-adv-x="1145" 
d="M433 1393q36 0 64.5 -20t28.5 -44q0 -15 -19 -35q-65 -65 -90.5 -108.5t-25.5 -88.5q0 -32 33 -58q65 -50 91 -96t26 -109q0 -98 -63 -163.5t-158 -65.5q-106 0 -174 83q-60 74 -60 175q0 241 233 472q57 57 114 58zM963 1393q36 0 64.5 -20t28.5 -44q0 -15 -20 -35
q-64 -65 -89.5 -108.5t-25.5 -88.5q0 -32 33 -58q65 -50 91 -96t26 -109q0 -98 -63 -163.5t-158 -65.5q-106 0 -174 83q-60 74 -60 175q0 241 233 472q57 57 114 58z" />
    <glyph glyph-name="quotedblright" unicode="&#x201d;" horiz-adv-x="1145" 
d="M824 1392q106 0 174 -83q60 -73 60 -174q0 -120 -61 -244.5t-171 -228.5q-61 -57 -114 -57q-36 0 -64.5 19.5t-28.5 44.5q0 15 19 34q65 67 90 110t25 88q0 32 -34 57q-63 49 -89.5 95.5t-26.5 109.5q0 99 62 163.5t159 65.5zM294 1392q106 0 174 -83q60 -73 60 -175
q0 -119 -61.5 -243.5t-171.5 -228.5q-61 -57 -114 -57q-36 0 -64.5 19.5t-28.5 44.5q0 15 20 34q64 66 89.5 109.5t25.5 88.5q0 32 -34 57q-63 50 -89.5 96t-26.5 109q0 99 62 163.5t159 65.5z" />
    <glyph glyph-name="quoteleft" unicode="&#x2018;" horiz-adv-x="614" 
d="M433 1393q36 0 64.5 -20t28.5 -44q0 -15 -19 -35q-65 -65 -90.5 -108.5t-25.5 -88.5q0 -32 33 -58q65 -50 91 -96t26 -109q0 -98 -63 -163.5t-158 -65.5q-106 0 -174 83q-60 74 -60 175q0 241 233 472q57 57 114 58z" />
    <glyph glyph-name="quoteright" unicode="&#x2019;" horiz-adv-x="615" 
d="M294 1392q106 0 174 -83q60 -73 60 -174q0 -120 -61.5 -244.5t-171.5 -228.5q-61 -57 -114 -57q-36 0 -64.5 19.5t-28.5 44.5q0 15 20 34q64 66 89.5 109.5t25.5 88.5q0 32 -34 57q-63 50 -89.5 96t-26.5 109q0 99 62.5 163.5t158.5 65.5z" />
    <glyph glyph-name="divide" unicode="&#xf7;" horiz-adv-x="1229" 
d="M618 1093q62 0 105.5 -44t43.5 -106q0 -67 -45 -110t-108 -43q-61 0 -105.5 44.5t-44.5 105.5q0 64 44.5 108.5t109.5 44.5zM618 380q62 0 105.5 -44t43.5 -106q0 -68 -45 -111q-45 -42 -108 -42q-61 0 -105.5 44.5t-44.5 105.5q0 64 44.5 108.5t109.5 44.5zM441 703h506
q78 0 95 2q20 3 25 3q39 0 39 -40q0 -22 -17 -77.5t-34 -88.5q-25 -47 -58 -47l-159 14h-448q-120 0 -199 -6q-12 -1 -22 -1q-19 0 -32.5 11.5t-13.5 27.5q0 17 21.5 78.5t36.5 88.5q26 46 67 46q11 0 29 -2q97 -9 164 -9z" />
    <glyph glyph-name="lozenge" unicode="&#x25ca;" horiz-adv-x="1365" 
d="M683 1419l532 -736l-532 -736l-532 736zM683 1237l-404 -554l404 -555l403 555z" />
    <glyph glyph-name="ydieresis" unicode="&#xff;" horiz-adv-x="1268" 
d="M991 504l-132 -363q-49 -135 -98.5 -220.5t-112.5 -145.5q-130 -124 -313 -124q-148 0 -240 78q-71 60 -71 153q0 77 49.5 129.5t121.5 52.5t116 -48q21 -22 28 -39t21 -75q11 -44 50 -44q31 0 52 27t21 67q0 47 -52 157l-241 513q-38 80 -57 100t-84 49
q-20 8 -34.5 31.5t-14.5 45.5q0 89 177 121q118 21 269 21q106 0 167 -22q82 -29 82 -99q0 -25 -23 -59q-22 -32 -22 -57q0 -24 10.5 -50t44.5 -88q38 -70 67 -70q31 0 64 61.5t33 118.5q0 46 -25 75q-38 45 -38 77q0 51 68 81.5t182 30.5q212 0 212 -102q0 -37 -21.5 -59.5
t-78.5 -42.5q-48 -18 -76 -60q-44 -67 -101 -221zM453 1435q78 0 122.5 -36.5t44.5 -99.5q0 -84 -74 -131q-80 -52 -184 -52q-66 0 -107.5 39t-41.5 102q0 83 64 130.5t176 47.5zM968 1432q78 0 123 -36.5t45 -99.5q0 -84 -73 -131q-81 -52 -185 -52q-66 0 -107.5 39
t-41.5 102q0 83 63.5 130.5t175.5 47.5z" />
    <glyph glyph-name="Ydieresis" unicode="&#x178;" horiz-adv-x="1597" 
d="M439 1386q196 0 299 -21q47 -9 75.5 -35.5t28.5 -60.5q0 -26 -22 -53q-32 -41 -32 -59q0 -36 57 -115q37 -51 70 -51q21 0 41 15.5t52 55.5q39 49 39 78q0 18 -4.5 27t-32.5 43q-20 23 -20 62q0 113 306 113q173 0 225 -16q33 -10 54.5 -38t21.5 -60q0 -41 -25 -62
t-87 -32q-57 -11 -99 -43.5t-154 -152.5q-136 -147 -169.5 -216.5t-33.5 -207.5q0 -116 9 -215q5 -61 19 -84.5t58 -46.5q73 -38 73 -95q0 -136 -402 -136q-165 0 -312 32q-124 27 -124 107q0 62 76 89q57 20 71 51q32 69 32 326q0 80 -16 124.5t-70 115.5
q-113 147 -233 265q-52 51 -100 69q-68 25 -82 37q-28 24 -28 64q0 67 101 96.5t338 29.5zM629 1825q76 0 119 -36t43 -98q0 -83 -72 -130q-102 -66 -225 -66q-68 0 -110 36.5t-42 96.5q0 76 63 124q43 33 106.5 53.5t117.5 19.5zM1203 1839q75 0 118 -35.5t43 -98.5
q0 -84 -72 -130q-103 -66 -225 -66q-68 0 -110 36.5t-42 96.5q0 76 63 124q43 33 106.5 53.5t118.5 19.5z" />
    <glyph glyph-name="fraction" unicode="&#x2215;" horiz-adv-x="273" 
d="M-74 368l304 513q120 209 163 296q25 52 48.5 69.5t68.5 17.5q94 0 94 -51q0 -31 -78 -145q-53 -76 -165 -264l-309 -523q-29 -50 -105 -188q-65 -117 -75 -138q-27 -56 -47.5 -75t-53.5 -19q-117 0 -117 56q0 16 21 47q136 209 251 404z" />
    <glyph glyph-name="Euro" unicode="&#x20ac;" horiz-adv-x="1229" 
d="M672 377q78 -174 248 -174q78 0 122 15t91 56q28 25 43 25q24 0 38.5 -21.5t14.5 -54.5q0 -57 -34 -108.5t-85 -65.5q-13 -3 -20 -6q-89 -37 -156.5 -53.5t-179.5 -16.5q-188 0 -329.5 104.5t-201.5 289.5h-112q-91 0 -91 77q0 50 29 58t146 8q-5 43 -5 65v17h-79
q-91 0 -91 78q0 53 34 59t153 6q44 202 180.5 310t345.5 108q93 0 186 -37q30 -12 39 -12q17 0 41 10q22 10 37 10q54 0 112 -84.5t58 -154.5q0 -48 -25.5 -80.5t-66.5 -32.5q-51 0 -133 82q-75 72 -162 72q-112 0 -153.5 -49t-47.5 -136q69 2 248 2q53 0 72.5 -18.5
t19.5 -58.5q0 -30 -16.5 -46t-71.5 -16q-178 0 -249 -2q2 -29 10 -86q66 2 235 2q53 0 72.5 -18.5t19.5 -59.5q0 -27 -15.5 -43t-72.5 -16q-79 0 -198 -4z" />
    <glyph glyph-name="guilsinglleft" unicode="&#x2039;" horiz-adv-x="570" 
d="M441 973q38 0 67 -25.5t29 -58.5q0 -26 -15.5 -54.5t-95.5 -148.5q-67 -99 -67 -152q0 -32 27 -80.5t138 -219.5q19 -29 19 -60q0 -33 -27.5 -60.5t-59.5 -27.5q-40 0 -120 60.5t-178 164.5q-131 141 -131 223q0 44 36 98.5t130 153.5q99 104 153.5 145.5t94.5 41.5z" />
    <glyph glyph-name="guilsinglright" unicode="&#x203a;" horiz-adv-x="570" 
d="M131 973q41 0 105 -51t176 -174q75 -82 103 -127.5t28 -86.5q0 -90 -163 -255q-190 -193 -266 -193q-33 0 -60 27.5t-27 60.5q0 23 13 47t91 144q80 122 80 169q0 52 -67 152q-80 121 -95.5 149t-15.5 54q0 34 29 59t69 25z" />
    <glyph glyph-name="fi" unicode="&#xf001;" horiz-adv-x="1450" 
d="M627 810h15q31 0 44 -9.5t12 -31.5l-8 -119q-2 -33 -7 -41t-24 -14q-27 -7 -36.5 -34t-9.5 -92v-168q0 -59 8 -81t51 -85q12 -18 12 -41q0 -114 -326 -114q-338 0 -338 137q0 34 14.5 50t63.5 38q53 23 64 89q17 97 17 209q0 51 -17.5 70.5t-63.5 18.5q-55 -1 -69.5 5
t-13.5 27l8 126q1 31 10 38.5t47 9.5t38 36q0 14 -27 64q-46 83 -46 165q0 136 110 219q67 50 155 72t223 22q181 0 358 -35t291 -93q125 -64 125 -138q0 -29 -17.5 -60t-43.5 -49q-53 -37 -140.5 -60t-176.5 -23q-122 0 -159 69q-6 11 -16 55q-12 52 -41 71
q-30 19 -93 32.5t-125 13.5q-140 0 -140 -79t148 -168q46 -28 62.5 -44.5t29.5 -45.5q7 -12 32 -12zM1317 818v-472q0 -69 12.5 -101t50.5 -59q52 -38 52 -77q0 -69 -86.5 -99.5t-284.5 -30.5q-137 0 -187 13q-92 24 -92 92q0 21 6 30.5t40 45.5q39 42 39 317q0 58 -13 84
t-49 42q-62 28 -62 80q0 63 81 95q111 42 239.5 72.5t198.5 30.5q55 0 55 -63z" />
    <glyph glyph-name="fl" unicode="&#xf002;" horiz-adv-x="1441" 
d="M1304 794v-321q0 -213 6.5 -248.5t49.5 -54.5q37 -15 49.5 -29t12.5 -41q0 -32 -23.5 -59t-62.5 -39q-71 -22 -263 -22q-105 0 -151 5t-80 19q-59 25 -59 81q0 20 6 29.5t40 46.5q23 24 32.5 123.5t9.5 305.5q0 270 -11 335q-7 39 -40 70.5t-110 74.5q-154 84 -254 84
q-47 0 -74.5 -20.5t-27.5 -56.5q0 -75 149 -165q47 -29 63 -44.5t29 -45.5q7 -12 32 -12h96q57 0 57 -38v-3l-8 -119q-2 -35 -11.5 -45t-40.5 -10q-8 0 -19 1q-16 1 -25 1q-35 0 -49 -28.5t-14 -99.5v-168q0 -59 8 -81.5t51 -84.5q12 -17 12 -41q0 -114 -326 -114
q-338 0 -338 137q0 34 14.5 50t63.5 38q53 23 64 89q17 97 17 209q0 51 -17.5 70.5t-63.5 18.5q-55 -1 -69.5 5t-13.5 27l8 126q1 31 10 38.5t47 9.5t38 36q0 14 -27 64q-46 84 -46 163q0 122 99 211q53 48 133 76t162 28q103 0 247 -55l33 -13q72 -31 94 -31q20 0 104 25
q212 64 333 64q79 0 79 -98q0 -30 -10 -147q-9 -165 -15 -327z" />
    <glyph glyph-name="daggerdbl" unicode="&#x2021;" horiz-adv-x="1475" 
d="M553 494v91l1 19v12q0 25 -13 30q-14 6 -178 6q-28 0 -42 -6.5t-32 -27.5q-30 -35 -48 -46.5t-43 -11.5q-59 0 -95 61t-36 160q0 122 39 186q34 56 85 56q27 0 43 -14.5t68 -87.5q34 -47 78 -51q49 -4 132 -4q35 0 35 27l-1 70l1 44q0 64 -13 94t-49 51q-50 30 -61.5 43
t-11.5 40q0 65 105 108q103 42 221 42q129 0 235 -48q90 -42 90 -102q0 -27 -11.5 -40.5t-60.5 -42.5q-57 -33 -61 -95q-2 -41 -2 -160q0 -32 30 -31q37 1 64 1q87 -1 108 11.5t83 98.5q34 46 71 46q57 0 90.5 -65.5t33.5 -175.5q0 -136 -58 -190q-35 -32 -73 -32
q-25 0 -42.5 11.5t-48.5 46.5q-18 21 -32 27.5t-41 6.5q-143 0 -167.5 -4.5t-23.5 -29.5v-88v-100q-1 -41 -1 -49q0 -25 13 -30q13 -6 178 -6q28 0 42 6t32 27q30 35 48 46.5t43 11.5q59 0 95 -60.5t36 -160.5q0 -121 -39 -185q-34 -56 -85 -56q-27 0 -42.5 14t-68.5 88
q-27 37 -60.5 45.5t-150.5 8.5q-34 0 -34 -27l1 -70l-1 -47q0 -61 13 -91t50 -51q49 -30 60.5 -43t11.5 -40q0 -65 -105 -108q-102 -42 -220 -42q-131 0 -228.5 45t-97.5 105q0 27 11.5 40.5t60.5 42.5q45 26 54 63.5t9 191.5q0 31 -29 31q-138 0 -166 -10q-18 -6 -29.5 -19
t-61.5 -81q-33 -46 -70 -46q-57 0 -90.5 66t-33.5 175q0 135 58 189q34 32 73 32q25 0 42.5 -11.5t48.5 -46.5q18 -20 32 -26.5t41 -6.5q112 0 146.5 2.5t40.5 10.5q4 5 4 53v83z" />
    <glyph glyph-name="periodcentered" unicode="&#x2219;" horiz-adv-x="614" 
d="M311 741q96 0 164.5 -68.5t68.5 -164.5q0 -105 -71 -173q-70 -66 -165 -66t-165 66q-71 68 -71 173q0 92 60 155q72 78 179 78z" />
    <glyph glyph-name="quotesinglbase" unicode="&#x201a;" horiz-adv-x="614" 
d="M291 458q49 0 97 -23.5t80 -63.5q76 -95 76 -240q0 -80 -29.5 -179.5t-77.5 -180.5q-79 -132 -165 -132q-38 0 -68.5 23t-30.5 53q0 16 38 77q23 36 40.5 81t17.5 68q0 36 -34 49q-67 25 -95 49q-84 72 -84 185q0 90 59 154q73 80 176 80z" />
    <glyph glyph-name="quotedblbase" unicode="&#x201e;" horiz-adv-x="1145" 
d="M824 427q106 0 174 -83q60 -73 60 -175q0 -120 -61 -244.5t-171 -228.5q-61 -57 -114 -57q-36 0 -64.5 19.5t-28.5 44.5q0 15 19 35q65 66 90 109t25 88q0 32 -34 58q-63 49 -89.5 95.5t-26.5 109.5q0 99 62 163.5t159 65.5zM294 427q106 0 174 -83q60 -73 60 -175
q0 -120 -61.5 -244.5t-171.5 -228.5q-61 -57 -114 -57q-36 0 -64.5 19.5t-28.5 44.5q0 15 20 35q64 65 89.5 108.5t25.5 88.5q0 32 -34 58q-64 50 -90 96t-26 109q0 99 62.5 163.5t158.5 65.5z" />
    <glyph glyph-name="perthousand" unicode="&#x2030;" horiz-adv-x="2558" 
d="M451 1385q129 0 232 -80q133 -102 133 -253q0 -73 -36.5 -143t-100.5 -121q-122 -96 -287 -96q-167 0 -271 98q-94 89 -94 226q0 162 115 261q57 49 141 78.5t168 29.5zM386 1230q-26 0 -43 -20.5t-17 -53.5q0 -99 42 -204q19 -49 36.5 -67.5t45.5 -18.5q56 0 56 76
q0 116 -45 219q-28 67 -75 69zM1322 685q129 0 232 -80q133 -102 133 -253q0 -74 -36.5 -144t-100.5 -121q-122 -96 -287 -96q-167 0 -271 98q-94 89 -94 227q0 161 115 261q57 49 141 78.5t168 29.5zM1257 530q-26 0 -43 -20.5t-17 -53.5q0 -99 42 -205q19 -49 36.5 -67.5
t45.5 -18.5q56 0 56 77q0 115 -44 219q-29 67 -76 69zM2166 685q129 0 232 -80q133 -102 133 -253q0 -74 -36.5 -144t-100.5 -121q-122 -96 -287 -96q-167 0 -271 98q-94 89 -94 227q0 161 115 261q57 49 141 78.5t168 29.5zM2101 530q-26 0 -43 -20.5t-17 -53.5
q0 -99 42 -205q19 -49 36.5 -67.5t45.5 -18.5q56 0 56 77q0 115 -45 219q-28 67 -75 69zM655 498l304 512q122 213 163 297q25 51 48.5 68.5t67.5 17.5q95 0 95 -47q0 -33 -78 -148q-60 -87 -165 -264l-309 -523q-91 -167 -180 -326q-26 -56 -47 -75t-55 -19q-51 0 -83.5 15
t-32.5 38q0 19 21 50q29 42 165 259z" />
    <glyph glyph-name="Acircumflex" unicode="&#xc2;" horiz-adv-x="1693" 
d="M1332 691l189 -405q27 -56 45 -73.5t55 -23.5q72 -11 72 -73q0 -73 -88 -105t-288 -32q-226 0 -335 19q-50 9 -79.5 36.5t-29.5 66.5q0 30 15.5 46.5t57.5 30.5q47 16 47 54q0 67 -81 79q-87 12 -245 12q-133 0 -159 -16q-16 -10 -28 -36t-12 -50q0 -22 8.5 -28.5
t55.5 -21.5q61 -18 61 -72q0 -119 -285 -119q-162 0 -238 22q-70 21 -70 92q0 31 15.5 48t55.5 31q65 23 98.5 64.5t95.5 177.5l141 309q78 170 104.5 254.5t27.5 165.5q1 86 10.5 119.5t42.5 65.5q69 70 176 70q101 0 193 -79q128 -108 372 -629zM636 565h196q54 0 54 24
q0 33 -75 162q-34 59 -52 79t-38 20q-36 0 -60 -67q-4 -9 -29 -71q-42 -102 -42 -122q0 -25 46 -25zM793 1840q33 0 107 -41.5t152 -102.5q70 -55 96.5 -87t26.5 -61q0 -30 -22 -53t-51 -23q-39 0 -165 60q-99 47 -146 47q-28 0 -48 -7.5t-92 -45.5q-106 -56 -152 -56
q-34 0 -55.5 22.5t-21.5 58.5q0 33 33 71.5t115 100.5q155 117 223 117z" />
    <glyph glyph-name="Ecircumflex" unicode="&#xca;" horiz-adv-x="1415" 
d="M247 1365h514q156 0 227.5 6.5t139.5 26.5q21 6 33 6q52 0 92 -56q66 -91 66 -220q0 -65 -27.5 -102.5t-75.5 -37.5q-33 0 -51.5 13.5t-49.5 60.5q-44 67 -111.5 89.5t-221.5 22.5q-115 0 -140 -41q-13 -22 -15.5 -59t-2.5 -189q0 -60 20 -74.5t105 -14.5q42 0 61 17.5
t24 62.5q7 58 14.5 79.5t27.5 37.5q21 18 49 18q41 0 70 -39q21 -29 35.5 -102.5t14.5 -153.5q0 -158 -49 -259q-27 -55 -82 -55q-34 0 -47 17.5t-20 72.5q-15 113 -132 113q-45 0 -61.5 -28.5t-16.5 -105.5q0 -47 6.5 -121.5t13.5 -98.5q8 -30 49.5 -41.5t138.5 -11.5
q150 0 226 38.5t124 139.5q28 58 50.5 78t58.5 20q42 0 69.5 -36.5t27.5 -91.5q0 -60 -31 -150t-76 -160q-23 -34 -38 -45.5t-38 -11.5q-19 0 -55 6q-64 12 -171 15h-848q-51 0 -79 22.5t-28 63.5q0 29 12 42t55 33q30 13 44.5 32t22.5 56q33 151 33 407q0 386 -48 487
q-10 20 -22 28t-50 19q-57 17 -57 76q0 32 19 57t50 33q39 9 151 9zM702 1840q33 0 107 -41.5t152 -102.5q70 -55 96.5 -87t26.5 -61q0 -30 -22 -53t-51 -23q-39 0 -165 60q-99 47 -146 47q-28 0 -48 -7.5t-92 -45.5q-106 -56 -152 -56q-34 0 -55.5 22.5t-21.5 58.5
q0 33 33 71.5t115 100.5q155 117 223 117z" />
    <glyph glyph-name="Aacute" unicode="&#xc1;" horiz-adv-x="1693" 
d="M1332 691l189 -405q27 -56 45 -73.5t55 -23.5q72 -11 72 -73q0 -73 -88 -105t-288 -32q-226 0 -335 19q-50 9 -79.5 36.5t-29.5 66.5q0 30 15.5 46.5t57.5 30.5q47 16 47 54q0 67 -81 79q-87 12 -245 12q-133 0 -159 -16q-16 -10 -28 -36t-12 -50q0 -22 8.5 -28.5
t55.5 -21.5q61 -18 61 -72q0 -119 -285 -119q-162 0 -238 22q-70 21 -70 92q0 31 15.5 48t55.5 31q65 23 98.5 64.5t95.5 177.5l141 309q78 170 104.5 254.5t27.5 165.5q1 86 10.5 119.5t42.5 65.5q69 70 176 70q101 0 193 -79q128 -108 372 -629zM636 565h196q54 0 54 24
q0 33 -75 162q-34 59 -52 79t-38 20q-36 0 -60 -67q-4 -9 -29 -71q-42 -102 -42 -122q0 -25 46 -25zM895 1812q91 0 162 -27q35 -13 57 -37t21 -48q-2 -45 -85 -109q-151 -116 -334 -116q-103 0 -103 74q0 26 10.5 39.5t60.5 52.5q45 32 55 42.5t10 25.5q0 8 -12 29
q-4 7 -4 15q0 26 45 42t117 17z" />
    <glyph glyph-name="Edieresis" unicode="&#xcb;" horiz-adv-x="1415" 
d="M247 1365h514q156 0 227.5 6.5t139.5 26.5q21 6 33 6q52 0 92 -56q66 -91 66 -220q0 -65 -27.5 -102.5t-75.5 -37.5q-33 0 -51.5 13.5t-49.5 60.5q-44 67 -111.5 89.5t-221.5 22.5q-115 0 -140 -41q-13 -22 -15.5 -59t-2.5 -189q0 -60 20 -74.5t105 -14.5q42 0 61 17.5
t24 62.5q7 58 14.5 79.5t27.5 37.5q21 18 49 18q41 0 70 -39q21 -29 35.5 -102.5t14.5 -153.5q0 -158 -49 -259q-27 -55 -82 -55q-34 0 -47 17.5t-20 72.5q-15 113 -132 113q-45 0 -61.5 -28.5t-16.5 -105.5q0 -47 6.5 -121.5t13.5 -98.5q8 -30 49.5 -41.5t138.5 -11.5
q150 0 226 38.5t124 139.5q28 58 50.5 78t58.5 20q42 0 69.5 -36.5t27.5 -91.5q0 -60 -31 -150t-76 -160q-23 -34 -38 -45.5t-38 -11.5q-19 0 -55 6q-64 12 -171 15h-848q-51 0 -79 22.5t-28 63.5q0 29 12 42t55 33q30 13 44.5 32t22.5 56q33 151 33 407q0 386 -48 487
q-10 20 -22 28t-50 19q-57 17 -57 76q0 32 19 57t50 33q39 9 151 9zM483 1825q76 0 119 -36t43 -98q0 -83 -72 -130q-102 -66 -225 -66q-68 0 -110 36.5t-42 96.5q0 76 63 124q43 33 106.5 53.5t117.5 19.5zM1057 1839q75 0 118 -35.5t43 -98.5q0 -84 -72 -130
q-103 -66 -225 -66q-68 0 -110 36.5t-42 96.5q0 76 63 124q43 33 106.5 53.5t118.5 19.5z" />
    <glyph glyph-name="Egrave" unicode="&#xc8;" horiz-adv-x="1415" 
d="M247 1365h514q156 0 227.5 6.5t139.5 26.5q21 6 33 6q52 0 92 -56q66 -91 66 -220q0 -65 -27.5 -102.5t-75.5 -37.5q-33 0 -51.5 13.5t-49.5 60.5q-44 67 -111.5 89.5t-221.5 22.5q-115 0 -140 -41q-13 -22 -15.5 -59t-2.5 -189q0 -60 20 -74.5t105 -14.5q42 0 61 17.5
t24 62.5q7 58 14.5 79.5t27.5 37.5q21 18 49 18q41 0 70 -39q21 -29 35.5 -102.5t14.5 -153.5q0 -158 -49 -259q-27 -55 -82 -55q-34 0 -47 17.5t-20 72.5q-15 113 -132 113q-45 0 -61.5 -28.5t-16.5 -105.5q0 -47 6.5 -121.5t13.5 -98.5q8 -30 49.5 -41.5t138.5 -11.5
q150 0 226 38.5t124 139.5q28 58 50.5 78t58.5 20q42 0 69.5 -36.5t27.5 -91.5q0 -60 -31 -150t-76 -160q-23 -34 -38 -45.5t-38 -11.5q-19 0 -55 6q-64 12 -171 15h-848q-51 0 -79 22.5t-28 63.5q0 29 12 42t55 33q30 13 44.5 32t22.5 56q33 151 33 407q0 386 -48 487
q-10 20 -22 28t-50 19q-57 17 -57 76q0 32 19 57t50 33q39 9 151 9zM603 1812q71 0 116.5 -16.5t45.5 -42.5q0 -8 -10 -27q-5 -9 -5 -17q0 -15 10 -25t55 -43l20 -16q51 -39 51 -76q0 -74 -103 -74q-182 0 -334 116q-85 66 -85 112q0 47 67.5 77.5t171.5 31.5z" />
    <glyph glyph-name="Iacute" unicode="&#xcd;" horiz-adv-x="847" 
d="M468 1386q114 0 215 -20q136 -27 136 -115q0 -29 -13.5 -43.5t-68.5 -42.5q-46 -23 -60.5 -101t-14.5 -304q0 -382 19 -473q7 -29 21.5 -44.5t50.5 -33.5q66 -30 66 -87q0 -80 -122 -110q-132 -32 -323 -32q-326 0 -326 124q0 45 64 84q49 30 58 82q19 114 19 484
q0 256 -26 328q-14 41 -67 74q-41 27 -55 45t-14 46q0 43 41.5 68.5t146.5 45.5q125 25 253 25zM533 1812q91 0 162 -27q35 -13 57 -37t21 -48q-2 -45 -85 -109q-151 -116 -334 -116q-103 0 -103 74q0 26 10.5 39.5t60.5 52.5q45 32 55 42.5t10 25.5q0 8 -12 29q-4 7 -4 15
q0 26 45 42t117 17z" />
    <glyph glyph-name="Icircumflex" unicode="&#xce;" horiz-adv-x="847" 
d="M468 1386q114 0 215 -20q136 -27 136 -115q0 -29 -13.5 -43.5t-68.5 -42.5q-46 -23 -60.5 -101t-14.5 -304q0 -382 19 -473q7 -29 21.5 -44.5t50.5 -33.5q66 -30 66 -87q0 -80 -122 -110q-132 -32 -323 -32q-326 0 -326 124q0 45 64 84q49 30 58 82q19 114 19 484
q0 256 -26 328q-14 41 -67 74q-41 27 -55 45t-14 46q0 43 41.5 68.5t146.5 45.5q125 25 253 25zM418 1840q33 0 107 -41.5t152 -102.5q70 -55 96.5 -87t26.5 -61q0 -30 -22 -53t-51 -23q-39 0 -165 60q-99 47 -146 47q-28 0 -48 -7.5t-92 -45.5q-106 -56 -152 -56
q-34 0 -55.5 22.5t-21.5 58.5q0 33 33 71.5t115 100.5q155 117 223 117z" />
    <glyph glyph-name="Idieresis" unicode="&#xcf;" horiz-adv-x="847" 
d="M469 1386q114 0 215 -20q136 -27 136 -115q0 -29 -13.5 -43.5t-68.5 -42.5q-46 -23 -60.5 -101t-14.5 -304q0 -382 19 -473q7 -29 21.5 -44.5t50.5 -33.5q66 -30 66 -87q0 -80 -122 -110q-132 -32 -323 -32q-326 0 -326 124q0 45 64 84q49 30 58 82q19 114 19 484
q0 256 -26 328q-14 41 -67 74q-41 27 -55 45t-14 46q0 43 41.5 68.5t146.5 45.5q125 25 253 25zM227 1825q76 0 119 -36t43 -98q0 -83 -72 -130q-102 -66 -225 -66q-68 0 -110 36.5t-42 96.5q0 76 63 124q43 33 106.5 53.5t117.5 19.5zM746 1839q75 0 118 -36t43 -98
q0 -83 -72 -130q-103 -66 -225 -66q-68 0 -110 36.5t-42 96.5q0 76 63 124q43 33 106.5 53.5t118.5 19.5z" />
    <glyph glyph-name="Igrave" unicode="&#xcc;" horiz-adv-x="847" 
d="M468 1386q114 0 215 -20q136 -27 136 -115q0 -29 -13.5 -43.5t-68.5 -42.5q-46 -23 -60.5 -101t-14.5 -304q0 -382 19 -473q7 -29 21.5 -44.5t50.5 -33.5q66 -30 66 -87q0 -80 -122 -110q-132 -32 -323 -32q-326 0 -326 124q0 45 64 84q49 30 58 82q19 114 19 484
q0 256 -26 328q-14 41 -67 74q-41 27 -55 45t-14 46q0 43 41.5 68.5t146.5 45.5q125 25 253 25zM333 1812q71 0 116.5 -16.5t45.5 -42.5q0 -8 -10 -27q-5 -9 -5 -17q0 -15 10 -25t55 -43l20 -16q51 -39 51 -76q0 -74 -103 -74q-182 0 -334 116q-85 66 -85 112
q0 47 67.5 77.5t171.5 31.5z" />
    <glyph glyph-name="Oacute" unicode="&#xd3;" horiz-adv-x="1594" 
d="M808 1393q257 0 449 -147q130 -101 211 -262q79 -160 79 -320q0 -236 -156 -422q-132 -158 -345 -227q-131 -42 -263 -42q-173 0 -331 72q-191 87 -299 263q-105 170 -105 375q0 238 135 420q120 162 323 238q136 52 302 52zM713 1106q-84 0 -133 -75q-38 -56 -38 -133
q0 -113 46 -261.5t116 -263.5q31 -49 76.5 -78t92.5 -29q76 0 122.5 57t46.5 150q0 121 -39 261t-101 239q-38 61 -88 96t-101 37zM887 1812q91 0 162 -27q35 -13 57 -37t21 -48q-2 -45 -85 -109q-151 -116 -334 -116q-103 0 -103 74q0 26 10.5 39.5t60.5 52.5
q45 32 55 42.5t10 25.5q0 8 -12 29q-4 7 -4 15q0 26 45 42t117 17z" />
    <glyph glyph-name="Ocircumflex" unicode="&#xd4;" horiz-adv-x="1594" 
d="M808 1393q257 0 449 -147q130 -101 211 -262q79 -160 79 -320q0 -236 -156 -422q-132 -158 -345 -227q-131 -42 -263 -42q-173 0 -331 72q-191 87 -299 263q-105 170 -105 375q0 238 135 420q120 162 323 238q136 52 302 52zM713 1106q-84 0 -133 -75q-38 -56 -38 -133
q0 -113 46 -261.5t116 -263.5q31 -49 76.5 -78t92.5 -29q76 0 122.5 57t46.5 150q0 121 -39 261t-101 239q-38 61 -88 96t-101 37zM792 1840q33 0 107 -41.5t152 -102.5q70 -55 96.5 -87t26.5 -61q0 -30 -22 -53t-51 -23q-39 0 -165 60q-99 47 -146 47q-28 0 -48 -7.5
t-92 -45.5q-106 -56 -152 -56q-34 0 -55.5 22.5t-21.5 58.5q0 33 33 71.5t115 100.5q155 117 223 117z" />
    <glyph glyph-name="Ograve" unicode="&#xd2;" horiz-adv-x="1594" 
d="M808 1393q257 0 449 -147q130 -101 211 -262q79 -160 79 -320q0 -236 -156 -422q-132 -158 -345 -227q-131 -42 -263 -42q-173 0 -331 72q-191 87 -299 263q-105 170 -105 375q0 238 135 420q120 162 323 238q136 52 302 52zM713 1106q-84 0 -133 -75q-38 -56 -38 -133
q0 -113 46 -261.5t116 -263.5q31 -49 76.5 -78t92.5 -29q76 0 122.5 57t46.5 150q0 121 -39 261t-101 239q-38 61 -88 96t-101 37zM673 1812q71 0 116.5 -16.5t45.5 -42.5q0 -8 -10 -27q-5 -9 -5 -17q0 -15 10 -25t55 -43l20 -16q51 -39 51 -76q0 -74 -103 -74
q-182 0 -334 116q-85 66 -85 112q0 47 67.5 77.5t171.5 31.5z" />
    <glyph glyph-name="Uacute" unicode="&#xda;" horiz-adv-x="1679" 
d="M1506 865v-244q0 -221 -33 -313q-71 -194 -312 -281q-146 -54 -330 -54q-321 0 -514 153q-94 75 -130 174t-36 286q0 73 5 240q3 118 3 156q0 83 -12.5 115t-54.5 60q-66 43 -66 96q0 39 33.5 69t88.5 41q110 22 260 22q165 0 274 -25q107 -24 107 -109q0 -42 -31 -67
q-7 -6 -60 -31q-32 -14 -43.5 -51t-11.5 -122q0 -87 -8 -376q-5 -172 93 -262q80 -74 206 -74q80 0 145 29.5t99 80.5q27 39 37 87t10 131v220q-5 253 -14.5 296.5t-64.5 68.5q-52 23 -71 42t-19 47q0 60 71.5 87.5t229.5 27.5q155 0 224.5 -27t69.5 -86q0 -29 -12 -43
t-63 -43q-53 -30 -60.5 -64.5t-9.5 -256.5zM969 1812q91 0 162 -27q35 -13 57 -37t21 -48q-2 -45 -85 -109q-151 -116 -334 -116q-103 0 -103 74q0 26 10.5 39.5t60.5 52.5q45 32 55 42.5t10 25.5q0 8 -12 29q-4 7 -4 15q0 26 45 42t117 17z" />
    <glyph glyph-name="Ucircumflex" unicode="&#xdb;" horiz-adv-x="1679" 
d="M1506 865v-244q0 -221 -33 -313q-71 -194 -312 -281q-146 -54 -330 -54q-321 0 -514 153q-94 75 -130 174t-36 286q0 73 5 240q3 118 3 156q0 83 -12.5 115t-54.5 60q-66 43 -66 96q0 39 33.5 69t88.5 41q110 22 260 22q165 0 274 -25q107 -24 107 -109q0 -42 -31 -67
q-7 -6 -60 -31q-32 -14 -43.5 -51t-11.5 -122q0 -87 -8 -376q-5 -172 93 -262q80 -74 206 -74q80 0 145 29.5t99 80.5q27 39 37 87t10 131v220q-5 253 -14.5 296.5t-64.5 68.5q-52 23 -71 42t-19 47q0 60 71.5 87.5t229.5 27.5q155 0 224.5 -27t69.5 -86q0 -29 -12 -43
t-63 -43q-53 -30 -60.5 -64.5t-9.5 -256.5zM875 1840q33 0 107 -41.5t152 -102.5q70 -55 96.5 -87t26.5 -61q0 -30 -22 -53t-51 -23q-39 0 -165 60q-99 47 -146 47q-28 0 -48 -7.5t-92 -45.5q-106 -56 -152 -56q-34 0 -55.5 22.5t-21.5 58.5q0 33 33 71.5t115 100.5
q155 117 223 117z" />
    <glyph glyph-name="Ugrave" unicode="&#xd9;" horiz-adv-x="1679" 
d="M1506 865v-244q0 -221 -33 -313q-71 -194 -312 -281q-146 -54 -330 -54q-321 0 -514 153q-94 75 -130 174t-36 286q0 73 5 240q3 118 3 156q0 83 -12.5 115t-54.5 60q-66 43 -66 96q0 39 33.5 69t88.5 41q110 22 260 22q165 0 274 -25q107 -24 107 -109q0 -42 -31 -67
q-7 -6 -60 -31q-32 -14 -43.5 -51t-11.5 -122q0 -87 -8 -376q-5 -172 93 -262q80 -74 206 -74q80 0 145 29.5t99 80.5q27 39 37 87t10 131v220q-5 253 -14.5 296.5t-64.5 68.5q-52 23 -71 42t-19 47q0 60 71.5 87.5t229.5 27.5q155 0 224.5 -27t69.5 -86q0 -29 -12 -43
t-63 -43q-53 -30 -60.5 -64.5t-9.5 -256.5zM762 1812q71 0 116.5 -16.5t45.5 -42.5q0 -8 -10 -27q-5 -9 -5 -17q0 -15 10 -25t55 -43l20 -16q51 -39 51 -76q0 -74 -103 -74q-182 0 -334 116q-85 66 -85 112q0 47 67.5 77.5t171.5 31.5z" />
    <glyph glyph-name="dotlessi" unicode="&#x131;" horiz-adv-x="730" 
d="M594 927v-581q0 -69 12.5 -101t50.5 -59q31 -22 41.5 -37.5t10.5 -39.5q0 -129 -327 -129q-176 0 -279 28q-35 10 -56.5 35t-21.5 57q0 27 11 42t56 48q31 23 44 75t13 155q0 33 -4.5 123.5t-6.5 105.5q-6 41 -56 63q-62 27 -62 80q0 63 81 94q112 43 240 73t198 30
q55 0 55 -62z" />
    <glyph glyph-name="circumflex" unicode="&#x2c6;" 
d="M506 1462q33 0 107 -41.5t152 -102.5q70 -55 96.5 -87t26.5 -61q0 -30 -22 -53t-51 -23q-41 0 -165 60q-38 18 -84 34.5t-60 16.5q-35 0 -142 -57q-105 -56 -152 -56q-34 0 -55.5 22.5t-21.5 58.5q0 33 33 71.5t115 100.5q155 117 223 117z" />
    <glyph glyph-name="tilde" unicode="&#x2dc;" 
d="M328 1206v-27q0 -36 -27 -57.5t-71 -21.5q-50 0 -82 33t-32 85q0 59 26 110q23 42 67.5 67t99.5 25q53 0 96 -14.5t161 -73.5q55 -28 86 -28q25 0 31 39q5 36 8 44t16 18q28 22 72 22q130 0 130 -132q0 -86 -50.5 -138.5t-133.5 -52.5q-43 0 -78.5 9.5t-100.5 39.5
q-44 20 -95 41q-64 27 -66 29q-20 9 -34 9q-23 0 -23 -26z" />
    <glyph glyph-name="macron" unicode="&#x2c9;" 
d="M435 1348h320q83 0 99 2q22 3 27 3q41 0 41 -41q0 -39 -55 -138q-24 -44 -59 -44l-167 13h-260q-125 0 -208 -5q-14 -1 -23 -1q-49 0 -49 38q0 13 20.5 59t41.5 82q25 42 69 42q12 0 31 -2q104 -8 172 -8z" />
    <glyph glyph-name="breve" unicode="&#x2d8;" 
d="M164 1470q17 0 29 -7.5t64 -51.5q44 -38 109 -60t131 -22q122 0 229 51q34 16 48 26.5t62 56.5q9 8 25 8q21 0 37 -12.5t16 -28.5q0 -46 -61 -139q-54 -83 -135 -133q-98 -60 -213 -60q-203 0 -340 206q-51 76 -53 119q-1 20 14 33t38 14z" />
    <glyph glyph-name="dotaccent" unicode="&#x2d9;" 
d="M557 1402q98 0 154 -33t56 -90q0 -77 -92 -120q-102 -47 -230 -47q-70 0 -119 26q-68 37 -68 101q0 76 79.5 119.5t219.5 43.5z" />
    <glyph glyph-name="ring" unicode="&#x2da;" 
d="M537 1498q135 0 218 -48q37 -22 60 -63t23 -87q0 -100 -77.5 -154t-219.5 -54q-301 0 -301 200q0 98 78 152t219 54zM538 1406q-46 0 -72 -30.5t-26 -85.5q0 -48 26.5 -78.5t68.5 -30.5q46 0 73.5 32t27.5 84q0 107 -98 109z" />
    <glyph glyph-name="cedilla" unicode="&#xb8;" 
d="M505 0l139 -136q39 -38 50 -56t11 -43q0 -51 -60.5 -85t-149.5 -34t-139 37q-37 27 -37 63q0 28 28 48.5t76 27.5q28 5 28 23q0 12 -20 40l-78 115h152z" />
    <glyph glyph-name="hungarumlaut" unicode="&#x2dd;" 
d="M256 1430q107 0 171.5 -32.5t64.5 -86.5q0 -79 -157 -153q-52 -24 -129 -44t-120 -20q-34 0 -56 21.5t-22 54.5q0 22 8.5 33.5t51.5 47.5q42 31 49.5 40t7.5 28t-14 41q-5 8 -5 17q0 23 41.5 38t108.5 15zM780 1430q107 0 171.5 -32.5t64.5 -86.5q0 -79 -157 -153
q-52 -24 -129 -44t-120 -20q-34 0 -56 21.5t-22 54.5q0 22 8.5 33.5t51.5 47.5q42 31 49.5 40t7.5 28t-14 41q-5 7 -5 17q0 23 41.5 38t108.5 15z" />
    <glyph glyph-name="ogonek" unicode="&#x2db;" 
d="M616 2q-48 -24 -69 -50q-35 -43 -35 -82q0 -32 26 -55t61 -23q22 0 34 4t62 28q11 6 23 6q35 0 35 -55q0 -56 -35 -86q-50 -42 -191 -42q-131 0 -194 53q-61 51 -61 113q0 44 29 77t137 112h178z" />
    <glyph glyph-name="caron" unicode="&#x2c7;" 
d="M212 1462q47 0 152 -56q107 -57 142 -57q14 0 60 16.5t84 34.5q124 60 165 60q29 0 51 -23t22 -53q0 -32 -36.5 -71.5t-123.5 -103.5q-159 -117 -224 -117q-34 0 -102.5 38.5t-149.5 103.5q-69 55 -93 85.5t-24 62.5q0 35 21.5 57t55.5 23z" />
    <glyph glyph-name="Scaron" unicode="&#x160;" horiz-adv-x="1321" 
d="M644 1393q103 0 270 -51q20 -6 32 -6q10 0 60 18q16 6 34 6q67 0 141.5 -106t74.5 -202q0 -56 -33.5 -94.5t-81.5 -38.5q-40 0 -65 16t-110 95q-120 112 -236 112q-56 0 -89.5 -27t-33.5 -71q0 -87 153 -131q207 -61 265 -89q255 -124 255 -365q0 -213 -174 -348
q-178 -138 -465 -138q-128 0 -270 30.5t-205 71.5q-48 32 -86.5 139.5t-38.5 209.5q0 49 20 74q25 32 63 32t73 -39q21 -22 99 -141q37 -56 117.5 -93t166.5 -37q74 0 120 27.5t46 70.5q0 40 -36 69t-117 54q-143 45 -218 82.5t-140 94.5q-158 140 -158 318q0 88 41 171.5
t116 144.5q168 141 410 141zM395 1840q46 0 216 -90q36 -19 76 -19q47 0 146 47q126 60 165 60q29 0 51 -22.5t22 -53.5q0 -32 -36.5 -71.5t-123.5 -103.5q-159 -117 -224 -117q-34 0 -102.5 38.5t-149.5 103.5q-69 55 -93 85.5t-24 62.5q0 35 21.5 57t55.5 23z" />
    <glyph glyph-name="scaron" unicode="&#x161;" horiz-adv-x="976" 
d="M438 996q50 0 163 -22q23 -4 38 -4q17 0 66 18q23 9 39 9q46 0 93 -59q38 -47 62 -103t24 -97q0 -40 -28 -66.5t-70 -26.5q-35 0 -62.5 17t-88.5 75q-64 62 -106 62q-28 0 -48.5 -20.5t-20.5 -48.5q0 -49 94 -92q169 -76 259 -166q76 -76 76 -186q0 -139 -122 -232
q-105 -81 -257 -81q-39 0 -142 13q-97 11 -109 11q-13 0 -30 -3q-29 -4 -42 -4q-47 0 -74 24q-41 37 -76 116.5t-35 136.5q0 92 72 92q28 0 51.5 -18.5t98.5 -98.5q41 -44 68 -60.5t58 -16.5q33 0 53 17.5t20 46.5q0 45 -77 82q-161 79 -232.5 163t-71.5 194q0 119 73 205
q104 123 284 123zM212 1462q47 0 152 -56q107 -57 142 -57q14 0 60 16.5t84 34.5q124 60 165 60q29 0 51 -23t22 -53q0 -32 -36.5 -71.5t-123.5 -103.5q-159 -117 -224 -117q-34 0 -102.5 38.5t-149.5 103.5q-69 55 -93 85.5t-24 62.5q0 35 21.5 57t55.5 23z" />
    <glyph glyph-name="brokenbar" unicode="&#xa6;" 
d="M286 1365h451v-755h-451v755zM286 314h451v-655h-451v655z" />
    <glyph glyph-name="Eth" unicode="&#xd0;" horiz-adv-x="1643" 
d="M97 766h68q22 0 29 5t6 22l-1 21q-1 18 2 75q2 49 2 143q0 83 -13 111t-61 45q-69 26 -69 89q0 49 47.5 76.5t132.5 27.5q28 0 66 -1q84 -3 122 -3q143 0 323 9q38 2 89 2q235 0 368 -52q198 -78 298 -262q89 -162 89 -375q0 -255 -122 -434q-116 -168 -320 -236
q-120 -40 -256 -40l-121 4l-104 3q-121 4 -213 4h-72q-63 0 -142 -6q-49 -4 -67 -4q-68 0 -110 31t-42 81q0 35 18.5 55t61.5 31q40 10 54 32.5t21 87.5q3 24 9 135.5t6 137.5q0 20 -7 26.5t-29 6.5h-65q-39 0 -53.5 16t-14.5 56q0 44 16 62t54 18zM669 1084v-276
q0 -26 7 -34t32 -8h126q37 0 52.5 -17.5t15.5 -57.5q0 -73 -65 -75l-120 -3l-21 3q-27 0 -27 -59v-247q0 -62 27 -89t90 -27q292 0 292 444q0 246 -68 380q-75 149 -254 149q-48 0 -67.5 -19t-19.5 -64z" />
    <glyph glyph-name="eth" unicode="&#xf0;" horiz-adv-x="1233" 
d="M417 1076l-44 -35q-57 -38 -74 -38q-27 0 -47.5 21.5t-20.5 48.5q0 21 18.5 43.5t61.5 52.5l26 18q15 10 15 20q-1 11 -67 60q-64 47 -64 85q0 23 21 38.5t52 15.5q81 0 200 -63q14 -7 22 -7q13 0 53 32l16 12l39 31q54 42 82 42q25 0 47 -25.5t22 -53.5
q0 -15 -3.5 -20.5t-20.5 -18.5q-10 -8 -36 -28l-30 -20q-22 -15 -22 -34q0 -14 24 -30q95 -61 210 -173q302 -294 302 -566q0 -215 -199 -366q-190 -145 -435 -145q-239 0 -387 136q-144 132 -144 345q0 183 111 318q124 151 320 199q39 10 50 18t11 26q0 20 -27.5 52
t-43.5 32q-8 0 -38 -23zM577 766q-44 0 -70.5 -32.5t-26.5 -86.5q0 -60 22.5 -163.5t53.5 -183.5q31 -82 101 -82q89 0 89 113q0 84 -22.5 191t-54.5 174q-33 68 -92 70z" />
    <glyph glyph-name="Yacute" unicode="&#xdd;" horiz-adv-x="1597" 
d="M439 1386q196 0 299 -21q47 -9 75.5 -35.5t28.5 -60.5q0 -26 -22 -53q-32 -41 -32 -59q0 -36 57 -115q37 -51 70 -51q21 0 41 15.5t52 55.5q39 49 39 78q0 18 -4.5 27t-32.5 43q-20 23 -20 62q0 113 306 113q173 0 225 -16q33 -10 54.5 -38t21.5 -60q0 -41 -25 -62
t-87 -32q-57 -11 -99 -43.5t-154 -152.5q-136 -147 -169.5 -216.5t-33.5 -207.5q0 -116 9 -215q5 -61 19 -84.5t58 -46.5q73 -38 73 -95q0 -136 -402 -136q-165 0 -312 32q-124 27 -124 107q0 62 76 89q57 20 71 51q32 69 32 326q0 80 -16 124.5t-70 115.5
q-113 147 -233 265q-52 51 -100 69q-68 25 -82 37q-28 24 -28 64q0 67 101 96.5t338 29.5zM935 1812q91 0 162 -27q35 -13 57 -37t21 -48q-2 -45 -85 -109q-151 -116 -334 -116q-103 0 -103 74q0 26 10.5 39.5t60.5 52.5q45 32 55 42.5t10 25.5q0 8 -12 29q-4 7 -4 15
q0 26 45 42t117 17z" />
    <glyph glyph-name="yacute" unicode="&#xfd;" horiz-adv-x="1268" 
d="M991 504l-132 -363q-49 -135 -98.5 -220.5t-112.5 -145.5q-130 -124 -313 -124q-148 0 -240 78q-71 60 -71 153q0 77 49.5 129.5t121.5 52.5t116 -48q21 -22 28 -39t21 -75q11 -44 50 -44q31 0 52 27t21 67q0 47 -52 157l-241 513q-38 80 -57 100t-84 49
q-20 8 -34.5 31.5t-14.5 45.5q0 89 177 121q118 21 269 21q106 0 167 -22q82 -29 82 -99q0 -25 -23 -59q-22 -32 -22 -57q0 -24 10.5 -50t44.5 -88q38 -70 67 -70q31 0 64 61.5t33 118.5q0 46 -25 75q-38 45 -38 77q0 51 68 81.5t182 30.5q212 0 212 -102q0 -37 -21.5 -59.5
t-78.5 -42.5q-48 -18 -76 -60q-44 -67 -101 -221zM750 1430q91 0 162 -27q35 -13 57 -37t21 -48q-2 -46 -85 -109q-151 -117 -334 -117q-103 0 -103 74q0 27 10.5 40.5t60.5 51.5q45 33 55 43.5t10 24.5q0 9 -12 30q-4 7 -4 15q0 25 45 41.5t117 17.5z" />
    <glyph glyph-name="Thorn" unicode="&#xde;" horiz-adv-x="1401" 
d="M207 471v526q0 102 -14 129.5t-76 44.5q-90 26 -90 90q0 44 38 68.5t107 24.5q27 0 122 -3q36 -1 145 -1q58 0 151 5h22q29 0 39.5 -9t10.5 -33q0 -14 -4 -68q-2 -33 -2 -66q0 -62 23 -62q8 0 63 13q64 15 121 15q158 0 287 -64q223 -110 223 -351q0 -194 -156 -311
q-148 -110 -355 -110q-54 0 -131 7q-41 3 -51 3q-29 0 -29 -31q0 -38 13 -53t76 -48q64 -35 64 -76q0 -63 -95.5 -97t-272.5 -34q-370 0 -370 127q0 30 16 46t75 46q36 19 42 53t8 219zM658 892v-299q0 -25 3 -33t14 -14q28 -14 74 -14q66 0 110 34q65 49 65 160
q0 118 -76 172q-48 33 -115 33q-75 0 -75 -39z" />
    <glyph glyph-name="thorn" unicode="&#xfe;" horiz-adv-x="1363" 
d="M619 1303v-376q0 -36 23 -36q11 0 68 38q43 29 109.5 48.5t120.5 19.5q127 0 227 -88q76 -67 118 -169q44 -107 44 -225q0 -166 -82 -304q-83 -140 -219 -202q-80 -36 -166 -36q-85 0 -175 40q-18 8 -29 8q-30 0 -30 -60q0 -79 52 -114q50 -33 59 -44.5t9 -38.5
q0 -60 -67 -92.5t-189 -32.5q-217 0 -380 87q-83 44 -83 109q0 30 12.5 45.5t49.5 32.5q52 24 63.5 87t17.5 362v28v375q-8 222 -18 249q-5 10 -12.5 13t-48.5 10q-33 6 -53 30t-20 57q0 49 48.5 87.5t171.5 85.5q175 68 311 68q42 0 55 -11.5t13 -50.5zM627 613l-15 -275
q-1 -17 -1 -33q0 -31 27 -50t72 -19q138 0 138 228q0 147 -58 207q-36 37 -86 37q-71 0 -77 -95z" />
    <glyph glyph-name="multiply" unicode="&#xd7;" horiz-adv-x="1229" 
d="M934 736l-113 -113q-18 -18 -18 -39t18 -39l113 -112q53 -53 68 -65q32 -25 32 -44q0 -29 -57 -59q-109 -58 -147 -58q-25 0 -45 24q-2 4 -28 37q-27 37 -66 76l-36 36q-18 18 -38 18q-21 0 -39 -18l-12 -12q-42 -43 -99 -113q-34 -43 -65 -43q-22 0 -85.5 26t-97.5 49
q-21 13 -21 36q0 21 32 47q51 45 144 137l38 38q18 18 18 39t-18 39l-38 38q-91 90 -144 136q-32 27 -32 48q0 24 26 40q42 25 99.5 48t78.5 23q31 0 65 -43q57 -70 99 -113l12 -12q18 -18 38 -18q21 0 39 18l36 36q43 45 89 106q23 31 50 31q38 0 147 -58q57 -30 57 -59
q0 -19 -32 -44q-15 -11 -68 -64z" />
    <glyph glyph-name="onesuperior" unicode="&#xb9;" horiz-adv-x="821" 
d="M124 675q10 0 42 -4q15 -2 25 -2q32 0 46 35q13 30 13 291q0 29 -12.5 39.5t-45.5 10.5q-8 0 -25 -1q-15 -1 -23 -1q-24 0 -39.5 13t-15.5 33q0 32 51 62q61 35 185 60t236 25q110 0 110 -58q0 -29 -46 -48q-35 -15 -42 -42.5t-7 -153.5q0 -191 14.5 -227t92.5 -40
q67 -2 67 -52q0 -47 -77 -63q-107 -22 -258 -22q-129 0 -246 24q-107 22 -107 69q0 21 17.5 36t44.5 16z" />
    <glyph glyph-name="twosuperior" unicode="&#xb2;" horiz-adv-x="821" 
d="M522 546h-436q-64 0 -64 38q0 16 13.5 31t79.5 73q98 85 155 159t57 116q0 58 -62 58q-28 0 -42 -7t-66 -47q-16 -12 -40 -12q-34 0 -61.5 23.5t-27.5 51.5q0 55 87 113q142 93 311 93q72 0 137.5 -17t100.5 -45q64 -51 64 -127q0 -107 -158 -229q-53 -40 -53 -58
q0 -13 15 -23t35 -10q53 0 97 39q35 30 53 30q65 0 65 -93q0 -80 -46 -146.5t-102 -66.5q-30 0 -53 33q-11 15 -21 19t-38 4z" />
    <glyph glyph-name="threesuperior" unicode="&#xb3;" horiz-adv-x="820" 
d="M355 1237q138 0 222.5 -44.5t84.5 -116.5q0 -73 -75 -123q-17 -11 -17 -19q0 -12 30 -16q85 -12 131.5 -60.5t46.5 -122.5q0 -97 -72 -176q-59 -64 -165.5 -99.5t-240.5 -35.5q-132 0 -212 28t-80 74q0 29 22 48.5t54 19.5q17 0 87 -16q22 -5 65 -5q95 0 141 52
q22 26 22 52q0 40 -35 65.5t-91 25.5q-33 0 -63 -8q-19 -5 -27 -5q-19 0 -38.5 33t-19.5 66q0 17 8 22.5t58 21.5q42 14 71.5 42t29.5 55q0 32 -26.5 54.5t-64.5 22.5q-34 0 -101 -32q-16 -7 -25 -7q-18 0 -34.5 23.5t-16.5 48.5q0 50 103 91t228 41z" />
    <glyph glyph-name="onehalf" unicode="&#xbd;" horiz-adv-x="1914" 
d="M124 675q8 0 42 -4q16 -2 25 -2q32 0 46 35q13 30 13 291q0 29 -12.5 39.5t-45.5 10.5q-8 0 -25 -1q-15 -1 -23 -1q-24 0 -39.5 13t-15.5 33q0 33 51 62q61 34 185.5 59.5t235.5 25.5q110 0 110 -58q0 -29 -46 -48q-35 -15 -42 -42.5t-7 -153.5q0 -191 14.5 -227
t92.5 -40q67 -2 67 -52q0 -47 -77 -63q-107 -22 -258 -22q-129 0 -246 24q-107 22 -107 69q0 21 17.5 36t44.5 16zM747 368l304 513q121 212 162 296q25 51 48.5 68.5t67.5 17.5q95 0 95 -47q0 -33 -78 -148q-57 -83 -164 -264l-309 -523q-30 -50 -106 -188
q-65 -119 -74 -137q-27 -57 -47.5 -76t-54.5 -19q-51 0 -83.5 15t-32.5 38q0 20 21 50q28 41 165 260zM1615 0h-436q-64 0 -64 38q0 16 13.5 31t79.5 73q98 85 155 159t57 116q0 58 -61 58q-29 0 -43 -7t-66 -47q-16 -12 -40 -12q-34 0 -61.5 23.5t-27.5 51.5q0 55 87 113
q141 93 311 93q72 0 137.5 -17t100.5 -45q64 -51 64 -127q0 -108 -158 -229q-53 -40 -53 -58q0 -13 15 -23t35 -10q53 0 97 39q35 30 53 30q65 0 65 -93q0 -80 -46 -146.5t-102 -66.5q-30 0 -53 33q-10 15 -20.5 19t-38.5 4z" />
    <glyph glyph-name="onequarter" unicode="&#xbc;" horiz-adv-x="1914" 
d="M124 675q8 0 42 -4q16 -2 25 -2q32 0 46 35q13 30 13 291q0 29 -12.5 39.5t-45.5 10.5q-8 0 -25 -1q-15 -1 -23 -1q-24 0 -39.5 13t-15.5 33q0 33 51 62q61 34 185.5 59.5t235.5 25.5q110 0 110 -58q0 -29 -46 -48q-35 -15 -42 -42.5t-7 -153.5q0 -191 14.5 -227
t92.5 -40q67 -2 67 -52q0 -47 -77 -63q-107 -22 -258 -22q-129 0 -246 24q-107 22 -107 69q0 21 17.5 36t44.5 16zM747 368l304 513q121 212 162 296q25 51 48.5 68.5t67.5 17.5q95 0 95 -47q0 -33 -78 -148q-57 -83 -164 -264l-309 -523q-30 -50 -106 -188
q-65 -119 -74 -137q-27 -57 -47.5 -76t-54.5 -19q-51 0 -83.5 15t-32.5 38q0 20 21 50q28 41 165 260zM1787 666v-408q0 -25 18 -25h27q36 1 38 -41v-120q0 -37 -40 -42q-20 -2 -24 -6t-4 -20v-70q3 -44 -44 -46h-218q-48 2 -45 46v61q0 22 -8 29.5t-32 7.5h-249
q-48 0 -68 19.5t-20 65.5q0 60 22 101.5t97 125.5l163 180q115 127 179.5 169.5t140.5 42.5q67 0 67 -70zM1505 360v29q0 46 -27 46q-20 0 -40 -22l-98 -112q-41 -46 -41 -61t15 -18.5t85 -5.5l43 -1q35 0 45 5t14 22q4 26 4 118z" />
    <glyph glyph-name="threequarters" unicode="&#xbe;" horiz-adv-x="1914" 
d="M355 1237q138 0 222.5 -44.5t84.5 -116.5q0 -73 -75 -123q-17 -11 -17 -19q0 -12 30 -16q85 -12 131.5 -60t46.5 -123q0 -97 -72 -176q-59 -64 -165.5 -99.5t-240.5 -35.5q-132 0 -212 28t-80 74q0 29 22 48.5t54 19.5q17 0 87 -16q22 -5 65 -5q95 0 141 52q22 26 22 52
q0 41 -35 66t-91 25q-33 0 -63 -8q-19 -5 -27 -5q-19 0 -38.5 33t-19.5 66q0 17 8 22.5t58 21.5q42 14 71.5 42t29.5 55q0 32 -26.5 54.5t-64.5 22.5q-33 0 -101 -32q-15 -7 -25 -7q-18 0 -34.5 23.5t-16.5 48.5q0 50 103 91t228 41zM747 368l304 513q121 209 163 296
q25 51 48.5 68.5t67.5 17.5q95 0 95 -47q0 -33 -78 -148q-59 -86 -165 -264l-309 -523q-29 -49 -105 -188q-65 -118 -75 -137q-27 -57 -47.5 -76t-54.5 -19q-51 0 -83.5 15t-32.5 38q0 20 21 50q29 43 165 260zM1787 666v-408q0 -25 18 -25h27q38 1 39 -41v-120
q0 -38 -41 -42q-20 -2 -24 -6t-4 -20v-70q3 -44 -44 -46h-218q-48 2 -45 46v61q0 22 -8 29.5t-32 7.5h-249q-48 0 -68 19.5t-20 65.5q0 60 22 102t97 125l163 180q115 126 179.5 169t140.5 43q67 0 67 -70zM1505 360v29q0 46 -27 46q-20 0 -40 -22l-98 -112q-41 -46 -41 -61
t15 -18.5t85 -5.5l43 -1q35 0 45 5t13 22q5 25 5 118z" />
    <glyph glyph-name="macron" unicode="&#xaf;" 
d="M0 1732h1024v-257h-1024v257z" />
    <glyph glyph-name="Dslash" horiz-adv-x="1643" 
d="M97 766h68q22 0 29 5t6 22l-1 21q-1 18 2 75q2 49 2 143q0 83 -13 111t-61 45q-69 26 -69 89q0 49 47.5 76.5t132.5 27.5q28 0 66 -1q84 -3 122 -3q143 0 323 9q38 2 89 2q235 0 368 -52q198 -78 298 -262q89 -162 89 -375q0 -255 -122 -434q-116 -168 -320 -236
q-120 -40 -256 -40l-121 4l-104 3q-121 4 -213 4h-72q-63 0 -142 -6q-49 -4 -67 -4q-68 0 -110 31t-42 81q0 35 18.5 55t61.5 31q40 10 54 32.5t21 87.5q3 24 9 135.5t6 137.5q0 20 -7 26.5t-29 6.5h-65q-39 0 -53.5 16t-14.5 56q0 44 16 62t54 18zM669 1084v-276
q0 -26 7 -34t32 -8h126q37 0 52.5 -17.5t15.5 -57.5q0 -73 -65 -75l-120 -3l-21 3q-27 0 -27 -59v-247q0 -62 27 -89t90 -27q292 0 292 444q0 246 -68 380q-75 149 -254 149q-48 0 -67.5 -19t-19.5 -64z" />
    <glyph glyph-name="Ring" 
d="M483 1880q135 0 218 -48q37 -21 60 -62.5t23 -86.5q0 -100 -77.5 -154t-219.5 -54q-301 0 -301 199q0 98 78 152t219 54zM484 1788q-46 0 -72 -30.5t-26 -85.5q0 -48 26.5 -78t68.5 -30q46 0 73.5 31.5t27.5 84.5q0 106 -98 108z" />
    <glyph glyph-name="Grave" 
d="M340 1812q71 0 116.5 -16.5t45.5 -42.5q0 -8 -10 -27q-5 -9 -5 -17q0 -15 10 -25t55 -43l20 -16q51 -39 51 -76q0 -74 -103 -74q-182 0 -334 116q-85 66 -85 112q0 47 67.5 77.5t171.5 31.5z" />
    <glyph glyph-name="Circumflex" 
d="M506 1840q33 0 107 -41.5t152 -102.5q70 -55 96.5 -87t26.5 -61q0 -30 -22 -53t-51 -23q-39 0 -165 60q-99 47 -146 47q-28 0 -48 -7.5t-92 -45.5q-106 -56 -152 -56q-34 0 -55.5 22.5t-21.5 58.5q0 33 33 71.5t115 100.5q155 117 223 117z" />
    <glyph glyph-name="Dieresis" 
d="M315 1825q76 0 119 -36t43 -98q0 -83 -72 -130q-102 -66 -225 -66q-68 0 -110 36.5t-42 96.5q0 76 63 124q43 33 106.5 53.5t117.5 19.5zM834 1839q75 0 118 -36t43 -98q0 -83 -72 -130q-103 -66 -225 -66q-68 0 -110 36.5t-42 96.5q0 76 63 124q43 33 106.5 53.5
t118.5 19.5z" />
    <glyph glyph-name="Acute" 
d="M629 1812q91 0 162 -27q35 -13 57 -37t21 -48q-2 -45 -85 -109q-151 -116 -334 -116q-103 0 -103 74q0 26 10.5 39.5t60.5 52.5q45 32 55 42.5t10 25.5q0 8 -12 29q-4 7 -4 15q0 26 45 42t117 17z" />
    <glyph glyph-name="Dieresis2" 
d="M288 1825q76 0 119 -36t43 -98q0 -83 -72 -130q-102 -66 -225 -66q-68 0 -110 36.5t-42 96.5q0 76 63 124q43 33 106.5 53.5t117.5 19.5zM862 1839q75 0 118 -35.5t43 -98.5q0 -84 -72 -130q-103 -66 -225 -66q-68 0 -110 36.5t-42 96.5q0 76 63 124q43 33 106.5 53.5
t118.5 19.5z" />
    <glyph glyph-name="dieresis2" 
d="M311 1435q78 0 122.5 -36.5t44.5 -99.5q0 -84 -74 -131q-80 -52 -184 -52q-66 0 -107.5 39t-41.5 102q0 83 64 130.5t176 47.5zM785 1432q78 0 123 -36.5t45 -99.5q0 -84 -74 -131q-80 -52 -184 -52q-66 0 -107.5 39t-41.5 102q0 83 63.5 130.5t175.5 47.5z" />
    <glyph glyph-name="Caron" 
d="M212 1840q46 0 216 -90q36 -19 76 -19q47 0 146 47q126 60 165 60q29 0 51 -22.5t22 -53.5q0 -32 -36.5 -71.5t-123.5 -103.5q-159 -117 -224 -117q-34 0 -102.5 38.5t-149.5 103.5q-69 55 -93 85.5t-24 62.5q0 35 21.5 57t55.5 23z" />
    <glyph glyph-name="Tilde" 
d="M290 1822q37 2 72.5 -8t118.5 -46q85 -37 103 -43q39 -14 42 -15q20 -9 31 -9q25 0 28 26v33q0 26 28.5 45.5t67.5 19.5q60 0 95 -38t35 -102q0 -81 -54.5 -141.5t-127.5 -60.5q-43 0 -124 27t-154 66q-66 35 -95 35q-13 0 -24 -6.5t-11 -13.5l2 -51q0 -18 -29 -33.5
t-64 -15.5q-37 0 -77 34t-40 119q0 80 47 127t130 51z" />
    <glyph glyph-name="currency" unicode="&#xa4;" horiz-adv-x="1229" 
d="M247 1102q23 0 35 -9.5t52 -58.5q29 -35 51 -35q14 0 38 9q105 39 222 39q99 0 180 -27q24 -8 34 -8q17 0 29.5 11t42.5 52q22 30 49 30q36 0 141 -56q55 -29 55 -57q0 -19 -31 -42q-35 -27 -58 -54.5t-23 -42.5q0 -17 23 -55q55 -91 55 -210q0 -122 -72 -227
q-16 -23 -16 -36t28.5 -46t62.5 -60q31 -24 31 -42q0 -23 -36 -46q-38 -25 -89.5 -46t-73.5 -21q-18 0 -27.5 9t-45.5 57q-25 31 -33.5 37.5t-26.5 6.5q-13 0 -44 -12q-106 -41 -231 -41q-97 0 -178 26q-14 4 -23 4q-19 0 -56 -44q-34 -41 -63 -41q-21 0 -82 25t-94 47
q-20 13 -20 34t30 47q45 37 58 52t13 29q0 17 -14 44q-52 96 -52 212q0 140 68 244q16 24 16 42q0 22 -11 35.5t-78 72.5q-30 27 -30 46q0 26 36 44q127 62 158 62zM586 863q-61 0 -97.5 -33.5t-36.5 -89.5t24.5 -159t56.5 -181q34 -82 111 -82q61 0 95 31.5t34 86.5
q0 74 -25.5 181t-59.5 176q-33 68 -102 70z" />
    </font>
</defs>
</svg>
