<?xml version="1.0" standalone="no"?>
<!DOCTYPE svg PUBLIC "-//W3C//DTD SVG 1.1//EN" "http://www.w3.org/Graphics/SVG/1.1/DTD/svg11.dtd" >
<svg xmlns="http://www.w3.org/2000/svg" xmlns:xlink="http://www.w3.org/1999/xlink" version="1.1">
<metadata>
Created by FontForge 20170910 at Fri Nov 17 19:17:41 2017
 By Jimmy Wärting
Copyright (c) 2017 by Billy Argel. All rights reserved.
</metadata>
<defs>
<font id="AlexandraPersonalUse-Regular" horiz-adv-x="449" >
  <font-face 
    font-family="Alexandra Personal Use"
    font-weight="400"
    font-stretch="normal"
    units-per-em="1000"
    panose-1="0 0 0 0 0 0 0 0 0 0"
    ascent="750"
    descent="-250"
    x-height="464.5"
    cap-height="1011.5"
    bbox="-451.167 -720.529 2826.02 1218.08"
    underline-thickness="50"
    underline-position="-100"
    unicode-range="U+000D-FB05"
  />
<missing-glyph horiz-adv-x="208" 
 />
    <glyph glyph-name=".notdef" horiz-adv-x="208" 
 />
    <glyph glyph-name="i" unicode="i" horiz-adv-x="219" 
d="M134 454q6 9 25 10.5t39 -2.5t34 -12.5t10 -18.5q0 -7 -15 -33t-36.5 -60.5t-44 -72.5t-38.5 -70t-20 -52.5t12 -19.5q18 1 42 22.5t47 49t42 54.5t29 39q7 9 15.5 10.5t15 -2t9.5 -11.5t-1 -18q-29 -47 -62 -91.5t-68 -82.5q-10 -10 -26 -27t-36 -32.5t-42.5 -26.5
t-45.5 -10q-21 1 -35 7t-22.5 15t-12 20.5t-4.5 23.5q-2 16 5 40t17 48.5t21.5 47.5t20.5 38zM234 656q10 15 23 25.5t27 15t28 3.5t26 -8q24 -16 27 -48.5t-17 -62.5q-10 -15 -23 -25t-27 -14.5t-28 -3.5t-26 9q-25 16 -27.5 47.5t17.5 61.5z" />
    <glyph glyph-name="d" unicode="d" horiz-adv-x="504" 
d="M225 64v10t1 10q-15 -17 -30.5 -32t-32.5 -26.5t-35.5 -18t-39.5 -6.5q-43 1 -67.5 31.5t-26.5 90.5q-1 38 10 80t31.5 83t49.5 78.5t64 65t74.5 43t80.5 13.5q10 0 23 -3.5t25.5 -13t22 -26t11.5 -43.5l176 289q6 10 25 11.5t38.5 -2.5t34 -13t10.5 -19q-2 -4 -18.5 -31
t-41.5 -67.5t-55.5 -88t-58.5 -93t-51.5 -83t-34.5 -57.5q-14 -25 -25 -47.5t-16 -39.5t-2.5 -26.5t15.5 -9.5q12 0 27 10.5t30.5 26t31.5 34.5t29.5 37t24.5 33.5t17 23.5q7 9 15.5 10.5t15 -2t9.5 -11.5t-1 -18q-29 -47 -62 -91.5t-68 -82.5q-10 -10 -26 -27t-35.5 -32.5
t-42.5 -26.5t-46 -10q-43 2 -59 22.5t-17 44.5zM156 120q7 0 21 8t30.5 22t35 33t36.5 42l44 72l-1 -1q1 1 1 2l2 2q5 10 9 29.5t3.5 38t-7 33t-21.5 15.5q-11 1 -34.5 -11t-50 -39t-52 -69.5t-40.5 -103.5q-3 -10 -4.5 -23t0 -24.5t8 -19t20.5 -6.5zM319 293l3 3z" />
    <glyph glyph-name="u" unicode="u" horiz-adv-x="466" 
d="M140 454q6 9 25 10.5t38.5 -2.5t34 -12.5t10.5 -18.5q-2 -7 -19 -33t-39 -60t-45 -72t-38 -70t-17.5 -52.5t16.5 -20.5t42 16.5t45.5 40t42.5 48.5t32 42l111 184q5 9 24 10.5t39 -2.5t34 -12.5t10 -18.5q0 -7 -15 -33t-36 -60.5t-43.5 -72.5t-38.5 -70t-20.5 -52.5
t11.5 -19.5q18 1 42 22.5t47 49t42.5 54.5t29.5 39q7 9 15 10.5t14.5 -2t9.5 -11.5t-1 -18q-29 -47 -62 -91.5t-68 -82.5q-10 -10 -26 -27t-35.5 -32.5t-42.5 -26.5t-46 -10q-21 1 -35 7.5t-21.5 16.5t-11 22t-3.5 24q0 25 6 51l-24 -25q-10 -10 -26 -27t-35.5 -32.5
t-42.5 -26.5t-46 -10q-21 1 -35 8t-22 17t-12 22.5t-4 24.5q-1 35 11.5 72t29.5 66z" />
    <glyph glyph-name="c" unicode="c" horiz-adv-x="405" 
d="M288 271q-11 -1 -18.5 3.5t-9.5 11.5t1.5 14t14.5 11q33 8 50 27t28 50q1 4 2 11t-1.5 13.5t-9.5 11t-20 4.5q-19 0 -50.5 -27t-62 -67.5t-53.5 -88t-26 -88.5q-3 -35 5 -58.5t40 -25.5q16 0 36 7t48 21q30 16 55.5 38.5t49.5 48.5q15 16 24.5 28t18 23t17 23.5
t21.5 30.5q7 6 15 6.5t13 -3t7 -11t-1 -16.5q-24 -39 -55 -86t-70.5 -88t-88 -70t-106.5 -33q-41 -3 -72 8t-52 30t-32 44t-12 52q-3 49 12.5 96t42.5 89t62.5 78t72.5 62q24 17 60 28.5t71 11.5q43 0 71.5 -24t27.5 -67q-1 -23 -12 -45.5t-28 -40.5t-39.5 -29.5
t-46.5 -13.5z" />
    <glyph glyph-name="e" unicode="e" horiz-adv-x="405" 
d="M414 400q-1 -28 -21.5 -62t-57.5 -65t-89 -54.5t-115 -29.5q-2 -9 -3 -17t-1 -16q0 -34 9.5 -57.5t41.5 -25.5q16 0 36 7t48 21q30 16 55.5 38.5t49.5 48.5q15 16 24.5 28t18 23t17 23.5t21.5 30.5q7 6 15 6.5t13 -3t7 -11t-1 -16.5q-24 -39 -55 -86t-70.5 -88t-88 -70
t-106.5 -33q-41 -3 -72 8t-52 30t-32 44t-12 52q-3 49 12.5 96t42.5 89t62.5 78t72.5 62q24 17 60 28.5t71 11.5q43 0 71.5 -24t27.5 -67zM325 428q-15 0 -37.5 -16t-47.5 -41.5t-49 -59t-40 -67.5q34 9 68 26.5t62 37.5t46.5 39.5t23.5 33.5q1 4 2.5 12t-0.5 16t-8.5 13.5
t-19.5 5.5z" />
    <glyph glyph-name="t" unicode="t" horiz-adv-x="225" 
d="M156 523q-16 -2 -20.5 5t0 15.5t16 15.5t27.5 7q8 0 15.5 -0.5t14.5 -0.5l77 124q5 10 24 11.5t39 -2.5t34 -13t10 -19q-2 -5 -18 -32t-41 -68h40q13 0 16.5 -6.5t0 -14.5t-14 -15t-25.5 -7q-14 0 -23.5 -0.5t-19.5 -0.5q-24 -39 -49.5 -80.5t-48.5 -79t-41.5 -68.5
t-27.5 -48q-14 -25 -26.5 -47.5t-18.5 -39.5t-4.5 -26.5t14.5 -9.5q18 1 42 22t47 49t42 55t29 39q7 9 15 10.5t14.5 -2t9.5 -11.5t-1 -18q-28 -47 -61.5 -91.5t-68.5 -82.5q-10 -10 -26 -27t-35.5 -32.5t-42.5 -26.5t-46 -10q-21 1 -35 8t-22 17t-12 22.5t-4 24.5
q0 27 11 61t26.5 67t31.5 61t25 42l138 222q-7 0 -13 0.5t-14 0.5z" />
    <glyph glyph-name="r" unicode="r" horiz-adv-x="382" 
d="M383 388q-1 -6 -13.5 -28t-29.5 -51.5t-35.5 -62.5t-31.5 -60.5t-18 -45.5t5 -17q18 1 42 22.5t47 49t42.5 54.5t29.5 39q7 9 15 10.5t14.5 -2t9.5 -11.5t-1 -18q-29 -47 -62 -91.5t-68 -82.5q-10 -10 -26 -27t-35.5 -32.5t-42.5 -26.5t-46 -10q-21 1 -35 7t-22.5 15
t-12 20.5t-4.5 23.5q-3 30 11.5 68.5t36.5 77.5t45 75t37 62q12 23 3 36t-29 11l-42 -5l-14 -20q-9 -12 -20.5 -27.5t-23 -32t-22 -32t-18.5 -26.5q-7 -9 -16 -8.5t-15.5 5.5t-9 14t3.5 18t15 21.5t19 27t21 30t22 29.5q-18 7 -19 25.5t8.5 36.5t26.5 30.5t34 7.5
q21 -7 26.5 -20t2.5 -30q19 3 41.5 7.5t44.5 9.5q17 4 38.5 4t39 -7t27.5 -22.5t4 -40.5z" />
    <glyph glyph-name="s" unicode="s" horiz-adv-x="325" 
d="M73 256q-6 -9 -15 -10t-15.5 3.5t-9 13.5t3.5 20q12 19 25.5 41t27.5 45q0 15 1.5 31t5.5 33q4 20 15.5 37.5t26.5 30.5t30.5 19.5t29.5 3.5q25 -5 39 -23t-2 -43q-16 -23 -32 -43t-33 -40q13 -25 27.5 -53.5t25.5 -58.5t16.5 -60.5t-0.5 -59.5q-2 -6 -2 -9q26 20 57 56
t73 96q7 10 16.5 12t16.5 -2.5t9 -13.5t-4 -20q-44 -73 -86.5 -120.5t-80.5 -77t-70 -43t-55 -19.5q-10 -3 -19.5 -4.5t-19.5 -3.5q-35 -3 -57.5 12t-27.5 36t10.5 42.5t56.5 30.5q12 2 22.5 1.5t21.5 -2.5q5 5 8.5 11.5t5.5 13.5q9 28 0 66t-17 85q-6 -8 -12.5 -16.5
t-12.5 -17.5z" />
    <glyph glyph-name="l" unicode="l" horiz-adv-x="227" 
d="M286 689q5 10 24 11.5t39 -2.5t34 -13t10 -19q-1 -4 -17 -31t-40.5 -67.5t-54 -88t-57 -93t-50 -83t-33.5 -57.5q-14 -25 -26.5 -47.5t-18.5 -39.5t-4.5 -26.5t14.5 -9.5q18 1 42 22t47 49t42 55t29 39q7 9 15 10.5t14.5 -2t9.5 -11.5t-1 -18q-28 -47 -61.5 -91.5
t-68.5 -82.5q-10 -10 -26 -27t-35.5 -32.5t-42.5 -26.5t-46 -10q-21 1 -35 8t-22 17t-12 22.5t-4 24.5q0 27 11 61t26.5 67t31.5 61t25 42z" />
    <glyph glyph-name="space" unicode=" " horiz-adv-x="208" 
 />
    <glyph glyph-name="g" unicode="g" horiz-adv-x="500" 
d="M524 431q-26 -41 -55.5 -89t-62.5 -101t-69 -108.5t-73 -110.5q57 30 101 67t84 80q15 15 29 32.5t26 34t22 30.5t16 22q7 9 15.5 10.5t15 -2t9.5 -11.5t-1 -18q-47 -77 -104 -145q-22 -25 -50.5 -52t-60.5 -51.5t-66.5 -46t-67.5 -35.5q-8 -3 -18.5 -7.5t-23.5 -11.5
q-45 -60 -90 -114t-90 -96q-14 -14 -34 -28.5t-43 -25t-47 -15t-46 2.5q-23 8 -36 21.5t-14 38.5q-2 36 20 69t55 60.5t70.5 48t67.5 32.5l94 36q11 17 22 32.5t22 32.5q-24 -12 -53 -12q-43 1 -67.5 31.5t-26.5 90.5q-1 38 10 80t31.5 83t49.5 78.5t64 65t74.5 43
t80.5 13.5q10 0 23 -3.5t25.5 -12.5t22 -25t11.5 -41l30 50q6 9 25 10.5t39 -2.5t34 -12.5t10 -18.5zM283 233l36 60l4 4l-4 -4l9 15q4 12 7 30t2 35t-7.5 29.5t-20.5 13.5q-11 1 -34.5 -11t-50 -39t-52 -69.5t-40.5 -103.5q-3 -10 -4.5 -23t0 -24.5t8 -19t20.5 -6.5
q7 0 19.5 7.5t28.5 20t33.5 30.5t34.5 39zM-122 -277q0 -9 8 -6.5t20 12t27 23.5t27.5 27t21 22t9.5 9q-48 -28 -80 -52t-33 -35zM-9 -191l2 2q-1 -1 -2 -1v-1z" />
    <glyph glyph-name="q" unicode="q" horiz-adv-x="503" 
d="M524 431q-57 -107 -134 -219.5t-162 -224.5q57 32 111 75t110 107q14 16 28 33.5t26.5 34t22.5 30t16 21.5q7 9 15.5 10.5t15 -2t9.5 -11.5t-1 -18q-47 -77 -104 -145q-46 -54 -84.5 -91.5t-77 -65t-80.5 -49.5t-95 -45q-44 -57 -86 -112.5t-80 -107.5q-7 -8 -28 -11.5
t-42 -3t-35.5 6t-8.5 15.5l132 177q-2 15 2 31.5t14 20.5q8 4 15.5 7t15.5 6q20 26 38.5 52t38.5 52q-14 -3 -28 -3q-43 1 -67.5 31.5t-26.5 90.5q-1 38 10 80t31.5 83t49.5 78.5t64 65t74.5 43t80.5 13.5q10 0 23 -3.5t25.5 -12.5t22 -25.5t11.5 -42.5l30 52q6 9 25 10.5
t39 -2.5t34 -12.5t10 -18.5zM156 120q13 1 41 21.5t59 55.5q16 22 31.5 43.5t30.5 43.5l11 19l-7 -7q6 8 10.5 27t4.5 39.5t-6 36.5t-22 17q-11 1 -34.5 -11t-50 -39t-52 -69.5t-40.5 -103.5q-3 -10 -4.5 -23t0 -24.5t8 -19t20.5 -6.5zM319 293l3 3z" />
    <glyph glyph-name="k" unicode="k" horiz-adv-x="517" 
d="M514 149q-20 -28 -39 -55.5t-37 -49t-35.5 -35.5t-35.5 -15q-36 -2 -63 17t-45.5 49t-27 67t-6.5 70q0 5 0.5 10.5t0.5 11.5q-13 3 -25 13.5t-19.5 24.5t-8.5 28t8 25l-5 -3q-11 -18 -20 -34t-15 -27q-3 -5 -14.5 -28l-27 -54t-32 -64.5t-29.5 -58.5q-9 -19 -13.5 -28
t-9.5 -12t-13.5 -2.5t-26.5 0.5h-60q-11 0 -14 5.5t-2 12t3.5 13t3.5 8.5q15 34 36 75.5t41.5 79t37.5 67t24 40.5l127 205q-15 2 -29 5t-25 7q-10 5 -10 12.5t5.5 13.5t15 9.5t20.5 0.5q11 -4 23 -6.5t23 -4.5l33 54q13 25 31 51.5t34 45.5q13 15 27.5 29.5t33 26t41.5 19
t52 8.5q19 1 37 -5.5t32 -19t22 -31t5 -40.5q-2 -21 -12.5 -42.5t-25.5 -41t-33.5 -35.5t-36.5 -26q-17 -9 -28.5 -14.5t-23 -9.5t-24.5 -6.5t-31 -5.5q-17 -3 -37 -3l-53 -87q44 34 91.5 59t106.5 23q32 -1 56 -20t24 -52q-1 -32 -25 -64.5t-57.5 -59.5t-70.5 -45.5
t-64 -22.5l-14 -3q31 -23 45.5 -44t21.5 -37.5t11 -26.5t14 -12q16 -2 37.5 12t53.5 56l90 116q7 9 15 10.5t14.5 -2t9.5 -11.5t-1 -18q-19 -30 -39 -60.5t-43 -57.5zM195 320q17 6 33.5 -8t28.5 -31q48 8 81.5 31t66.5 65q13 19 15 32t-4 19.5t-18 7t-27 -5.5
q-47 -18 -90.5 -49t-85.5 -61zM341 581q-2 -3 -8.5 -15t-17.5 -30q22 3 47.5 14t48.5 28.5t42 41t29 51.5q5 16 -1 25.5t-19 8.5q-23 -2 -40 -14t-30.5 -30t-25.5 -39t-25 -39v-2zM229 281q-1 0 -0.5 -0.5t1.5 -0.5q-1 0 -1 1z" />
    <glyph glyph-name="m" unicode="m" horiz-adv-x="673" 
d="M580 237q-13 -23 -23 -44t-15 -36.5t-4 -24.5t12 -9q18 1 42 22.5t47 49t42.5 54.5t28.5 39q7 9 15.5 10.5t15 -2t9.5 -11.5t-1 -18q-29 -47 -62 -91.5t-68 -82.5q-10 -10 -26 -27t-35.5 -32.5t-42.5 -26.5t-46 -10q-21 1 -35 7t-22.5 15t-12 20.5t-4.5 23.5
q-2 14 3.5 34.5t14 42.5t19 43t20.5 37q16 29 36.5 64.5t36 66.5t21 51.5t-7.5 20.5q-17 0 -41 -20t-49.5 -48.5t-49.5 -61t-42 -57.5l-115 -214q-10 -16 -15.5 -19t-12.5 -3q-19 -1 -47 -1.5t-45 1.5q-11 1 -8.5 7.5t6.5 18.5q5 17 25.5 52t46.5 79t53.5 90.5t48 84.5
t28.5 63t-5 26q-14 1 -34 -13t-41.5 -36t-43.5 -49t-40.5 -52t-32.5 -45.5t-19 -28.5q-1 -1 -1 -2q-9 -17 -19 -37t-20 -40.5t-19.5 -40.5t-17.5 -36q-9 -19 -13.5 -28t-9.5 -12t-13.5 -2.5t-26.5 0.5q-17 0 -27 -1t-24 0q-10 0 -13 5t-2.5 12t3 13t3.5 8q30 70 87 178.5
t157 263.5q6 9 25 10.5t38.5 -2.5t34 -12.5t10.5 -18.5q-2 -6 -16.5 -29t-34.5 -55l3 3q10 10 24 28t32 36.5t38.5 33.5t43.5 18q25 4 41.5 -2t25.5 -17t12.5 -25t3.5 -26q0 -5 -0.5 -10t-1.5 -10q11 11 27 25.5t35 28t40 24t43 12.5q44 4 69 -17.5t22 -52.5
q-2 -18 -8 -36.5t-14 -37t-18 -35.5t-19 -31z" />
    <glyph glyph-name="n" unicode="n" 
d="M34 41q-10 -19 -14.5 -28t-9.5 -12t-13.5 -2.5t-25.5 0.5t-27.5 -1t-24.5 0q-10 0 -13 5t-2 12t3.5 13t3.5 8q30 70 87 178.5t157 263.5q5 9 24 10.5t39 -2.5t34 -12.5t10 -18.5q-2 -7 -16.5 -30.5t-34.5 -55.5l14 15q10 10 22 27.5t28 34t35 29.5t42 15q45 4 69.5 -17.5
t22.5 -52.5q-2 -18 -8 -36.5t-14.5 -37t-18 -35.5t-18.5 -31l-25 -43q-13 -23 -23.5 -44t-15.5 -36.5t-3.5 -24.5t12.5 -9q18 1 42 22.5t47 49t42 54.5t29 39q7 9 15 10.5t14.5 -2t9.5 -11.5t-1 -18q-28 -47 -61.5 -91.5t-68.5 -82.5q-10 -10 -26 -27t-35.5 -32.5
t-42.5 -26.5t-46 -10q-21 1 -35 7t-22 15t-12 20.5t-5 23.5q-1 14 4 34.5t14 42.5t19.5 43t20.5 37q16 29 36.5 64.5t35.5 66.5t21 51.5t-7 20.5q-14 0 -33 -13.5t-40 -35t-42 -47.5t-39 -51t-32 -45.5t-20 -30.5q-9 -17 -19 -37.5t-20.5 -42t-20.5 -42t-18 -37.5z" />
    <glyph glyph-name="j" unicode="j" horiz-adv-x="275" 
d="M175 454q6 9 25 10.5t39 -2.5t34 -12.5t10 -18.5q-23 -40 -50.5 -87.5t-59 -99.5t-66.5 -106.5t-72 -108.5q54 29 102.5 64t86.5 76q15 15 29 32.5t26 34t22 30.5t16 22q7 9 15.5 10.5t15 -2t9.5 -11.5t-1 -18q-47 -77 -104 -145q-22 -25 -53 -52t-66.5 -51.5t-72 -46
t-70.5 -35.5q-6 -2 -13.5 -5.5t-17.5 -8.5q-47 -63 -94.5 -117.5t-95.5 -97.5q-14 -13 -34 -27.5t-43 -25.5t-47 -15.5t-46 2.5q-23 8 -36 21.5t-14 38.5q-2 36 20 69t55 60.5t70.5 48t67.5 32.5l95 37q49 69 93.5 140.5t91.5 143.5l6 10q-9 5 -13 15t4 21q7 10 25.5 35.5
t39.5 54t40.5 54t30.5 34.5v-3zM231 656q20 30 50.5 40.5t54.5 -4.5q23 -16 26 -48.5t-17 -62.5t-50 -40t-54 6t-27 47.5t17 61.5zM-363 -277q0 -10 9 -6.5t22 14t28.5 25.5t28 27.5t20 20.5t5.5 5l3 3q-48 -29 -81.5 -53t-34.5 -36z" />
    <glyph glyph-name="y" unicode="y" horiz-adv-x="481" 
d="M140 454q6 9 25 10.5t38.5 -2.5t34 -12.5t10.5 -18.5q-2 -7 -19 -33t-39 -60t-45 -72t-38 -70t-17.5 -52.5t16.5 -20.5t43 17t46.5 40.5t42 49t31.5 42.5l110 182q5 9 24 10.5t39 -2.5t34 -12.5t10 -18.5q-22 -40 -49.5 -87.5t-59 -99t-66.5 -106.5t-72 -109
q54 29 102 64t86 76q15 15 29 32.5t26.5 34t22.5 30.5t16 22q7 9 15 10.5t14.5 -2t9.5 -11.5t-1 -18q-23 -38 -49 -75t-55 -70q-22 -25 -53 -52t-66 -51.5t-72 -46t-70 -35.5l-32 -14q-47 -63 -94.5 -117.5t-94.5 -97.5q-15 -13 -35 -27.5t-43 -25.5t-46.5 -15.5t-45.5 2.5
q-23 8 -36 21.5t-15 38.5q-2 36 20 69t55 60.5t70.5 48t67.5 32.5q26 10 49 18.5t45 17.5q17 23 32.5 46.5t30.5 47.5q-21 -19 -46.5 -32.5t-51.5 -12.5q-21 1 -35 8t-22 17t-12 22.5t-4 24.5q-1 35 11.5 72t29.5 66zM-160 -277q0 -10 8.5 -6.5t21.5 14t28.5 25t28 27.5
t20.5 21t7 6q2 0 2 2q-48 -29 -81.5 -53t-34.5 -36z" />
    <glyph glyph-name="o" unicode="o" 
d="M505 236q-12 -17 -33.5 -41t-45.5 -47.5t-48 -40.5t-43 -20q-26 -4 -51 5q-42 -42 -92 -67.5t-104 -23.5q-43 2 -71 37t-28 96q0 60 24.5 124.5t67.5 117t100 86t121 32.5q45 -1 72 -28t32 -75q5 -57 -14.5 -118.5t-55.5 -116.5q18 2 36.5 13.5t36 27.5t32.5 33.5
t26 31.5q6 8 10.5 14.5t8.5 11.5q7 9 15.5 10t15 -2.5t9.5 -11.5t-2 -17zM153 110q17 -1 38.5 12t43.5 34q-4 17 -3.5 39t7.5 48q2 9 9 28t18.5 38.5t26.5 35t32 18.5q15 2 23 -4q0 4 0.5 7.5t0.5 7.5q0 21 -7.5 31.5t-27.5 11.5q-18 0 -50 -20t-63 -55.5t-53.5 -83.5
t-22.5 -103q0 -14 5.5 -29t22.5 -16z" />
    <glyph glyph-name="w" unicode="w" horiz-adv-x="692" 
d="M751 236q-12 -17 -31.5 -41t-42 -47t-45 -40.5t-41.5 -20.5q-38 -6 -65.5 21.5t-29.5 87.5q-26 -33 -47.5 -61t-35.5 -42q-10 -10 -26 -27t-35.5 -32.5t-42.5 -26.5t-46 -10q-21 1 -35 7.5t-21.5 16.5t-11 22t-3.5 24q0 25 6 51l-24 -25q-10 -10 -26 -27t-35.5 -32.5
t-42.5 -26.5t-46 -10q-21 1 -35 8t-22 17t-12 22.5t-4 24.5q-1 35 11.5 72t29.5 66l148 247q6 9 25 10.5t38.5 -2.5t34 -12.5t10.5 -18.5q-2 -7 -19 -33t-39 -60t-45 -72t-38 -70t-17.5 -52.5t16.5 -20.5t42 16.5t45.5 40t42.5 48.5t32 42l111 184q5 9 24 10.5t39 -2.5
t34 -12.5t10 -18.5q0 -7 -15 -33t-36 -60.5t-43.5 -72.5t-38.5 -70t-20.5 -52.5t11.5 -19.5q11 1 29.5 17t41.5 41t48 56t48 61q5 16 11.5 35.5t15.5 39t19.5 37t23.5 29.5q20 20 37 25t31 5q25 0 38 -16t10 -43q1 -5 -2.5 -11.5t-9 -14t-11.5 -14.5t-9 -12
q-9 -15 -27.5 -46.5t-34 -64.5t-21.5 -59.5t9 -30.5q9 -3 24.5 8t33.5 27.5t35 35.5t29 34q6 8 10.5 14.5t8.5 11.5q7 9 15.5 10t15 -2.5t9.5 -11.5t-1 -17l-20 -31v0z" />
    <glyph glyph-name="z" unicode="z" horiz-adv-x="383" 
d="M200 101q1 -19 0 -37q37 23 69.5 49.5t59.5 55.5q15 15 29 32.5t26.5 34t22.5 30.5t16 22q7 9 15 10.5t14.5 -2t9.5 -11.5t-1 -18q-23 -38 -49 -75t-55 -70q-31 -35 -76.5 -71.5t-95.5 -66.5q-16 -51 -47.5 -96.5t-72 -84.5t-86.5 -69.5t-93 -51t-91 -31t-79 -7.5
q-27 2 -43.5 18.5t-18.5 39.5q-2 36 21 69.5t57.5 62t73 49.5t68.5 33q54 26 100.5 42.5t94.5 36.5q27 58 30 116v8t-1 9q-10 1 -19 2t-17 4q-17 6 -25.5 22t3.5 29q18 20 45 22t52 -8q32 28 53.5 65.5t44.5 81.5q12 23 3 36t-29 11l-42 -5l-14 -20q-9 -12 -20.5 -27.5
t-23 -32t-22 -32t-18.5 -26.5q-7 -9 -16 -8.5t-15.5 5.5t-9 14t3.5 18t15 21.5t19 27t21 30t22 29.5q-18 7 -19 25.5t8.5 36.5t26.5 30.5t34 7.5q21 -7 26.5 -20t2.5 -30q19 3 41.5 7.5t44.5 9.5q17 4 38.5 4t39 -7t27.5 -22.5t4 -40.5q-7 -30 -25.5 -65t-44.5 -68t-58 -61
t-65 -45q5 -11 7 -23.5t3 -24.5zM-94 -190q61 38 105 91q-38 -17 -81 -37.5t-83 -44.5q-69 -42 -87.5 -61t-3 -18t57 19.5t92.5 50.5z" />
    <glyph glyph-name="p" unicode="p" horiz-adv-x="482" 
d="M484 157q-56 -73 -110 -109.5t-100 -49.5t-82.5 -9.5t-58.5 11.5q-34 11 -51 35q-11 12 -17.5 32.5t-4.5 51.5l-201 -323q-5 -10 -24 -11.5t-39 2.5t-34 12.5t-10 19.5q1 2 16 27.5t39 64.5t53.5 86.5t58.5 94.5t54 88.5t41 67.5l139 224q6 10 25 11.5t39 -2.5t34 -13
t10 -19q0 -1 -5.5 -6t-12.5 -13t-14.5 -17t-11.5 -17q30 30 66 59t75 38q21 5 38 -2.5t29 -24t18.5 -40.5t7.5 -54q1 -40 -11 -84t-34 -86.5t-53 -80t-68 -64.5q33 16 73 47.5t86 85.5q25 29 45.5 57t31.5 41q7 9 15 10.5t14.5 -2t9.5 -11.5t-1 -18q-17 -28 -36 -56t-39 -54
zM130 231l-21 -33q-3 -10 -2 -24.5t7 -27.5t18 -21.5t32 -6.5q11 1 32 14.5t45 41.5t47.5 71.5t38.5 104.5q3 10 4.5 23t0 24.5t-8.5 19t-21 6.5q-9 -1 -26 -13.5t-38 -33.5t-43.5 -48t-41.5 -55q-5 -11 -11 -21.5t-13 -21.5zM116 209q-3 -2 -5 -7z" />
    <glyph glyph-name="b" unicode="b" horiz-adv-x="476" 
d="M43 14q-20 16 -33.5 44t-15.5 65q0 57 16.5 109.5t46.5 106.5q21 34 53 83t66.5 101.5t67 102t53.5 82.5q5 10 24 11.5t39 -2.5t34.5 -13t10.5 -19q-2 -4 -16.5 -27.5t-37 -58.5t-50 -78.5t-55.5 -87.5q25 21 53.5 37.5t58.5 22.5q21 4 38 -3t29 -23.5t18.5 -40.5
t7.5 -54q1 -39 -11 -83t-34 -86.5t-52.5 -80t-67.5 -64.5q34 16 73 47.5t85 84.5q25 29 45.5 57t31.5 41q7 9 15 10.5t14.5 -2t9.5 -11.5t-1 -18q-17 -28 -36 -56t-39 -54q-56 -73 -118.5 -110.5t-119.5 -51.5t-102 -11.5t-67 10.5q-11 4 -19 9t-15 11zM114 207l-4.5 -22.5
t-4.5 -28.5q2 -21 12.5 -37.5t36.5 -14.5q11 1 33.5 17t48.5 46.5t51 76t40 106.5q3 10 4.5 23t0 24.5t-8.5 19t-21 6.5q-8 -1 -24 -11.5t-36 -28t-41.5 -40.5t-40.5 -48q-10 -16 -17.5 -29t-12.5 -21q-1 -2 -6 -10t-10 -28q-3 -3 -4 -6zM114 207l2 2z" />
    <glyph glyph-name="v" unicode="v" horiz-adv-x="440" 
d="M498 236q-12 -17 -31.5 -41t-42 -47t-45 -40.5t-41.5 -20.5q-34 -5 -59.5 15.5t-33.5 67.5q-18 -21 -36 -40t-35 -37q-10 -10 -26 -27t-35.5 -32.5t-42.5 -26.5t-46 -10q-21 1 -35 8t-22 17t-12 22.5t-4 24.5q-1 35 11.5 72t29.5 66l148 247q6 9 25 10.5t38.5 -2.5
t34 -12.5t10.5 -18.5q-2 -7 -19 -33t-39 -60t-45 -72t-38 -70t-17.5 -52.5t16.5 -20.5q16 0 34.5 11t37 28.5t36.5 38t32 39.5q0 5 2 15q1 6 6.5 29t15.5 51t24.5 57t33.5 47q20 20 37 25t30 5q25 0 38.5 -16t10.5 -43q1 -5 -2.5 -11.5t-9 -14t-11.5 -14.5t-9 -12
q-7 -10 -17.5 -28t-22 -39t-22.5 -44t-17 -42t-5.5 -32t10.5 -16q9 -3 24.5 8t33 27.5t35 35.5t29.5 34q6 8 10.5 14.5t8.5 11.5q7 9 15.5 10t15 -2.5t9.5 -11.5t-2 -17l-19 -31v0z" />
    <glyph glyph-name="x" unicode="x" horiz-adv-x="601" 
d="M658 236q-21 -30 -43.5 -60.5t-47.5 -58.5t-54 -52t-64 -41q-31 -15 -61 -19.5t-54 5t-40.5 34.5t-20.5 68q-15 -21 -36 -40.5t-46 -34.5t-53.5 -23.5t-57.5 -7.5q-16 0 -31 8t-25 21.5t-12 32t7 40.5q6 14 21 33t31.5 34t31.5 21.5t21 -4.5q7 -12 4.5 -22t-10 -19
t-17.5 -18.5t-18 -21.5q-12 -19 -10 -28t14 -11q10 -2 28 12t39 36.5t42 50.5t38 56q6 10 14 27t15.5 37.5t11.5 41t2.5 37t-11 27t-29.5 9.5q-21 -1 -42.5 -15.5t-42 -36.5t-39.5 -47.5t-37 -49.5q-8 -11 -18 -13t-17 2.5t-8.5 14t6.5 21.5q18 24 42 59.5t53 68.5t63 56.5
t72 23.5q25 0 43.5 -8t30.5 -20.5t19 -27.5t10 -28q13 14 29.5 28.5t36 26.5t41 20t45.5 9q21 0 42 -6.5t36 -21t21.5 -36t-2.5 -49.5q-8 -25 -23.5 -44t-33 -33.5t-34.5 -23t-27 -12.5q-17 -6 -27.5 -3.5t-14.5 9.5t-0.5 16.5t14.5 18.5q4 4 16.5 12.5t26 19t25 22
t14.5 22.5q5 20 2.5 31t-15.5 11q-16 0 -38.5 -15.5t-45.5 -40t-43.5 -56t-34.5 -63.5t-18.5 -62t6.5 -52q9 -19 27 -22.5t40.5 4t47.5 24t50 37t47.5 43t38.5 42.5q6 8 10 14.5t8 11.5q7 9 15.5 10t15 -2.5t9.5 -11.5t-1 -17l-20 -31v0z" />
    <glyph glyph-name="f" unicode="f" horiz-adv-x="324" 
d="M40 102q-17 -28 -35 -58t-38 -62q47 16 104.5 51t113.5 78.5t104 90.5t76 86q7 9 15 10.5t15 -2t10 -11.5t-1 -18q-25 -41 -71.5 -92.5t-106 -102t-126 -93.5t-131.5 -65q-4 -1 -7 -2l-6 -2q0 -26 -5 -58t-14.5 -66t-24.5 -66t-34.5 -57.5t-43.5 -41.5t-52 -17
q-39 -2 -55.5 17t-16.5 50.5t14 71.5t37 81q35 63 76.5 137t87 152t93.5 156.5t96 151.5t94.5 136.5t88.5 111.5t78.5 76.5t65.5 30.5q12 1 24 -1.5t22 -9t15.5 -17.5t5.5 -27q-1 -31 -21.5 -78t-55 -103t-80.5 -116.5t-98 -119t-106.5 -111t-106.5 -91.5zM347 586
q-16 -20 -33.5 -45.5t-39.5 -59t-50 -78.5t-64 -104q37 42 75.5 87.5t73 90t63.5 84t48.5 70t27.5 48.5t0 19q-9 1 -20.5 -9t-25 -26.5t-27.5 -37t-28 -39.5zM-160 -270q11 17 20.5 40.5t14.5 60.5l-21 -33q-5 -8 -13 -23t-15.5 -31.5t-13 -30t-5.5 -18.5t7.5 2t25.5 33z
" />
    <glyph glyph-name="h" unicode="h" 
d="M34 41q-10 -19 -14.5 -28t-9.5 -12t-13.5 -2.5t-25.5 0.5t-27.5 -1t-24.5 0q-10 0 -13 5t-2 12t3.5 13t3.5 8q29 69 85 175t153 258l156 248l3 5q6 10 25 11.5t38.5 -2.5t34 -13t10.5 -19l-4 -7l-155 -248q-7 -12 -19 -31.5t-27 -43.5l14 15q10 10 22 27.5t28 34t35 29.5
t42 15q45 4 69.5 -17.5t22.5 -52.5q-2 -18 -8 -36.5t-14.5 -37t-18 -35.5t-18.5 -31l-25 -43q-13 -23 -23.5 -44t-15.5 -36.5t-3.5 -24.5t12.5 -9q18 1 42 22.5t47 49t42 54.5t29 39q7 9 15 10.5t14.5 -2t9.5 -11.5t-1 -18q-28 -47 -61.5 -91.5t-68.5 -82.5q-10 -10 -26 -27
t-35.5 -32.5t-42.5 -26.5t-46 -10q-21 1 -35 7t-22 15t-12 20.5t-5 23.5q-1 14 4 34.5t14 42.5t19.5 43t20.5 37q16 29 36.5 64.5t35.5 66.5t21 51.5t-7 20.5q-14 0 -33 -13.5t-40 -35t-42 -47.5t-39 -51t-32 -45.5t-20 -30.5q-9 -17 -19 -37.5t-20.5 -42t-20.5 -42
t-18 -37.5z" />
    <glyph glyph-name="S" unicode="S" horiz-adv-x="829" 
d="M913 674q-20 -1 -36.5 6.5t-27.5 20.5t-17.5 29.5t-6.5 33.5q-17 2 -35.5 6.5t-37.5 9.5q-18 -54 -18 -111q-3 -54 1 -106t9.5 -99t10 -87.5t3.5 -71.5q0 -83 -28.5 -150.5t-79 -115t-119.5 -72t-150 -22.5q-63 2 -116.5 26t-92 64.5t-60 96t-22.5 120.5q0 55 21.5 108.5
t59 96.5t89.5 70.5t113 30.5q39 2 78.5 -9.5t71.5 -35.5t52 -61t21 -87q0 -38 -13 -75.5t-36.5 -67.5t-55 -49.5t-67.5 -20.5q-28 -2 -47 8.5t-31 24.5t-17 29t-5 24q0 6 2 14t22 7q16 0 31.5 6t28 18.5t20 32t6.5 45.5q0 19 -8.5 35.5t-22 28t-30.5 17t-35 4.5
q-32 -3 -55.5 -21.5t-39 -45t-23.5 -58.5t-9 -62q-2 -37 8 -75t32.5 -68.5t57 -50t81.5 -20.5q51 -1 93 18t72 53.5t47.5 82t19.5 104.5q2 47 -2 93t-9 94.5t-8 100t1 109.5q4 32 12 62t22 59q-45 18 -89.5 37.5t-86 35t-79.5 26t-69 10.5q-27 0 -49.5 -9t-38 -23t-24.5 -32
t-10 -36q-2 -21 7 -37.5t24.5 -28t35.5 -17t41 -4.5q23 0 40.5 9t40.5 23q8 4 15 -3.5t11 -22t2.5 -34.5t-11.5 -40q-28 -58 -85 -84t-128 -9q-47 11 -79 30.5t-52.5 43.5t-31 51.5t-14 54.5t-1.5 51.5t6 43.5q7 36 29 75t59 70t90.5 48.5t124.5 11.5q38 -3 82.5 -21.5
t91.5 -44t95 -55t93 -55.5q38 51 91.5 82.5t115.5 34.5q50 2 86.5 -8.5t60 -30t35.5 -47t12 -59.5q0 -41 -17 -75t-42 -58.5t-54 -38t-53 -12.5zM952 892q6 -7 6 -18t-4.5 -23.5t-12.5 -25.5t-18 -24q-9 -9 -17.5 -16.5t-19.5 -12.5q-2 -14 5.5 -25t22.5 -13q12 -1 28 5
t32 19.5t29 34.5t18 50q3 18 -2.5 35.5t-19 30t-35.5 19.5t-52 6q-45 -2 -79 -29.5t-57 -68.5q36 -15 65 -18q2 13 14.5 32t29.5 33t35 19t32 -10z" />
    <glyph glyph-name="M" unicode="M" horiz-adv-x="1452" 
d="M722 -47q-3 -3 -1 2q-1 0 -1 -1q-9 -6 -28.5 -6.5t-37 2.5t-28 8.5t-2.5 12.5q48 37 86.5 83.5t68 100.5t50.5 114t35 122q8 39 21 90.5t26 107t24 110.5t14 100q-19 -23 -38.5 -52t-37.5 -58t-34 -55t-26 -43q-42 -71 -89 -147.5t-98.5 -150.5t-107 -140.5
t-113.5 -116.5t-117.5 -78.5t-119.5 -26.5q-27 1 -54 9.5t-49.5 24t-38 37.5t-17.5 49q-1 7 0.5 22t6 29.5t12 24t19.5 5.5q30 -8 59.5 -15t60.5 -6q53 0 105.5 25t104 67t101.5 97.5t98 117.5t93 125.5t87 122t80.5 108t72.5 81.5q10 10 24 21q-40 13 -78.5 25t-77.5 22
t-79.5 15.5t-85.5 5.5q-59 -1 -104.5 -18t-75.5 -43t-45 -58t-13 -63q1 -18 5.5 -35.5t14.5 -31.5t27.5 -22.5t43.5 -7.5q10 0 23 1.5t29 7.5t35 18t42 34q7 6 17 -0.5t18.5 -22t12 -38t-1.5 -47.5q-16 -73 -72.5 -117.5t-141.5 -44.5q-55 0 -96 12.5t-70.5 33t-49 47.5
t-30.5 56.5t-15.5 58t-4.5 53.5q-1 55 20.5 115t69 110t122.5 82.5t180 33.5q51 0 102 -11t101.5 -28.5t100 -39t99.5 -42.5l43 -20q36 19 76.5 30t80.5 8q20 -2 35.5 -10.5t24 -21.5t9 -29t-8.5 -31q-17 -27 -46 -33.5t-64 -0.5q-20 3 -40 8t-41 11q-2 -46 -8.5 -100.5
t-14 -110t-15.5 -108.5t-13 -95q54 83 110.5 151.5t117.5 118t126 77t137 29.5q23 0 40.5 -14.5t27 -31.5t10 -29.5t-9.5 -6.5q-14 11 -32 15.5t-35 5.5q-76 -75 -128.5 -160t-85 -164t-45 -144t-7.5 -100q5 -41 26.5 -65t46.5 -24t47.5 11.5t44 30.5t42 44t41.5 52
q14 18 25 33.5t18 24.5t15 10.5t15 -2t10 -11.5t-1 -18q-10 -16 -20 -31.5t-21 -31.5l-11 -14q-29 -41 -66 -87.5t-78.5 -86.5t-86.5 -66.5t-91 -25.5q-41 0 -65.5 19t-38 44.5t-17.5 52.5t-4 44q3 93 37 185t86.5 177t116 160t125.5 134q-57 -15 -107.5 -52.5t-96.5 -88.5
t-88 -112.5t-81 -126t-76.5 -127.5t-74 -118t-73.5 -97.5t-76 -64.5zM1130 905q-14 -2 -27.5 -6t-27.5 -9q6 -2 12 -3t13 -2q15 -3 28 0t19.5 7.5t3.5 8.5t-21 4z" />
    <glyph glyph-name="A" unicode="A" horiz-adv-x="1312" 
d="M771 187q-12 -8 -22 -5t-17 12t-11 22.5t-4 27.5q-75 -65 -151.5 -122t-149.5 -98.5t-140.5 -65t-124.5 -21.5q-26 1 -52.5 9t-48 23t-35 37t-14.5 49q1 7 6 22t13.5 29.5t18.5 24t21 5.5q28 -8 55 -15t58 -6q53 0 116 23.5t132 63.5t141.5 92.5t145 111.5t142.5 120
t133.5 117t119 104t98.5 80l18 13q-54 12 -105 28.5t-102.5 31t-104 24.5t-108.5 9q-59 -1 -104.5 -18t-75.5 -43t-45 -58t-13 -63q1 -18 5.5 -35.5t14.5 -31.5t27.5 -22.5t43.5 -7.5q10 0 23 1.5t29 7.5t35 18t42 34q7 6 17 -0.5t18.5 -22t12 -38t-1.5 -47.5
q-16 -73 -73 -117.5t-141 -45.5q-83 0 -134.5 28.5t-80.5 69t-40 86t-12 78.5q-2 49 20 108.5t69.5 110.5t122.5 85.5t180 35.5q58 1 120 -13t125 -35t125 -45.5t121 -46.5q6 0 9 -1l18 -9l23 -8l3 1q36 15 75.5 28t76.5 6q14 -3 27 -12t21.5 -21.5t9 -28t-10.5 -30.5
q-20 -28 -55.5 -38.5t-64.5 -5.5q-23 4 -43 15q-52 -56 -93 -121.5t-71 -132t-50 -130t-30 -115.5q0 -5 -2 -9q-6 -36 -8 -64t0 -45q5 -42 26.5 -66t46.5 -24t47.5 11.5t44 31t42 44t41.5 51.5q14 19 25 34.5t18 23.5q7 9 15 10.5t15 -2t10 -11.5t-1 -18q-18 -30 -41 -62
l-11 -14q-29 -41 -66 -88t-78.5 -87t-86.5 -66.5t-91 -25.5q-41 1 -65.5 20t-38 44.5t-17.5 52t-4 43.5q2 52 13.5 106.5t31.5 110.5q-41 -10 -80.5 -44t-88.5 -73zM1035 563q-46 -54 -98.5 -109t-109.5 -109q66 30 136 17q27 63 61 124.5t72 117.5t79 106t80 89
q-26 -19 -57 -50.5t-61.5 -66t-57 -67t-44.5 -52.5zM1402 873q-17 -1 -34 -5.5t-35 -12.5l16 -4t17 -4q18 1 32 5.5t21 9t4 8t-21 3.5z" />
    <glyph glyph-name="N" unicode="N" horiz-adv-x="1149" 
d="M838 -47q-3 -3 -3 1q-11 -6 -44 -7.5t-67 0t-57.5 6t-15.5 11.5q48 37 88 85t71 103t53.5 116t36.5 123q9 39 17.5 92t16 110t12 112.5t4.5 100.5q-19 -23 -39 -52.5t-38 -59.5t-33.5 -57.5t-26.5 -45.5q-42 -71 -89 -147.5t-98.5 -150.5t-107 -140.5t-113.5 -116.5
t-117.5 -78.5t-119.5 -26.5q-27 1 -54 9.5t-49.5 24t-38 37.5t-17.5 49q-1 7 0.5 22t6 29.5t12 24t19.5 5.5q30 -8 59.5 -15t60.5 -6q74 1 145.5 46.5t140 116.5t133.5 158t125.5 172t116 158t104.5 115q-40 12 -78 24.5t-77 22t-79.5 15t-85.5 5.5q-59 -1 -104.5 -18
t-75.5 -43t-45 -58t-13 -63q1 -18 5.5 -35.5t14.5 -31.5t27.5 -22.5t43.5 -7.5q10 0 23 1.5t29 7.5t35 18t42 34q7 6 17 -0.5t18.5 -22t12 -38t-1.5 -47.5q-16 -73 -72.5 -117.5t-141.5 -44.5q-55 0 -96 12.5t-70.5 33t-49 47.5t-30.5 56.5t-15.5 58t-4.5 53.5
q-1 55 20.5 115t69 110t122.5 82.5t180 33.5q57 0 113.5 -13.5t112.5 -34t111.5 -45.5t111.5 -47l8 3q33 15 70.5 28t75.5 6q14 -3 29 -12t25 -21.5t12.5 -28t-6.5 -30.5q-17 -27 -46 -33.5t-64 -0.5q-19 3 -39.5 8t-40.5 11q-2 -51 -7 -114t-12 -125.5t-13.5 -119.5
t-10.5 -97q-4 -38 -8.5 -72t-10.5 -66q43 79 91.5 164t102.5 165t113 149.5t124 117.5t135.5 70t146.5 7q37 -7 60 -21.5t35 -31.5t14.5 -35.5t-1.5 -33.5t-13 -25t-20 -11q-11 1 -15 10t-13.5 18.5t-30 17.5t-63.5 7q-83 -2 -153.5 -35.5t-131 -88t-111.5 -125t-95.5 -146
t-83.5 -151t-75 -140t-70.5 -113t-70.5 -70.5zM1130 905q-28 -1 -58 -14q14 -5 28 -6q17 -2 30.5 1t19 7t2 8t-21.5 4z" />
    <glyph glyph-name="B" unicode="B" horiz-adv-x="1225" 
d="M875 693q-19 -30 -35 -57t-27 -45q-42 -71 -89 -147.5t-98.5 -150.5t-107 -140.5t-113.5 -116.5t-117.5 -78.5t-119.5 -26.5q-27 1 -54 9.5t-49.5 24t-38 37.5t-17.5 49q-1 7 0.5 22t6 29.5t12 24t19.5 5.5q30 -8 59.5 -15t60.5 -6q53 0 105.5 25t104 67t101.5 97.5
t98 117.5t93 125.5t87 122t80.5 108t72.5 81.5q10 10 24 21q-40 13 -78.5 25t-77.5 22t-79.5 15.5t-85.5 5.5q-59 -1 -104.5 -18t-75.5 -43t-45 -58t-13 -63q1 -18 5.5 -35.5t14.5 -31.5t27.5 -22.5t43.5 -7.5q10 0 23 1.5t29 7.5t35 18t42 34q7 6 17 -0.5t18.5 -22t12 -38
t-1.5 -47.5q-16 -73 -72.5 -117.5t-141.5 -44.5q-55 0 -96 12.5t-70.5 33t-49 47.5t-30.5 56.5t-15.5 58t-4.5 53.5q-1 55 20.5 115t69 110t122.5 82.5t180 33.5q51 0 102 -11t101.5 -28.5t100 -39t99.5 -42.5l43 -20q36 19 76.5 30t80.5 8q20 -2 35.5 -10.5t24 -21.5t9 -29
t-8.5 -31q-17 -27 -46 -33.5t-64 -0.5q-23 4 -48 10.5t-50 14.5l-16 -11q-10 -7 -20.5 -18.5t-21.5 -25.5q25 10 52 15t59 4q29 -1 58 -11.5t52.5 -30t38 -47.5t14.5 -64q-1 -36 -14 -67.5t-35 -57.5t-50.5 -46t-60.5 -35q46 -35 74 -87t24 -124q-4 -65 -37 -123.5
t-85.5 -103t-120 -70t-139.5 -23.5q-45 1 -85 14.5t-70.5 39t-48 62.5t-17.5 85q0 22 7.5 45t19 36.5t26 12.5t30.5 -26q36 -56 89 -73.5t107 -7t100.5 43t69.5 77.5q9 17 9.5 43t-8 53.5t-26 51.5t-45.5 38q-14 -2 -27.5 -2.5t-26.5 0.5q-53 4 -78 17.5t-26 35.5
q-1 23 17.5 33.5t69.5 12.5q13 1 26.5 0t27.5 -3l28 7q35 11 65 32t52 46t34.5 52t12 49t-15.5 37.5t-47 18.5q-22 2 -47.5 -2t-49.5 -12.5t-44.5 -21.5t-31.5 -29zM1130 905q-14 -2 -27.5 -6t-27.5 -9q6 -2 12 -3t13 -2q15 -3 28 0t19.5 7.5t3.5 8.5t-21 4z" />
    <glyph glyph-name="P" unicode="P" horiz-adv-x="1182" 
d="M738 378q-2 27 -0.5 38.5t7.5 13.5t18 -4t31 -13t45.5 -12.5t62.5 -4.5q42 1 84.5 21.5t77 53.5t56.5 74.5t22 85.5q0 45 -22.5 78t-63.5 36q-25 2 -53.5 -2t-55.5 -14t-50 -25.5t-35 -34.5q-2 -2 -3 -2q-14 -23 -26 -42.5t-20 -33.5q-42 -71 -89 -147.5t-98.5 -150.5
t-107 -140.5t-113.5 -116.5t-117.5 -78.5t-119.5 -26.5q-27 1 -54 9.5t-49.5 24t-38 37.5t-17.5 49q-1 7 0.5 22t6 29.5t12 24t19.5 5.5q30 -8 59.5 -15t60.5 -6q53 0 105.5 25t104 67t101.5 97.5t98 117.5t93 125.5t87 122t80.5 108t72.5 81.5q10 10 24 21q-40 13 -78.5 25
t-77.5 22t-79.5 15.5t-85.5 5.5q-59 -1 -104.5 -18t-75.5 -43t-45 -58t-13 -63q1 -18 5.5 -35.5t14.5 -31.5t27.5 -22.5t43.5 -7.5q10 0 23 1.5t29 7.5t35 18t42 34q7 6 17 -0.5t18.5 -22t12 -38t-1.5 -47.5q-16 -73 -72.5 -117.5t-141.5 -44.5q-55 0 -96 12.5t-70.5 33
t-49 47.5t-30.5 56.5t-15.5 58t-4.5 53.5q-1 55 20.5 115t69 110t122.5 82.5t180 33.5q51 0 102 -11t101.5 -28.5t100 -39t99.5 -42.5l43 -20q36 19 76.5 30t80.5 8q20 -2 35.5 -10.5t24 -21.5t9 -29t-8.5 -31q-17 -27 -46 -33.5t-64 -0.5q-23 4 -48 10.5t-50 14.5l-16 -11
q-13 -10 -28 -27t-31 -39q29 18 63 28t73 9q33 -1 67 -13t62 -35t46.5 -56t21.5 -76q6 -88 -24.5 -162t-82.5 -128t-119 -84t-135 -29q-32 0 -60.5 11t-51 30.5t-37 46.5t-17.5 59zM1130 905q-14 -2 -27.5 -6t-27.5 -9q6 -2 12 -3t13 -2q15 -3 28 0t19.5 7.5t3.5 8.5t-21 4z
" />
    <glyph glyph-name="T" unicode="T" horiz-adv-x="738" 
d="M998 917q36 19 76.5 30t80.5 8q20 -2 35.5 -10.5t24 -21.5t9 -29t-8.5 -31q-17 -27 -46 -33.5t-64 -0.5q-23 4 -48 10.5t-50 14.5l-16 -11q-20 -15 -45 -47.5t-50 -70.5t-47 -74.5t-36 -59.5q-42 -71 -89 -147.5t-98.5 -150.5t-107 -140.5t-113.5 -116.5t-117.5 -78.5
t-119.5 -26.5q-27 1 -54 9.5t-49.5 24t-38 37.5t-17.5 49q-1 7 0.5 22t6 29.5t12 24t19.5 5.5q30 -8 59.5 -15t60.5 -6q53 0 105.5 25t104 67t101.5 97.5t98 117.5t93 125.5t87 122t80.5 108t72.5 81.5q10 10 24 21q-40 13 -78.5 25t-77.5 22t-79.5 15.5t-85.5 5.5
q-59 -1 -104.5 -18t-75.5 -43t-45 -58t-13 -63q1 -18 5.5 -35.5t14.5 -31.5t27.5 -22.5t43.5 -7.5q10 0 23 1.5t29 7.5t35 18t42 34q7 6 17 -0.5t18.5 -22t12 -38t-1.5 -47.5q-16 -73 -72.5 -117.5t-141.5 -44.5q-55 0 -96 12.5t-70.5 33t-49 47.5t-30.5 56.5t-15.5 58
t-4.5 53.5q-1 55 20.5 115t69 110t122.5 82.5t180 33.5q51 0 102 -11t101.5 -28.5t100 -39t99.5 -42.5zM1130 905q-14 -2 -27.5 -6t-27.5 -9q6 -2 12 -3t13 -2q15 -3 28 0t19.5 7.5t3.5 8.5t-21 4z" />
    <glyph glyph-name="D" unicode="D" horiz-adv-x="1301" 
d="M955 937q27 -12 54 -15q27 11 57 14t62 -6q27 -8 33.5 -20t-3.5 -23t-33.5 -17t-55.5 -1q-8 1 -14.5 2t-14.5 3q-14 -8 -26 -15.5t-23 -15.5q-4 -2 -7 -5l-7 -7q26 11 53 17.5t56 4.5q76 -6 128 -36.5t81.5 -79t38.5 -110t0.5 -129t-33.5 -137.5t-62.5 -135t-87 -120.5
t-108 -95.5t-124 -59.5t-135.5 -11.5q-45 5 -86 17.5t-72 35t-49.5 56t-18.5 81.5q0 22 6 44.5t17 35t26 12t34 -23.5q26 -32 60.5 -48t85.5 -20q68 -6 128 18.5t110 68t88 101.5t61.5 120.5t31 123.5t-3.5 110.5t-42.5 83t-85.5 39.5q-20 2 -45 -3t-50 -15.5t-47.5 -24.5
t-37.5 -29q-25 -37 -46 -72.5t-35 -58.5q-42 -71 -89 -147.5t-98.5 -150.5t-107 -140.5t-113.5 -116.5t-117.5 -78.5t-119.5 -26.5q-27 1 -54 9.5t-49.5 24t-38 37.5t-17.5 49q-1 7 0.5 22t6 29.5t12 24t19.5 5.5q30 -8 59.5 -15t60.5 -6q53 0 105.5 25t104 67t101.5 97.5
t98 117.5t93 125.5t87 122t80.5 108t72.5 81.5q10 10 21 19.5t24 17.5q-42 10 -82.5 19.5t-81.5 17t-85 12t-93 3.5q-59 -1 -104.5 -18t-75.5 -43t-45 -58t-13 -63q1 -18 5.5 -35.5t14.5 -31.5t27.5 -22.5t43.5 -7.5q10 0 23 1.5t29 7.5t35 18t42 34q7 6 17 -0.5t18.5 -22
t12 -38t-1.5 -47.5q-16 -73 -72.5 -117.5t-141.5 -44.5q-55 0 -96 12.5t-70.5 33t-49 47.5t-30.5 56.5t-15.5 58t-4.5 53.5q-1 55 20.5 115t69 110t122.5 82.5t180 33.5q51 0 102 -11t101.5 -28.5t100 -39t99.5 -42.5z" />
    <glyph glyph-name="F" unicode="F" horiz-adv-x="847" 
d="M998 917q36 19 76.5 30t80.5 8q20 -2 35.5 -10.5t24 -21.5t9 -29t-8.5 -31q-17 -27 -46 -33.5t-64 -0.5q-23 4 -48 10.5t-50 14.5l-16 -11q-20 -15 -45 -47.5t-50 -70.5t-47 -74.5t-36 -59.5q-14 -24 -28.5 -48.5t-30.5 -49.5q23 7 45 15.5t41 16.5l3 4q17 23 41 42.5
t50 19.5q22 1 33.5 -9t11.5 -28q0 -15 -7 -25.5t-17 -18t-21.5 -13t-20.5 -10.5q-12 -7 -28.5 -15t-35.5 -16q-6 -11 -15.5 -26.5t-20 -31t-20 -29.5t-14.5 -22q-7 -8 -17 -11t-17.5 -1.5t-11 7.5t2.5 17q1 2 12.5 22.5t28.5 46.5q-20 -7 -39.5 -12.5t-37.5 -9.5
q-57 -90 -120.5 -176.5t-131 -153.5t-138 -107t-142.5 -38q-27 1 -54 9.5t-49.5 24t-38 37.5t-17.5 49q-1 7 0.5 22t6 29.5t12 24t19.5 5.5q30 -8 59.5 -15t60.5 -6q53 0 105.5 25t104 67t101.5 97.5t98 117.5t93 125.5t87 122t80.5 108t72.5 81.5q10 10 24 21
q-40 13 -78.5 25t-77.5 22t-79.5 15.5t-85.5 5.5q-59 -1 -104.5 -18t-75.5 -43t-45 -58t-13 -63q1 -18 5.5 -35.5t14.5 -31.5t27.5 -22.5t43.5 -7.5q10 0 23 1.5t29 7.5t35 18t42 34q7 6 17 -0.5t18.5 -22t12 -38t-1.5 -47.5q-16 -73 -72.5 -117.5t-141.5 -44.5
q-55 0 -96 12.5t-70.5 33t-49 47.5t-30.5 56.5t-15.5 58t-4.5 53.5q-1 55 20.5 115t69 110t122.5 82.5t180 33.5q51 0 102 -11t101.5 -28.5t100 -39t99.5 -42.5zM1130 905q-14 -2 -27.5 -6t-27.5 -9q6 -2 12 -3t13 -2q15 -3 28 0t19.5 7.5t3.5 8.5t-21 4z" />
    <glyph glyph-name="H" unicode="H" horiz-adv-x="1060" 
d="M617 197q-15 -11 -27.5 -3.5t-19.5 24.5q-47 -62 -95.5 -115t-99.5 -91.5t-103 -60.5t-104 -20q-27 1 -54 9.5t-49.5 24t-38 37.5t-17.5 49q-1 7 0.5 22t6 29.5t12 24t19.5 5.5q30 -8 59.5 -15t60.5 -6q53 0 105.5 25t104 67t101.5 97.5t98 117.5t93 125.5t87 122
t80.5 108t72.5 81.5q10 10 24 21q-40 13 -78.5 25t-77.5 22t-79.5 15.5t-85.5 5.5q-59 -1 -104.5 -18t-75.5 -43t-45 -58t-13 -63q1 -18 5.5 -35.5t14.5 -31.5t27.5 -22.5t43.5 -7.5q10 0 23 1.5t29 7.5t35 18t42 34q7 6 17 -0.5t18.5 -22t12 -38t-1.5 -47.5
q-16 -73 -72.5 -117.5t-141.5 -44.5q-55 0 -96 12.5t-70.5 33t-49 47.5t-30.5 56.5t-15.5 58t-4.5 53.5q-1 55 20.5 115t69 110t122.5 82.5t180 33.5q51 0 102 -11t101.5 -28.5t100 -39t99.5 -42.5l43 -20q36 19 76.5 30t80.5 8q20 -2 35.5 -10.5t24 -21.5t9 -29t-8.5 -31
q-17 -27 -46 -33.5t-64 -0.5q-23 4 -48 10.5t-50 14.5l-16 -11q-20 -15 -45 -47.5t-50 -70.5t-47 -74.5t-36 -59.5q-34 -57 -71 -118.5t-78 -122.5q55 28 112 26t123 -39q52 75 110 149t119.5 140.5t124.5 121.5t125.5 92.5t124 53.5t119.5 5q55 -11 80 -37t29.5 -52.5
t-7 -47t-27.5 -21.5q-11 1 -15 9.5t-13.5 18t-30 17t-63.5 7.5q-89 -1 -166.5 -36.5t-142.5 -93.5t-119.5 -131.5t-97.5 -150.5t-76 -151.5t-56.5 -134t-37.5 -97t-19 -41.5q-5 -6 -22 -9.5t-40 -5t-48 -0.5t-45 3.5t-31.5 7t-7.5 10.5q38 69 91 157t118 182q-38 18 -69 15
t-61 -20t-60.5 -44t-67.5 -56zM1130 905q-14 -2 -27.5 -6t-27.5 -9q6 -2 12 -3t13 -2q15 -3 28 0t19.5 7.5t3.5 8.5t-21 4z" />
    <glyph glyph-name="R" unicode="R" horiz-adv-x="1203" 
d="M998 917q36 19 76.5 30t80.5 8q20 -2 35.5 -10.5t24 -21.5t9 -29t-8.5 -31q-17 -27 -46 -33.5t-64 -0.5q-23 4 -48 10.5t-50 14.5l-16 -11q-10 -7 -20.5 -18.5t-21.5 -25.5q25 10 52 15t59 4q29 -1 58 -11.5t52.5 -30t38 -47.5t14.5 -64q-1 -49 -23.5 -88t-58 -68
t-79.5 -47.5t-88 -27.5q5 -16 6 -33t-2 -33q-9 -41 -14.5 -68.5t-8.5 -48t-3 -35.5t2 -31q5 -42 26.5 -66t46.5 -24t47.5 11.5t44 31t42 44t41.5 51.5q14 19 25 34.5t18 23.5q7 9 15 10.5t15 -2t10 -11.5t-1 -18q-18 -30 -41 -62l-11 -14q-29 -41 -66 -88t-78.5 -87
t-86.5 -66.5t-91 -25.5q-41 1 -65.5 20t-38 44.5t-17.5 52t-4 43.5q1 39 12 75t27.5 72t36.5 73.5t38 79.5q10 21 3 40h-9.5t-9.5 1q-26 1 -44 7t-28.5 13.5t-14.5 16.5t-4 17q0 17 17 33.5t51 18.5q17 1 31 -4t26 -14q11 3 19 4.5t12 3.5q35 11 65 32t52 46t34.5 52t12 49
t-15.5 37.5t-47 18.5q-22 2 -47.5 -2t-49.5 -12.5t-44.5 -21.5t-31.5 -29l-1 -1q-19 -30 -35 -57t-27 -45q-42 -71 -89 -147.5t-98.5 -150.5t-107 -140.5t-113.5 -116.5t-117.5 -78.5t-119.5 -26.5q-27 1 -54 9.5t-49.5 24t-38 37.5t-17.5 49q-1 7 0.5 22t6 29.5t12 24
t19.5 5.5q30 -8 59.5 -15t60.5 -6q53 0 105.5 25t104 67t101.5 97.5t98 117.5t93 125.5t87 122t80.5 108t72.5 81.5q10 10 24 21q-40 13 -78.5 25t-77.5 22t-79.5 15.5t-85.5 5.5q-59 -1 -104.5 -18t-75.5 -43t-45 -58t-13 -63q1 -18 5.5 -35.5t14.5 -31.5t27.5 -22.5
t43.5 -7.5q10 0 23 1.5t29 7.5t35 18t42 34q7 6 17 -0.5t18.5 -22t12 -38t-1.5 -47.5q-16 -73 -72.5 -117.5t-141.5 -44.5q-55 0 -96 12.5t-70.5 33t-49 47.5t-30.5 56.5t-15.5 58t-4.5 53.5q-1 55 20.5 115t69 110t122.5 82.5t180 33.5q51 0 102 -11t101.5 -28.5t100 -39
t99.5 -42.5zM1130 905q-14 -2 -27.5 -6t-27.5 -9q6 -2 12 -3t13 -2q15 -3 28 0t19.5 7.5t3.5 8.5t-21 4z" />
    <glyph glyph-name="I" unicode="I" horiz-adv-x="689" 
d="M565 841q93 24 189 34.5t193 22.5q29 33 61 61t67 43q21 9 39.5 9.5t31.5 -7t19.5 -20.5t5.5 -31q-1 -9 -8.5 -21.5t-19.5 -24.5t-27.5 -22t-31.5 -14q-27 -8 -52.5 -14.5t-50.5 -11.5q-43 -54 -87 -123t-89.5 -144t-93 -152.5t-97.5 -150t-102.5 -136.5t-108 -110.5
t-114 -73t-121.5 -24.5q-27 1 -54 9.5t-49.5 24t-38 37.5t-17.5 49q-1 7 0.5 22t6 29.5t12 24t19.5 5.5q30 -8 59.5 -15t60.5 -6q62 0 123.5 32.5t121 86.5t117.5 122.5t112.5 141t105 142.5t95.5 126l50 66q-63 -11 -126.5 -23t-132.5 -32q-50 -14 -86.5 -35.5t-60 -45.5
t-35 -48.5t-11.5 -43.5q0 -31 23.5 -43t58.5 4q9 4 20.5 11.5t23 22.5t21.5 39.5t16 63.5q4 24 14.5 26.5t20 -12.5t15 -45.5t-1.5 -72.5q-4 -25 -19 -57.5t-36.5 -63.5t-49 -56.5t-57.5 -35.5q-68 -23 -114 -13.5t-75 34.5t-42 55.5t-14 49.5q-3 54 13.5 104t55 93.5
t101 78t151.5 58.5zM1077 946q-12 -6 -22.5 -15.5t-20.5 -20.5l24 5q21 5 32.5 13.5t13.5 15.5t-5 8.5t-22 -6.5z" />
    <glyph glyph-name="J" unicode="J" horiz-adv-x="896" 
d="M1278 946q-13 -7 -24 -17t-22 -23q12 3 28 9q19 7 30.5 16t14 15t-4 7t-22.5 -7zM1160 901q23 30 51 57t66 44q21 9 39 9.5t31.5 -7t20 -20.5t5.5 -31q-1 -9 -8.5 -21t-19.5 -24t-27.5 -22t-32.5 -15q-20 -8 -46.5 -16t-47.5 -9q-18 -23 -42.5 -57t-50 -70.5t-48 -71
t-35.5 -56.5q-31 -53 -68 -117t-79 -132.5t-88.5 -139t-97 -135t-105 -121t-112.5 -98t-119 -64.5t-124 -21q-37 1 -75.5 11t-70 29t-53 45.5t-24.5 60.5q-1 9 0.5 27.5t7.5 35.5t17 28.5t28 7.5q42 -11 83.5 -19t84.5 -7q72 0 140.5 28.5t133 76t125.5 111t116.5 133.5
t107 143t97.5 139.5t86 122.5t75 93q-39 -8 -76 -15t-75 -15t-77.5 -17.5t-83.5 -21.5q-56 -16 -96.5 -39.5t-66.5 -50t-38.5 -53t-12.5 -47.5q0 -34 26 -47t65 4q10 5 23 13t25.5 24t24 43t17.5 70q4 26 15.5 28.5t22.5 -14t16.5 -49.5t-1.5 -79q-5 -27 -21 -63t-40.5 -70
t-55 -61.5t-63.5 -38.5q-50 -17 -89 -17.5t-69.5 10.5t-51.5 29.5t-34.5 39.5t-20.5 41.5t-7 34.5q-3 59 15 114t61 102t112 85.5t168 64.5q54 14 110 23.5t112 16t112.5 13t112.5 14.5z" />
    <glyph glyph-name="K" unicode="K" horiz-adv-x="1203" 
d="M998 917q36 19 76.5 30t80.5 8q20 -2 35.5 -10.5t24 -21.5t9 -29t-8.5 -31q-17 -27 -46 -33.5t-64 -0.5q-23 4 -48 10.5t-50 14.5l-16 -11q-20 -15 -45 -47.5t-50 -70.5t-47 -74.5t-36 -59.5q-42 -71 -89 -147.5t-98.5 -150.5t-107 -140.5t-113.5 -116.5t-117.5 -78.5
t-119.5 -26.5q-27 1 -54 9.5t-49.5 24t-38 37.5t-17.5 49q-1 7 0.5 22t6 29.5t12 24t19.5 5.5q30 -8 59.5 -15t60.5 -6q53 0 105.5 25t104 67t101.5 97.5t98 117.5t93 125.5t87 122t80.5 108t72.5 81.5q10 10 24 21q-40 13 -78.5 25t-77.5 22t-79.5 15.5t-85.5 5.5
q-59 -1 -104.5 -18t-75.5 -43t-45 -58t-13 -63q1 -18 5.5 -35.5t14.5 -31.5t27.5 -22.5t43.5 -7.5q10 0 23 1.5t29 7.5t35 18t42 34q7 6 17 -0.5t18.5 -22t12 -38t-1.5 -47.5q-16 -73 -72.5 -117.5t-141.5 -44.5q-55 0 -96 12.5t-70.5 33t-49 47.5t-30.5 56.5t-15.5 58
t-4.5 53.5q-1 55 20.5 115t69 110t122.5 82.5t180 33.5q51 0 102 -11t101.5 -28.5t100 -39t99.5 -42.5zM1081 500q-26 -20 -53.5 -35t-55.5 -25q6 -17 8 -36t-2 -36q-9 -41 -14.5 -68.5t-8.5 -48t-3 -35.5t2 -31q5 -42 26.5 -66t46.5 -24t47.5 11.5t44 31t42 44t41.5 51.5
q14 19 25 34.5t18 23.5q7 9 15 10.5t15 -2t10 -11.5t-1 -18q-18 -30 -41 -62l-11 -14q-29 -41 -66 -88t-78.5 -87t-86.5 -66.5t-91 -25.5q-41 1 -65.5 20t-38 44.5t-17.5 52t-4 43.5q1 39 12 75t27.5 72t36.5 73.5t38 79.5q10 21 3 40h-9.5t-9.5 1q-26 1 -44 7t-28.5 13.5
t-14.5 16.5t-4 17q0 17 17 33.5t51 18.5q27 1 46 -10.5t35 -31.5q51 9 97.5 41t90 78t85 101t84 109.5t86.5 104t91.5 84t100 50t112.5 1.5q55 -12 80 -38t29.5 -52.5t-6.5 -46.5t-27 -21q-11 1 -15 9.5t-13.5 18.5t-30.5 17.5t-64 6.5q-59 -1 -110 -25t-97 -63t-89.5 -88.5
t-86 -100t-86 -97.5t-91.5 -81zM1130 905q-14 -2 -27.5 -6t-27.5 -9q6 -2 12 -3t13 -2q15 -3 28 0t19.5 7.5t3.5 8.5t-21 4z" />
    <glyph glyph-name="L" unicode="L" horiz-adv-x="1061" 
d="M303 456q168 2 336 67q40 62 80.5 122.5t85.5 116.5q22 28 50.5 61.5t60.5 67t66.5 64t69.5 52.5q18 11 41 23t48.5 20.5t51.5 12t49 -0.5q29 -6 42.5 -20t16 -34t-5 -43t-20 -47t-29.5 -47t-33 -42q-53 -59 -114 -117.5t-128 -112.5t-138 -103t-144 -89
q-48 -78 -98 -149.5t-106 -131.5q43 -11 92.5 -21t115.5 -15q19 -2 37 -2t35.5 6t33 19.5t29.5 38.5q5 10 8 20t7 18t9.5 12t16.5 1q50 -26 72 -57.5t21 -63.5t-21.5 -62.5t-54.5 -53t-78.5 -35.5t-93.5 -11q-53 3 -101 12.5t-92.5 23t-85.5 30t-78 33.5q-50 -30 -103.5 -46
t-113.5 -13q-48 1 -78 18.5t-42 43.5t-7.5 55.5t24 53.5t54 39.5t82.5 12.5q60 -4 106.5 -10.5t85.5 -15.5q38 32 73 74.5t70 90.5q-69 -26 -135.5 -40.5t-128.5 -15.5q-47 0 -87.5 10t-70 31t-44.5 52.5t-12 75.5q3 37 16 64t30 44.5t35 26.5t32 12q16 3 23 0t11 -10.5
t7 -19.5t10 -27q13 -27 44 -48t65 -21zM825 635q-5 -8 -10 -16.5t-10 -16.5q40 23 79.5 49.5t79.5 56.5q64 48 122.5 98.5t97.5 93.5t51 72.5t-16 34.5q-26 5 -57 -7t-61.5 -33t-57.5 -45t-43 -43q-88 -100 -175 -244zM158 69q17 0 32.5 2t31.5 6q-27 10 -51 15
q-18 3 -27.5 0t-11 -8.5t5 -10t20.5 -4.5z" />
    <glyph glyph-name="Z" unicode="Z" horiz-adv-x="1023" 
d="M1021 843q-34 -29 -73 -71t-77.5 -89t-73.5 -95t-61 -88q-66 -103 -136.5 -202t-151.5 -177q38 -10 82.5 -18t104.5 -13q18 -2 44.5 -2t54.5 6t54 19t44 38q6 10 10.5 20.5t9.5 18.5t11.5 11.5t16.5 0.5q46 -26 63.5 -57.5t11.5 -63.5t-31 -62.5t-62 -53t-83.5 -35.5
t-95.5 -11q-53 3 -103 12t-98 22.5t-92.5 29.5t-84.5 32q-55 -30 -115 -45t-128 -10q-48 1 -75 18.5t-35.5 43.5t0.5 55.5t32.5 53.5t60 39.5t83.5 12.5q60 -4 105.5 -10.5t83.5 -15.5q45 34 88.5 79t86.5 96t86.5 107t87.5 112q44 54 87 107t88 101q27 29 51.5 53t46.5 43
q6 5 13 10.5t15 10.5q-38 13 -74.5 25t-74 22t-77 15.5t-84.5 5.5q-60 -1 -107.5 -18t-82 -43t-54 -58t-22.5 -63q-2 -18 0 -35.5t10.5 -31.5t24.5 -22.5t42 -7.5q10 0 23.5 1.5t30 7.5t37.5 18t47 34q8 6 17.5 -0.5t15.5 -22t6 -38t-9 -47.5q-13 -36 -36 -66t-54 -51.5
t-68.5 -33t-79.5 -11.5q-83 0 -131 27t-71 66.5t-27 85t1 82.5q7 55 37.5 115t85.5 110t134.5 82.5t184.5 33.5q52 0 101 -11t97 -28.5t94.5 -39t92.5 -42.5l41 -20q39 19 81 30t81 8q20 -2 34.5 -10.5t21 -21.5t5 -29t-13.5 -31q-20 -27 -50.5 -33.5t-63.5 -0.5
q-23 4 -47 10.5t-48 14.5zM1169 905q-14 -2 -28.5 -6t-29.5 -9q6 -2 12 -3l12 -2q15 -3 29 0t21 7.5t4.5 8.5t-20.5 4zM97 69q13 0 25 1.5t25 3.5q-18 6 -37 9q-18 3 -27.5 1.5t-10.5 -5.5t5 -7t20 -3z" />
    <glyph glyph-name="C" unicode="C" horiz-adv-x="1258" 
d="M1335 267q-46 -76 -106 -145.5t-133.5 -121.5t-159.5 -80.5t-184 -23.5q-87 4 -154.5 34.5t-114 80t-70 115t-22.5 140.5q1 88 31 170t81.5 153.5t120.5 132t147 106.5q-52 19 -104 36t-103 30t-99.5 20t-93.5 6q-35 -1 -61 -15.5t-43 -34.5t-25.5 -41t-9.5 -34
q-1 -18 0 -36t7.5 -34t20.5 -28t40 -17q10 -2 22.5 -3.5t29.5 1t39 9.5t49 23q8 5 16.5 -3.5t13 -25t3 -39.5t-12.5 -46q-32 -68 -97 -98.5t-147 -13.5q-81 18 -125 57t-63.5 85t-20 92.5t5.5 79.5q8 42 35 88t72 84.5t107.5 62.5t142.5 23q75 -2 145 -17.5t135 -39.5
t124.5 -53.5t114.5 -58.5q81 35 162 53t156 17q97 -5 150.5 -36t52.5 -78q0 -30 -18 -53.5t-49 -39.5t-72.5 -25t-87.5 -10q-57 -2 -127.5 17t-148.5 47q-70 -41 -131 -98t-105 -124.5t-68 -143.5t-21 -154q3 -68 25.5 -112t55 -70t69 -37t67.5 -11q143 -3 270 63t227 196
q7 9 15.5 10.5t15 -2t9.5 -11.5t-1 -18zM1191 863q-46 -1 -92 -10.5t-91 -26.5q52 -25 98 -40t88 -13q76 3 113.5 18t36.5 31.5t-39.5 29t-113.5 11.5z" />
    <glyph glyph-name="G" unicode="G" horiz-adv-x="1302" 
d="M1220 295q11 11 23 5.5t14 -19.5v-5q-7 -72 -28 -157t-54.5 -169.5t-80 -162t-105.5 -135t-129.5 -89t-152.5 -23.5q-46 4 -76.5 27t-46.5 52.5t-17.5 59.5t10.5 49q7 10 13.5 6t17 -13t28.5 -19t49 -10q72 -1 138.5 30.5t124.5 84.5t107 122t85 144q-34 -41 -75 -75
t-89 -58t-104 -35.5t-120 -8.5q-87 4 -154.5 34.5t-114 80t-70 115t-22.5 140.5q1 88 31 170t81.5 153.5t120.5 132t147 106.5q-52 19 -104 36t-103 30t-99.5 20t-93.5 6q-35 -1 -61 -15.5t-43 -34.5t-25.5 -41t-9.5 -34q-1 -18 3.5 -36t13.5 -33t23 -25.5t34 -13.5
q10 -2 22 -4.5t27.5 -1.5t36.5 7t48 22q8 5 16.5 -3.5t13 -25t3 -39.5t-12.5 -46q-32 -68 -97 -98.5t-147 -13.5q-81 18 -125 57t-63.5 85t-20 92.5t5.5 79.5q8 42 35 88t72 84.5t107.5 62.5t142.5 23q75 -2 145 -17.5t135 -39.5t124.5 -53.5t114.5 -58.5q81 35 162 53
t156 17q97 -5 150.5 -36t52.5 -78q0 -30 -18 -53.5t-49 -39.5t-72.5 -25t-87.5 -10q-58 -2 -129.5 17.5t-150.5 47.5q-69 -42 -129.5 -99.5t-104 -125.5t-67 -143.5t-20.5 -152.5q3 -68 25.5 -112t55 -70t69 -37t67.5 -11q71 -2 130 14t110 48.5t94.5 82t82.5 114.5v1z
M1194 871q-48 -1 -96.5 -11.5t-96.5 -29.5q54 -26 102 -42.5t91 -14.5q76 3 114 19t37.5 34t-38.5 32t-113 13z" />
    <glyph glyph-name="E" unicode="E" horiz-adv-x="1258" 
d="M1335 267q-46 -76 -106 -145.5t-133.5 -121.5t-159.5 -80.5t-184 -23.5q-85 4 -154 32.5t-116 74.5t-71 106t-19 128q3 48 26 95.5t61.5 89.5t90.5 75.5t114 52.5q-5 31 2 65t24.5 69.5t45 70t62.5 66.5q-43 17 -86.5 32.5t-88 27.5t-89 18t-89.5 5q-35 -2 -61 -16.5
t-43 -34.5t-25.5 -41t-9.5 -34q-1 -18 0 -36t7.5 -34t20 -28t39.5 -17q10 -2 23 -3.5t30 1t38.5 10t48.5 23.5q9 5 17 -3.5t12.5 -25.5t3.5 -40t-12 -46q-32 -68 -97 -98.5t-148 -12.5q-81 18 -125 57t-63 85t-19.5 92t5.5 79q8 43 35 89t72 84t107.5 62t142.5 23
q72 -1 135 -15t118.5 -35t104.5 -47.5t93 -52.5q63 35 136.5 54t155.5 14q97 -7 150.5 -37t52.5 -77q0 -30 -18 -53.5t-49 -39.5t-72.5 -25t-87.5 -10q-61 -2 -126.5 17.5t-136.5 46.5q-49 -39 -76 -87t-31 -95q-1 -7 -1 -13v-13q4 0 7.5 0.5t7.5 0.5q58 0 91.5 -13.5
t47 -32.5t7.5 -40t-26.5 -36.5t-55 -22t-78.5 4.5q-56 13 -89 44q-42 -15 -75 -41t-55 -58.5t-32.5 -69t-7.5 -73.5q3 -54 30 -92.5t64.5 -63.5t78.5 -37t72 -12q143 -3 270 63t227 196q7 9 15.5 10.5t15 -2t9.5 -11.5t-1 -18zM1179 864q-48 -1 -90 -9.5t-78 -23.5
q48 -26 93 -43t90 -15q78 3 115.5 18t35.5 32t-43.5 29.5t-122.5 11.5zM852 483q25 -3 40.5 -0.5t15.5 6.5t-17.5 7t-58.5 0q7 -11 20 -13z" />
    <glyph glyph-name="V" unicode="V" horiz-adv-x="995" 
d="M680 -47q-3 -3 -3 0q-8 -3 -26.5 -5t-40.5 -2t-45 1t-41 3.5t-27.5 5.5t-3.5 8q48 37 88 85t71.5 103t54 116t36.5 123q28 131 20.5 226.5t-39.5 160t-82.5 101t-107.5 49.5t-114.5 5.5t-103 -31t-73.5 -59.5t-27 -81q1 -18 5.5 -35.5t15 -31.5t27.5 -22.5t43 -7.5
q10 0 23 1.5t29 7.5t35.5 18t42.5 34q7 6 17 -0.5t18 -22t12 -38t-2 -47.5q-16 -73 -72.5 -117.5t-140.5 -44.5q-83 0 -135 27t-81 66.5t-40 85t-11 82.5q-1 90 41 158.5t110.5 112t154 60t171.5 3t163.5 -59t129.5 -126t69.5 -198t-16.5 -275.5q-10 -45 -17.5 -85.5
t-15.5 -78.5q44 80 96 168t110 171.5t122.5 157.5t134 125.5t143.5 75.5t152 9q55 -11 80 -36.5t29.5 -52t-7 -47.5t-27.5 -22q-11 1 -15 9.5t-13.5 18.5t-30 17.5t-63.5 6.5q-83 -2 -155 -35.5t-134.5 -88.5t-116 -126t-101 -147.5t-89.5 -152.5t-80.5 -141.5t-74.5 -114
t-72 -70.5z" />
    <glyph glyph-name="W" unicode="W" horiz-adv-x="1241" 
d="M1009 -41q-2 -6 -3 3q-9 -8 -29 -11t-41 -3t-39 3t-22 8q-2 56 4.5 121t19.5 135q-61 -96 -118 -165.5t-101 -96.5q-3 -3 -3 0q-8 -3 -26.5 -5t-40.5 -2t-45 1t-41 3.5t-27.5 5.5t-3.5 8q48 37 88 85t71.5 103t54 116t36.5 123q28 131 20.5 226.5t-39.5 160t-82.5 101
t-107.5 49.5t-114.5 5.5t-103 -31t-73.5 -59.5t-27 -81q1 -18 5.5 -35.5t15 -31.5t27.5 -22.5t43 -7.5q10 0 23 1.5t29 7.5t35.5 18t42.5 34q7 6 17 -0.5t18 -22t12 -38t-2 -47.5q-16 -73 -72.5 -117.5t-140.5 -44.5q-83 0 -135 27t-81 66.5t-40 85t-11 82.5q-1 90 41 158.5
t110.5 112t154 60t171.5 3t163.5 -59t129.5 -126t69.5 -198t-16.5 -275.5q-12 -54 -21 -101t-18 -90q48 65 100 143.5t93 165.5q7 20 14.5 39t15.5 38q2 10 20 15.5t37.5 5.5t33.5 -4.5t9 -14.5q-29 -53 -47.5 -103.5t-29 -99t-14.5 -96t-5 -94.5q38 79 90 167.5
t114.5 173.5t134 160t149 127.5t159 77t163.5 8.5q55 -11 80 -36.5t29.5 -52t-6.5 -47.5t-27 -22q-11 1 -15 9.5t-13.5 18.5t-30 17.5t-63.5 6.5q-83 -2 -160 -36t-146 -90t-129 -127.5t-110.5 -147t-90.5 -150t-68.5 -135.5t-44.5 -103.5t-19 -55.5z" />
    <glyph glyph-name="U" unicode="U" horiz-adv-x="1330" 
d="M1359 194q-29 -41 -65.5 -88t-78 -87t-87 -66.5t-91.5 -25.5q-40 1 -64.5 20t-38 44.5t-18 52t-3.5 43.5q1 24 3.5 48.5t7.5 50.5q-40 -61 -80 -111.5t-84.5 -86.5t-94.5 -55t-110 -16q-82 4 -128 37t-63.5 86t-9.5 122.5t35 146.5t70 157t95.5 154.5t111 139
t117.5 110.5q-42 13 -79.5 26.5t-75 24.5t-77.5 18t-88 6q-59 -1 -104.5 -18t-75.5 -43t-45 -58t-13 -63q1 -18 5.5 -35.5t14.5 -31.5t27.5 -22.5t43.5 -7.5q10 0 23 1t29 7t35 18.5t42 34.5q7 6 17 -0.5t18.5 -22t12 -38t-1.5 -47.5q-16 -73 -73 -117.5t-141 -45.5
q-83 0 -134.5 27t-81 67t-40 85.5t-11.5 81.5q-1 55 21 115t69.5 110t122 82.5t179.5 33.5q52 1 99 -10t93 -28.5t92 -39.5t96 -43l59 -26q38 23 73.5 34.5t67.5 9.5q20 -2 35.5 -10.5t24 -21.5t9 -29t-8.5 -31q-16 -27 -45.5 -33.5t-64.5 -0.5q-20 3 -40 8t-41 11
q-37 -35 -77.5 -87t-79 -113.5t-72.5 -128t-58 -130.5t-35.5 -121.5t-5.5 -101t33 -69t80 -25.5t95 18.5t80 53t76 83t83 109.5q28 70 65.5 139t80.5 132t88.5 117t88.5 95q8 7 28 12t39.5 6t32.5 -2t6 -11q-53 -51 -98 -111t-81.5 -123t-64 -125t-45 -116.5t-25 -97
t-4.5 -66.5q5 -42 26.5 -66t46.5 -24t48 11.5t44 31t41.5 44t41.5 51.5q14 19 25.5 34.5t18.5 23.5q7 9 15 10.5t14.5 -2t9.5 -11.5t-1 -18q-9 -16 -19 -31.5t-21 -30.5zM958 905q-23 5 -55 -15q13 -4 24 -5q15 -3 28 0t19.5 7.5t3.5 8.5t-20 4z" />
    <glyph glyph-name="Y" unicode="Y" horiz-adv-x="1076" 
d="M403 -237q-37 1 -75.5 11t-70 29t-52.5 45.5t-24 60.5q-1 9 0.5 27.5t7.5 35.5t17 28.5t28 7.5q42 -11 83 -19t84 -7q76 5 143.5 31.5t127.5 68.5t113.5 96.5t102.5 115.5q-58 -53 -114 -82t-119 -31q-93 -3 -140 32.5t-57 95.5t10.5 136t62.5 154t99.5 149.5
t121.5 122.5q-39 12 -71 24t-64 21t-67.5 14t-82.5 4q-59 -1 -104.5 -18t-76 -43t-45.5 -58t-13 -63q1 -17 5.5 -34.5t15 -32t27.5 -23t43 -7.5q10 0 23 1.5t29 7.5t35.5 18t42.5 34q7 7 17 0.5t18 -22.5t12 -38.5t-2 -47.5q-8 -36 -26.5 -65.5t-46 -51t-63 -33.5t-77.5 -12
q-83 0 -135 27t-81.5 67t-40 85.5t-10.5 81.5q-1 55 21 115t69 110t122 82.5t180 33.5q51 0 94 -9t83.5 -25t82 -36t91.5 -41q28 -14 54 -24q38 22 74.5 33t71.5 9q20 -2 35.5 -10.5t24 -21.5t9 -29t-8.5 -31q-17 -27 -46 -33.5t-64 -0.5q-21 3 -43.5 8.5t-45.5 13.5
q-40 -38 -78.5 -93t-67.5 -116t-44.5 -121.5t-8.5 -107.5t40.5 -75t101.5 -24q76 4 149.5 65t150.5 159q64 94 124.5 173.5t123.5 124.5q11 3 26.5 4.5t28.5 0.5t19 -5.5t-1 -14.5q-36 -30 -81 -91t-97.5 -140.5t-111.5 -171t-123.5 -183t-133.5 -176t-140.5 -149.5
t-144.5 -105t-147 -42zM932 905q-14 3 -28.5 -1t-31.5 -13l30 -6q15 -3 28 0t19.5 7.5t3.5 8.5t-21 4z" />
    <glyph glyph-name="O" unicode="O" horiz-adv-x="1416" 
d="M741 780q50 34 116 65q-50 13 -99 28.5t-98 29t-99 22.5t-102 8q-59 -1 -104.5 -18t-76 -43t-45.5 -58t-13 -63q1 -18 5.5 -35.5t15 -31.5t27.5 -22.5t43 -7.5q10 0 23 1.5t29 7.5t35.5 18t42.5 34q7 6 17 -0.5t18 -22t12 -38t-2 -47.5q-16 -73 -72.5 -117.5
t-140.5 -45.5q-83 0 -134.5 28.5t-80.5 69t-40 86t-12 78.5q-2 49 20 108.5t69.5 110.5t122.5 85.5t180 35.5q61 1 126.5 -14t132 -38t132 -49.5t126.5 -48.5q15 6 31 9.5t31.5 5t28 0t19.5 -6.5q10 -10 9 -19q-5 -23 -32.5 -38t-58.5 -18q-61 -37 -117 -89.5t-99.5 -119
t-72.5 -145.5t-36 -169q-11 -128 49 -200t174 -77q73 -3 141.5 18t129.5 60t111.5 92t87 113.5t57.5 125.5t22 127q1 66 -13 111.5t-41 73.5t-65.5 41t-84.5 15q-85 2 -159 -31.5t-135 -92t-107.5 -135.5t-76.5 -162q-5 -10 -12.5 -13.5t-14.5 -1.5t-11 9t-1 18
q9 44 31.5 97t57 106.5t81 103t103 88t122.5 62t140 23.5q62 0 112.5 -19t85.5 -58.5t53 -100t15 -142.5q-3 -81 -28.5 -162t-69.5 -155.5t-106 -139t-137 -112t-162 -74t-182 -25.5q-33 0 -73 8.5t-81 27t-79 48t-67 72t-45 98t-12 126.5q3 79 28.5 152.5t67.5 139t98 121
t119 98.5z" />
    <glyph glyph-name="Q" unicode="Q" horiz-adv-x="1416" 
d="M615 -180q-8 -5 -15.5 -2.5t-12.5 9t-6.5 15.5t3.5 17q17 20 32.5 34.5t30.5 24.5q-43 17 -84 46t-72.5 72t-49 100.5t-13.5 132.5q3 79 28.5 152.5t67.5 139t98 121t119 98.5q50 34 116 65q-50 13 -99 28.5t-98 29t-99 22.5t-102 8q-59 -1 -104.5 -18t-76 -43t-45.5 -58
t-13 -63q1 -18 5.5 -35.5t15 -31.5t27.5 -22.5t43 -7.5q10 0 23 1.5t29 7.5t35.5 18t42.5 34q7 6 17 -0.5t18 -22t12 -38t-2 -47.5q-16 -73 -72.5 -117.5t-140.5 -45.5q-83 0 -134.5 28.5t-80.5 69t-40 86t-12 78.5q-2 49 20 108.5t69.5 110.5t122.5 85.5t180 35.5
q61 1 126.5 -14t132 -38t132 -49.5t126.5 -48.5q15 6 31 9.5t31.5 5t28 0t19.5 -6.5q10 -10 9 -19q-5 -23 -32.5 -38t-58.5 -18q-61 -37 -117 -89.5t-99.5 -119t-72.5 -145.5t-36 -169q-11 -128 49 -200t174 -77q73 -3 141.5 18t129.5 60t111.5 92t87 113.5t57.5 125.5
t22 127q1 66 -13 111.5t-41 73.5t-65.5 41t-84.5 15q-85 2 -159 -31.5t-135 -92t-107.5 -135.5t-76.5 -162q-5 -10 -12.5 -13.5t-14.5 -1.5t-11 9t-1 18q9 44 31.5 97t57 106.5t81 103t103 88t122.5 62t140 23.5q62 0 112.5 -19t85.5 -58.5t53 -100t15 -142.5
q-3 -77 -26.5 -155t-64.5 -149.5t-98 -135t-126.5 -111.5t-150.5 -78.5t-170 -36.5q37 -33 74.5 -76t78 -82t85 -66t96.5 -28h27.5t22.5 3t24 10t34 21q20 13 32.5 10t19.5 -14.5t9 -27t1 -26.5q-3 -30 -14.5 -59t-32.5 -52t-53 -37t-77 -14q-46 0 -84.5 23.5t-72.5 60.5
t-64.5 82.5t-60 88.5t-59 79.5t-61 55.5t-67 16t-77.5 -39z" />
    <glyph glyph-name="X" unicode="X" horiz-adv-x="1149" 
d="M8 55q-3 19 0 37.5t10 31.5t17.5 17t22.5 -5q26 -21 63 -35t74 -11q67 6 144.5 35.5t162 78.5t175 115t185.5 146l2 44t3 45q4 72 -9.5 136.5t-41.5 113t-69.5 78.5t-95.5 33q-42 2 -76 -12.5t-58.5 -37.5t-37.5 -51t-11 -52q1 -18 8 -35t19 -31t28 -22.5t36 -8.5
q10 0 23 1.5t28.5 7.5t35 18t42.5 34q7 6 16 0t16 -21.5t11.5 -38t2.5 -48.5q-3 -38 -20.5 -70t-45.5 -55.5t-65 -36.5t-79 -13q-75 0 -126.5 29.5t-83 72.5t-45 90.5t-13.5 84.5q0 75 33 139t88.5 110t128 69.5t152.5 16.5q82 -7 146 -44t106 -98.5t61.5 -145.5t13.5 -185
q0 -3 -0.5 -6t-0.5 -5l20 18q78 70 142.5 135t124.5 115t119.5 80t127.5 31q30 0 53.5 -8t42 -21.5t32.5 -31.5t23 -36q8 -17 9 -37t-4.5 -33.5t-16 -15.5t-25.5 19q-21 28 -52 40t-73 12q-58 0 -111.5 -22t-107.5 -62.5t-111.5 -98t-123.5 -127.5l-77 -82q-3 -64 -5.5 -132
t-1.5 -123.5t6.5 -91t17.5 -33.5q9 1 25 15.5t35.5 36t40 46.5t39.5 49t33.5 43t21.5 27q7 9 15 11t14.5 -2t9.5 -12t-1 -18q-31 -41 -66 -95t-71.5 -103t-73 -83.5t-69.5 -37.5q-35 -3 -55 25t-29.5 79t-10 120.5t2.5 149.5q-80 -83 -160 -156.5t-162.5 -129t-167 -88
t-173.5 -33.5q-29 0 -59 8t-56 25.5t-44.5 45t-23.5 66.5z" />
    <glyph glyph-name="dotlessi" unicode="&#x131;" horiz-adv-x="219" 
d="M134 454q6 9 25 10.5t39 -2.5t34 -12.5t10 -18.5q0 -7 -15 -33t-36.5 -60.5t-44 -72.5t-38.5 -70t-20 -52.5t12 -19.5q18 1 42 22.5t47 49t42 54.5t29 39q7 9 15.5 10.5t15 -2t9.5 -11.5t-1 -18q-29 -47 -62 -91.5t-68 -82.5q-10 -10 -26 -27t-36 -32.5t-42.5 -26.5
t-45.5 -10q-21 1 -35 7t-22.5 15t-12 20.5t-4.5 23.5q-2 16 5 40t17 48.5t21.5 47.5t20.5 38z" />
    <glyph glyph-name="agrave" unicode="&#xe0;" horiz-adv-x="502" 
d="M225 60q0 6 0.5 12t1.5 13q-16 -17 -31.5 -32.5t-32.5 -27t-35.5 -18t-39.5 -6.5q-43 1 -67.5 31.5t-26.5 90.5q-1 38 10 80t31.5 83t49.5 78.5t64 65t74.5 43t80.5 13.5q10 0 23 -3.5t25.5 -12.5t22 -25t11.5 -42l30 51q6 9 25 10.5t39 -2.5t34 -12.5t10 -18.5
q-2 -7 -19 -33t-39 -60.5t-45 -72.5t-38 -70t-17.5 -52.5t16.5 -19.5q12 0 27 10.5t30.5 26t31.5 34.5t29.5 37t24.5 33.5t17 23.5q7 9 15.5 10.5t15 -2t9.5 -11.5t-1 -18q-29 -47 -62 -91.5t-68 -82.5q-10 -10 -26 -27t-35.5 -32.5t-42.5 -26.5t-46 -10q-43 2 -59 20.5
t-17 42.5zM156 120q7 0 20.5 8t30 21.5t35 32t36.5 41.5l42 71q1 1 1.5 1t1.5 2l-3 -3l8 13q4 12 7 30t2 35.5t-7.5 30t-20.5 13.5q-11 1 -34.5 -11t-50 -39t-52 -69.5t-40.5 -103.5q-3 -10 -4.5 -23t0 -24.5t8 -19t20.5 -6.5zM303 550q-34 22 -67 39t-71 24q-24 5 -28 13.5
t17 22.5q19 12 46 11t50 -10q29 -11 50.5 -34t34.5 -47q16 -30 15.5 -38t-8.5 -5.5t-20 11t-19 13.5z" />
    <glyph glyph-name="asciicircum" unicode="^" horiz-adv-x="536" 
d="M174 220q-6 0 -10.5 1.5t-5.5 5t4.5 8.5t20.5 12q36 16 61 29.5t43.5 25.5t33 22.5t29.5 20.5q7 5 11.5 5t7.5 -3t4.5 -6.5t2.5 -6.5q4 -18 8 -30.5t9 -22.5t11.5 -17.5t15.5 -15.5q12 -11 7 -19t-16 -10q-33 -6 -52 -3t-29.5 11t-15.5 17t-8 15q-31 -11 -64 -24t-68 -15
z" />
    <glyph glyph-name="questiondown" unicode="&#xbf;" horiz-adv-x="430" 
d="M547 439q-3 -26 -21 -50.5t-46 -39.5q-1 0 -19.5 -8t-48 -21t-66.5 -30.5t-74 -37t-70.5 -41t-55.5 -41.5t-32 -39.5t-10.5 -36t7.5 -28.5t21 -17q30 -11 60 -6t58 19.5t51.5 34.5t39.5 38.5t23 32.5t2 17q-19 9 -19 27.5t12 34t33 23t45 -5.5q20 -11 24.5 -31.5
t-5.5 -49.5q-11 -33 -39 -66.5t-66.5 -60.5t-84 -44.5t-91.5 -18.5q-72 -2 -113 31.5t-40 90.5q1 44 25 78.5t61.5 62t84 50t92.5 43.5t86 43t66 48q6 6 6.5 13.5t1.5 14t6.5 12.5t21.5 9q39 6 57.5 -11.5t16.5 -38.5zM612 597q-9 -29 -34 -52t-53 -29q-27 -5 -40 10t-3 45
q9 29 34.5 53t54.5 31q27 6 39.5 -10t1.5 -48z" />
    <glyph glyph-name="exclamdown" unicode="&#xa1;" horiz-adv-x="312" 
d="M364 403q-9 -29 -29.5 -62t-45.5 -67.5t-52.5 -69t-51 -66.5t-40.5 -59.5t-21 -47.5t-13.5 -29.5t-36.5 -2.5q-29 7 -40 26t-8 44.5t19 55t40 58.5q29 34 58.5 66.5t55 60.5t44.5 51t27 39q8 19 28.5 31.5t39.5 10.5q15 -2 23 -12t3 -27zM460 557q-8 -29 -32.5 -52
t-52.5 -29q-26 -5 -39.5 10t-4.5 45q4 15 13 28.5t20.5 24.5t25 19.5t27.5 11.5q27 6 40 -10t3 -48z" />
    <glyph glyph-name="endash" unicode="&#x2013;" horiz-adv-x="454" 
d="M160 234q-14 2 -18 10.5t0 18t14.5 17.5t24.5 8h247q12 -3 15 -11t-1 -16.5t-13.5 -16t-21.5 -10.5h-247v0z" />
    <glyph glyph-name="emdash" unicode="&#x2014;" horiz-adv-x="803" 
d="M160 234q-14 2 -18 10.5t0 18t14.5 17.5t24.5 8h573q12 -3 15 -11t-1 -16.5t-13.5 -16t-21.5 -10.5h-573v0z" />
    <glyph glyph-name="quotedblleft" unicode="&#x201c;" horiz-adv-x="275" 
d="M247 675q13 8 24 7.5t14 -10.5q1 -5 -4 -12t-11.5 -15t-11.5 -18t-3 -22q2 -8 6.5 -15.5t8 -15.5t5 -18t-2.5 -22q-6 -18 -23 -32t-39 -15q-35 -2 -44.5 20.5t1.5 55.5q11 35 32.5 66.5t47.5 45.5zM384 673q13 8 24 7.5t14 -10.5q1 -5 -4 -12t-11.5 -15t-11.5 -18t-3 -22
q2 -8 6.5 -15.5t8 -15.5t5 -18t-2.5 -22q-6 -18 -23 -32t-39 -15q-35 -2 -44.5 20.5t1.5 55.5q11 35 32.5 66.5t47.5 45.5z" />
    <glyph glyph-name="quotedblright" unicode="&#x201d;" horiz-adv-x="275" 
d="M331 492q-13 -8 -24 -7.5t-14 10.5q-2 5 3.5 11.5t12 15t11.5 18.5t3 22q-2 8 -6.5 15.5t-8 15.5t-5 18t2.5 22q6 18 23 32t39 15q35 2 44.5 -20.5t-1.5 -55.5q-11 -35 -32.5 -66.5t-47.5 -45.5zM194 494q-13 -8 -24 -7.5t-14 10.5q-2 5 3.5 11.5t12 15t11.5 18.5t3 22
q-2 8 -6.5 15.5t-8 15.5t-5 18t2.5 22q6 18 23 32t39 15q35 2 44.5 -20.5t-1.5 -55.5q-11 -35 -32.5 -66.5t-47.5 -45.5z" />
    <glyph glyph-name="quoteleft" unicode="&#x2018;" horiz-adv-x="172" 
d="M353 675q13 8 24 7.5t14 -10.5q1 -5 -4 -12t-11.5 -15t-11.5 -18t-3 -22q2 -8 6.5 -15.5t8 -15.5t5 -18t-2.5 -22q-6 -18 -23 -32t-39 -15q-35 -2 -44.5 20.5t1.5 55.5q11 35 32.5 66.5t47.5 45.5z" />
    <glyph glyph-name="quoteright" unicode="&#x2019;" horiz-adv-x="172" 
d="M300 494q-13 -8 -24 -7.5t-14 10.5q-2 5 3.5 11.5t12 15t11.5 18.5t3 22q-2 8 -6.5 15.5t-8 15.5t-5 18t2.5 22q6 18 23 32t39 15q35 2 44.5 -20.5t-1.5 -55.5q-11 -35 -32.5 -66.5t-47.5 -45.5z" />
    <glyph glyph-name="divide" unicode="&#xf7;" horiz-adv-x="446" 
d="M289 269q10 29 35 52t54 29q26 5 39.5 -10t2.5 -45q-10 -29 -35.5 -53t-52.5 -31q-28 -6 -41 10t-2 48zM145 57q9 29 33.5 52t53.5 29q26 5 39 -10t3 -45q-9 -29 -34.5 -53t-54.5 -31q-26 -6 -38.5 10t-1.5 48zM154 146q-14 2 -18 10.5t0 18t14.5 17.5t24.5 8h247
q12 -3 15 -11t-1 -16.5t-13.5 -16t-21.5 -10.5h-247z" />
    <glyph glyph-name="Euro" unicode="&#x20ac;" horiz-adv-x="625" 
d="M80 318q-14 2 -18 10.5t0 18t14.5 17.5t24.5 8h60q39 46 86.5 89t100.5 75t110.5 51.5t115.5 19.5q62 -1 89.5 -29t27.5 -76q0 -30 -8 -60t-19 -65q-17 -11 -35 -14t-31 0t-17.5 11t4.5 19l2 4q9 18 15 39.5t4.5 42t-13 37t-36.5 23.5q-28 5 -62 -7.5t-69.5 -36.5
t-70 -56.5t-62.5 -66.5h55q12 -3 15 -11t-1 -16.5t-13.5 -16t-21.5 -10.5h-73q-7 -11 -13 -21.5t-11 -21.5h65q12 -3 15 -11t-1 -16.5t-13.5 -16t-21.5 -10.5h-66q-5 -19 -7 -39q-2 -33 14 -55t55 -25q31 -2 76.5 23t93.5 71q7 10 22.5 16.5t34 9.5t36 3.5t29.5 -2.5
t14.5 -8t-9.5 -13q-38 -51 -83.5 -95t-94 -77t-97 -54t-93.5 -25q-30 -1 -59 4t-52.5 19.5t-38 41.5t-14.5 69q0 25 6 60q2 17 8.5 36.5t15.5 39.5h-38q-14 2 -18 10.5t0 18t14.5 17.5t24.5 8h44l28 43h-40v0z" />
    <glyph glyph-name="Adieresis" unicode="&#xc4;" horiz-adv-x="1312" 
d="M771 187q-12 -8 -22 -5t-17 12t-11 22.5t-4 27.5q-75 -65 -151.5 -122t-149.5 -98.5t-140.5 -65t-124.5 -21.5q-26 1 -52.5 9t-48 23t-35 37t-14.5 49q1 7 6 22t13.5 29.5t18.5 24t21 5.5q28 -8 55 -15t58 -6q53 0 116 23.5t132 63.5t141.5 92.5t145 111.5t142.5 120
t133.5 117t119 104t98.5 80l18 13q-54 12 -105 28.5t-102.5 31t-104 24.5t-108.5 9q-59 -1 -104.5 -18t-75.5 -43t-45 -58t-13 -63q1 -18 5.5 -35.5t14.5 -31.5t27.5 -22.5t43.5 -7.5q10 0 23 1.5t29 7.5t35 18t42 34q7 6 17 -0.5t18.5 -22t12 -38t-1.5 -47.5
q-16 -73 -73 -117.5t-141 -45.5q-83 0 -134.5 28.5t-80.5 69t-40 86t-12 78.5q-2 49 20 108.5t69.5 110.5t122.5 85.5t180 35.5q58 1 120 -13t125 -35t125 -45.5t121 -46.5q6 0 9 -1l18 -9l23 -8l3 1q36 15 75.5 28t76.5 6q14 -3 27 -12t21.5 -21.5t9 -28t-10.5 -30.5
q-20 -28 -55.5 -38.5t-64.5 -5.5q-23 4 -43 15q-52 -56 -93 -121.5t-71 -132t-50 -130t-30 -115.5q0 -5 -2 -9q-6 -36 -8 -64t0 -45q5 -42 26.5 -66t46.5 -24t47.5 11.5t44 31t42 44t41.5 51.5q14 19 25 34.5t18 23.5q7 9 15 10.5t15 -2t10 -11.5t-1 -18q-18 -30 -41 -62
l-11 -14q-29 -41 -66 -88t-78.5 -87t-86.5 -66.5t-91 -25.5q-41 1 -65.5 20t-38 44.5t-17.5 52t-4 43.5q2 52 13.5 106.5t31.5 110.5q-41 -10 -80.5 -44t-88.5 -73zM1035 563q-46 -54 -98.5 -109t-109.5 -109q66 30 136 17q27 63 61 124.5t72 117.5t79 106t80 89
q-26 -19 -57 -50.5t-61.5 -66t-57 -67t-44.5 -52.5zM1315 1035q5 20 20.5 35t35.5 17q19 2 30 -9.5t6 -32.5q-4 -21 -20 -37t-36 -20q-19 -2 -29.5 11t-6.5 36zM1434 1037q5 20 20.5 35t35.5 18q19 2 30 -10t6 -33q-4 -21 -20.5 -36.5t-36.5 -19.5q-19 -2 -29 10.5t-6 35.5z
M1402 873q-17 -1 -34 -5.5t-35 -12.5l16 -4t17 -4q18 1 32 5.5t21 9t4 8t-21 3.5z" />
    <glyph glyph-name="Udieresis" unicode="&#xdc;" horiz-adv-x="1330" 
d="M1359 194q-29 -41 -65.5 -88t-78 -87t-87 -66.5t-91.5 -25.5q-40 1 -64.5 20t-38 44.5t-18 52t-3.5 43.5q1 24 3.5 48.5t7.5 50.5q-40 -61 -80 -111.5t-84.5 -86.5t-94.5 -55t-110 -16q-82 4 -128 37t-63.5 86t-9.5 122.5t35 146.5t70 157t95.5 154.5t111 139
t117.5 110.5q-42 13 -79.5 26.5t-75 24.5t-77.5 18t-88 6q-59 -1 -104.5 -18t-75.5 -43t-45 -58t-13 -63q1 -18 5.5 -35.5t14.5 -31.5t27.5 -22.5t43.5 -7.5q10 0 23 1t29 7t35 18.5t42 34.5q7 6 17 -0.5t18.5 -22t12 -38t-1.5 -47.5q-16 -73 -73 -117.5t-141 -45.5
q-83 0 -134.5 27t-81 67t-40 85.5t-11.5 81.5q-1 55 21 115t69.5 110t122 82.5t179.5 33.5q52 1 99 -10t93 -28.5t92 -39.5t96 -43l59 -26q38 23 73.5 34.5t67.5 9.5q20 -2 35.5 -10.5t24 -21.5t9 -29t-8.5 -31q-16 -27 -45.5 -33.5t-64.5 -0.5q-20 3 -40 8t-41 11
q-37 -35 -77.5 -87t-79 -113.5t-72.5 -128t-58 -130.5t-35.5 -121.5t-5.5 -101t33 -69t80 -25.5t95 18.5t80 53t76 83t83 109.5q28 70 65.5 139t80.5 132t88.5 117t88.5 95q8 7 28 12t39.5 6t32.5 -2t6 -11q-53 -51 -98 -111t-81.5 -123t-64 -125t-45 -116.5t-25 -97
t-4.5 -66.5q5 -42 26.5 -66t46.5 -24t48 11.5t44 31t41.5 44t41.5 51.5q14 19 25.5 34.5t18.5 23.5q7 9 15 10.5t14.5 -2t9.5 -11.5t-1 -18q-9 -16 -19 -31.5t-21 -30.5zM1124 1030q5 20 20.5 35t35.5 17q19 2 30 -9.5t6 -32.5q-4 -21 -20 -37t-36 -20q-19 -2 -29.5 11
t-6.5 36zM1243 1032q5 20 20.5 35t35.5 18q19 2 30 -10t6 -33q-4 -21 -20.5 -36.5t-36.5 -19.5q-19 -2 -29 10.5t-6 35.5zM958 905q-23 5 -55 -15q13 -4 24 -5q15 -3 28 0t19.5 7.5t3.5 8.5t-20 4z" />
    <glyph glyph-name="iacute" unicode="&#xed;" horiz-adv-x="219" 
d="M134 454q6 9 25 10.5t39 -2.5t34 -12.5t10 -18.5q0 -7 -15 -33t-36.5 -60.5t-44 -72.5t-38.5 -70t-20 -52.5t12 -19.5q18 1 42 22.5t47 49t42 54.5t29 39q7 9 15.5 10.5t15 -2t9.5 -11.5t-1 -18q-29 -47 -62 -91.5t-68 -82.5q-10 -10 -26 -27t-36 -32.5t-42.5 -26.5
t-45.5 -10q-21 1 -35 7t-22.5 15t-12 20.5t-4.5 23.5q-2 16 5 40t17 48.5t21.5 47.5t20.5 38zM192 550q-8 -5 -19.5 -13.5t-19.5 -11t-8.5 5.5t15.5 38q13 24 34.5 47t50.5 34q23 9 50 10t46 -11q21 -14 17 -22.5t-28 -13.5q-38 -7 -71 -24t-67 -39z" />
    <glyph glyph-name="Aring" unicode="&#xc5;" horiz-adv-x="1312" 
d="M771 187q-12 -8 -22 -5t-17 12t-11 22.5t-4 27.5q-75 -65 -151.5 -122t-149.5 -98.5t-140.5 -65t-124.5 -21.5q-26 1 -52.5 9t-48 23t-35 37t-14.5 49q1 7 6 22t13.5 29.5t18.5 24t21 5.5q28 -8 55 -15t58 -6q53 0 116 23.5t132 63.5t141.5 92.5t145 111.5t142.5 120
t133.5 117t119 104t98.5 80l18 13q-54 12 -105 28.5t-102.5 31t-104 24.5t-108.5 9q-59 -1 -104.5 -18t-75.5 -43t-45 -58t-13 -63q1 -18 5.5 -35.5t14.5 -31.5t27.5 -22.5t43.5 -7.5q10 0 23 1.5t29 7.5t35 18t42 34q7 6 17 -0.5t18.5 -22t12 -38t-1.5 -47.5
q-16 -73 -73 -117.5t-141 -45.5q-83 0 -134.5 28.5t-80.5 69t-40 86t-12 78.5q-2 49 20 108.5t69.5 110.5t122.5 85.5t180 35.5q58 1 120 -13t125 -35t125 -45.5t121 -46.5q6 0 9 -1l18 -9l23 -8l3 1q36 15 75.5 28t76.5 6q14 -3 27 -12t21.5 -21.5t9 -28t-10.5 -30.5
q-20 -28 -55.5 -38.5t-64.5 -5.5q-23 4 -43 15q-52 -56 -93 -121.5t-71 -132t-50 -130t-30 -115.5q0 -5 -2 -9q-6 -36 -8 -64t0 -45q5 -42 26.5 -66t46.5 -24t47.5 11.5t44 31t42 44t41.5 51.5q14 19 25 34.5t18 23.5q7 9 15 10.5t15 -2t10 -11.5t-1 -18q-18 -30 -41 -62
l-11 -14q-29 -41 -66 -88t-78.5 -87t-86.5 -66.5t-91 -25.5q-41 1 -65.5 20t-38 44.5t-17.5 52t-4 43.5q2 52 13.5 106.5t31.5 110.5q-41 -10 -80.5 -44t-88.5 -73zM1035 563q-46 -54 -98.5 -109t-109.5 -109q66 30 136 17q27 63 61 124.5t72 117.5t79 106t80 89
q-26 -19 -57 -50.5t-61.5 -66t-57 -67t-44.5 -52.5zM1323 1044q2 16 15 36.5t32 39t43 31t48 12.5q16 0 22.5 -7.5t6.5 -19.5v-4t-1 -4q-4 -24 -17 -47t-31 -41.5t-38.5 -30.5t-38.5 -14q-15 -1 -28.5 5.5t-13.5 29.5v5.5t1 8.5zM1456 1146q-8 1 -18.5 -3t-21 -12t-20 -18.5
t-16.5 -20.5q-7 -11 -11 -20.5t-4 -17.5q-2 -18 17 -21q7 0 18 5.5t22 15.5t22 24t19 31q5 9 5 19q1 6 -1.5 11t-10.5 7zM1402 873q-17 -1 -34 -5.5t-35 -12.5l16 -4t17 -4q18 1 32 5.5t21 9t4 8t-21 3.5z" />
    <glyph glyph-name="Ccedilla" unicode="&#xc7;" horiz-adv-x="1258" 
d="M754 -168q-3 -3 -9 -3.5t-12.5 1t-10.5 4.5t-2 8l14 28t12 27q-86 5 -152.5 35.5t-112 79.5t-68.5 114t-22 140q1 88 31 170t81.5 153.5t120.5 132t147 106.5q-52 19 -104 36t-103 30t-99.5 20t-93.5 6q-35 -1 -61 -15.5t-43 -34.5t-25.5 -41t-9.5 -34q-1 -18 0 -36
t7.5 -34t20.5 -28t40 -17q10 -2 22.5 -3.5t29.5 1t39 9.5t49 23q8 5 16.5 -3.5t13 -25t3 -39.5t-12.5 -46q-32 -68 -97 -98.5t-147 -13.5q-81 18 -125 57t-63.5 85t-20 92.5t5.5 79.5q8 42 35 88t72 84.5t107.5 62.5t142.5 23q75 -2 145 -17.5t135 -39.5t124.5 -53.5
t114.5 -58.5q81 35 162 53t156 17q97 -5 150.5 -36t52.5 -78q0 -30 -18 -53.5t-49 -39.5t-72.5 -25t-87.5 -10q-57 -2 -127.5 17t-148.5 47q-70 -41 -131 -98t-105 -124.5t-68 -143.5t-21 -154q3 -68 25.5 -112t55 -70t69 -37t67.5 -11q143 -3 270 63t227 196q7 9 15.5 10.5
t15 -2t9.5 -11.5t-1 -18q-44 -72 -100.5 -138.5t-125 -117.5t-148.5 -82.5t-171 -32.5q-6 -11 -10.5 -21.5t-5.5 -13.5q4 1 11 3.5t17 4.5q25 3 36.5 -7t13.5 -25t-2 -31t-9 -25q-10 -17 -21.5 -32t-27 -26.5t-36 -18t-48.5 -5.5q-33 2 -47.5 21.5t-9.5 39.5q6 19 20.5 28
t32.5 9q12 0 19.5 -8t-3.5 -16q-22 -14 -17.5 -23t25.5 -9q19 0 36 10t29 24.5t17.5 29.5t2 25t-17.5 12t-41 -10zM1191 863q-46 -1 -92 -10.5t-91 -26.5q52 -25 98 -40t88 -13q76 3 113.5 18t36.5 31.5t-39.5 29t-113.5 11.5z" />
    <glyph glyph-name="Eacute" unicode="&#xc9;" horiz-adv-x="1258" 
d="M1335 267q-46 -76 -106 -145.5t-133.5 -121.5t-159.5 -80.5t-184 -23.5q-85 4 -154 32.5t-116 74.5t-71 106t-19 128q3 48 26 95.5t61.5 89.5t90.5 75.5t114 52.5q-5 31 2 65t24.5 69.5t45 70t62.5 66.5q-43 17 -86.5 32.5t-88 27.5t-89 18t-89.5 5q-35 -2 -61 -16.5
t-43 -34.5t-25.5 -41t-9.5 -34q-1 -18 0 -36t7.5 -34t20 -28t39.5 -17q10 -2 23 -3.5t30 1t38.5 10t48.5 23.5q9 5 17 -3.5t12.5 -25.5t3.5 -40t-12 -46q-32 -68 -97 -98.5t-148 -12.5q-81 18 -125 57t-63 85t-19.5 92t5.5 79q8 43 35 89t72 84t107.5 62t142.5 23
q72 -1 135 -15t118.5 -35t104.5 -47.5t93 -52.5q63 35 136.5 54t155.5 14q97 -7 150.5 -37t52.5 -77q0 -30 -18 -53.5t-49 -39.5t-72.5 -25t-87.5 -10q-61 -2 -126.5 17.5t-136.5 46.5q-49 -39 -76 -87t-31 -95q-1 -7 -1 -13v-13q4 0 7.5 0.5t7.5 0.5q58 0 91.5 -13.5
t47 -32.5t7.5 -40t-26.5 -36.5t-55 -22t-78.5 4.5q-56 13 -89 44q-42 -15 -75 -41t-55 -58.5t-32.5 -69t-7.5 -73.5q3 -54 30 -92.5t64.5 -63.5t78.5 -37t72 -12q143 -3 270 63t227 196q7 9 15.5 10.5t15 -2t9.5 -11.5t-1 -18zM1179 864q-48 -1 -90 -9.5t-78 -23.5
q48 -26 93 -43t90 -15q78 3 115.5 18t35.5 32t-43.5 29.5t-122.5 11.5zM985 1042q-8 -5 -19.5 -13.5t-19.5 -11t-8.5 5.5t15.5 38q13 24 34.5 47t50.5 34q23 9 50 10t46 -11q21 -14 17 -22.5t-28 -13.5q-38 -7 -71 -24t-67 -39zM852 483q25 -3 40.5 -0.5t15.5 6.5t-17.5 7
t-58.5 0q7 -11 20 -13z" />
    <glyph glyph-name="Ntilde" unicode="&#xd1;" horiz-adv-x="1149" 
d="M838 -47q-3 -3 -3 1q-11 -6 -44 -7.5t-67 0t-57.5 6t-15.5 11.5q48 37 88 85t71 103t53.5 116t36.5 123q9 39 17.5 92t16 110t12 112.5t4.5 100.5q-19 -23 -39 -52.5t-38 -59.5t-33.5 -57.5t-26.5 -45.5q-42 -71 -89 -147.5t-98.5 -150.5t-107 -140.5t-113.5 -116.5
t-117.5 -78.5t-119.5 -26.5q-27 1 -54 9.5t-49.5 24t-38 37.5t-17.5 49q-1 7 0.5 22t6 29.5t12 24t19.5 5.5q30 -8 59.5 -15t60.5 -6q53 0 105.5 25t104 67t101.5 97.5t98 117.5t93 125.5t87 122t80.5 108t72.5 81.5q4 5 10 10.5t13 11.5q-40 12 -78 24.5t-77 22t-79.5 15
t-85.5 5.5q-59 -1 -104.5 -18t-75.5 -43t-45 -58t-13 -63q1 -18 5.5 -35.5t14.5 -31.5t27.5 -22.5t43.5 -7.5q10 0 23 1.5t29 7.5t35 18t42 34q7 6 17 -0.5t18.5 -22t12 -38t-1.5 -47.5q-16 -73 -72.5 -117.5t-141.5 -44.5q-55 0 -96 12.5t-70.5 33t-49 47.5t-30.5 56.5
t-15.5 58t-4.5 53.5q-1 55 20.5 115t69 110t122.5 82.5t180 33.5q57 0 113.5 -13.5t112.5 -34t111.5 -45.5t111.5 -47l8 3q33 15 70.5 28t75.5 6q14 -3 29 -12t25 -21.5t12.5 -28t-6.5 -30.5q-17 -27 -46 -33.5t-64 -0.5q-19 3 -39.5 8t-40.5 11q-2 -51 -7 -114t-12 -125.5
t-13.5 -119.5t-10.5 -97q-4 -38 -8.5 -72t-10.5 -66q43 79 91.5 164t102.5 165t113 149.5t124 117.5t135.5 70t146.5 7q37 -7 60 -21.5t35 -31.5t14.5 -35.5t-1.5 -33.5t-13 -25t-20 -11q-11 1 -15 10t-13.5 18.5t-30 17.5t-63.5 7q-83 -2 -153.5 -35.5t-131 -88
t-111.5 -125t-95.5 -146t-83.5 -151t-75 -140t-70.5 -113t-70.5 -70.5zM1212 1134q33 0 63 -6.5t56 -11t50 -3.5t45 16q7 5 12 9.5t8.5 6t5 -1t0.5 -12.5q-2 -23 -11 -40t-22.5 -28t-29.5 -17t-32 -7q-29 -2 -54 5t-49 12t-48.5 5t-51.5 -15q-14 -7 -22.5 -10.5t-7.5 11.5
q2 35 26 59.5t62 27.5zM1130 905q-28 -1 -58 -14q14 -5 28 -6q17 1 30.5 4.5t19.5 7t2 6t-22 2.5z" />
    <glyph glyph-name="Odieresis" unicode="&#xd6;" horiz-adv-x="1416" 
d="M741 780q50 34 116 65q-50 13 -99 28.5t-98 29t-99 22.5t-102 8q-59 -1 -104.5 -18t-76 -43t-45.5 -58t-13 -63q1 -18 5.5 -35.5t15 -31.5t27.5 -22.5t43 -7.5q10 0 23 1.5t29 7.5t35.5 18t42.5 34q7 6 17 -0.5t18 -22t12 -38t-2 -47.5q-16 -73 -72.5 -117.5
t-140.5 -45.5q-83 0 -134.5 28.5t-80.5 69t-40 86t-12 78.5q-2 49 20 108.5t69.5 110.5t122.5 85.5t180 35.5q61 1 126.5 -14t132 -38t132 -49.5t126.5 -48.5q15 6 31 9.5t31.5 5t28 0t19.5 -6.5q10 -10 9 -19q-5 -23 -32.5 -38t-58.5 -18q-61 -37 -117 -89.5t-99.5 -119
t-72.5 -145.5t-36 -169q-11 -128 49 -200t174 -77q73 -3 141.5 18t129.5 60t111.5 92t87 113.5t57.5 125.5t22 127q1 66 -13 111.5t-41 73.5t-65.5 41t-84.5 15q-85 2 -159 -31.5t-135 -92t-107.5 -135.5t-76.5 -162q-5 -10 -12.5 -13.5t-14.5 -1.5t-11 9t-1 18
q9 44 31.5 97t57 106.5t81 103t103 88t122.5 62t140 23.5q62 0 112.5 -19t85.5 -58.5t53 -100t15 -142.5q-3 -81 -28.5 -162t-69.5 -155.5t-106 -139t-137 -112t-162 -74t-182 -25.5q-33 0 -73 8.5t-81 27t-79 48t-67 72t-45 98t-12 126.5q3 79 28.5 152.5t67.5 139t98 121
t119 98.5zM999 1066q5 20 20.5 35t35.5 17q19 2 30 -9.5t6 -32.5q-4 -21 -20 -37t-36 -20q-19 -2 -29.5 11t-6.5 36zM1118 1068q5 20 20.5 35t35.5 18q19 2 30 -10t6 -33q-4 -21 -20.5 -36.5t-36.5 -19.5q-19 -2 -29 10.5t-6 35.5z" />
    <glyph glyph-name="aacute" unicode="&#xe1;" horiz-adv-x="502" 
d="M225 60q0 6 0.5 12t1.5 13q-16 -17 -31.5 -32.5t-32.5 -27t-35.5 -18t-39.5 -6.5q-43 1 -67.5 31.5t-26.5 90.5q-1 38 10 80t31.5 83t49.5 78.5t64 65t74.5 43t80.5 13.5q10 0 23 -3.5t25.5 -12.5t22 -25t11.5 -42l30 51q6 9 25 10.5t39 -2.5t34 -12.5t10 -18.5
q-2 -7 -19 -33t-39 -60.5t-45 -72.5t-38 -70t-17.5 -52.5t16.5 -19.5q12 0 27 10.5t30.5 26t31.5 34.5t29.5 37t24.5 33.5t17 23.5q7 9 15.5 10.5t15 -2t9.5 -11.5t-1 -18q-29 -47 -62 -91.5t-68 -82.5q-10 -10 -26 -27t-35.5 -32.5t-42.5 -26.5t-46 -10q-43 2 -59 20.5
t-17 42.5zM156 120q7 0 20.5 8t30 21.5t35 32t36.5 41.5l42 71q1 1 1.5 1t1.5 2l-3 -3l8 13q4 12 7 30t2 35.5t-7.5 30t-20.5 13.5q-11 1 -34.5 -11t-50 -39t-52 -69.5t-40.5 -103.5q-3 -10 -4.5 -23t0 -24.5t8 -19t20.5 -6.5zM362 550q-8 -5 -19.5 -13.5t-19.5 -11
t-8.5 5.5t15.5 38q13 24 34.5 47t50.5 34q23 9 50 10t46 -11q21 -14 17 -22.5t-28 -13.5q-38 -7 -71 -24t-67 -39z" />
    <glyph glyph-name="acircumflex" unicode="&#xe2;" horiz-adv-x="502" 
d="M225 60q0 6 0.5 12t1.5 13q-16 -17 -31.5 -32.5t-32.5 -27t-35.5 -18t-39.5 -6.5q-43 1 -67.5 31.5t-26.5 90.5q-1 38 10 80t31.5 83t49.5 78.5t64 65t74.5 43t80.5 13.5q10 0 23 -3.5t25.5 -12.5t22 -25t11.5 -42l30 51q6 9 25 10.5t39 -2.5t34 -12.5t10 -18.5
q-2 -7 -19 -33t-39 -60.5t-45 -72.5t-38 -70t-17.5 -52.5t16.5 -19.5q12 0 27 10.5t30.5 26t31.5 34.5t29.5 37t24.5 33.5t17 23.5q7 9 15.5 10.5t15 -2t9.5 -11.5t-1 -18q-29 -47 -62 -91.5t-68 -82.5q-10 -10 -26 -27t-35.5 -32.5t-42.5 -26.5t-46 -10q-43 2 -59 20.5
t-17 42.5zM156 120q7 0 20.5 8t30 21.5t35 32t36.5 41.5l42 71q1 1 1.5 1t1.5 2l-3 -3l7 12q5 12 8 30.5t2 35.5t-7.5 30t-20.5 14q-11 1 -34.5 -11t-50 -39t-52 -69.5t-40.5 -103.5q-3 -10 -4.5 -23t0 -24.5t8 -19t20.5 -6.5zM256 551q-6 0 -10.5 1.5t-5.5 5t4.5 8.5
t20.5 12q36 16 61 29.5t43.5 25.5t33 22.5t29.5 20.5q7 5 11.5 5t7.5 -3t4.5 -6.5t2.5 -6.5q4 -18 8 -30.5t9 -22.5t11.5 -17.5t15.5 -15.5q12 -11 7 -19t-16 -10q-33 -6 -52 -3t-29.5 11t-15.5 17t-8 15q-31 -11 -64 -24t-68 -15z" />
    <glyph glyph-name="adieresis" unicode="&#xe4;" horiz-adv-x="502" 
d="M225 60q0 6 0.5 12t1.5 13q-16 -17 -31.5 -32.5t-32.5 -27t-35.5 -18t-39.5 -6.5q-43 1 -67.5 31.5t-26.5 90.5q-1 38 10 80t31.5 83t49.5 78.5t64 65t74.5 43t80.5 13.5q10 0 23 -3.5t25.5 -12.5t22 -25t11.5 -42l30 51q6 9 25 10.5t39 -2.5t34 -12.5t10 -18.5
q-2 -7 -19 -33t-39 -60.5t-45 -72.5t-38 -70t-17.5 -52.5t16.5 -19.5q12 0 27 10.5t30.5 26t31.5 34.5t29.5 37t24.5 33.5t17 23.5q7 9 15.5 10.5t15 -2t9.5 -11.5t-1 -18q-29 -47 -62 -91.5t-68 -82.5q-10 -10 -26 -27t-35.5 -32.5t-42.5 -26.5t-46 -10q-43 2 -59 20.5
t-17 42.5zM156 120q7 0 20.5 8t30 21.5t35 32t36.5 41.5l42 71q1 1 1.5 1t1.5 2l-3 -3l8 13q4 12 7 30t2 35.5t-7.5 30t-20.5 13.5q-11 1 -34.5 -11t-50 -39t-52 -69.5t-40.5 -103.5q-3 -10 -4.5 -23t0 -24.5t8 -19t20.5 -6.5zM300 574q5 20 20.5 35t35.5 17q19 2 30 -9.5
t6 -32.5q-4 -21 -20 -37t-36 -20q-19 -2 -29.5 11t-6.5 36zM419 576q5 20 20.5 35t35.5 18q19 2 30 -10t6 -33q-4 -21 -20.5 -36.5t-36.5 -19.5q-19 -2 -29 10.5t-6 35.5z" />
    <glyph glyph-name="atilde" unicode="&#xe3;" horiz-adv-x="502" 
d="M225 60q0 6 0.5 12t1.5 13q-16 -17 -31.5 -32.5t-32.5 -27t-35.5 -18t-39.5 -6.5q-43 1 -67.5 31.5t-26.5 90.5q-1 38 10 80t31.5 83t49.5 78.5t64 65t74.5 43t80.5 13.5q10 0 23 -3.5t25.5 -12.5t22 -25t11.5 -42l30 51q6 9 25 10.5t39 -2.5t34 -12.5t10 -18.5
q-2 -7 -19 -33t-39 -60.5t-45 -72.5t-38 -70t-17.5 -52.5t16.5 -19.5q12 0 27 10.5t30.5 26t31.5 34.5t29.5 37t24.5 33.5t17 23.5q7 9 15.5 10.5t15 -2t9.5 -11.5t-1 -18q-29 -47 -62 -91.5t-68 -82.5q-10 -10 -26 -27t-35.5 -32.5t-42.5 -26.5t-46 -10q-43 2 -59 20.5
t-17 42.5zM156 120q7 0 20.5 8t30 21.5t35 32t36.5 41.5l42 71q1 1 1.5 1t1.5 2l-3 -3l8 13q4 12 7 30t2 35.5t-7.5 30t-20.5 13.5q-11 1 -34.5 -11t-50 -39t-52 -69.5t-40.5 -103.5q-3 -10 -4.5 -23t0 -24.5t8 -19t20.5 -6.5zM340 642q33 0 63 -6.5t56 -11t50 -3.5t45 16
q7 5 12 9.5t8.5 6t5 -1t0.5 -12.5q-2 -23 -11 -40t-22.5 -28t-29.5 -17t-32 -7q-29 -2 -54 5t-49 12t-48.5 5t-51.5 -15q-14 -7 -22.5 -10.5t-7.5 11.5q2 35 26 59.5t62 27.5z" />
    <glyph glyph-name="aring" unicode="&#xe5;" horiz-adv-x="502" 
d="M225 60q0 6 0.5 12t1.5 13q-16 -17 -31.5 -32.5t-32.5 -27t-35.5 -18t-39.5 -6.5q-43 1 -67.5 31.5t-26.5 90.5q-1 38 10 80t31.5 83t49.5 78.5t64 65t74.5 43t80.5 13.5q10 0 23 -3.5t25.5 -12.5t22 -25t11.5 -42l30 51q6 9 25 10.5t39 -2.5t34 -12.5t10 -18.5
q-2 -7 -19 -33t-39 -60.5t-45 -72.5t-38 -70t-17.5 -52.5t16.5 -19.5q12 0 27 10.5t30.5 26t31.5 34.5t29.5 37t24.5 33.5t17 23.5q7 9 15.5 10.5t15 -2t9.5 -11.5t-1 -18q-29 -47 -62 -91.5t-68 -82.5q-10 -10 -26 -27t-35.5 -32.5t-42.5 -26.5t-46 -10q-43 2 -59 20.5
t-17 42.5zM156 120q7 0 20.5 8t30 21.5t35 32t36.5 41.5l42 71q1 1 1.5 1t1.5 2l-3 -3l8 13q4 12 7 30t2 35.5t-7.5 30t-20.5 13.5q-11 1 -34.5 -11t-50 -39t-52 -69.5t-40.5 -103.5q-3 -10 -4.5 -23t0 -24.5t8 -19t20.5 -6.5zM334 552q2 16 15 36.5t32 39t43 31t48 12.5
q16 0 22.5 -7.5t6.5 -19.5v-4t-1 -4q-4 -24 -17 -47t-31 -41.5t-38.5 -30.5t-38.5 -14q-15 -1 -28.5 5.5t-13.5 29.5v5.5t1 8.5zM467 654q-8 1 -18.5 -3t-21 -12t-20 -18.5t-16.5 -20.5q-7 -11 -11 -20.5t-4 -17.5q-2 -18 17 -21q7 0 18 5.5t22 15.5t22 24t19 31q5 9 5 19
q1 6 -1.5 11t-10.5 7z" />
    <glyph glyph-name="ccedilla" unicode="&#xe7;" horiz-adv-x="405" 
d="M128 -76q-3 -3 -9 -3.5t-12.5 1t-10.5 4.5t-2 8l15.5 31t12.5 28q-63 8 -94.5 47t-33.5 86q-3 49 12.5 96t42.5 89t62.5 78t72.5 62q24 17 60 28.5t71 11.5q43 0 71.5 -24t27.5 -67q-1 -23 -12 -45.5t-28 -40.5t-39.5 -29.5t-46.5 -13.5q-11 -1 -18.5 3.5t-9.5 11.5
t1.5 14t14.5 11q33 8 50 27t28 50q1 4 2 11t-1.5 13.5t-9.5 11t-20 4.5q-19 0 -50.5 -27t-62 -67.5t-53.5 -88t-26 -88.5q-3 -35 5 -58.5t40 -25.5q16 0 36 7t48 21q30 16 55.5 38.5t49.5 48.5q15 16 24.5 28t18 23t17 23.5t21.5 30.5q7 6 15 6.5t13 -3t7 -11t-1 -16.5
q-24 -39 -54.5 -85.5t-69.5 -87t-86.5 -70t-105.5 -33.5l-18 -40q4 1 11 3.5t17 4.5q25 3 36.5 -7t13.5 -25t-2 -31t-9 -25q-10 -17 -21.5 -32t-27 -26.5t-36 -18t-48.5 -5.5q-33 2 -47.5 21.5t-9.5 39.5q6 19 20.5 28t32.5 9q12 0 19.5 -8t-3.5 -16q-22 -14 -17.5 -23
t25.5 -9q19 0 36 10t29 24.5t17.5 29.5t2 25t-17.5 12t-41 -10z" />
    <glyph glyph-name="eacute" unicode="&#xe9;" horiz-adv-x="405" 
d="M414 400q-1 -28 -21.5 -62t-57.5 -65t-89 -54.5t-115 -29.5q-2 -9 -3 -17t-1 -16q0 -34 9.5 -57.5t41.5 -25.5q16 0 36 7t48 21q30 16 55.5 38.5t49.5 48.5q15 16 24.5 28t18 23t17 23.5t21.5 30.5q7 6 15 6.5t13 -3t7 -11t-1 -16.5q-24 -39 -55 -86t-70.5 -88t-88 -70
t-106.5 -33q-41 -3 -72 8t-52 30t-32 44t-12 52q-3 49 12.5 96t42.5 89t62.5 78t72.5 62q24 17 60 28.5t71 11.5q43 0 71.5 -24t27.5 -67zM325 428q-15 0 -37.5 -16t-47.5 -41.5t-49 -59t-40 -67.5q34 9 68 26.5t62 37.5t46.5 39.5t23.5 33.5q1 4 2.5 12t-0.5 16t-8.5 13.5
t-19.5 5.5zM295 550q-8 -5 -19.5 -13.5t-19.5 -11t-8.5 5.5t15.5 38q13 24 34.5 47t50.5 34q23 9 50 10t46 -11q21 -14 17 -22.5t-28 -13.5q-38 -7 -71 -24t-67 -39z" />
    <glyph glyph-name="egrave" unicode="&#xe8;" horiz-adv-x="405" 
d="M414 400q-1 -28 -21.5 -62t-57.5 -65t-89 -54.5t-115 -29.5q-2 -9 -3 -17t-1 -16q0 -34 9.5 -57.5t41.5 -25.5q16 0 36 7t48 21q30 16 55.5 38.5t49.5 48.5q15 16 24.5 28t18 23t17 23.5t21.5 30.5q7 6 15 6.5t13 -3t7 -11t-1 -16.5q-24 -39 -55 -86t-70.5 -88t-88 -70
t-106.5 -33q-41 -3 -72 8t-52 30t-32 44t-12 52q-3 49 12.5 96t42.5 89t62.5 78t72.5 62q24 17 60 28.5t71 11.5q43 0 71.5 -24t27.5 -67zM325 428q-15 0 -37.5 -16t-47.5 -41.5t-49 -59t-40 -67.5q34 9 68 26.5t62 37.5t46.5 39.5t23.5 33.5q1 4 2.5 12t-0.5 16t-8.5 13.5
t-19.5 5.5zM254 550q-34 22 -67 39t-71 24q-24 5 -28 13.5t17 22.5q19 12 46 11t50 -10q29 -11 50.5 -34t34.5 -47q16 -30 15.5 -38t-8.5 -5.5t-20 11t-19 13.5z" />
    <glyph glyph-name="ecircumflex" unicode="&#xea;" horiz-adv-x="405" 
d="M414 400q-1 -28 -21.5 -62t-57.5 -65t-89 -54.5t-115 -29.5q-2 -9 -3 -17t-1 -16q0 -34 9.5 -57.5t41.5 -25.5q16 0 36 7t48 21q30 16 55.5 38.5t49.5 48.5q15 16 24.5 28t18 23t17 23.5t21.5 30.5q7 6 15 6.5t13 -3t7 -11t-1 -16.5q-24 -39 -55 -86t-70.5 -88t-88 -70
t-106.5 -33q-41 -3 -72 8t-52 30t-32 44t-12 52q-3 49 12.5 96t42.5 89t62.5 78t72.5 62q24 17 60 28.5t71 11.5q43 0 71.5 -24t27.5 -67zM207 551q-6 0 -10.5 1.5t-5.5 5t4.5 8.5t20.5 12q36 16 61 29.5t43.5 25.5t33 22.5t29.5 20.5q7 5 11.5 5t7.5 -3t4.5 -6.5t2.5 -6.5
q4 -18 8 -30.5t9 -22.5t11.5 -17.5t15.5 -15.5q12 -11 7 -19t-16 -10q-33 -6 -52 -3t-29.5 11t-15.5 17t-8 15q-31 -11 -64 -24t-68 -15zM325 428q-15 0 -37.5 -16t-47.5 -41.5t-49 -59t-40 -67.5q34 9 68 26.5t62 37.5t46.5 39.5t23.5 33.5q1 4 2.5 12t-0.5 16t-8.5 13.5
t-19.5 5.5z" />
    <glyph glyph-name="edieresis" unicode="&#xeb;" horiz-adv-x="405" 
d="M414 400q-1 -28 -21.5 -62t-57.5 -65t-89 -54.5t-115 -29.5q-2 -9 -3 -17t-1 -16q0 -34 9.5 -57.5t41.5 -25.5q16 0 36 7t48 21q30 16 55.5 38.5t49.5 48.5q15 16 24.5 28t18 23t17 23.5t21.5 30.5q7 6 15 6.5t13 -3t7 -11t-1 -16.5q-24 -39 -55 -86t-70.5 -88t-88 -70
t-106.5 -33q-41 -3 -72 8t-52 30t-32 44t-12 52q-3 49 12.5 96t42.5 89t62.5 78t72.5 62q24 17 60 28.5t71 11.5q43 0 71.5 -24t27.5 -67zM325 428q-15 0 -37.5 -16t-47.5 -41.5t-49 -59t-40 -67.5q34 9 68 26.5t62 37.5t46.5 39.5t23.5 33.5q1 4 2.5 12t-0.5 16t-8.5 13.5
t-19.5 5.5zM236 574q5 20 20.5 35t35.5 17q19 2 30 -9.5t6 -32.5q-4 -21 -20 -37t-36 -20q-19 -2 -29.5 11t-6.5 36zM355 576q5 20 20.5 35t35.5 18q19 2 30 -10t6 -33q-4 -21 -20.5 -36.5t-36.5 -19.5q-19 -2 -29 10.5t-6 35.5z" />
    <glyph glyph-name="igrave" unicode="&#xec;" horiz-adv-x="219" 
d="M134 454q6 9 25 10.5t39 -2.5t34 -12.5t10 -18.5q0 -7 -15 -33t-36.5 -60.5t-44 -72.5t-38.5 -70t-20 -52.5t12 -19.5q18 1 42 22.5t47 49t42 54.5t29 39q7 9 15.5 10.5t15 -2t9.5 -11.5t-1 -18q-29 -47 -62 -91.5t-68 -82.5q-10 -10 -26 -27t-36 -32.5t-42.5 -26.5
t-45.5 -10q-21 1 -35 7t-22.5 15t-12 20.5t-4.5 23.5q-2 16 5 40t17 48.5t21.5 47.5t20.5 38zM233 550q-34 22 -67 39t-71 24q-24 5 -28 13.5t17 22.5q19 12 46 11t50 -10q29 -11 50.5 -34t34.5 -47q16 -30 15.5 -38t-8.5 -5.5t-20 11t-19 13.5z" />
    <glyph glyph-name="icircumflex" unicode="&#xee;" horiz-adv-x="219" 
d="M134 454q6 9 25 10.5t39 -2.5t34 -12.5t10 -18.5q0 -7 -15 -33t-36.5 -60.5t-44 -72.5t-38.5 -70t-20 -52.5t12 -19.5q18 1 42 22.5t47 49t42 54.5t29 39q7 9 15.5 10.5t15 -2t9.5 -11.5t-1 -18q-29 -47 -62 -91.5t-68 -82.5q-10 -10 -26 -27t-36 -32.5t-42.5 -26.5
t-45.5 -10q-21 1 -35 7t-22.5 15t-12 20.5t-4.5 23.5q-2 16 5 40t17 48.5t21.5 47.5t20.5 38zM114 551q-6 0 -10.5 1.5t-5.5 5t4.5 8.5t20.5 12q36 16 61 29.5t43.5 25.5t33 22.5t29.5 20.5q7 5 11.5 5t7.5 -3t4.5 -6.5t2.5 -6.5q4 -18 8 -30.5t9 -22.5t11.5 -17.5
t15.5 -15.5q12 -11 7 -19t-16 -10q-33 -6 -52 -3t-29.5 11t-15.5 17t-8 15q-31 -11 -64 -24t-68 -15z" />
    <glyph glyph-name="idieresis" unicode="&#xef;" horiz-adv-x="219" 
d="M134 454q6 9 25 10.5t39 -2.5t34 -12.5t10 -18.5q0 -7 -15 -33t-36.5 -60.5t-44 -72.5t-38.5 -70t-20 -52.5t12 -19.5q18 1 42 22.5t47 49t42 54.5t29 39q7 9 15.5 10.5t15 -2t9.5 -11.5t-1 -18q-29 -47 -62 -91.5t-68 -82.5q-10 -10 -26 -27t-36 -32.5t-42.5 -26.5
t-45.5 -10q-21 1 -35 7t-22.5 15t-12 20.5t-4.5 23.5q-2 16 5 40t17 48.5t21.5 47.5t20.5 38zM246 576q5 20 20.5 35t35.5 18q19 2 30 -10t6 -33q-4 -21 -20.5 -36.5t-36.5 -19.5q-19 -2 -29 10.5t-6 35.5zM127 574q5 20 20.5 35t35.5 17q19 2 30 -9.5t6 -32.5
q-4 -21 -20 -37t-36 -20q-19 -2 -29.5 11t-6.5 36z" />
    <glyph glyph-name="ntilde" unicode="&#xf1;" 
d="M34 41q-10 -19 -14.5 -28t-9.5 -12t-13.5 -2.5t-25.5 0.5t-27.5 -1t-24.5 0q-10 0 -13 5t-2 12t3.5 13t3.5 8q30 70 87 178.5t157 263.5q5 9 24 10.5t39 -2.5t34 -12.5t10 -18.5q-2 -7 -16.5 -30.5t-34.5 -55.5l14 15q10 10 22 27.5t28 34t35 29.5t42 15q45 4 69.5 -17.5
t22.5 -52.5q-2 -18 -8 -36.5t-14.5 -37t-18 -35.5t-18.5 -31l-25 -43q-13 -23 -23.5 -44t-15.5 -36.5t-3.5 -24.5t12.5 -9q18 1 42 22.5t47 49t42 54.5t29 39q7 9 15 10.5t14.5 -2t9.5 -11.5t-1 -18q-28 -47 -61.5 -91.5t-68.5 -82.5q-10 -10 -26 -27t-35.5 -32.5
t-42.5 -26.5t-46 -10q-21 1 -35 7t-22 15t-12 20.5t-5 23.5q-1 14 4 34.5t14 42.5t19.5 43t20.5 37q16 29 36.5 64.5t35.5 66.5t21 51.5t-7 20.5q-14 0 -33 -13.5t-40 -35t-42 -47.5t-39 -51t-32 -45.5t-20 -30.5q-9 -17 -19 -37.5t-20.5 -42t-20.5 -42t-18 -37.5zM276 642
q33 0 63 -6.5t56 -11t50 -3.5t45 16q7 5 12 9.5t8.5 6t5 -1t0.5 -12.5q-2 -23 -11 -40t-22.5 -28t-29.5 -17t-32 -7q-29 -2 -54 5t-49 12t-48.5 5t-51.5 -15q-14 -7 -22.5 -10.5t-7.5 11.5q2 35 26 59.5t62 27.5z" />
    <glyph glyph-name="oacute" unicode="&#xf3;" 
d="M505 236q-12 -17 -33.5 -41t-45.5 -47.5t-48 -40.5t-43 -20q-26 -4 -51 5q-42 -42 -92 -67.5t-104 -23.5q-43 2 -71 37t-28 96q0 60 24.5 124.5t67.5 117t100 86t121 32.5q45 -1 72 -28t32 -75q5 -57 -14.5 -118.5t-55.5 -116.5q18 2 36.5 13.5t36 27.5t32.5 33.5
t26 31.5q6 8 10.5 14.5t8.5 11.5q7 9 15.5 10t15 -2.5t9.5 -11.5t-2 -17zM153 110q17 -1 38.5 12t43.5 34q-4 17 -3.5 39t7.5 48q2 9 9 28t18.5 38.5t26.5 35t32 18.5q15 2 23 -4q0 4 0.5 7.5t0.5 7.5q0 21 -7.5 31.5t-27.5 11.5q-18 0 -50 -20t-63 -55.5t-53.5 -83.5
t-22.5 -103q0 -14 5.5 -29t22.5 -16zM255 550q-8 -5 -19.5 -13.5t-19.5 -11t-8.5 5.5t15.5 38q13 24 34.5 47t50.5 34q23 9 50 10t46 -11q21 -14 17 -22.5t-28 -13.5q-38 -7 -71 -24t-67 -39z" />
    <glyph glyph-name="ograve" unicode="&#xf2;" 
d="M505 236q-12 -17 -33.5 -41t-45.5 -47.5t-48 -40.5t-43 -20q-26 -4 -51 5q-42 -42 -92 -67.5t-104 -23.5q-43 2 -71 37t-28 96q0 60 24.5 124.5t67.5 117t100 86t121 32.5q45 -1 72 -28t32 -75q5 -57 -14.5 -118.5t-55.5 -116.5q18 2 36.5 13.5t36 27.5t32.5 33.5
t26 31.5q6 8 10.5 14.5t8.5 11.5q7 9 15.5 10t15 -2.5t9.5 -11.5t-2 -17zM153 110q17 -1 38.5 12t43.5 34q-4 17 -3.5 39t7.5 48q2 9 9 28t18.5 38.5t26.5 35t32 18.5q15 2 23 -4q0 4 0.5 7.5t0.5 7.5q0 21 -7.5 31.5t-27.5 11.5q-18 0 -50 -20t-63 -55.5t-53.5 -83.5
t-22.5 -103q0 -14 5.5 -29t22.5 -16zM354 550q-34 22 -67 39t-71 24q-24 5 -28 13.5t17 22.5q19 12 46 11t50 -10q29 -11 50.5 -34t34.5 -47q16 -30 15.5 -38t-8.5 -5.5t-20 11t-19 13.5z" />
    <glyph glyph-name="ocircumflex" unicode="&#xf4;" 
d="M505 236q-12 -17 -33.5 -41t-45.5 -47.5t-48 -40.5t-43 -20q-26 -4 -51 5q-42 -42 -92 -67.5t-104 -23.5q-43 2 -71 37t-28 96q0 60 24.5 124.5t67.5 117t100 86t121 32.5q45 -1 72 -28t32 -75q5 -57 -14.5 -118.5t-55.5 -116.5q18 2 36.5 13.5t36 27.5t32.5 33.5
t26 31.5q6 8 10.5 14.5t8.5 11.5q7 9 15.5 10t15 -2.5t9.5 -11.5t-2 -17zM153 110q17 -1 38.5 12t43.5 34q-4 17 -3.5 39t7.5 48q2 9 9 28t18.5 38.5t26.5 35t32 18.5q15 2 23 -4q0 4 0.5 7.5t0.5 7.5q0 21 -7.5 31.5t-27.5 11.5q-18 0 -50 -20t-63 -55.5t-53.5 -83.5
t-22.5 -103q0 -14 5.5 -29t22.5 -16zM202 551q-6 0 -10.5 1.5t-5.5 5t4.5 8.5t20.5 12q36 16 61 29.5t43.5 25.5t33 22.5t29.5 20.5q7 5 11.5 5t7.5 -3t4.5 -6.5t2.5 -6.5q4 -18 8 -30.5t9 -22.5t11.5 -17.5t15.5 -15.5q12 -11 7 -19t-16 -10q-33 -6 -52 -3t-29.5 11
t-15.5 17t-8 15q-31 -11 -64 -24t-68 -15z" />
    <glyph glyph-name="odieresis" unicode="&#xf6;" 
d="M505 236q-12 -17 -33.5 -41t-45.5 -47.5t-48 -40.5t-43 -20q-26 -4 -51 5q-42 -42 -92 -67.5t-104 -23.5q-43 2 -71 37t-28 96q0 60 24.5 124.5t67.5 117t100 86t121 32.5q45 -1 72 -28t32 -75q5 -57 -14.5 -118.5t-55.5 -116.5q18 2 36.5 13.5t36 27.5t32.5 33.5
t26 31.5q6 8 10.5 14.5t8.5 11.5q7 9 15.5 10t15 -2.5t9.5 -11.5t-2 -17zM153 110q17 -1 38.5 12t43.5 34q-4 17 -3.5 39t7.5 48q2 9 9 28t18.5 38.5t26.5 35t32 18.5q15 2 23 -4q0 4 0.5 7.5t0.5 7.5q0 21 -7.5 31.5t-27.5 11.5q-18 0 -50 -20t-63 -55.5t-53.5 -83.5
t-22.5 -103q0 -14 5.5 -29t22.5 -16zM237 574q5 20 20.5 35t35.5 17q19 2 30 -9.5t6 -32.5q-4 -21 -20 -37t-36 -20q-19 -2 -29.5 11t-6.5 36zM356 576q5 20 20.5 35t35.5 18q19 2 30 -10t6 -33q-4 -21 -20.5 -36.5t-36.5 -19.5q-19 -2 -29 10.5t-6 35.5z" />
    <glyph glyph-name="otilde" unicode="&#xf5;" 
d="M505 236q-12 -17 -33.5 -41t-45.5 -47.5t-48 -40.5t-43 -20q-26 -4 -51 5q-42 -42 -92 -67.5t-104 -23.5q-43 2 -71 37t-28 96q0 60 24.5 124.5t67.5 117t100 86t121 32.5q45 -1 72 -28t32 -75q5 -57 -14.5 -118.5t-55.5 -116.5q18 2 36.5 13.5t36 27.5t32.5 33.5
t26 31.5q6 8 10.5 14.5t8.5 11.5q7 9 15.5 10t15 -2.5t9.5 -11.5t-2 -17zM153 110q17 -1 38.5 12t43.5 34q-4 17 -3.5 39t7.5 48q2 9 9 28t18.5 38.5t26.5 35t32 18.5q15 2 23 -4q0 4 0.5 7.5t0.5 7.5q0 21 -7.5 31.5t-27.5 11.5q-18 0 -50 -20t-63 -55.5t-53.5 -83.5
t-22.5 -103q0 -14 5.5 -29t22.5 -16zM261 642q33 0 63 -6.5t56 -11t50 -3.5t45 16q7 5 12 9.5t8.5 6t5 -1t0.5 -12.5q-2 -23 -11 -40t-22.5 -28t-29.5 -17t-32 -7q-29 -2 -54 5t-49 12t-48.5 5t-51.5 -15q-14 -7 -22.5 -10.5t-7.5 11.5q2 35 26 59.5t62 27.5z" />
    <glyph glyph-name="uacute" unicode="&#xfa;" horiz-adv-x="465" 
d="M140 454q6 9 25 10.5t38.5 -2.5t34 -12.5t10.5 -18.5q-2 -7 -19 -33t-39 -60t-45 -72t-38 -70t-17.5 -52.5t16.5 -20.5t42 16.5t45.5 40t42.5 48.5t32 42l111 184q5 9 24 10.5t39 -2.5t34 -12.5t10 -18.5q0 -7 -15 -33t-36 -60.5t-43.5 -72.5t-38.5 -70t-20.5 -52.5
t11.5 -19.5q18 1 42 22.5t47 49t42.5 54.5t29.5 39q7 9 15 10.5t14.5 -2t9.5 -11.5t-1 -18q-29 -47 -62 -91.5t-68 -82.5q-10 -10 -26 -27t-35.5 -32.5t-42.5 -26.5t-46 -10q-21 1 -35 7.5t-21.5 16.5t-11 22t-3.5 24q0 25 6 51l-24 -25q-10 -10 -26 -27t-35.5 -32.5
t-42.5 -26.5t-46 -10q-21 1 -35 8t-22 17t-12 22.5t-4 24.5q-1 35 11.5 72t29.5 66zM284 550q-8 -5 -19.5 -13.5t-19.5 -11t-8.5 5.5t15.5 38q13 24 34.5 47t50.5 34q23 9 50 10t46 -11q21 -14 17 -22.5t-28 -13.5q-38 -7 -71 -24t-67 -39z" />
    <glyph glyph-name="ugrave" unicode="&#xf9;" horiz-adv-x="465" 
d="M140 454q6 9 25 10.5t38.5 -2.5t34 -12.5t10.5 -18.5q-2 -7 -19 -33t-39 -60t-45 -72t-38 -70t-17.5 -52.5t16.5 -20.5t42 16.5t45.5 40t42.5 48.5t32 42l111 184q5 9 24 10.5t39 -2.5t34 -12.5t10 -18.5q0 -7 -15 -33t-36 -60.5t-43.5 -72.5t-38.5 -70t-20.5 -52.5
t11.5 -19.5q18 1 42 22.5t47 49t42.5 54.5t29.5 39q7 9 15 10.5t14.5 -2t9.5 -11.5t-1 -18q-29 -47 -62 -91.5t-68 -82.5q-10 -10 -26 -27t-35.5 -32.5t-42.5 -26.5t-46 -10q-21 1 -35 7.5t-21.5 16.5t-11 22t-3.5 24q0 25 6 51l-24 -25q-10 -10 -26 -27t-35.5 -32.5
t-42.5 -26.5t-46 -10q-21 1 -35 8t-22 17t-12 22.5t-4 24.5q-1 35 11.5 72t29.5 66zM367 550q-34 22 -67 39t-71 24q-24 5 -28 13.5t17 22.5q19 12 46 11t50 -10q29 -11 50.5 -34t34.5 -47q16 -30 15.5 -38t-8.5 -5.5t-20 11t-19 13.5z" />
    <glyph glyph-name="ucircumflex" unicode="&#xfb;" horiz-adv-x="465" 
d="M140 454q6 9 25 10.5t38.5 -2.5t34 -12.5t10.5 -18.5q-2 -7 -19 -33t-39 -60t-45 -72t-38 -70t-17.5 -52.5t16.5 -20.5t42 16.5t45.5 40t42.5 48.5t32 42l111 184q5 9 24 10.5t39 -2.5t34 -12.5t10 -18.5q0 -7 -15 -33t-36 -60.5t-43.5 -72.5t-38.5 -70t-20.5 -52.5
t11.5 -19.5q18 1 42 22.5t47 49t42.5 54.5t29.5 39q7 9 15 10.5t14.5 -2t9.5 -11.5t-1 -18q-29 -47 -62 -91.5t-68 -82.5q-10 -10 -26 -27t-35.5 -32.5t-42.5 -26.5t-46 -10q-21 1 -35 7.5t-21.5 16.5t-11 22t-3.5 24q0 25 6 51l-24 -25q-10 -10 -26 -27t-35.5 -32.5
t-42.5 -26.5t-46 -10q-21 1 -35 8t-22 17t-12 22.5t-4 24.5q-1 35 11.5 72t29.5 66zM225 551q-6 0 -10.5 1.5t-5.5 5t4.5 8.5t20.5 12q36 16 61 29.5t43.5 25.5t33 22.5t29.5 20.5q7 5 11.5 5t7.5 -3t4.5 -6.5t2.5 -6.5q4 -18 8 -30.5t9 -22.5t11.5 -17.5t15.5 -15.5
q12 -11 7 -19t-16 -10q-33 -6 -52 -3t-29.5 11t-15.5 17t-8 15q-31 -11 -64 -24t-68 -15z" />
    <glyph glyph-name="udieresis" unicode="&#xfc;" horiz-adv-x="465" 
d="M140 454q6 9 25 10.5t38.5 -2.5t34 -12.5t10.5 -18.5q-2 -7 -19 -33t-39 -60t-45 -72t-38 -70t-17.5 -52.5t16.5 -20.5t42 16.5t45.5 40t42.5 48.5t32 42l111 184q5 9 24 10.5t39 -2.5t34 -12.5t10 -18.5q0 -7 -15 -33t-36 -60.5t-43.5 -72.5t-38.5 -70t-20.5 -52.5
t11.5 -19.5q18 1 42 22.5t47 49t42.5 54.5t29.5 39q7 9 15 10.5t14.5 -2t9.5 -11.5t-1 -18q-29 -47 -62 -91.5t-68 -82.5q-10 -10 -26 -27t-35.5 -32.5t-42.5 -26.5t-46 -10q-21 1 -35 7.5t-21.5 16.5t-11 22t-3.5 24q0 25 6 51l-24 -25q-10 -10 -26 -27t-35.5 -32.5
t-42.5 -26.5t-46 -10q-21 1 -35 8t-22 17t-12 22.5t-4 24.5q-1 35 11.5 72t29.5 66zM240 574q5 20 20.5 35t35.5 17q19 2 30 -9.5t6 -32.5q-4 -21 -20 -37t-36 -20q-19 -2 -29.5 11t-6.5 36zM359 576q5 20 20.5 35t35.5 18q19 2 30 -10t6 -33q-4 -21 -20.5 -36.5
t-36.5 -19.5q-19 -2 -29 10.5t-6 35.5z" />
    <glyph glyph-name="oslash" unicode="&#xf8;" 
d="M17 38q-13 17 -20.5 41t-7.5 55q0 60 24.5 124.5t67.5 117t100 86t121 32.5q17 0 34 -6l35 50q6 7 17.5 12t21.5 5.5t14.5 -3.5t-2.5 -14q-13 -18 -25.5 -35.5t-24.5 -35.5q29 -28 34 -76q5 -57 -14.5 -118.5t-55.5 -116.5q18 2 36.5 13.5t36 27.5t32.5 33.5t26 31.5
q6 8 10.5 14.5t8.5 11.5q7 9 15.5 10t15 -2.5t9.5 -11.5t-2 -17l-19 -31q-12 -17 -33.5 -41t-45.5 -47.5t-48 -40.5t-43 -20q-26 -4 -51 5q-42 -42 -92 -67.5t-104 -23.5q-22 0 -42 11l-27 -39q-6 -9 -17.5 -14t-21.5 -6t-14.5 3t3.5 15zM153 110q17 -1 38.5 12t43.5 34
q-4 17 -3.5 39t7.5 48q2 9 9 28t18.5 38.5t26.5 35t32 18.5q15 2 23 -4q0 4 0.5 7.5t0.5 7.5q0 31 -16 39l-204 -285q3 -8 8.5 -13t15.5 -5zM276 404q-20 -11 -43 -31t-44 -47t-37.5 -60t-23.5 -70z" />
    <glyph glyph-name="ae" unicode="&#xe6;" horiz-adv-x="907" 
d="M225 60q0 6 0.5 12t1.5 13q-16 -17 -31.5 -32.5t-32.5 -27t-35.5 -18t-39.5 -6.5q-43 1 -67.5 31.5t-26.5 90.5q-1 38 10 80t31.5 83t49.5 78.5t64 65t74.5 43t80.5 13.5q10 0 23 -3.5t25.5 -12.5t22 -25t11.5 -42l30 51q6 9 25 10.5t39 -2.5t34 -12.5t10 -18.5
q-2 -7 -19 -33t-39 -60.5t-45 -72.5t-38 -70t-17.5 -52.5t16.5 -19.5q15 0 35 16t40 38.5t38.5 47t31.5 42.5q26 57 69 104t90 80q24 17 60 28.5t71 11.5q43 0 71.5 -24t27.5 -67q-1 -28 -21.5 -62t-57.5 -65t-89 -54.5t-115 -29.5q-2 -9 -3 -17t-1 -16q0 -34 9.5 -57.5
t41.5 -25.5q16 0 36 7t48 21q30 16 55.5 38.5t49.5 48.5q15 16 24.5 28t18 23t17 23.5t21.5 30.5q7 6 15 6.5t13 -3t7 -11t-1 -16.5q-24 -39 -55 -86t-70.5 -88t-88 -70t-106.5 -33q-41 -3 -72 8t-52 30t-32 44t-12 52q-1 5 -1 9v9q-11 -14 -22 -26.5t-22 -24.5
q-10 -10 -26 -27t-35.5 -32.5t-42.5 -26.5t-46 -10q-43 2 -59 20.5t-17 42.5zM156 120q7 0 20.5 8t30 21.5t35 32t36.5 41.5l42 71q1 1 1.5 1t1.5 2l-3 -3l8 13q4 12 7 30t2 35.5t-7.5 30t-20.5 13.5q-11 1 -34.5 -11t-50 -39t-52 -69.5t-40.5 -103.5q-3 -10 -4.5 -23
t0 -24.5t8 -19t20.5 -6.5zM827 428q-15 0 -37.5 -16t-47.5 -41.5t-49 -59t-40 -67.5q34 9 68 26.5t62 37.5t46.5 39.5t23.5 33.5q1 4 2.5 12t-0.5 16t-8.5 13.5t-19.5 5.5z" />
    <glyph glyph-name="Ydieresis" unicode="&#x178;" horiz-adv-x="1076" 
d="M403 -237q-37 1 -75.5 11t-70 29t-52.5 45.5t-24 60.5q-1 9 0.5 27.5t7.5 35.5t17 28.5t28 7.5q42 -11 83 -19t84 -7q76 5 143.5 31.5t127.5 68.5t113.5 96.5t102.5 115.5q-58 -53 -114 -82t-119 -31q-93 -3 -140 32.5t-57 95.5t10.5 136t62.5 154t99.5 149.5
t121.5 122.5q-39 12 -71 24t-64 21t-67.5 14t-82.5 4q-59 -1 -104.5 -18t-76 -43t-45.5 -58t-13 -63q1 -17 5.5 -34.5t15 -32t27.5 -23t43 -7.5q10 0 23 1.5t29 7.5t35.5 18t42.5 34q7 7 17 0.5t18 -22.5t12 -38.5t-2 -47.5q-8 -36 -26.5 -65.5t-46 -51t-63 -33.5t-77.5 -12
q-83 0 -135 27t-81.5 67t-40 85.5t-10.5 81.5q-1 55 21 115t69 110t122 82.5t180 33.5q51 0 94 -9t83.5 -25t82 -36t91.5 -41q28 -14 54 -24q38 22 74.5 33t71.5 9q20 -2 35.5 -10.5t24 -21.5t9 -29t-8.5 -31q-17 -27 -46 -33.5t-64 -0.5q-21 3 -43.5 8.5t-45.5 13.5
q-40 -38 -78.5 -93t-67.5 -116t-44.5 -121.5t-8.5 -107.5t40.5 -75t101.5 -24q76 4 149.5 65t150.5 159q64 94 124.5 173.5t123.5 124.5q11 3 26.5 4.5t28.5 0.5t19 -5.5t-1 -14.5q-36 -30 -81 -91t-97.5 -140.5t-111.5 -171t-123.5 -183t-133.5 -176t-140.5 -149.5
t-144.5 -105t-147 -42zM1007 1066q5 20 20.5 35t35.5 17q19 2 30 -9.5t6 -32.5q-4 -21 -20 -37t-36 -20q-19 -2 -29.5 11t-6.5 36zM1126 1068q5 20 20.5 35t35.5 18q19 2 30 -10t6 -33q-4 -21 -20.5 -36.5t-36.5 -19.5q-19 -2 -29 10.5t-6 35.5zM932 905q-14 3 -28.5 -1
t-31.5 -13l30 -6q15 -3 28 0t19.5 7.5t3.5 8.5t-21 4z" />
    <glyph glyph-name="ydieresis" unicode="&#xff;" horiz-adv-x="481" 
d="M140 454q6 9 25 10.5t38.5 -2.5t34 -12.5t10.5 -18.5q-2 -7 -19 -33t-39 -60t-45 -72t-38 -70t-17.5 -52.5t16.5 -20.5t43 17t46.5 40.5t42 49t31.5 42.5l110 182q5 9 24 10.5t39 -2.5t34 -12.5t10 -18.5q-22 -40 -49.5 -87.5t-59 -99t-66.5 -106.5t-72 -109
q54 29 102 64t86 76q15 15 29 32.5t26.5 34t22.5 30.5t16 22q7 9 15 10.5t14.5 -2t9.5 -11.5t-1 -18q-23 -38 -49 -75t-55 -70q-22 -25 -53 -52t-66 -51.5t-72 -46t-70 -35.5l-32 -14q-47 -63 -94.5 -117.5t-94.5 -97.5q-15 -13 -35 -27.5t-43 -25.5t-46.5 -15.5t-45.5 2.5
q-23 8 -36 21.5t-15 38.5q-2 36 20 69t55 60.5t70.5 48t67.5 32.5q26 10 49 18.5t45 17.5q17 23 32.5 46.5t30.5 47.5q-21 -19 -46.5 -32.5t-51.5 -12.5q-21 1 -35 8t-22 17t-12 22.5t-4 24.5q-1 35 11.5 72t29.5 66zM238 574q5 20 20.5 35t35.5 17q19 2 30 -9.5t6 -32.5
q-4 -21 -20 -37t-36 -20q-19 -2 -29.5 11t-6.5 36zM357 576q5 20 20.5 35t35.5 18q19 2 30 -10t6 -33q-4 -21 -20.5 -36.5t-36.5 -19.5q-19 -2 -29 10.5t-6 35.5zM-160 -277q0 -10 8.5 -6.5t21.5 14t28.5 25t28 27.5t20.5 21t7 6q2 0 2 2q-48 -29 -81.5 -53t-34.5 -36z" />
    <glyph glyph-name="Ugrave" unicode="&#xd9;" horiz-adv-x="1330" 
d="M1359 194q-29 -41 -65.5 -88t-78 -87t-87 -66.5t-91.5 -25.5q-40 1 -64.5 20t-38 44.5t-18 52t-3.5 43.5q1 24 3.5 48.5t7.5 50.5q-40 -61 -80 -111.5t-84.5 -86.5t-94.5 -55t-110 -16q-82 4 -128 37t-63.5 86t-9.5 122.5t35 146.5t70 157t95.5 154.5t111 139
t117.5 110.5q-42 13 -79.5 26.5t-75 24.5t-77.5 18t-88 6q-59 -1 -104.5 -18t-75.5 -43t-45 -58t-13 -63q1 -18 5.5 -35.5t14.5 -31.5t27.5 -22.5t43.5 -7.5q10 0 23 1t29 7t35 18.5t42 34.5q7 6 17 -0.5t18.5 -22t12 -38t-1.5 -47.5q-16 -73 -73 -117.5t-141 -45.5
q-83 0 -134.5 27t-81 67t-40 85.5t-11.5 81.5q-1 55 21 115t69.5 110t122 82.5t179.5 33.5q52 1 99 -10t93 -28.5t92 -39.5t96 -43l59 -26q38 23 73.5 34.5t67.5 9.5q20 -2 35.5 -10.5t24 -21.5t9 -29t-8.5 -31q-16 -27 -45.5 -33.5t-64.5 -0.5q-20 3 -40 8t-41 11
q-37 -35 -77.5 -87t-79 -113.5t-72.5 -128t-58 -130.5t-35.5 -121.5t-5.5 -101t33 -69t80 -25.5t95 18.5t80 53t76 83t83 109.5q28 70 65.5 139t80.5 132t88.5 117t88.5 95q8 7 28 12t39.5 6t32.5 -2t6 -11q-53 -51 -98 -111t-81.5 -123t-64 -125t-45 -116.5t-25 -97
t-4.5 -66.5q5 -42 26.5 -66t46.5 -24t48 11.5t44 31t41.5 44t41.5 51.5q14 19 25.5 34.5t18.5 23.5q7 9 15 10.5t14.5 -2t9.5 -11.5t-1 -18q-9 -16 -19 -31.5t-21 -30.5zM1091 1042q-34 22 -67 39t-71 24q-24 5 -28 13.5t17 22.5q19 12 46 11t50 -10q29 -11 50.5 -34
t34.5 -47q16 -30 15.5 -38t-8.5 -5.5t-20 11t-19 13.5zM958 905q-23 5 -55 -15q13 -4 24 -5q15 -3 28 0t19.5 7.5t3.5 8.5t-20 4z" />
    <glyph glyph-name="Ucircumflex" unicode="&#xdb;" horiz-adv-x="1330" 
d="M1359 194q-29 -41 -65.5 -88t-78 -87t-87 -66.5t-91.5 -25.5q-40 1 -64.5 20t-38 44.5t-18 52t-3.5 43.5q1 24 3.5 48.5t7.5 50.5q-40 -61 -80 -111.5t-84.5 -86.5t-94.5 -55t-110 -16q-82 4 -128 37t-63.5 86t-9.5 122.5t35 146.5t70 157t95.5 154.5t111 139
t117.5 110.5q-42 13 -79.5 26.5t-75 24.5t-77.5 18t-88 6q-59 -1 -104.5 -18t-75.5 -43t-45 -58t-13 -63q1 -18 5.5 -35.5t14.5 -31.5t27.5 -22.5t43.5 -7.5q10 0 23 1t29 7t35 18.5t42 34.5q7 6 17 -0.5t18.5 -22t12 -38t-1.5 -47.5q-16 -73 -73 -117.5t-141 -45.5
q-83 0 -134.5 27t-81 67t-40 85.5t-11.5 81.5q-1 55 21 115t69.5 110t122 82.5t179.5 33.5q52 1 99 -10t93 -28.5t92 -39.5t96 -43l59 -26q38 23 73.5 34.5t67.5 9.5q20 -2 35.5 -10.5t24 -21.5t9 -29t-8.5 -31q-16 -27 -45.5 -33.5t-64.5 -0.5q-20 3 -40 8t-41 11
q-37 -35 -77.5 -87t-79 -113.5t-72.5 -128t-58 -130.5t-35.5 -121.5t-5.5 -101t33 -69t80 -25.5t95 18.5t80 53t76 83t83 109.5q28 70 65.5 139t80.5 132t88.5 117t88.5 95q8 7 28 12t39.5 6t32.5 -2t6 -11q-53 -51 -98 -111t-81.5 -123t-64 -125t-45 -116.5t-25 -97
t-4.5 -66.5q5 -42 26.5 -66t46.5 -24t48 11.5t44 31t41.5 44t41.5 51.5q14 19 25.5 34.5t18.5 23.5q7 9 15 10.5t14.5 -2t9.5 -11.5t-1 -18q-9 -16 -19 -31.5t-21 -30.5zM996 1043q-6 0 -10.5 1.5t-5.5 5t4.5 8.5t20.5 12q36 16 61 29.5t43.5 25.5t33 22.5t29.5 20.5
q7 5 11.5 5t7.5 -3t4.5 -6.5t2.5 -6.5q4 -18 8 -30.5t9 -22.5t11.5 -17.5t15.5 -15.5q12 -11 7 -19t-16 -10q-33 -6 -52 -3t-29.5 11t-15.5 17t-8 15q-31 -11 -64 -24t-68 -15zM958 905q-23 5 -55 -15q13 -4 24 -5q15 -3 28 0t19.5 7.5t3.5 8.5t-20 4z" />
    <glyph glyph-name="Uacute" unicode="&#xda;" horiz-adv-x="1330" 
d="M1359 194q-29 -41 -65.5 -88t-78 -87t-87 -66.5t-91.5 -25.5q-40 1 -64.5 20t-38 44.5t-18 52t-3.5 43.5q1 24 3.5 48.5t7.5 50.5q-40 -61 -80 -111.5t-84.5 -86.5t-94.5 -55t-110 -16q-82 4 -128 37t-63.5 86t-9.5 122.5t35 146.5t70 157t95.5 154.5t111 139
t117.5 110.5q-42 13 -79.5 26.5t-75 24.5t-77.5 18t-88 6q-59 -1 -104.5 -18t-75.5 -43t-45 -58t-13 -63q1 -18 5.5 -35.5t14.5 -31.5t27.5 -22.5t43.5 -7.5q10 0 23 1t29 7t35 18.5t42 34.5q7 6 17 -0.5t18.5 -22t12 -38t-1.5 -47.5q-16 -73 -73 -117.5t-141 -45.5
q-83 0 -134.5 27t-81 67t-40 85.5t-11.5 81.5q-1 55 21 115t69.5 110t122 82.5t179.5 33.5q52 1 99 -10t93 -28.5t92 -39.5t96 -43l59 -26q38 23 73.5 34.5t67.5 9.5q20 -2 35.5 -10.5t24 -21.5t9 -29t-8.5 -31q-16 -27 -45.5 -33.5t-64.5 -0.5q-20 3 -40 8t-41 11
q-37 -35 -77.5 -87t-79 -113.5t-72.5 -128t-58 -130.5t-35.5 -121.5t-5.5 -101t33 -69t80 -25.5t95 18.5t80 53t76 83t83 109.5q28 70 65.5 139t80.5 132t88.5 117t88.5 95q8 7 28 12t39.5 6t32.5 -2t6 -11q-53 -51 -98 -111t-81.5 -123t-64 -125t-45 -116.5t-25 -97
t-4.5 -66.5q5 -42 26.5 -66t46.5 -24t48 11.5t44 31t41.5 44t41.5 51.5q14 19 25.5 34.5t18.5 23.5q7 9 15 10.5t14.5 -2t9.5 -11.5t-1 -18q-9 -16 -19 -31.5t-21 -30.5zM1158 1042q-8 -5 -19.5 -13.5t-19.5 -11t-8.5 5.5t15.5 38q13 24 34.5 47t50.5 34q23 9 50 10t46 -11
q21 -14 17 -22.5t-28 -13.5q-38 -7 -71 -24t-67 -39zM958 905q-23 5 -55 -15q13 -4 24 -5q15 -3 28 0t19.5 7.5t3.5 8.5t-20 4z" />
    <glyph glyph-name="Ograve" unicode="&#xd2;" horiz-adv-x="1416" 
d="M741 780q50 34 116 65q-50 13 -99 28.5t-98 29t-99 22.5t-102 8q-59 -1 -104.5 -18t-76 -43t-45.5 -58t-13 -63q1 -18 5.5 -35.5t15 -31.5t27.5 -22.5t43 -7.5q10 0 23 1.5t29 7.5t35.5 18t42.5 34q7 6 17 -0.5t18 -22t12 -38t-2 -47.5q-16 -73 -72.5 -117.5
t-140.5 -45.5q-83 0 -134.5 28.5t-80.5 69t-40 86t-12 78.5q-2 49 20 108.5t69.5 110.5t122.5 85.5t180 35.5q61 1 126.5 -14t132 -38t132 -49.5t126.5 -48.5q15 6 31 9.5t31.5 5t28 0t19.5 -6.5q10 -10 9 -19q-5 -23 -32.5 -38t-58.5 -18q-61 -37 -117 -89.5t-99.5 -119
t-72.5 -145.5t-36 -169q-11 -128 49 -200t174 -77q73 -3 141.5 18t129.5 60t111.5 92t87 113.5t57.5 125.5t22 127q1 66 -13 111.5t-41 73.5t-65.5 41t-84.5 15q-85 2 -159 -31.5t-135 -92t-107.5 -135.5t-76.5 -162q-5 -10 -12.5 -13.5t-14.5 -1.5t-11 9t-1 18
q9 44 31.5 97t57 106.5t81 103t103 88t122.5 62t140 23.5q62 0 112.5 -19t85.5 -58.5t53 -100t15 -142.5q-3 -81 -28.5 -162t-69.5 -155.5t-106 -139t-137 -112t-162 -74t-182 -25.5q-33 0 -73 8.5t-81 27t-79 48t-67 72t-45 98t-12 126.5q3 79 28.5 152.5t67.5 139t98 121
t119 98.5zM1077 1042q-34 22 -67 39t-71 24q-24 5 -28 13.5t17 22.5q19 12 46 11t50 -10q29 -11 50.5 -34t34.5 -47q16 -30 15.5 -38t-8.5 -5.5t-20 11t-19 13.5z" />
    <glyph glyph-name="Ocircumflex" unicode="&#xd4;" horiz-adv-x="1416" 
d="M741 780q50 34 116 65q-50 13 -99 28.5t-98 29t-99 22.5t-102 8q-59 -1 -104.5 -18t-76 -43t-45.5 -58t-13 -63q1 -18 5.5 -35.5t15 -31.5t27.5 -22.5t43 -7.5q10 0 23 1.5t29 7.5t35.5 18t42.5 34q7 6 17 -0.5t18 -22t12 -38t-2 -47.5q-16 -73 -72.5 -117.5
t-140.5 -45.5q-83 0 -134.5 28.5t-80.5 69t-40 86t-12 78.5q-2 49 20 108.5t69.5 110.5t122.5 85.5t180 35.5q61 1 126.5 -14t132 -38t132 -49.5t126.5 -48.5q15 6 31 9.5t31.5 5t28 0t19.5 -6.5q10 -10 9 -19q-5 -23 -32.5 -38t-58.5 -18q-61 -37 -117 -89.5t-99.5 -119
t-72.5 -145.5t-36 -169q-11 -128 49 -200t174 -77q73 -3 141.5 18t129.5 60t111.5 92t87 113.5t57.5 125.5t22 127q1 66 -13 111.5t-41 73.5t-65.5 41t-84.5 15q-85 2 -159 -31.5t-135 -92t-107.5 -135.5t-76.5 -162q-5 -10 -12.5 -13.5t-14.5 -1.5t-11 9t-1 18
q9 44 31.5 97t57 106.5t81 103t103 88t122.5 62t140 23.5q62 0 112.5 -19t85.5 -58.5t53 -100t15 -142.5q-3 -81 -28.5 -162t-69.5 -155.5t-106 -139t-137 -112t-162 -74t-182 -25.5q-33 0 -73 8.5t-81 27t-79 48t-67 72t-45 98t-12 126.5q3 79 28.5 152.5t67.5 139t98 121
t119 98.5zM953 1043q-6 0 -10.5 1.5t-5.5 5t4.5 8.5t20.5 12q36 16 61 29.5t43.5 25.5t33 22.5t29.5 20.5q7 5 11.5 5t7.5 -3t4.5 -6.5t2.5 -6.5q4 -18 8 -30.5t9 -22.5t11.5 -17.5t15.5 -15.5q12 -11 7 -19t-16 -10q-33 -6 -52 -3t-29.5 11t-15.5 17t-8 15q-31 -11 -64 -24
t-68 -15z" />
    <glyph glyph-name="Oacute" unicode="&#xd3;" horiz-adv-x="1416" 
d="M741 780q50 34 116 65q-50 13 -99 28.5t-98 29t-99 22.5t-102 8q-59 -1 -104.5 -18t-76 -43t-45.5 -58t-13 -63q1 -18 5.5 -35.5t15 -31.5t27.5 -22.5t43 -7.5q10 0 23 1.5t29 7.5t35.5 18t42.5 34q7 6 17 -0.5t18 -22t12 -38t-2 -47.5q-16 -73 -72.5 -117.5
t-140.5 -45.5q-83 0 -134.5 28.5t-80.5 69t-40 86t-12 78.5q-2 49 20 108.5t69.5 110.5t122.5 85.5t180 35.5q61 1 126.5 -14t132 -38t132 -49.5t126.5 -48.5q15 6 31 9.5t31.5 5t28 0t19.5 -6.5q10 -10 9 -19q-5 -23 -32.5 -38t-58.5 -18q-61 -37 -117 -89.5t-99.5 -119
t-72.5 -145.5t-36 -169q-11 -128 49 -200t174 -77q73 -3 141.5 18t129.5 60t111.5 92t87 113.5t57.5 125.5t22 127q1 66 -13 111.5t-41 73.5t-65.5 41t-84.5 15q-85 2 -159 -31.5t-135 -92t-107.5 -135.5t-76.5 -162q-5 -10 -12.5 -13.5t-14.5 -1.5t-11 9t-1 18
q9 44 31.5 97t57 106.5t81 103t103 88t122.5 62t140 23.5q62 0 112.5 -19t85.5 -58.5t53 -100t15 -142.5q-3 -81 -28.5 -162t-69.5 -155.5t-106 -139t-137 -112t-162 -74t-182 -25.5q-33 0 -73 8.5t-81 27t-79 48t-67 72t-45 98t-12 126.5q3 79 28.5 152.5t67.5 139t98 121
t119 98.5zM1123 1042q-8 -5 -19.5 -13.5t-19.5 -11t-8.5 5.5t15.5 38q13 24 34.5 47t50.5 34q23 9 50 10t46 -11q21 -14 17 -22.5t-28 -13.5q-38 -7 -71 -24t-67 -39z" />
    <glyph glyph-name="Igrave" unicode="&#xcc;" horiz-adv-x="689" 
d="M565 841q93 24 189 34.5t193 22.5q29 33 61 61t67 43q21 9 39.5 9.5t31.5 -7t19.5 -20.5t5.5 -31q-1 -9 -8.5 -21.5t-19.5 -24.5t-27.5 -22t-31.5 -14q-27 -8 -52.5 -14.5t-50.5 -11.5q-43 -54 -87 -123t-89.5 -144t-93 -152.5t-97.5 -150t-102.5 -136.5t-108 -110.5
t-114 -73t-121.5 -24.5q-27 1 -54 9.5t-49.5 24t-38 37.5t-17.5 49q-1 7 0.5 22t6 29.5t12 24t19.5 5.5q30 -8 59.5 -15t60.5 -6q62 0 123.5 32.5t121 86.5t117.5 122.5t112.5 141t105 142.5t95.5 126l50 66q-63 -11 -126.5 -23t-132.5 -32q-50 -14 -86.5 -35.5t-60 -45.5
t-35 -48.5t-11.5 -43.5q0 -31 23.5 -43t58.5 4q9 4 20.5 11.5t23 22.5t21.5 39.5t16 63.5q4 24 14.5 26.5t20 -12.5t15 -45.5t-1.5 -72.5q-4 -25 -19 -57.5t-36.5 -63.5t-49 -56.5t-57.5 -35.5q-68 -23 -114 -13.5t-75 34.5t-42 55.5t-14 49.5q-3 54 13.5 104t55 93.5
t101 78t151.5 58.5zM946 1042q-34 22 -67 39t-71 24q-24 5 -28 13.5t17 22.5q19 12 46 11t50 -10q29 -11 50.5 -34t34.5 -47q16 -30 15.5 -38t-8.5 -5.5t-20 11t-19 13.5zM1077 946q-12 -6 -22.5 -15.5t-20.5 -20.5l24 5q21 5 32.5 13.5t13.5 15.5t-5 8.5t-22 -6.5z" />
    <glyph glyph-name="Idieresis" unicode="&#xcf;" horiz-adv-x="689" 
d="M565 841q93 24 189 34.5t193 22.5q29 33 61 61t67 43q21 9 39.5 9.5t31.5 -7t19.5 -20.5t5.5 -31q-1 -9 -8.5 -21.5t-19.5 -24.5t-27.5 -22t-31.5 -14q-27 -8 -52.5 -14.5t-50.5 -11.5q-43 -54 -87 -123t-89.5 -144t-93 -152.5t-97.5 -150t-102.5 -136.5t-108 -110.5
t-114 -73t-121.5 -24.5q-27 1 -54 9.5t-49.5 24t-38 37.5t-17.5 49q-1 7 0.5 22t6 29.5t12 24t19.5 5.5q30 -8 59.5 -15t60.5 -6q62 0 123.5 32.5t121 86.5t117.5 122.5t112.5 141t105 142.5t95.5 126l50 66q-63 -11 -126.5 -23t-132.5 -32q-50 -14 -86.5 -35.5t-60 -45.5
t-35 -48.5t-11.5 -43.5q0 -31 23.5 -43t58.5 4q9 4 20.5 11.5t23 22.5t21.5 39.5t16 63.5q4 24 14.5 26.5t20 -12.5t15 -45.5t-1.5 -72.5q-4 -25 -19 -57.5t-36.5 -63.5t-49 -56.5t-57.5 -35.5q-68 -23 -114 -13.5t-75 34.5t-42 55.5t-14 49.5q-3 54 13.5 104t55 93.5
t101 78t151.5 58.5zM801 1066q5 20 20.5 35t35.5 17q19 2 30 -9.5t6 -32.5q-4 -21 -20 -37t-36 -20q-19 -2 -29.5 11t-6.5 36zM920 1068q5 20 20.5 35t35.5 18q19 2 30 -10t6 -33q-4 -21 -20.5 -36.5t-36.5 -19.5q-19 -2 -29 10.5t-6 35.5zM1077 946q-12 -6 -22.5 -15.5
t-20.5 -20.5l24 5q21 5 32.5 13.5t13.5 15.5t-5 8.5t-22 -6.5z" />
    <glyph glyph-name="Icircumflex" unicode="&#xce;" horiz-adv-x="689" 
d="M565 841q93 24 189 34.5t193 22.5q29 33 61 61t67 43q21 9 39.5 9.5t31.5 -7t19.5 -20.5t5.5 -31q-1 -9 -8.5 -21.5t-19.5 -24.5t-27.5 -22t-31.5 -14q-27 -8 -52.5 -14.5t-50.5 -11.5q-43 -54 -87 -123t-89.5 -144t-93 -152.5t-97.5 -150t-102.5 -136.5t-108 -110.5
t-114 -73t-121.5 -24.5q-27 1 -54 9.5t-49.5 24t-38 37.5t-17.5 49q-1 7 0.5 22t6 29.5t12 24t19.5 5.5q30 -8 59.5 -15t60.5 -6q62 0 123.5 32.5t121 86.5t117.5 122.5t112.5 141t105 142.5t95.5 126l50 66q-63 -11 -126.5 -23t-132.5 -32q-50 -14 -86.5 -35.5t-60 -45.5
t-35 -48.5t-11.5 -43.5q0 -31 23.5 -43t58.5 4q9 4 20.5 11.5t23 22.5t21.5 39.5t16 63.5q4 24 14.5 26.5t20 -12.5t15 -45.5t-1.5 -72.5q-4 -25 -19 -57.5t-36.5 -63.5t-49 -56.5t-57.5 -35.5q-68 -23 -114 -13.5t-75 34.5t-42 55.5t-14 49.5q-3 54 13.5 104t55 93.5
t101 78t151.5 58.5zM774 1043q-6 0 -10.5 1.5t-5.5 5t4.5 8.5t20.5 12q36 16 61 29.5t43.5 25.5t33 22.5t29.5 20.5q7 5 11.5 5t7.5 -3t4.5 -6.5t2.5 -6.5q4 -18 8 -30.5t9 -22.5t11.5 -17.5t15.5 -15.5q12 -11 7 -19t-16 -10q-33 -6 -52 -3t-29.5 11t-15.5 17t-8 15
q-31 -11 -64 -24t-68 -15zM1077 946q-12 -6 -22.5 -15.5t-20.5 -20.5l24 5q21 5 32.5 13.5t13.5 15.5t-5 8.5t-22 -6.5z" />
    <glyph glyph-name="Iacute" unicode="&#xcd;" horiz-adv-x="689" 
d="M565 841q93 24 189 34.5t193 22.5q29 33 61 61t67 43q21 9 39.5 9.5t31.5 -7t19.5 -20.5t5.5 -31q-1 -9 -8.5 -21.5t-19.5 -24.5t-27.5 -22t-31.5 -14q-27 -8 -52.5 -14.5t-50.5 -11.5q-43 -54 -87 -123t-89.5 -144t-93 -152.5t-97.5 -150t-102.5 -136.5t-108 -110.5
t-114 -73t-121.5 -24.5q-27 1 -54 9.5t-49.5 24t-38 37.5t-17.5 49q-1 7 0.5 22t6 29.5t12 24t19.5 5.5q30 -8 59.5 -15t60.5 -6q62 0 123.5 32.5t121 86.5t117.5 122.5t112.5 141t105 142.5t95.5 126l50 66q-63 -11 -126.5 -23t-132.5 -32q-50 -14 -86.5 -35.5t-60 -45.5
t-35 -48.5t-11.5 -43.5q0 -31 23.5 -43t58.5 4q9 4 20.5 11.5t23 22.5t21.5 39.5t16 63.5q4 24 14.5 26.5t20 -12.5t15 -45.5t-1.5 -72.5q-4 -25 -19 -57.5t-36.5 -63.5t-49 -56.5t-57.5 -35.5q-68 -23 -114 -13.5t-75 34.5t-42 55.5t-14 49.5q-3 54 13.5 104t55 93.5
t101 78t151.5 58.5zM931 1042q-8 -5 -19.5 -13.5t-19.5 -11t-8.5 5.5t15.5 38q13 24 34.5 47t50.5 34q23 9 50 10t46 -11q21 -14 17 -22.5t-28 -13.5q-38 -7 -71 -24t-67 -39zM1077 946q-12 -6 -22.5 -15.5t-20.5 -20.5l24 5q21 5 32.5 13.5t13.5 15.5t-5 8.5t-22 -6.5z" />
    <glyph glyph-name="Egrave" unicode="&#xc8;" horiz-adv-x="1258" 
d="M1335 267q-46 -76 -106 -145.5t-133.5 -121.5t-159.5 -80.5t-184 -23.5q-85 4 -154 32.5t-116 74.5t-71 106t-19 128q3 48 26 95.5t61.5 89.5t90.5 75.5t114 52.5q-5 31 2 65t24.5 69.5t45 70t62.5 66.5q-43 17 -86.5 32.5t-88 27.5t-89 18t-89.5 5q-35 -2 -61 -16.5
t-43 -34.5t-25.5 -41t-9.5 -34q-1 -18 0 -36t7.5 -34t20 -28t39.5 -17q10 -2 23 -3.5t30 1t38.5 10t48.5 23.5q9 5 17 -3.5t12.5 -25.5t3.5 -40t-12 -46q-32 -68 -97 -98.5t-148 -12.5q-81 18 -125 57t-63 85t-19.5 92t5.5 79q8 43 35 89t72 84t107.5 62t142.5 23
q72 -1 135 -15t118.5 -35t104.5 -47.5t93 -52.5q63 35 136.5 54t155.5 14q97 -7 150.5 -37t52.5 -77q0 -30 -18 -53.5t-49 -39.5t-72.5 -25t-87.5 -10q-61 -2 -126.5 17.5t-136.5 46.5q-49 -39 -76 -87t-31 -95q-1 -7 -1 -13v-13q4 0 7.5 0.5t7.5 0.5q58 0 91.5 -13.5
t47 -32.5t7.5 -40t-26.5 -36.5t-55 -22t-78.5 4.5q-56 13 -89 44q-42 -15 -75 -41t-55 -58.5t-32.5 -69t-7.5 -73.5q3 -54 30 -92.5t64.5 -63.5t78.5 -37t72 -12q143 -3 270 63t227 196q7 9 15.5 10.5t15 -2t9.5 -11.5t-1 -18zM1179 864q-48 -1 -90 -9.5t-78 -23.5
q48 -26 93 -43t90 -15q78 3 115.5 18t35.5 32t-43.5 29.5t-122.5 11.5zM1045 1042q-34 22 -67 39t-71 24q-24 5 -28 13.5t17 22.5q19 12 46 11t50 -10q29 -11 50.5 -34t34.5 -47q16 -30 15.5 -38t-8.5 -5.5t-20 11t-19 13.5zM852 483q25 -3 40.5 -0.5t15.5 6.5t-17.5 7
t-58.5 0q7 -11 20 -13z" />
    <glyph glyph-name="Edieresis" unicode="&#xcb;" horiz-adv-x="1258" 
d="M1335 267q-46 -76 -106 -145.5t-133.5 -121.5t-159.5 -80.5t-184 -23.5q-85 4 -154 32.5t-116 74.5t-71 106t-19 128q3 48 26 95.5t61.5 89.5t90.5 75.5t114 52.5q-5 31 2 65t24.5 69.5t45 70t62.5 66.5q-43 17 -86.5 32.5t-88 27.5t-89 18t-89.5 5q-35 -2 -61 -16.5
t-43 -34.5t-25.5 -41t-9.5 -34q-1 -18 0 -36t7.5 -34t20 -28t39.5 -17q10 -2 23 -3.5t30 1t38.5 10t48.5 23.5q9 5 17 -3.5t12.5 -25.5t3.5 -40t-12 -46q-32 -68 -97 -98.5t-148 -12.5q-81 18 -125 57t-63 85t-19.5 92t5.5 79q8 43 35 89t72 84t107.5 62t142.5 23
q72 -1 135 -15t118.5 -35t104.5 -47.5t93 -52.5q63 35 136.5 54t155.5 14q97 -7 150.5 -37t52.5 -77q0 -30 -18 -53.5t-49 -39.5t-72.5 -25t-87.5 -10q-61 -2 -126.5 17.5t-136.5 46.5q-49 -39 -76 -87t-31 -95q-1 -7 -1 -13v-13q4 0 7.5 0.5t7.5 0.5q58 0 91.5 -13.5
t47 -32.5t7.5 -40t-26.5 -36.5t-55 -22t-78.5 4.5q-56 13 -89 44q-42 -15 -75 -41t-55 -58.5t-32.5 -69t-7.5 -73.5q3 -54 30 -92.5t64.5 -63.5t78.5 -37t72 -12q143 -3 270 63t227 196q7 9 15.5 10.5t15 -2t9.5 -11.5t-1 -18zM1179 864q-48 -1 -90 -9.5t-78 -23.5
q48 -26 93 -43t90 -15q78 3 115.5 18t35.5 32t-43.5 29.5t-122.5 11.5zM893 1066q5 20 20.5 35t35.5 17q19 2 30 -9.5t6 -32.5q-4 -21 -20 -37t-36 -20q-19 -2 -29.5 11t-6.5 36zM1012 1068q5 20 20.5 35t35.5 18q19 2 30 -10t6 -33q-4 -21 -20.5 -36.5t-36.5 -19.5
q-19 -2 -29 10.5t-6 35.5zM852 483q25 -3 40.5 -0.5t15.5 6.5t-17.5 7t-58.5 0q7 -11 20 -13z" />
    <glyph glyph-name="Aacute" unicode="&#xc1;" horiz-adv-x="1312" 
d="M771 187q-12 -8 -22 -5t-17 12t-11 22.5t-4 27.5q-75 -65 -151.5 -122t-149.5 -98.5t-140.5 -65t-124.5 -21.5q-26 1 -52.5 9t-48 23t-35 37t-14.5 49q1 7 6 22t13.5 29.5t18.5 24t21 5.5q28 -8 55 -15t58 -6q53 0 116 23.5t132 63.5t141.5 92.5t145 111.5t142.5 120
t133.5 117t119 104t98.5 80l18 13q-54 12 -105 28.5t-102.5 31t-104 24.5t-108.5 9q-59 -1 -104.5 -18t-75.5 -43t-45 -58t-13 -63q1 -18 5.5 -35.5t14.5 -31.5t27.5 -22.5t43.5 -7.5q10 0 23 1.5t29 7.5t35 18t42 34q7 6 17 -0.5t18.5 -22t12 -38t-1.5 -47.5
q-16 -73 -73 -117.5t-141 -45.5q-83 0 -134.5 28.5t-80.5 69t-40 86t-12 78.5q-2 49 20 108.5t69.5 110.5t122.5 85.5t180 35.5q58 1 120 -13t125 -35t125 -45.5t121 -46.5q6 0 9 -1l18 -9l23 -8l3 1q36 15 75.5 28t76.5 6q14 -3 27 -12t21.5 -21.5t9 -28t-10.5 -30.5
q-20 -28 -55.5 -38.5t-64.5 -5.5q-23 4 -43 15q-52 -56 -93 -121.5t-71 -132t-50 -130t-30 -115.5q0 -5 -2 -9q-6 -36 -8 -64t0 -45q5 -42 26.5 -66t46.5 -24t47.5 11.5t44 31t42 44t41.5 51.5q14 19 25 34.5t18 23.5q7 9 15 10.5t15 -2t10 -11.5t-1 -18q-18 -30 -41 -62
l-11 -14q-29 -41 -66 -88t-78.5 -87t-86.5 -66.5t-91 -25.5q-41 1 -65.5 20t-38 44.5t-17.5 52t-4 43.5q2 52 13.5 106.5t31.5 110.5q-41 -10 -80.5 -44t-88.5 -73zM1035 563q-46 -54 -98.5 -109t-109.5 -109q66 30 136 17q27 63 61 124.5t72 117.5t79 106t80 89
q-26 -19 -57 -50.5t-61.5 -66t-57 -67t-44.5 -52.5zM1385 1042q-8 -5 -19.5 -13.5t-19.5 -11t-8.5 5.5t15.5 38q13 24 34.5 47t50.5 34q23 9 50 10t46 -11q21 -14 17 -22.5t-28 -13.5q-38 -7 -71 -24t-67 -39zM1402 873q-17 -1 -34 -5.5t-35 -12.5l16 -4t17 -4q18 1 32 5.5
t21 9t4 8t-21 3.5z" />
    <glyph glyph-name="Ecircumflex" unicode="&#xca;" horiz-adv-x="1258" 
d="M1335 267q-46 -76 -106 -145.5t-133.5 -121.5t-159.5 -80.5t-184 -23.5q-85 4 -154 32.5t-116 74.5t-71 106t-19 128q3 48 26 95.5t61.5 89.5t90.5 75.5t114 52.5q-5 31 2 65t24.5 69.5t45 70t62.5 66.5q-43 17 -86.5 32.5t-88 27.5t-89 18t-89.5 5q-35 -2 -61 -16.5
t-43 -34.5t-25.5 -41t-9.5 -34q-1 -18 0 -36t7.5 -34t20 -28t39.5 -17q10 -2 23 -3.5t30 1t38.5 10t48.5 23.5q9 5 17 -3.5t12.5 -25.5t3.5 -40t-12 -46q-32 -68 -97 -98.5t-148 -12.5q-81 18 -125 57t-63 85t-19.5 92t5.5 79q8 43 35 89t72 84t107.5 62t142.5 23
q72 -1 135 -15t118.5 -35t104.5 -47.5t93 -52.5q63 35 136.5 54t155.5 14q97 -7 150.5 -37t52.5 -77q0 -30 -18 -53.5t-49 -39.5t-72.5 -25t-87.5 -10q-61 -2 -126.5 17.5t-136.5 46.5q-49 -39 -76 -87t-31 -95q-1 -7 -1 -13v-13q4 0 7.5 0.5t7.5 0.5q58 0 91.5 -13.5
t47 -32.5t7.5 -40t-26.5 -36.5t-55 -22t-78.5 4.5q-56 13 -89 44q-42 -15 -75 -41t-55 -58.5t-32.5 -69t-7.5 -73.5q3 -54 30 -92.5t64.5 -63.5t78.5 -37t72 -12q143 -3 270 63t227 196q7 9 15.5 10.5t15 -2t9.5 -11.5t-1 -18zM1179 864q-48 -1 -90 -9.5t-78 -23.5
q48 -26 93 -43t90 -15q78 3 115.5 18t35.5 32t-43.5 29.5t-122.5 11.5zM924 1043q-6 0 -10.5 1.5t-5.5 5t4.5 8.5t20.5 12q36 16 61 29.5t43.5 25.5t33 22.5t29.5 20.5q7 5 11.5 5t7.5 -3t4.5 -6.5t2.5 -6.5q4 -18 8 -30.5t9 -22.5t11.5 -17.5t15.5 -15.5q12 -11 7 -19
t-16 -10q-33 -6 -52 -3t-29.5 11t-15.5 17t-8 15q-31 -11 -64 -24t-68 -15zM852 483q25 -3 40.5 -0.5t15.5 6.5t-17.5 7t-58.5 0q7 -11 20 -13z" />
    <glyph glyph-name="Acircumflex" unicode="&#xc2;" horiz-adv-x="1312" 
d="M771 187q-12 -8 -22 -5t-17 12t-11 22.5t-4 27.5q-75 -65 -151.5 -122t-149.5 -98.5t-140.5 -65t-124.5 -21.5q-26 1 -52.5 9t-48 23t-35 37t-14.5 49q1 7 6 22t13.5 29.5t18.5 24t21 5.5q28 -8 55 -15t58 -6q53 0 116 23.5t132 63.5t141.5 92.5t145 111.5t142.5 120
t133.5 117t119 104t98.5 80l18 13q-54 12 -105 28.5t-102.5 31t-104 24.5t-108.5 9q-59 -1 -104.5 -18t-75.5 -43t-45 -58t-13 -63q1 -18 5.5 -35.5t14.5 -31.5t27.5 -22.5t43.5 -7.5q10 0 23 1.5t29 7.5t35 18t42 34q7 6 17 -0.5t18.5 -22t12 -38t-1.5 -47.5
q-16 -73 -73 -117.5t-141 -45.5q-83 0 -134.5 28.5t-80.5 69t-40 86t-12 78.5q-2 49 20 108.5t69.5 110.5t122.5 85.5t180 35.5q58 1 120 -13t125 -35t125 -45.5t121 -46.5q6 0 9 -1l18 -9l23 -8l3 1q36 15 75.5 28t76.5 6q14 -3 27 -12t21.5 -21.5t9 -28t-10.5 -30.5
q-20 -28 -55.5 -38.5t-64.5 -5.5q-23 4 -43 15q-52 -56 -93 -121.5t-71 -132t-50 -130t-30 -115.5q0 -5 -2 -9q-6 -36 -8 -64t0 -45q5 -42 26.5 -66t46.5 -24t47.5 11.5t44 31t42 44t41.5 51.5q14 19 25 34.5t18 23.5q7 9 15 10.5t15 -2t10 -11.5t-1 -18q-18 -30 -41 -62
l-11 -14q-29 -41 -66 -88t-78.5 -87t-86.5 -66.5t-91 -25.5q-41 1 -65.5 20t-38 44.5t-17.5 52t-4 43.5q2 52 13.5 106.5t31.5 110.5q-41 -10 -80.5 -44t-88.5 -73zM1035 563q-46 -54 -98.5 -109t-109.5 -109q66 30 136 17q27 63 61 124.5t72 117.5t79 106t80 89
q-26 -19 -57 -50.5t-61.5 -66t-57 -67t-44.5 -52.5zM1265 1043q-6 0 -10.5 1.5t-5.5 5t4.5 8.5t20.5 12q36 16 61 29.5t43.5 25.5t33 22.5t29.5 20.5q7 5 11.5 5t7.5 -3t4.5 -6.5t2.5 -6.5q4 -18 8 -30.5t9 -22.5t11.5 -17.5t15.5 -15.5q12 -11 7 -19t-16 -10q-33 -6 -52 -3
t-29.5 11t-15.5 17t-8 15q-31 -11 -64 -24t-68 -15zM1402 873q-17 -1 -34 -5.5t-35 -12.5l16 -4t17 -4q18 1 32 5.5t21 9t4 8t-21 3.5z" />
    <glyph glyph-name="Agrave" unicode="&#xc0;" horiz-adv-x="1312" 
d="M771 187q-12 -8 -22 -5t-17 12t-11 22.5t-4 27.5q-75 -65 -151.5 -122t-149.5 -98.5t-140.5 -65t-124.5 -21.5q-26 1 -52.5 9t-48 23t-35 37t-14.5 49q1 7 6 22t13.5 29.5t18.5 24t21 5.5q28 -8 55 -15t58 -6q53 0 116 23.5t132 63.5t141.5 92.5t145 111.5t142.5 120
t133.5 117t119 104t98.5 80l18 13q-54 12 -105 28.5t-102.5 31t-104 24.5t-108.5 9q-59 -1 -104.5 -18t-75.5 -43t-45 -58t-13 -63q1 -18 5.5 -35.5t14.5 -31.5t27.5 -22.5t43.5 -7.5q10 0 23 1.5t29 7.5t35 18t42 34q7 6 17 -0.5t18.5 -22t12 -38t-1.5 -47.5
q-16 -73 -73 -117.5t-141 -45.5q-83 0 -134.5 28.5t-80.5 69t-40 86t-12 78.5q-2 49 20 108.5t69.5 110.5t122.5 85.5t180 35.5q58 1 120 -13t125 -35t125 -45.5t121 -46.5q6 0 9 -1l18 -9l23 -8l3 1q36 15 75.5 28t76.5 6q14 -3 27 -12t21.5 -21.5t9 -28t-10.5 -30.5
q-20 -28 -55.5 -38.5t-64.5 -5.5q-23 4 -43 15q-52 -56 -93 -121.5t-71 -132t-50 -130t-30 -115.5q0 -5 -2 -9q-6 -36 -8 -64t0 -45q5 -42 26.5 -66t46.5 -24t47.5 11.5t44 31t42 44t41.5 51.5q14 19 25 34.5t18 23.5q7 9 15 10.5t15 -2t10 -11.5t-1 -18q-18 -30 -41 -62
l-11 -14q-29 -41 -66 -88t-78.5 -87t-86.5 -66.5t-91 -25.5q-41 1 -65.5 20t-38 44.5t-17.5 52t-4 43.5q2 52 13.5 106.5t31.5 110.5q-41 -10 -80.5 -44t-88.5 -73zM1035 563q-46 -54 -98.5 -109t-109.5 -109q66 30 136 17q27 63 61 124.5t72 117.5t79 106t80 89
q-26 -19 -57 -50.5t-61.5 -66t-57 -67t-44.5 -52.5zM1298 1053q-34 22 -67 39t-71 24q-24 5 -28 13.5t17 22.5q19 12 46 11t50 -10q29 -11 50.5 -34t34.5 -47q16 -30 15.5 -38t-8.5 -5.5t-20 11t-19 13.5zM1402 873q-17 -1 -34 -5.5t-35 -12.5l16 -4t17 -4q18 1 32 5.5t21 9
t4 8t-21 3.5z" />
    <glyph glyph-name="Atilde" unicode="&#xc3;" horiz-adv-x="1312" 
d="M771 187q-12 -8 -22 -5t-17 12t-11 22.5t-4 27.5q-75 -65 -151.5 -122t-149.5 -98.5t-140.5 -65t-124.5 -21.5q-26 1 -52.5 9t-48 23t-35 37t-14.5 49q1 7 6 22t13.5 29.5t18.5 24t21 5.5q28 -8 55 -15t58 -6q53 0 116 23.5t132 63.5t141.5 92.5t145 111.5t142.5 120
t133.5 117t119 104t98.5 80l18 13q-54 12 -105 28.5t-102.5 31t-104 24.5t-108.5 9q-59 -1 -104.5 -18t-75.5 -43t-45 -58t-13 -63q1 -18 5.5 -35.5t14.5 -31.5t27.5 -22.5t43.5 -7.5q10 0 23 1.5t29 7.5t35 18t42 34q7 6 17 -0.5t18.5 -22t12 -38t-1.5 -47.5
q-16 -73 -73 -117.5t-141 -45.5q-83 0 -134.5 28.5t-80.5 69t-40 86t-12 78.5q-2 49 20 108.5t69.5 110.5t122.5 85.5t180 35.5q58 1 120 -13t125 -35t125 -45.5t121 -46.5q6 0 9 -1l18 -9l23 -8l3 1q36 15 75.5 28t76.5 6q14 -3 27 -12t21.5 -21.5t9 -28t-10.5 -30.5
q-20 -28 -55.5 -38.5t-64.5 -5.5q-23 4 -43 15q-52 -56 -93 -121.5t-71 -132t-50 -130t-30 -115.5q0 -5 -2 -9q-6 -36 -8 -64t0 -45q5 -42 26.5 -66t46.5 -24t47.5 11.5t44 31t42 44t41.5 51.5q14 19 25 34.5t18 23.5q7 9 15 10.5t15 -2t10 -11.5t-1 -18q-18 -30 -41 -62
l-11 -14q-29 -41 -66 -88t-78.5 -87t-86.5 -66.5t-91 -25.5q-41 1 -65.5 20t-38 44.5t-17.5 52t-4 43.5q2 52 13.5 106.5t31.5 110.5q-41 -10 -80.5 -44t-88.5 -73zM1296 1134q33 0 63 -6.5t56 -11t50 -3.5t45 16q7 5 12 9.5t8.5 6t5 -1t0.5 -12.5q-2 -23 -11 -40t-22.5 -28
t-29.5 -17t-32 -7q-29 -2 -54 5t-49 12t-48.5 5t-51.5 -15q-14 -7 -22.5 -10.5t-7.5 11.5q2 35 26 59.5t62 27.5zM1035 563q-46 -54 -98.5 -109t-109.5 -109q66 30 136 17q27 63 61 124.5t72 117.5t79 106t80 89q-26 -19 -57 -50.5t-61.5 -66t-57 -67t-44.5 -52.5zM1402 873
q-17 -1 -34 -5.5t-35 -12.5l16 -4t17 -4q18 1 32 5.5t21 9t4 8t-21 3.5z" />
    <glyph glyph-name="Otilde" unicode="&#xd5;" horiz-adv-x="1416" 
d="M741 780q50 34 116 65q-50 13 -99 28.5t-98 29t-99 22.5t-102 8q-59 -1 -104.5 -18t-76 -43t-45.5 -58t-13 -63q1 -18 5.5 -35.5t15 -31.5t27.5 -22.5t43 -7.5q10 0 23 1.5t29 7.5t35.5 18t42.5 34q7 6 17 -0.5t18 -22t12 -38t-2 -47.5q-16 -73 -72.5 -117.5
t-140.5 -45.5q-83 0 -134.5 28.5t-80.5 69t-40 86t-12 78.5q-2 49 20 108.5t69.5 110.5t122.5 85.5t180 35.5q61 1 126.5 -14t132 -38t132 -49.5t126.5 -48.5q15 6 31 9.5t31.5 5t28 0t19.5 -6.5q10 -10 9 -19q-5 -23 -32.5 -38t-58.5 -18q-61 -37 -117 -89.5t-99.5 -119
t-72.5 -145.5t-36 -169q-11 -128 49 -200t174 -77q73 -3 141.5 18t129.5 60t111.5 92t87 113.5t57.5 125.5t22 127q1 66 -13 111.5t-41 73.5t-65.5 41t-84.5 15q-85 2 -159 -31.5t-135 -92t-107.5 -135.5t-76.5 -162q-5 -10 -12.5 -13.5t-14.5 -1.5t-11 9t-1 18
q9 44 31.5 97t57 106.5t81 103t103 88t122.5 62t140 23.5q62 0 112.5 -19t85.5 -58.5t53 -100t15 -142.5q-3 -81 -28.5 -162t-69.5 -155.5t-106 -139t-137 -112t-162 -74t-182 -25.5q-33 0 -73 8.5t-81 27t-79 48t-67 72t-45 98t-12 126.5q3 79 28.5 152.5t67.5 139t98 121
t119 98.5zM1021 1134q33 0 63 -6.5t56 -11t50 -3.5t45 16q7 5 12 9.5t8.5 6t5 -1t0.5 -12.5q-2 -23 -11 -40t-22.5 -28t-29.5 -17t-32 -7q-29 -2 -54 5t-49 12t-48.5 5t-51.5 -15q-14 -7 -22.5 -10.5t-7.5 11.5q2 35 26 59.5t62 27.5z" />
    <glyph glyph-name="OE" unicode="&#x152;" horiz-adv-x="2674" 
d="M741 780q50 34 116 65q-50 13 -99 28.5t-98 29t-99 22.5t-102 8q-59 -1 -104.5 -18t-76 -43t-45.5 -58t-13 -63q1 -18 5.5 -35.5t15 -31.5t27.5 -22.5t43 -7.5q10 0 23 1.5t29 7.5t35.5 18t42.5 34q7 6 17 -0.5t18 -22t12 -38t-2 -47.5q-16 -73 -72.5 -117.5
t-140.5 -45.5q-83 0 -134.5 28.5t-80.5 69t-40 86t-12 78.5q-2 49 20 108.5t69.5 110.5t122.5 85.5t180 35.5q61 1 126.5 -14t132 -38t132 -49.5t126.5 -48.5q15 6 31 9.5t31.5 5t28 0t19.5 -6.5q10 -10 9 -19q-5 -23 -32.5 -38t-58.5 -18q-61 -37 -117 -89.5t-99.5 -119
t-72.5 -145.5t-36 -169q-11 -128 49 -200t174 -77q73 -3 141.5 18t129.5 60t111.5 92t87 113.5t57.5 125.5t22 127q1 66 -13 111.5t-41 73.5t-65.5 41t-84.5 15q-85 2 -159 -31.5t-135 -92t-107.5 -135.5t-76.5 -162q-5 -10 -12.5 -13.5t-14.5 -1.5t-11 9t-1 18
q9 44 31.5 97t57 106.5t81 103t103 88t122.5 62t140 23.5q62 0 112.5 -19t85.5 -58.5t53 -100t15 -142.5q-3 -81 -28.5 -162t-69.5 -155.5t-106 -139t-137 -112t-162 -74t-182 -25.5q-33 0 -73 8.5t-81 27t-79 48t-67 72t-45 98t-12 126.5q3 79 28.5 152.5t67.5 139t98 121
t119 98.5zM2751 267q-46 -76 -106 -145.5t-133.5 -121.5t-159.5 -80.5t-184 -23.5q-85 4 -154 32.5t-116 74.5t-71 106t-19 128q3 48 26 95.5t61.5 89.5t90.5 75.5t114 52.5q-5 31 2 65t24.5 69.5t45 70t62.5 66.5q-43 17 -86.5 32.5t-88 27.5t-89 18t-89.5 5
q-35 -2 -61 -16.5t-43 -34.5t-25.5 -41t-9.5 -34q-1 -18 0 -36t7.5 -34t20 -28t39.5 -17q10 -2 23 -3.5t30 1t38.5 10t48.5 23.5q9 5 17 -3.5t12.5 -25.5t3.5 -40t-12 -46q-32 -68 -97 -98.5t-148 -12.5q-81 18 -125 57t-63 85t-19.5 92t5.5 79q8 43 35 89t72 84t107.5 62
t142.5 23q72 -1 135 -15t118.5 -35t104.5 -47.5t93 -52.5q63 35 136.5 54t155.5 14q97 -7 150.5 -37t52.5 -77q0 -30 -18 -53.5t-49 -39.5t-72.5 -25t-87.5 -10q-61 -2 -126.5 17.5t-136.5 46.5q-49 -39 -76 -87t-31 -95q-1 -7 -1 -13v-13q4 0 7.5 0.5t7.5 0.5
q58 0 91.5 -13.5t47 -32.5t7.5 -40t-26.5 -36.5t-55 -22t-78.5 4.5q-56 13 -89 44q-42 -15 -75 -41t-55 -58.5t-32.5 -69t-7.5 -73.5q3 -54 30 -92.5t64.5 -63.5t78.5 -37t72 -12q143 -3 270 63t227 196q7 9 15.5 10.5t15 -2t9.5 -11.5t-1 -18zM2595 864q-48 -1 -90 -9.5
t-78 -23.5q48 -26 93 -43t90 -15q78 3 115.5 18t35.5 32t-43.5 29.5t-122.5 11.5zM2268 483q25 -3 40.5 -0.5t15.5 6.5t-17.5 7t-58.5 0q7 -11 20 -13z" />
    <glyph glyph-name="oe" unicode="&#x153;" horiz-adv-x="854" 
d="M302 494q45 -1 72 -28t32 -75q5 -57 -14.5 -118.5t-55.5 -116.5q18 2 36.5 13.5t36 27.5t32.5 33.5t26 31.5l15 21q28 51 67.5 94t83.5 74q24 17 60 28.5t71 11.5q43 0 71.5 -24t27.5 -67q-1 -28 -21.5 -62t-57.5 -65t-89 -54.5t-115 -29.5q-2 -9 -3 -17t-1 -16
q0 -34 9.5 -57.5t41.5 -25.5q16 0 36 7t48 21q30 16 55.5 38.5t49.5 48.5q15 16 24.5 28t18 23t17 23.5t21.5 30.5q7 6 15 6.5t13 -3t7 -11t-1 -16.5q-24 -39 -55 -86t-70.5 -88t-88 -70t-106.5 -33q-41 -3 -72 8t-52 30t-32 44t-12 52q-2 22 1 39q-28 -29 -57.5 -52
t-51.5 -26q-26 -4 -51 5q-42 -42 -92 -67.5t-104 -23.5q-43 2 -71 37t-28 96q0 60 24.5 124.5t67.5 117t100 86t121 32.5zM153 110q17 -1 38.5 12t43.5 34q-4 17 -3.5 39t7.5 48q2 9 9 28t18.5 38.5t26.5 35t32 18.5q15 2 23 -4q0 4 0.5 7.5t0.5 7.5q0 21 -7.5 31.5
t-27.5 11.5q-18 0 -50 -20t-63 -55.5t-53.5 -83.5t-22.5 -103q0 -14 5.5 -29t22.5 -16zM774 428q-15 0 -37.5 -16t-47.5 -41.5t-49 -59t-40 -67.5q34 9 68 26.5t62 37.5t46.5 39.5t23.5 33.5q1 4 2.5 12t-0.5 16t-8.5 13.5t-19.5 5.5z" />
    <glyph glyph-name="Eth" unicode="&#xd0;" horiz-adv-x="1301" 
d="M498 378q-14 2 -18 10.5t0 18t14.5 17.5t24.5 8h67q46 60 90 122t84.5 118.5t78 103.5t70.5 79q10 10 21 19.5t24 17.5q-42 10 -82.5 19.5t-81.5 17t-85 12t-93 3.5q-59 -1 -104.5 -18t-75.5 -43t-45 -58t-13 -63q1 -18 5.5 -35.5t14.5 -31.5t27.5 -22.5t43.5 -7.5
q10 0 23 1.5t29 7.5t35 18t42 34q7 6 17 -0.5t18.5 -22t12 -38t-1.5 -47.5q-16 -73 -72.5 -117.5t-141.5 -44.5q-55 0 -96 12.5t-70.5 33t-49 47.5t-30.5 56.5t-15.5 58t-4.5 53.5q-1 55 20.5 115t69 110t122.5 82.5t180 33.5q51 0 102 -11t101.5 -28.5t100 -39t99.5 -42.5
q27 -12 54 -15q27 11 57 14t62 -6q27 -8 33.5 -20t-3.5 -23t-33.5 -17t-55.5 -1q-8 1 -14.5 2t-14.5 3q-14 -8 -26 -15.5t-23 -15.5q-4 -2 -7 -5l-7 -7q26 11 53 17.5t56 4.5q76 -6 128 -36.5t81.5 -79t38.5 -110t0.5 -129t-33.5 -137.5t-62.5 -135t-87 -120.5t-108 -95.5
t-124 -59.5t-135.5 -11.5q-45 5 -86 17.5t-72 35t-49.5 56t-18.5 81.5q0 22 6 44.5t17 35t26 12t34 -23.5q26 -32 60.5 -48t85.5 -20q68 -6 128 18.5t110 68t88 101.5t61.5 120.5t31 123.5t-3.5 110.5t-42.5 83t-85.5 39.5q-20 2 -45 -3t-50 -15.5t-47.5 -24.5t-37.5 -29
q-25 -37 -46 -72.5t-35 -58.5q-23 -38 -47 -78t-50 -81h50q12 -3 15 -11t-1 -16.5t-13.5 -16t-21.5 -10.5h-63q-56 -87 -117.5 -168.5t-127 -144t-133 -99.5t-136.5 -35q-27 1 -54 9.5t-49.5 24t-38 37.5t-17.5 49q-1 7 0.5 22t6 29.5t12 24t19.5 5.5q30 -8 59.5 -15
t60.5 -6q49 0 97 21t95.5 57.5t93.5 85t91 103.5h-46v0z" />
    <glyph glyph-name="Lslash" unicode="&#x141;" horiz-adv-x="1061" 
d="M303 456q168 2 336 67q40 62 80.5 122.5t85.5 116.5q22 28 50.5 61.5t60.5 67t66.5 64t69.5 52.5q18 11 41 23t48.5 20.5t51.5 12t49 -0.5q29 -6 42.5 -20t16 -34t-5 -43t-20 -47t-29.5 -47t-33 -42q-53 -59 -114 -117.5t-128 -112.5t-138 -103t-144 -89q-17 -26 -33 -52
t-33 -51l16 3q12 -1 16.5 -8.5t2 -16.5t-10 -18t-19.5 -14l-49 -9q-45 -63 -94 -115q43 -11 92.5 -21t115.5 -15q19 -2 37 -2t35.5 6t33 19.5t29.5 38.5q5 10 8 20t7 18t9.5 12t16.5 1q50 -26 72 -57.5t21 -63.5t-21.5 -62.5t-54.5 -53t-78.5 -35.5t-93.5 -11
q-53 3 -101 12.5t-92.5 23t-85.5 30t-78 33.5q-50 -30 -103.5 -46t-113.5 -13q-48 1 -78 18.5t-42 43.5t-7.5 55.5t24 53.5t54 39.5t82.5 12.5q60 -4 106.5 -10.5t85.5 -15.5q14 12 27.5 25.5l27.5 27.5l-35 -6q-14 -1 -19.5 7t-3 18t11 19.5t22.5 12.5l78 15
q9 11 17.5 22.5t16.5 23.5q-69 -26 -135.5 -40.5t-128.5 -15.5q-47 0 -87.5 10t-70 31t-44.5 52.5t-12 75.5q3 37 16 64t30 44.5t35 26.5t32 12q16 3 23 0t11 -10.5t7 -19.5t10 -27q13 -27 44 -48t65 -21zM825 635q-5 -8 -10 -16.5t-10 -16.5q40 23 79.5 49.5t79.5 56.5
q64 48 122.5 98.5t97.5 93.5t51 72.5t-16 34.5q-26 5 -57 -7t-61.5 -33t-57.5 -45t-43 -43q-88 -100 -175 -244zM158 69q17 0 32.5 2t31.5 6q-27 10 -51 15q-18 3 -27.5 0t-11 -8.5t5 -10t20.5 -4.5z" />
    <glyph glyph-name="lslash" unicode="&#x142;" horiz-adv-x="227" 
d="M62 373q-14 -1 -19.5 7t-3 18t11 19.5t22.5 12.5l59 10l154 249q5 10 24 11.5t39 -2.5t34 -13t10 -19q-1 -3 -11.5 -21t-27.5 -46t-38.5 -62.5t-43.5 -71.5h1q12 -1 16.5 -8.5t2 -16.5t-10 -18t-19.5 -14l-27 -5q-31 -51 -56.5 -93.5t-37.5 -63.5q-14 -25 -26.5 -47.5
t-18.5 -39.5t-4.5 -26.5t14.5 -9.5q18 1 42 22t47 49t42 55t29 39q7 9 15 10.5t14.5 -2t9.5 -11.5t-1 -18q-28 -47 -61.5 -91.5t-68.5 -82.5q-10 -10 -26 -27t-35.5 -32.5t-42.5 -26.5t-46 -10q-21 1 -35 8t-22 17t-12 22.5t-4 24.5q0 27 11 61t26.5 67t31.5 61t25 42l48 78
l-31 -5v0z" />
    <glyph glyph-name="Scaron" unicode="&#x160;" horiz-adv-x="829" 
d="M913 674q-20 -1 -36.5 6.5t-27.5 20.5t-17.5 29.5t-6.5 33.5q-17 2 -35.5 6.5t-37.5 9.5q-18 -54 -18 -111q-3 -54 1 -106t9.5 -99t10 -87.5t3.5 -71.5q0 -83 -28.5 -150.5t-79 -115t-119.5 -72t-150 -22.5q-63 2 -116.5 26t-92 64.5t-60 96t-22.5 120.5q0 55 21.5 108.5
t59 96.5t89.5 70.5t113 30.5q39 2 78.5 -9.5t71.5 -35.5t52 -61t21 -87q0 -38 -13 -75.5t-36.5 -67.5t-55 -49.5t-67.5 -20.5q-28 -2 -47 8.5t-31 24.5t-17 29t-5 24q0 6 2 14t22 7q16 0 31.5 6t28 18.5t20 32t6.5 45.5q0 19 -8.5 35.5t-22 28t-30.5 17t-35 4.5
q-32 -3 -55.5 -21.5t-39 -45t-23.5 -58.5t-9 -62q-2 -37 8 -75t32.5 -68.5t57 -50t81.5 -20.5q51 -1 93 18t72 53.5t47.5 82t19.5 104.5q2 47 -2 93t-9 94.5t-8 100t1 109.5q4 32 12 62t22 59q-45 18 -89.5 37.5t-86 35t-79.5 26t-69 10.5q-27 0 -49.5 -9t-38 -23t-24.5 -32
t-10 -36q-2 -21 7 -37.5t24.5 -28t35.5 -17t41 -4.5q23 0 40.5 9t40.5 23q8 4 15 -3.5t11 -22t2.5 -34.5t-11.5 -40q-28 -58 -85 -84t-128 -9q-47 11 -79 30.5t-52.5 43.5t-31 51.5t-14 54.5t-1.5 51.5t6 43.5q7 36 29 75t59 70t90.5 48.5t124.5 11.5q38 -3 82.5 -21.5
t91.5 -44t95 -55t93 -55.5q38 51 91.5 82.5t115.5 34.5q50 2 86.5 -8.5t60 -30t35.5 -47t12 -59.5q0 -41 -17 -75t-42 -58.5t-54 -38t-53 -12.5zM952 892q6 -7 6 -18t-4.5 -23.5t-12.5 -25.5t-18 -24q-9 -9 -17.5 -16.5t-19.5 -12.5q-2 -14 5.5 -25t22.5 -13q12 -1 28 5
t32 19.5t29 34.5t18 50q3 18 -2.5 35.5t-19 30t-35.5 19.5t-52 6q-45 -2 -79 -29.5t-57 -68.5q36 -15 65 -18q2 13 14.5 32t29.5 33t35 19t32 -10zM880 1154q6 0 10.5 -1.5t5.5 -5t-4.5 -8.5t-20.5 -12q-36 -16 -61 -29.5t-43.5 -25.5t-33 -22.5t-29.5 -20.5
q-14 -10 -19.5 -2t-6.5 13q-5 18 -8.5 30.5t-8.5 22.5t-11.5 17.5t-15.5 15.5q-12 11 -7 19t16 10q33 6 52 3t29.5 -11t15.5 -17t8 -15q31 11 64 24t68 15z" />
    <glyph glyph-name="scaron" unicode="&#x161;" horiz-adv-x="325" 
d="M73 256q-6 -9 -15 -10t-15.5 3.5t-9 13.5t3.5 20q12 19 25.5 41t27.5 45q0 15 1.5 31t5.5 33q4 20 15.5 37.5t26.5 30.5t30.5 19.5t29.5 3.5q25 -5 39 -23t-2 -43q-16 -23 -32 -43t-33 -40q13 -25 27.5 -53.5t25.5 -58.5t16.5 -60.5t-0.5 -59.5q-2 -6 -2 -9q26 20 57 56
t73 96q7 10 16.5 12t16.5 -2.5t9 -13.5t-4 -20q-44 -73 -86.5 -120.5t-80.5 -77t-70 -43t-55 -19.5q-10 -3 -19.5 -4.5t-19.5 -3.5q-35 -3 -57.5 12t-27.5 36t10.5 42.5t56.5 30.5q12 2 22.5 1.5t21.5 -2.5q5 5 8.5 11.5t5.5 13.5q9 28 0 66t-17 85q-6 -8 -12.5 -16.5
t-12.5 -17.5zM411 688q6 0 10.5 -1.5t5.5 -5t-4.5 -8.5t-20.5 -12q-36 -16 -61 -29.5t-43.5 -25.5t-33 -22.5t-29.5 -20.5q-14 -10 -19.5 -2t-6.5 13q-5 18 -8.5 30.5t-8.5 22.5t-11.5 17.5t-15.5 15.5q-12 11 -7 19t16 10q33 6 52 3t29.5 -11t15.5 -17t8 -15q31 11 64 24
t68 15z" />
    <glyph glyph-name="Yacute" unicode="&#xdd;" horiz-adv-x="1076" 
d="M403 -237q-37 1 -75.5 11t-70 29t-52.5 45.5t-24 60.5q-1 9 0.5 27.5t7.5 35.5t17 28.5t28 7.5q42 -11 83 -19t84 -7q76 5 143.5 31.5t127.5 68.5t113.5 96.5t102.5 115.5q-58 -53 -114 -82t-119 -31q-93 -3 -140 32.5t-57 95.5t10.5 136t62.5 154t99.5 149.5
t121.5 122.5q-39 12 -71 24t-64 21t-67.5 14t-82.5 4q-59 -1 -104.5 -18t-76 -43t-45.5 -58t-13 -63q1 -17 5.5 -34.5t15 -32t27.5 -23t43 -7.5q10 0 23 1.5t29 7.5t35.5 18t42.5 34q7 7 17 0.5t18 -22.5t12 -38.5t-2 -47.5q-8 -36 -26.5 -65.5t-46 -51t-63 -33.5t-77.5 -12
q-83 0 -135 27t-81.5 67t-40 85.5t-10.5 81.5q-1 55 21 115t69 110t122 82.5t180 33.5q51 0 94 -9t83.5 -25t82 -36t91.5 -41q28 -14 54 -24q38 22 74.5 33t71.5 9q20 -2 35.5 -10.5t24 -21.5t9 -29t-8.5 -31q-17 -27 -46 -33.5t-64 -0.5q-21 3 -43.5 8.5t-45.5 13.5
q-40 -38 -78.5 -93t-67.5 -116t-44.5 -121.5t-8.5 -107.5t40.5 -75t101.5 -24q76 4 149.5 65t150.5 159q64 94 124.5 173.5t123.5 124.5q11 3 26.5 4.5t28.5 0.5t19 -5.5t-1 -14.5q-36 -30 -81 -91t-97.5 -140.5t-111.5 -171t-123.5 -183t-133.5 -176t-140.5 -149.5
t-144.5 -105t-147 -42zM1102 1042q-8 -5 -19.5 -13.5t-19.5 -11t-8.5 5.5t15.5 38q13 24 34.5 47t50.5 34q23 9 50 10t46 -11q21 -14 17 -22.5t-28 -13.5q-38 -7 -71 -24t-67 -39zM932 905q-14 3 -28.5 -1t-31.5 -13l30 -6q15 -3 28 0t19.5 7.5t3.5 8.5t-21 4z" />
    <glyph glyph-name="yacute" unicode="&#xfd;" horiz-adv-x="481" 
d="M140 454q6 9 25 10.5t38.5 -2.5t34 -12.5t10.5 -18.5q-2 -7 -19 -33t-39 -60t-45 -72t-38 -70t-17.5 -52.5t16.5 -20.5t43 17t46.5 40.5t42 49t31.5 42.5l110 182q5 9 24 10.5t39 -2.5t34 -12.5t10 -18.5q-22 -40 -49.5 -87.5t-59 -99t-66.5 -106.5t-72 -109
q54 29 102 64t86 76q15 15 29 32.5t26.5 34t22.5 30.5t16 22q7 9 15 10.5t14.5 -2t9.5 -11.5t-1 -18q-23 -38 -49 -75t-55 -70q-22 -25 -53 -52t-66 -51.5t-72 -46t-70 -35.5l-32 -14q-47 -63 -94.5 -117.5t-94.5 -97.5q-15 -13 -35 -27.5t-43 -25.5t-46.5 -15.5t-45.5 2.5
q-23 8 -36 21.5t-15 38.5q-2 36 20 69t55 60.5t70.5 48t67.5 32.5q26 10 49 18.5t45 17.5q17 23 32.5 46.5t30.5 47.5q-21 -19 -46.5 -32.5t-51.5 -12.5q-21 1 -35 8t-22 17t-12 22.5t-4 24.5q-1 35 11.5 72t29.5 66zM261 550q-8 -5 -19.5 -13.5t-19.5 -11t-8.5 5.5t15.5 38
q13 24 34.5 47t50.5 34q23 9 50 10t46 -11q21 -14 17 -22.5t-28 -13.5q-38 -7 -71 -24t-67 -39zM-160 -277q0 -10 8.5 -6.5t21.5 14t28.5 25t28 27.5t20.5 21t7 6q2 0 2 2q-48 -29 -81.5 -53t-34.5 -36z" />
    <glyph glyph-name="Zcaron" unicode="&#x17d;" horiz-adv-x="1023" 
d="M1021 843q-34 -29 -73 -71t-77.5 -89t-73.5 -95t-61 -88q-66 -103 -136.5 -202t-151.5 -177q38 -10 82.5 -18t104.5 -13q18 -2 44.5 -2t54.5 6t54 19t44 38q6 10 10.5 20.5t9.5 18.5t11.5 11.5t16.5 0.5q46 -26 63.5 -57.5t11.5 -63.5t-31 -62.5t-62 -53t-83.5 -35.5
t-95.5 -11q-53 3 -103 12t-98 22.5t-92.5 29.5t-84.5 32q-55 -30 -115 -45t-128 -10q-48 1 -75 18.5t-35.5 43.5t0.5 55.5t32.5 53.5t60 39.5t83.5 12.5q60 -4 105.5 -10.5t83.5 -15.5q45 34 88.5 79t86.5 96t86.5 107t87.5 112q44 54 87 107t88 101q27 29 51.5 53t46.5 43
q6 5 13 10.5t15 10.5q-38 13 -74.5 25t-74 22t-77 15.5t-84.5 5.5q-60 -1 -107.5 -18t-82 -43t-54 -58t-22.5 -63q-2 -18 0 -35.5t10.5 -31.5t24.5 -22.5t42 -7.5q10 0 23.5 1.5t30 7.5t37.5 18t47 34q8 6 17.5 -0.5t15.5 -22t6 -38t-9 -47.5q-13 -36 -36 -66t-54 -51.5
t-68.5 -33t-79.5 -11.5q-83 0 -131 27t-71 66.5t-27 85t1 82.5q7 55 37.5 115t85.5 110t134.5 82.5t184.5 33.5q52 0 101 -11t97 -28.5t94.5 -39t92.5 -42.5l41 -20q39 19 81 30t81 8q20 -2 34.5 -10.5t21 -21.5t5 -29t-13.5 -31q-20 -27 -50.5 -33.5t-63.5 -0.5
q-23 4 -47 10.5t-48 14.5zM1122 1154q6 0 10.5 -1.5t5.5 -5t-4.5 -8.5t-20.5 -12q-36 -16 -61 -29.5t-43.5 -25.5t-33 -22.5t-29.5 -20.5q-14 -10 -19.5 -2t-6.5 13q-5 18 -8.5 30.5t-8.5 22.5t-11.5 17.5t-15.5 15.5q-12 11 -7 19t16 10q33 6 52 3t29.5 -11t15.5 -17t8 -15
q31 11 64 24t68 15zM1169 905q-14 -2 -28.5 -6t-29.5 -9q6 -2 12 -3l12 -2q15 -3 29 0t21 7.5t4.5 8.5t-20.5 4zM97 69q13 0 25 1.5t25 3.5q-18 6 -37 9q-18 3 -27.5 1.5t-10.5 -5.5t5 -7t20 -3z" />
    <glyph glyph-name="zcaron" unicode="&#x17e;" horiz-adv-x="383" 
d="M200 101q1 -19 0 -37q37 23 69.5 49.5t59.5 55.5q15 15 29 32.5t26.5 34t22.5 30.5t16 22q7 9 15 10.5t14.5 -2t9.5 -11.5t-1 -18q-23 -38 -49 -75t-55 -70q-31 -35 -76.5 -71.5t-95.5 -66.5q-16 -51 -47.5 -96.5t-72 -84.5t-86.5 -69.5t-93 -51t-91 -31t-79 -7.5
q-27 2 -43.5 18.5t-18.5 39.5q-2 36 21 69.5t57.5 62t73 49.5t68.5 33q54 26 100.5 42.5t94.5 36.5q27 58 30 116v8t-1 9q-10 1 -19 2t-17 4q-17 6 -25.5 22t3.5 29q18 20 45 22t52 -8q32 28 53.5 65.5t44.5 81.5q12 23 3 36t-29 11l-42 -5l-14 -20q-9 -12 -20.5 -27.5
t-23 -32t-22 -32t-18.5 -26.5q-7 -9 -16 -8.5t-15.5 5.5t-9 14t3.5 18t15 21.5t19 27t21 30t22 29.5q-18 7 -19 25.5t8.5 36.5t26.5 30.5t34 7.5q21 -7 26.5 -20t2.5 -30q19 3 41.5 7.5t44.5 9.5q17 4 38.5 4t39 -7t27.5 -22.5t4 -40.5q-7 -30 -25.5 -65t-44.5 -68t-58 -61
t-65 -45q5 -11 7 -23.5t3 -24.5zM462 662q6 0 10.5 -1.5t5.5 -5t-4.5 -8.5t-20.5 -12q-36 -16 -61 -29.5t-43.5 -25.5t-33 -22.5t-29.5 -20.5q-14 -10 -19.5 -2t-6.5 13q-5 18 -8.5 30.5t-8.5 22.5t-11.5 17.5t-15.5 15.5q-12 11 -7 19t16 10q33 6 52 3t29.5 -11t15.5 -17
t8 -15q31 11 64 24t68 15zM-94 -190q61 38 105 91q-38 -17 -81 -37.5t-83 -44.5q-69 -42 -87.5 -61t-3 -18t57 19.5t92.5 50.5z" />
    <glyph glyph-name="germandbls" unicode="&#xdf;" horiz-adv-x="437" 
d="M-51 -69q-17 -19 -46 -30t-56 -10t-44.5 14.5t-9.5 44.5q43 31 83 87.5t79.5 122t80 132.5t82.5 121t87.5 87.5t96.5 30.5q60 -3 89 -31t30 -64t-25.5 -72t-78.5 -56q22 -18 34.5 -41t19 -49.5t7 -54.5t-1.5 -55q-5 -50 -30.5 -94t-64 -75t-85.5 -47t-94 -11
q-24 3 -44 13.5t-31 28t-10.5 41t17.5 50.5q43 -11 79.5 3.5t64 43.5t45 67t22 75t-5.5 67.5t-36 43.5q29 15 58.5 42.5t49 55t25.5 48t-11 21.5q-26 1 -51 -24.5t-51 -69.5t-54 -101t-61 -118.5t-72.5 -123t-86.5 -113.5z" />
    <glyph glyph-name="sterling" unicode="&#xa3;" horiz-adv-x="1061" 
d="M375 198q-14 2 -18 10.5t0 18t14.5 17.5t24.5 8h59q14 17 26.5 34t26.5 36q-69 -26 -135.5 -40.5t-128.5 -15.5q-47 0 -87.5 10t-70 31t-44.5 52.5t-12 75.5q3 37 16 64t30 44.5t35 26.5t32 12q16 3 23 0t11 -10.5t7 -19.5t10 -27q13 -27 44 -48t65 -21q168 2 336 67
q40 62 80.5 122.5t85.5 116.5q22 28 50.5 61.5t60.5 67t66.5 64t69.5 52.5q18 11 41 23t48.5 20.5t51.5 12t49 -0.5q29 -6 42.5 -20t16 -34t-5 -43t-20 -47t-29.5 -47t-33 -42q-53 -59 -114 -117.5t-128 -112.5t-138 -103t-144 -89q-25 -41 -50 -79.5t-52 -75.5h56
q12 -3 15 -11t-1 -16.5t-13.5 -16t-21.5 -10.5h-75q-15 -20 -30.5 -37.5t-31.5 -34.5q43 -11 92.5 -21t115.5 -15q19 -2 37 -2t35.5 6t33 19.5t29.5 38.5q5 10 8 20t7 18t9.5 12t16.5 1q50 -26 72 -57.5t21 -63.5t-21.5 -62.5t-54.5 -53t-78.5 -35.5t-93.5 -11
q-53 3 -101 12.5t-92.5 23t-85.5 30t-78 33.5q-50 -30 -103.5 -46t-113.5 -13q-48 1 -78 18.5t-42 43.5t-7.5 55.5t24 53.5t54 39.5t82.5 12.5q60 -4 106.5 -10.5t85.5 -15.5q11 9 21.5 19.5l21.5 21.5h-33zM825 635q-5 -8 -10 -16.5t-10 -16.5q40 23 79.5 49.5t79.5 56.5
q64 48 122.5 98.5t97.5 93.5t51 72.5t-16 34.5q-26 5 -57 -7t-61.5 -33t-57.5 -45t-43 -43q-88 -100 -175 -244zM158 69q17 0 32.5 2t31.5 6q-27 10 -51 15q-18 3 -27.5 0t-11 -8.5t5 -10t20.5 -4.5z" />
    <glyph glyph-name="cent" unicode="&#xa2;" horiz-adv-x="405" 
d="M179 -55q0 14 -0.5 25.5t-0.5 23.5l-16 -2q-41 -3 -72 8t-52 30t-32 44t-12 52q-3 48 12 94t40.5 87t60 76.5t70.5 62.5q0 19 -0.5 40t-0.5 46q0 13 9.5 21.5t21 9t20.5 -7.5t9 -26v-52q19 6 39 10t40 4q43 0 71.5 -24t27.5 -67q-1 -23 -12 -45.5t-28 -40.5t-39.5 -29.5
t-46.5 -13.5q-11 -1 -18.5 3.5t-9.5 11.5t1.5 14t14.5 11q33 8 50 27t28 50q1 4 2 11t-1.5 13.5t-9.5 11t-20 4.5q-16 0 -39.5 -18t-48.5 -47q0 -45 -0.5 -75.5t-1 -58.5t-1 -60t-0.5 -81l28 13q30 16 55.5 38.5t49.5 48.5q15 16 24.5 28t18 23t17 23.5t21.5 30.5
q7 6 15 6.5t13 -3t7 -11t-1 -16.5q-20 -33 -45 -71.5t-55.5 -75t-67 -67t-79.5 -47.5v-30.5t1 -34.5q0 -16 -9 -25t-19.5 -10t-19.5 8t-9 29zM133 157q-3 -35 5 -58.5t39 -25.5v67.5v53.5v44v41q-18 -31 -30 -62.5t-14 -59.5z" />
    <glyph glyph-name="AE" unicode="&#xc6;" horiz-adv-x="2570" 
d="M771 187q-12 -8 -22 -5t-17 12t-11 22.5t-4 27.5q-75 -65 -151.5 -122t-149.5 -98.5t-140.5 -65t-124.5 -21.5q-26 1 -52.5 9t-48 23t-35 37t-14.5 49q1 7 6 22t13.5 29.5t18.5 24t21 5.5q28 -8 55 -15t58 -6q53 0 116 23.5t132 63.5t141.5 92.5t145 111.5t142.5 120
t133.5 117t119 104t98.5 80l18 13q-54 12 -105 28.5t-102.5 31t-104 24.5t-108.5 9q-59 -1 -104.5 -18t-75.5 -43t-45 -58t-13 -63q1 -18 5.5 -35.5t14.5 -31.5t27.5 -22.5t43.5 -7.5q10 0 23 1.5t29 7.5t35 18t42 34q7 6 17 -0.5t18.5 -22t12 -38t-1.5 -47.5
q-16 -73 -73 -117.5t-141 -45.5q-83 0 -134.5 28.5t-80.5 69t-40 86t-12 78.5q-2 49 20 108.5t69.5 110.5t122.5 85.5t180 35.5q58 1 120 -13t125 -35t125 -45.5t121 -46.5q6 0 9 -1l18 -9l23 -8l3 1q36 15 75.5 28t76.5 6q11 -2 21.5 -8t18.5 -15q22 29 52 54.5t68 44.5
t83.5 30t98.5 10q72 -1 135 -15t118.5 -35t104.5 -47.5t93 -52.5q63 35 136.5 54t155.5 14q97 -7 150.5 -37t52.5 -77q0 -30 -18 -53.5t-49 -39.5t-72.5 -25t-87.5 -10q-61 -2 -126.5 17.5t-136.5 46.5q-49 -39 -76 -87t-31 -95q-1 -7 -1 -13v-13q4 0 7.5 0.5t7.5 0.5
q58 0 91.5 -13.5t47 -32.5t7.5 -40t-26.5 -36.5t-55 -22t-78.5 4.5q-56 13 -89 44q-42 -15 -75 -41t-55 -58.5t-32.5 -69t-7.5 -73.5q3 -54 30 -92.5t64.5 -63.5t78.5 -37t72 -12q143 -3 270 63t227 196q7 9 15.5 10.5t15 -2t9.5 -11.5t-1 -18q-46 -76 -106 -145.5
t-133.5 -121.5t-159.5 -80.5t-184 -23.5q-85 4 -154 32.5t-116 74.5t-71 106t-19 128q3 48 26 95.5t61.5 89.5t90.5 75.5t114 52.5q-5 31 2 65t24.5 69.5t45 70t62.5 66.5q-43 17 -86.5 32.5t-88 27.5t-89 18t-89.5 5q-35 -2 -61 -16.5t-43 -34.5t-25.5 -41t-9.5 -34
q-1 -18 0 -36t7.5 -34t20 -28t39.5 -17q10 -2 23 -3.5t30 1t38.5 10t48.5 23.5q9 5 17 -3.5t12.5 -25.5t3.5 -40t-12 -46q-32 -68 -97 -98.5t-148 -12.5q-81 18 -125 57t-63 85t-19.5 92t5.5 79q0 2 2 10q-34 -10 -60 -4q-23 4 -43 15q-52 -56 -93 -121.5t-71 -132t-50 -130
t-30 -115.5q0 -5 -2 -9q-6 -36 -8 -64t0 -45q5 -42 26.5 -66t46.5 -24t47.5 11.5t44 31t42 44t41.5 51.5q14 19 25 34.5t18 23.5q7 9 15 10.5t15 -2t10 -11.5t-1 -18q-18 -30 -41 -62l-11 -14q-29 -41 -66 -88t-78.5 -87t-86.5 -66.5t-91 -25.5q-41 1 -65.5 20t-38 44.5
t-17.5 52t-4 43.5q2 52 13.5 106.5t31.5 110.5q-41 -10 -80.5 -44t-88.5 -73zM2491 864q-48 -1 -90 -9.5t-78 -23.5q48 -26 93 -43t90 -15q78 3 115.5 18t35.5 32t-43.5 29.5t-122.5 11.5zM1035 563q-46 -54 -98.5 -109t-109.5 -109q66 30 136 17q27 63 61 124.5t72 117.5
t79 106t80 89q-26 -19 -57 -50.5t-61.5 -66t-57 -67t-44.5 -52.5zM1402 873q-17 -1 -34 -5.5t-35 -12.5l16 -4t17 -4q18 1 32 5.5t21 9t4 8t-21 3.5zM2164 483q25 -3 40.5 -0.5t15.5 6.5t-17.5 7t-58.5 0q7 -11 20 -13z" />
    <glyph glyph-name="Oslash" unicode="&#xd8;" horiz-adv-x="1416" 
d="M584 -49q-34 21 -63.5 50.5t-51.5 68.5t-33 88.5t-8 110.5q3 79 28.5 152.5t67.5 139t98 121t119 98.5q50 34 116 65q-50 13 -99 28.5t-98 29t-99 22.5t-102 8q-59 -1 -104.5 -18t-76 -43t-45.5 -58t-13 -63q1 -18 5.5 -35.5t15 -31.5t27.5 -22.5t43 -7.5q10 0 23 1.5
t29 7.5t35.5 18t42.5 34q7 6 17 -0.5t18 -22t12 -38t-2 -47.5q-16 -73 -72.5 -117.5t-140.5 -45.5q-83 0 -134.5 28.5t-80.5 69t-40 86t-12 78.5q-2 49 20 108.5t69.5 110.5t122.5 85.5t180 35.5q61 1 126.5 -14t132 -38t132 -49.5t126.5 -48.5q15 6 31 9.5t31.5 5t28 0
t19.5 -6.5q10 -10 9 -19q-5 -23 -32.5 -38t-58.5 -18q-61 -37 -117 -89.5t-99.5 -119t-72.5 -145.5t-36 -169q-6 -70 9.5 -123.5t50.5 -88.5l470 711q-78 -6 -146 -42.5t-124 -93.5t-99 -130.5t-71 -153.5q-5 -10 -12.5 -13.5t-14.5 -1.5t-11 9t-1 18q9 44 31 96t56 105
t79.5 102.5t101.5 88t121 62.5t138 26l25 38q9 13 27.5 21t35 9t24.5 -6t-4 -24l-30 -45q94 -19 147 -96t49 -217q-3 -81 -28.5 -162t-69.5 -155.5t-106 -139t-137 -112t-162 -74t-182 -25.5q-31 1 -69 8.5t-77 24.5q-13 -10 -29 -15.5t-27.5 -4.5t-15.5 8.5t6 23.5z
M1390 565q1 58 -10 99.5t-32 70t-51.5 44.5t-67.5 22l-496 -747q44 -22 108 -25q73 -3 141.5 18t129.5 60t111.5 92t87 113.5t57.5 125.5t22 127z" />
    <glyph glyph-name="fi" unicode="&#xfb01;" horiz-adv-x="543" 
d="M40 102q-17 -28 -35 -58t-38 -62q45 15 99.5 47.5t108 73.5t101 85.5t77.5 83.5l105 182q6 9 25 10.5t39 -2.5t34 -12.5t10 -18.5q0 -7 -15 -33t-36.5 -60.5t-44 -72.5t-38.5 -70t-20 -52.5t12 -19.5q18 1 42 22.5t47 49t42 54.5t29 39q7 9 15.5 10.5t15 -2t9.5 -11.5
t-1 -18q-29 -47 -62 -91.5t-68 -82.5q-10 -10 -26 -27t-36 -32.5t-42.5 -26.5t-45.5 -10q-21 1 -35 7t-22.5 15t-12 20.5t-4.5 23.5q-2 11 1.5 25t8.5 31q-33 -32 -70.5 -62.5t-77.5 -57.5t-81 -49t-81 -36q-4 -1 -7 -2l-6 -2q0 -26 -5 -58t-14.5 -66t-24.5 -66t-34.5 -57.5
t-43.5 -41.5t-52 -17q-39 -2 -55.5 17t-16.5 50.5t14 71.5t37 81q35 63 76.5 137t87 152t93.5 156.5t96 151.5t94.5 136.5t88.5 111.5t78.5 76.5t65.5 30.5q12 1 24 -1.5t22 -9t15.5 -17.5t5.5 -27q-1 -31 -21.5 -78t-55 -103t-80.5 -116.5t-98 -119t-106.5 -111
t-106.5 -91.5zM558 656q10 15 23 25.5t27 15t28 3.5t26 -8q24 -16 27 -48.5t-17 -62.5q-10 -15 -23 -25t-27 -14.5t-28 -3.5t-26 9q-25 16 -27.5 47.5t17.5 61.5zM347 586q-16 -20 -33.5 -45.5t-39.5 -59t-50 -78.5t-64 -104q37 42 75.5 87.5t73 90t63.5 84t48.5 70
t27.5 48.5t0 19q-9 1 -20.5 -9t-25 -26.5t-27.5 -37t-28 -39.5zM-160 -270q11 17 20.5 40.5t14.5 60.5l-21 -33q-5 -8 -13 -23t-15.5 -31.5t-13 -30t-5.5 -18.5t7.5 2t25.5 33z" />
    <glyph glyph-name="fl" unicode="&#xfb02;" horiz-adv-x="551" 
d="M610 689q5 10 24 11.5t39 -2.5t34 -13t10 -19q-1 -4 -17 -31t-40.5 -67.5t-54 -88t-57 -93t-50 -83t-33.5 -57.5q-14 -25 -26.5 -47.5t-18.5 -39.5t-4.5 -26.5t14.5 -9.5q18 1 42 22t47 49t42 55t29 39q7 9 15 10.5t14.5 -2t9.5 -11.5t-1 -18q-28 -47 -61.5 -91.5
t-68.5 -82.5q-10 -10 -26 -27t-35.5 -32.5t-42.5 -26.5t-46 -10q-21 1 -35 8t-22 17t-12 22.5t-4 24.5q0 24 9 56q-33 -33 -71.5 -64.5t-79 -59.5t-82 -50.5t-82.5 -36.5q-4 -1 -7 -2l-6 -2q0 -26 -5 -58t-14.5 -66t-24.5 -66t-34.5 -57.5t-43.5 -41.5t-52 -17
q-39 -2 -55.5 17t-16.5 50.5t14 71.5t37 81q35 63 76.5 137t87 152t93.5 156.5t96 151.5t94.5 136.5t88.5 111.5t78.5 76.5t65.5 30.5q12 1 24 -1.5t22 -9t15.5 -17.5t5.5 -27q-1 -31 -21.5 -78t-55 -103t-80.5 -116.5t-98 -119t-106.5 -111t-106.5 -91.5q-17 -28 -35 -58
t-38 -62q44 15 97.5 46.5t106 71.5t99.5 84t79 83l20 33zM347 586q-16 -20 -33.5 -45.5t-39.5 -59t-50 -78.5t-64 -104q37 42 75.5 87.5t73 90t63.5 84t48.5 70t27.5 48.5t0 19q-9 1 -20.5 -9t-25 -26.5t-27.5 -37t-28 -39.5zM-160 -270q11 17 20.5 40.5t14.5 60.5l-21 -33
q-5 -8 -13 -23t-15.5 -31.5t-13 -30t-5.5 -18.5t7.5 2t25.5 33z" />
    <glyph glyph-name="periodcentered" unicode="&#xb7;" horiz-adv-x="220" 
d="M43 340q9 29 34 52t54 29q26 5 39 -10t3 -45q-9 -29 -34.5 -53t-54.5 -31q-26 -6 -39 10t-2 48z" />
    <glyph glyph-name="quotesinglbase" unicode="&#x201a;" horiz-adv-x="220" 
d="M94 -50q-17 -8 -29 -7.5t-12 9.5q0 6 7.5 12.5t17 14.5t18 17.5t10.5 21.5q0 7 -2.5 14.5t-4.5 16t-1 18t10 21.5q13 17 36 30.5t48 15.5q41 2 45.5 -20t-17.5 -54q-23 -34 -57.5 -65t-68.5 -45z" />
    <glyph glyph-name="quotedblbase" unicode="&#x201e;" horiz-adv-x="390" 
d="M94 -50q-17 -8 -29 -7.5t-12 9.5q0 6 7.5 12.5t17 14.5t18 17.5t10.5 21.5q0 7 -2.5 14.5t-4.5 16t-1 18t10 21.5q13 17 36 30.5t48 15.5q41 2 45.5 -20t-17.5 -54q-23 -34 -57.5 -65t-68.5 -45zM265 -50q-17 -8 -29 -7.5t-12 9.5q0 6 7.5 12.5t17 14.5t18 17.5
t10.5 21.5q0 7 -2.5 14.5t-4.5 16t-1 18t10 21.5q13 17 36 30.5t48 15.5q41 2 45.5 -20t-17.5 -54q-23 -34 -57.5 -65t-68.5 -45z" />
    <glyph glyph-name="perthousand" unicode="&#x2030;" horiz-adv-x="1148" 
d="M391 88q5 31 30 70.5t62 74.5t83 58.5t94 23.5q42 0 56.5 -20t9.5 -55q-8 -46 -33.5 -90.5t-61 -79.5t-75.5 -58t-76 -25q-21 -2 -40 1.5t-32 14.5t-18.5 31.5t1.5 53.5zM638 267q-15 1 -34.5 -8t-38.5 -24.5t-37 -35t-30 -38.5q-13 -19 -19.5 -36.5t-6.5 -31t6.5 -22
t21.5 -8.5t35 10.5t41.5 29.5t41 46t33.5 60q8 20 6.5 38t-19.5 20zM211 469q5 31 30 70.5t62 74.5t83 58.5t94 23.5q42 0 56.5 -20t9.5 -55q-7 -46 -33 -90.5t-61 -79.5t-75.5 -58t-76.5 -25q-21 -2 -40 1.5t-32 14.5t-18.5 31.5t1.5 53.5zM458 648q-15 1 -34.5 -8
t-38.5 -24.5t-37 -35t-30 -38.5q-13 -19 -19.5 -36.5t-6.5 -31t6.5 -22t21.5 -8.5t35 10.5t41.5 29.5t41 46t33.5 60q8 20 6.5 38t-19.5 20zM174 26q59 73 104 131.5t83.5 110t73.5 100t73 100t83.5 110t104.5 131.5q10 11 27.5 18.5t31.5 8.5t20.5 -5.5t-6.5 -21.5
q-59 -73 -104.5 -131.5t-84 -110t-73.5 -99t-73.5 -99t-84 -110t-104.5 -131.5q-12 -13 -29.5 -21t-31 -9.5t-18.5 5t8 23.5zM720 88q5 31 30 70.5t62 74.5t83 58.5t94 23.5q42 0 56.5 -20t9.5 -55q-8 -46 -33.5 -90.5t-61 -79.5t-75.5 -58t-76 -25q-21 -2 -40 1.5t-32 14.5
t-18.5 31.5t1.5 53.5zM967 267q-15 1 -34.5 -8t-38.5 -24.5t-37 -35t-30 -38.5q-13 -19 -19.5 -36.5t-6.5 -31t6.5 -22t21.5 -8.5t35 10.5t41.5 29.5t41 46t33.5 60q8 20 6.5 38t-19.5 20z" />
    <glyph glyph-name="ellipsis" unicode="&#x2026;" horiz-adv-x="660" 
d="M89 57q9 29 34 52t54 29q26 5 39 -10t3 -45q-9 -29 -34.5 -53t-54.5 -31q-26 -6 -39 10t-2 48zM309 57q9 29 34 52t54 29q26 5 39 -10t3 -45q-9 -29 -34.5 -53t-54.5 -31q-26 -6 -39 10t-2 48zM529 57q9 29 34 52t54 29q26 5 39 -10t3 -45q-9 -29 -34.5 -53t-54.5 -31
q-26 -6 -39 10t-2 48z" />
    <glyph glyph-name="florin" unicode="&#x192;" horiz-adv-x="324" 
d="M40 102q-17 -28 -35 -58t-38 -62q47 16 104.5 51t113.5 78.5t104 90.5t76 86q7 9 15 10.5t15 -2t10 -11.5t-1 -18q-25 -41 -71.5 -92.5t-106 -102t-126 -93.5t-131.5 -65q-4 -1 -7 -2l-6 -2q0 -26 -5 -58t-14.5 -66t-24.5 -66t-34.5 -57.5t-43.5 -41.5t-52 -17
q-39 -2 -55.5 17t-16.5 50.5t14 71.5t37 81q35 63 76.5 137t87 152t93.5 156.5t96 151.5t94.5 136.5t88.5 111.5t78.5 76.5t65.5 30.5q12 1 24 -1.5t22 -9t15.5 -17.5t5.5 -27q-1 -31 -21.5 -78t-55 -103t-80.5 -116.5t-98 -119t-106.5 -111t-106.5 -91.5zM347 586
q-16 -20 -33.5 -45.5t-39.5 -59t-50 -78.5t-64 -104q37 42 75.5 87.5t73 90t63.5 84t48.5 70t27.5 48.5t0 19q-9 1 -20.5 -9t-25 -26.5t-27.5 -37t-28 -39.5zM-160 -270q11 17 20.5 40.5t14.5 60.5l-21 -33q-5 -8 -13 -23t-15.5 -31.5t-13 -30t-5.5 -18.5t7.5 2t25.5 33z
" />
    <glyph glyph-name="Amacron" unicode="&#x100;" horiz-adv-x="1312" 
d="M771 187q-12 -8 -22 -5t-17 12t-11 22.5t-4 27.5q-75 -65 -151.5 -122t-149.5 -98.5t-140.5 -65t-124.5 -21.5q-26 1 -52.5 9t-48 23t-35 37t-14.5 49q1 7 6 22t13.5 29.5t18.5 24t21 5.5q28 -8 55 -15t58 -6q53 0 116 23.5t132 63.5t141.5 92.5t145 111.5t142.5 120
t133.5 117t119 104t98.5 80l18 13q-54 12 -105 28.5t-102.5 31t-104 24.5t-108.5 9q-59 -1 -104.5 -18t-75.5 -43t-45 -58t-13 -63q1 -18 5.5 -35.5t14.5 -31.5t27.5 -22.5t43.5 -7.5q10 0 23 1.5t29 7.5t35 18t42 34q7 6 17 -0.5t18.5 -22t12 -38t-1.5 -47.5
q-16 -73 -73 -117.5t-141 -45.5q-83 0 -134.5 28.5t-80.5 69t-40 86t-12 78.5q-2 49 20 108.5t69.5 110.5t122.5 85.5t180 35.5q58 1 120 -13t125 -35t125 -45.5t121 -46.5q6 0 9 -1l18 -9l23 -8l3 1q36 15 75.5 28t76.5 6q14 -3 27 -12t21.5 -21.5t9 -28t-10.5 -30.5
q-20 -28 -55.5 -38.5t-64.5 -5.5q-23 4 -43 15q-52 -56 -93 -121.5t-71 -132t-50 -130t-30 -115.5q0 -5 -2 -9q-6 -36 -8 -64t0 -45q5 -42 26.5 -66t46.5 -24t47.5 11.5t44 31t42 44t41.5 51.5q14 19 25 34.5t18 23.5q7 9 15 10.5t15 -2t10 -11.5t-1 -18q-18 -30 -41 -62
l-11 -14q-29 -41 -66 -88t-78.5 -87t-86.5 -66.5t-91 -25.5q-41 1 -65.5 20t-38 44.5t-17.5 52t-4 43.5q2 52 13.5 106.5t31.5 110.5q-41 -10 -80.5 -44t-88.5 -73zM1133 1045q-11 -2 -19 -1.5t-6 8.5q4 16 3.5 28t-1 20t1 12.5t10.5 6.5q23 4 55 2.5t66.5 -4.5t68.5 -4.5
t61 2.5q16 2 20.5 1t2.5 -12q-2 -17 -1.5 -29t0.5 -20t-2 -12t-11 -4q-24 -3 -56 -1t-66 5t-67.5 4.5t-59.5 -2.5zM1035 563q-46 -54 -98.5 -109t-109.5 -109q66 30 136 17q27 63 61 124.5t72 117.5t79 106t80 89q-26 -19 -57 -50.5t-61.5 -66t-57 -67t-44.5 -52.5z
M1402 873q-17 -1 -34 -5.5t-35 -12.5l16 -4t17 -4q18 1 32 5.5t21 9t4 8t-21 3.5z" />
    <glyph glyph-name="amacron" unicode="&#x101;" horiz-adv-x="502" 
d="M225 60q0 6 0.5 12t1.5 13q-16 -17 -31.5 -32.5t-32.5 -27t-35.5 -18t-39.5 -6.5q-43 1 -67.5 31.5t-26.5 90.5q-1 38 10 80t31.5 83t49.5 78.5t64 65t74.5 43t80.5 13.5q10 0 23 -3.5t25.5 -12.5t22 -25t11.5 -42l30 51q6 9 25 10.5t39 -2.5t34 -12.5t10 -18.5
q-2 -7 -19 -33t-39 -60.5t-45 -72.5t-38 -70t-17.5 -52.5t16.5 -19.5q12 0 27 10.5t30.5 26t31.5 34.5t29.5 37t24.5 33.5t17 23.5q7 9 15.5 10.5t15 -2t9.5 -11.5t-1 -18q-29 -47 -62 -91.5t-68 -82.5q-10 -10 -26 -27t-35.5 -32.5t-42.5 -26.5t-46 -10q-43 2 -59 20.5
t-17 42.5zM156 120q7 0 20.5 8t30 21.5t35 32t36.5 41.5l42 71q1 1 1.5 1t1.5 2l-3 -3l7 12q5 12 8 30.5t2 35.5t-7.5 30t-20.5 14q-11 1 -34.5 -11t-50 -39t-52 -69.5t-40.5 -103.5q-3 -10 -4.5 -23t0 -24.5t8 -19t20.5 -6.5zM288 553q-11 -2 -19 -1.5t-6 8.5q4 16 3.5 28
t-1 20t1 12.5t10.5 6.5q23 4 55 2.5t66.5 -4.5t68.5 -4.5t61 2.5q16 2 20.5 1t2.5 -12q-2 -17 -1.5 -29t0.5 -20t-2 -12t-11 -4q-24 -3 -56 -1t-66 5t-67.5 4.5t-59.5 -2.5z" />
    <glyph glyph-name="Abreve" unicode="&#x102;" horiz-adv-x="1312" 
d="M771 187q-12 -8 -22 -5t-17 12t-11 22.5t-4 27.5q-75 -65 -151.5 -122t-149.5 -98.5t-140.5 -65t-124.5 -21.5q-26 1 -52.5 9t-48 23t-35 37t-14.5 49q1 7 6 22t13.5 29.5t18.5 24t21 5.5q28 -8 55 -15t58 -6q53 0 116 23.5t132 63.5t141.5 92.5t145 111.5t142.5 120
t133.5 117t119 104t98.5 80l18 13q-54 12 -105 28.5t-102.5 31t-104 24.5t-108.5 9q-59 -1 -104.5 -18t-75.5 -43t-45 -58t-13 -63q1 -18 5.5 -35.5t14.5 -31.5t27.5 -22.5t43.5 -7.5q10 0 23 1.5t29 7.5t35 18t42 34q7 6 17 -0.5t18.5 -22t12 -38t-1.5 -47.5
q-16 -73 -73 -117.5t-141 -45.5q-83 0 -134.5 28.5t-80.5 69t-40 86t-12 78.5q-2 49 20 108.5t69.5 110.5t122.5 85.5t180 35.5q58 1 120 -13t125 -35t125 -45.5t121 -46.5q6 0 9 -1l18 -9l23 -8l3 1q36 15 75.5 28t76.5 6q14 -3 27 -12t21.5 -21.5t9 -28t-10.5 -30.5
q-20 -28 -55.5 -38.5t-64.5 -5.5q-23 4 -43 15q-52 -56 -93 -121.5t-71 -132t-50 -130t-30 -115.5q0 -5 -2 -9q-6 -36 -8 -64t0 -45q5 -42 26.5 -66t46.5 -24t47.5 11.5t44 31t42 44t41.5 51.5q14 19 25 34.5t18 23.5q7 9 15 10.5t15 -2t10 -11.5t-1 -18q-18 -30 -41 -62
l-11 -14q-29 -41 -66 -88t-78.5 -87t-86.5 -66.5t-91 -25.5q-41 1 -65.5 20t-38 44.5t-17.5 52t-4 43.5q2 52 13.5 106.5t31.5 110.5q-41 -10 -80.5 -44t-88.5 -73zM1341 1163q7 10 17.5 14.5t19 3.5t12.5 -7t-1 -16q-3 -6 -7.5 -13t-10.5 -15q-35 -48 -80.5 -72t-86.5 -26
q-42 -2 -73.5 19.5t-38.5 66.5q-5 29 11 56q5 7 13 10t15 3t11.5 -4t2.5 -10q-5 -23 0.5 -37t17.5 -22t28.5 -10.5t33.5 -0.5q13 1 29 5.5t32 12t30.5 18t24.5 24.5zM1035 563q-46 -54 -98.5 -109t-109.5 -109q66 30 136 17q27 63 61 124.5t72 117.5t79 106t80 89
q-26 -19 -57 -50.5t-61.5 -66t-57 -67t-44.5 -52.5zM1402 873q-17 -1 -34 -5.5t-35 -12.5l16 -4t17 -4q18 1 32 5.5t21 9t4 8t-21 3.5z" />
    <glyph glyph-name="abreve" unicode="&#x103;" horiz-adv-x="502" 
d="M225 60q0 6 0.5 12t1.5 13q-16 -17 -31.5 -32.5t-32.5 -27t-35.5 -18t-39.5 -6.5q-43 1 -67.5 31.5t-26.5 90.5q-1 38 10 80t31.5 83t49.5 78.5t64 65t74.5 43t80.5 13.5q10 0 23 -3.5t25.5 -12.5t22 -25t11.5 -42l30 51q6 9 25 10.5t39 -2.5t34 -12.5t10 -18.5
q-2 -7 -19 -33t-39 -60.5t-45 -72.5t-38 -70t-17.5 -52.5t16.5 -19.5q12 0 27 10.5t30.5 26t31.5 34.5t29.5 37t24.5 33.5t17 23.5q7 9 15.5 10.5t15 -2t9.5 -11.5t-1 -18q-29 -47 -62 -91.5t-68 -82.5q-10 -10 -26 -27t-35.5 -32.5t-42.5 -26.5t-46 -10q-43 2 -59 20.5
t-17 42.5zM156 120q7 0 20.5 8t30 21.5t35 32t36.5 41.5l42 71q1 1 1.5 1t1.5 2l-3 -3l8 13q4 12 7 30t2 35.5t-7.5 30t-20.5 13.5q-11 1 -34.5 -11t-50 -39t-52 -69.5t-40.5 -103.5q-3 -10 -4.5 -23t0 -24.5t8 -19t20.5 -6.5zM538 671q7 10 17.5 14.5t19 3.5t12.5 -7
t-1 -16q-3 -6 -7.5 -13t-10.5 -15q-35 -48 -80.5 -72t-86.5 -26q-42 -2 -73.5 19.5t-38.5 66.5q-5 29 11 56q5 7 13 10t15 3t11.5 -4t2.5 -10q-5 -23 0.5 -37t17.5 -22t28.5 -10.5t33.5 -0.5q13 1 29 5.5t32 12t30.5 18t24.5 24.5z" />
    <glyph glyph-name="Aogonek" unicode="&#x104;" horiz-adv-x="1312" 
d="M771 187q-12 -8 -22 -5t-17 12t-11 22.5t-4 27.5q-75 -65 -151.5 -122t-149.5 -98.5t-140.5 -65t-124.5 -21.5q-26 1 -52.5 9t-48 23t-35 37t-14.5 49q1 7 6 22t13.5 29.5t18.5 24t21 5.5q28 -8 55 -15t58 -6q53 0 116 23.5t132 63.5t141.5 92.5t145 111.5t142.5 120
t133.5 117t119 104t98.5 80l18 13q-54 12 -105 28.5t-102.5 31t-104 24.5t-108.5 9q-59 -1 -104.5 -18t-75.5 -43t-45 -58t-13 -63q1 -18 5.5 -35.5t14.5 -31.5t27.5 -22.5t43.5 -7.5q10 0 23 1.5t29 7.5t35 18t42 34q7 6 17 -0.5t18.5 -22t12 -38t-1.5 -47.5
q-16 -73 -73 -117.5t-141 -45.5q-83 0 -134.5 28.5t-80.5 69t-40 86t-12 78.5q-2 49 20 108.5t69.5 110.5t122.5 85.5t180 35.5q58 1 120 -13t125 -35t125 -45.5t121 -46.5q6 0 9 -1l18 -9l23 -8l3 1q36 15 75.5 28t76.5 6q14 -3 27 -12t21.5 -21.5t9 -28t-10.5 -30.5
q-20 -28 -55.5 -38.5t-64.5 -5.5q-23 4 -43 15q-52 -56 -93 -121.5t-71 -132t-50 -130t-30 -115.5q0 -5 -2 -9q-6 -36 -8 -64t0 -45q5 -42 26.5 -66t46.5 -24t47.5 11.5t44 31t42 44t41.5 51.5q14 19 25 34.5t18 23.5q7 9 15 10.5t15 -2t10 -11.5t-1 -18q-18 -30 -41 -62
l-11 -14q-28 -39 -63 -84t-74.5 -84t-82.5 -66.5t-86 -31.5q-11 -17 -18 -35.5t-7.5 -33t5.5 -22.5t23 -4q5 1 10 1.5t8 -1t3 -6.5t-5 -14q-9 -16 -29 -27t-43 -12t-30 14t-3 38t17 50.5t32 52.5q-34 6 -54.5 25.5t-31.5 44t-14.5 49t-3.5 39.5q2 52 13.5 106.5t31.5 110.5
q-41 -10 -80.5 -44t-88.5 -73zM1035 563q-46 -54 -98.5 -109t-109.5 -109q66 30 136 17q27 63 61 124.5t72 117.5t79 106t80 89q-26 -19 -57 -50.5t-61.5 -66t-57 -67t-44.5 -52.5zM1402 873q-17 -1 -34 -5.5t-35 -12.5l16 -4t17 -4q18 1 32 5.5t21 9t4 8t-21 3.5z" />
    <glyph glyph-name="aogonek" unicode="&#x105;" horiz-adv-x="502" 
d="M315 -100q5 1 10 1.5t8 -1t3 -6.5t-5 -14q-9 -16 -29 -27t-43 -12t-30 14.5t-2.5 39t18 51.5t33.5 54q-29 6 -40.5 22.5t-12.5 37.5q0 6 0.5 12t1.5 13q-16 -17 -31.5 -32.5t-32.5 -27t-35.5 -18t-39.5 -6.5q-43 1 -67.5 31.5t-26.5 90.5q-1 38 10 80t31.5 83t49.5 78.5
t64 65t74.5 43t80.5 13.5q10 0 23 -3.5t25.5 -12.5t22 -25t11.5 -42l30 51q6 9 25 10.5t39 -2.5t34 -12.5t10 -18.5q-2 -7 -19 -33t-39 -60.5t-45 -72.5t-38 -70t-17.5 -52.5t16.5 -19.5q12 0 27 10.5t30.5 26t31.5 34.5t29.5 37t24.5 33.5t17 23.5q7 9 15.5 10.5t15 -2
t9.5 -11.5t-1 -18q-29 -47 -62 -91.5t-68 -82.5q-9 -9 -24 -24.5t-33 -30.5t-38.5 -26.5t-42.5 -13.5q-11 -18 -18.5 -37t-8.5 -34t5.5 -23t23.5 -4zM156 120q7 0 20.5 8t30 21.5t35 32t36.5 41.5l42 71q1 1 1.5 1t1.5 2l-3 -3l8 13q4 12 7 30t2 35.5t-7.5 30t-20.5 13.5
q-11 1 -34.5 -11t-50 -39t-52 -69.5t-40.5 -103.5q-3 -10 -4.5 -23t0 -24.5t8 -19t20.5 -6.5z" />
    <glyph glyph-name="Cacute" unicode="&#x106;" horiz-adv-x="1258" 
d="M1335 267q-46 -76 -106 -145.5t-133.5 -121.5t-159.5 -80.5t-184 -23.5q-87 4 -154.5 34.5t-114 80t-70 115t-22.5 140.5q1 88 31 170t81.5 153.5t120.5 132t147 106.5q-52 19 -104 36t-103 30t-99.5 20t-93.5 6q-35 -1 -61 -15.5t-43 -34.5t-25.5 -41t-9.5 -34
q-1 -18 0 -36t7.5 -34t20.5 -28t40 -17q10 -2 22.5 -3.5t29.5 1t39 9.5t49 23q8 5 16.5 -3.5t13 -25t3 -39.5t-12.5 -46q-32 -68 -97 -98.5t-147 -13.5q-81 18 -125 57t-63.5 85t-20 92.5t5.5 79.5q8 42 35 88t72 84.5t107.5 62.5t142.5 23q75 -2 145 -17.5t135 -39.5
t124.5 -53.5t114.5 -58.5q81 35 162 53t156 17q97 -5 150.5 -36t52.5 -78q0 -30 -18 -53.5t-49 -39.5t-72.5 -25t-87.5 -10q-57 -2 -127.5 17t-148.5 47q-70 -41 -131 -98t-105 -124.5t-68 -143.5t-21 -154q3 -68 25.5 -112t55 -70t69 -37t67.5 -11q143 -3 270 63t227 196
q7 9 15.5 10.5t15 -2t9.5 -11.5t-1 -18zM1191 863q-46 -1 -92 -10.5t-91 -26.5q52 -25 98 -40t88 -13q76 3 113.5 18t36.5 31.5t-39.5 29t-113.5 11.5zM1039 1042q-8 -5 -19.5 -13.5t-19.5 -11t-8.5 5.5t15.5 38q13 24 34.5 47t50.5 34q23 9 50 10t46 -11q21 -14 17 -22.5
t-28 -13.5q-38 -7 -71 -24t-67 -39z" />
    <glyph glyph-name="cacute" unicode="&#x107;" horiz-adv-x="405" 
d="M288 271q-11 -1 -18.5 3.5t-9.5 11.5t1.5 14t14.5 11q33 8 50 27t28 50q1 4 2 11t-1.5 13.5t-9.5 11t-20 4.5q-19 0 -50.5 -27t-62 -67.5t-53.5 -88t-26 -88.5q-3 -35 5 -58.5t40 -25.5q16 0 36 7t48 21q30 16 55.5 38.5t49.5 48.5q15 16 24.5 28t18 23t17 23.5
t21.5 30.5q7 6 15 6.5t13 -3t7 -11t-1 -16.5q-24 -39 -55 -86t-70.5 -88t-88 -70t-106.5 -33q-41 -3 -72 8t-52 30t-32 44t-12 52q-3 49 12.5 96t42.5 89t62.5 78t72.5 62q24 17 60 28.5t71 11.5q43 0 71.5 -24t27.5 -67q-1 -23 -12 -45.5t-28 -40.5t-39.5 -29.5
t-46.5 -13.5zM335 550q-8 -5 -19.5 -13.5t-19.5 -11t-8.5 5.5t15.5 38q13 24 34.5 47t50.5 34q23 9 50 10t46 -11q21 -14 17 -22.5t-28 -13.5q-38 -7 -71 -24t-67 -39z" />
    <glyph glyph-name="Ccircumflex" unicode="&#x108;" horiz-adv-x="1258" 
d="M1335 267q-46 -76 -106 -145.5t-133.5 -121.5t-159.5 -80.5t-184 -23.5q-87 4 -154.5 34.5t-114 80t-70 115t-22.5 140.5q1 88 31 170t81.5 153.5t120.5 132t147 106.5q-52 19 -104 36t-103 30t-99.5 20t-93.5 6q-35 -1 -61 -15.5t-43 -34.5t-25.5 -41t-9.5 -34
q-1 -18 0 -36t7.5 -34t20.5 -28t40 -17q10 -2 22.5 -3.5t29.5 1t39 9.5t49 23q8 5 16.5 -3.5t13 -25t3 -39.5t-12.5 -46q-32 -68 -97 -98.5t-147 -13.5q-81 18 -125 57t-63.5 85t-20 92.5t5.5 79.5q8 42 35 88t72 84.5t107.5 62.5t142.5 23q75 -2 145 -17.5t135 -39.5
t124.5 -53.5t114.5 -58.5q81 35 162 53t156 17q97 -5 150.5 -36t52.5 -78q0 -30 -18 -53.5t-49 -39.5t-72.5 -25t-87.5 -10q-57 -2 -127.5 17t-148.5 47q-70 -41 -131 -98t-105 -124.5t-68 -143.5t-21 -154q3 -68 25.5 -112t55 -70t69 -37t67.5 -11q143 -3 270 63t227 196
q7 9 15.5 10.5t15 -2t9.5 -11.5t-1 -18zM1191 863q-46 -1 -92 -10.5t-91 -26.5q52 -25 98 -40t88 -13q76 3 113.5 18t36.5 31.5t-39.5 29t-113.5 11.5zM934 1043q-6 0 -10.5 1.5t-5.5 5t4.5 8.5t20.5 12q36 16 61 29.5t43.5 25.5t33 22.5t29.5 20.5q7 5 11.5 5t7.5 -3
t4.5 -6.5t2.5 -6.5q4 -18 8 -30.5t9 -22.5t11.5 -17.5t15.5 -15.5q12 -11 7 -19t-16 -10q-33 -6 -52 -3t-29.5 11t-15.5 17t-8 15q-31 -11 -64 -24t-68 -15z" />
    <glyph glyph-name="ccircumflex" unicode="&#x109;" horiz-adv-x="405" 
d="M288 271q-11 -1 -18.5 3.5t-9.5 11.5t1.5 14t14.5 11q33 8 50 27t28 50q1 4 2 11t-1.5 13.5t-9.5 11t-20 4.5q-19 0 -50.5 -27t-62 -67.5t-53.5 -88t-26 -88.5q-3 -35 5 -58.5t40 -25.5q16 0 36 7t48 21q30 16 55.5 38.5t49.5 48.5q15 16 24.5 28t18 23t17 23.5
t21.5 30.5q7 6 15 6.5t13 -3t7 -11t-1 -16.5q-24 -39 -55 -86t-70.5 -88t-88 -70t-106.5 -33q-41 -3 -72 8t-52 30t-32 44t-12 52q-3 49 12.5 96t42.5 89t62.5 78t72.5 62q24 17 60 28.5t71 11.5q43 0 71.5 -24t27.5 -67q-1 -23 -12 -45.5t-28 -40.5t-39.5 -29.5
t-46.5 -13.5zM209 551q-6 0 -10.5 1.5t-5.5 5t4.5 8.5t20.5 12q36 16 61 29.5t43.5 25.5t33 22.5t29.5 20.5q7 5 11.5 5t7.5 -3t4.5 -6.5t2.5 -6.5q4 -18 8 -30.5t9 -22.5t11.5 -17.5t15.5 -15.5q12 -11 7 -19t-16 -10q-33 -6 -52 -3t-29.5 11t-15.5 17t-8 15
q-31 -11 -64 -24t-68 -15z" />
    <glyph glyph-name="Cdotaccent" unicode="&#x10a;" horiz-adv-x="1258" 
d="M1335 267q-46 -76 -106 -145.5t-133.5 -121.5t-159.5 -80.5t-184 -23.5q-87 4 -154.5 34.5t-114 80t-70 115t-22.5 140.5q1 88 31 170t81.5 153.5t120.5 132t147 106.5q-52 19 -104 36t-103 30t-99.5 20t-93.5 6q-35 -1 -61 -15.5t-43 -34.5t-25.5 -41t-9.5 -34
q-1 -18 0 -36t7.5 -34t20.5 -28t40 -17q10 -2 22.5 -3.5t29.5 1t39 9.5t49 23q8 5 16.5 -3.5t13 -25t3 -39.5t-12.5 -46q-32 -68 -97 -98.5t-147 -13.5q-81 18 -125 57t-63.5 85t-20 92.5t5.5 79.5q8 42 35 88t72 84.5t107.5 62.5t142.5 23q75 -2 145 -17.5t135 -39.5
t124.5 -53.5t114.5 -58.5q81 35 162 53t156 17q97 -5 150.5 -36t52.5 -78q0 -30 -18 -53.5t-49 -39.5t-72.5 -25t-87.5 -10q-57 -2 -127.5 17t-148.5 47q-70 -41 -131 -98t-105 -124.5t-68 -143.5t-21 -154q3 -68 25.5 -112t55 -70t69 -37t67.5 -11q143 -3 270 63t227 196
q7 9 15.5 10.5t15 -2t9.5 -11.5t-1 -18zM1191 863q-46 -1 -92 -10.5t-91 -26.5q52 -25 98 -40t88 -13q76 3 113.5 18t36.5 31.5t-39.5 29t-113.5 11.5zM1041 1078q6 25 26 43.5t46 21.5q24 2 38 -12.5t8 -40.5q-5 -26 -25.5 -45.5t-46.5 -24.5q-24 -2 -37.5 13.5t-8.5 44.5z
" />
    <glyph glyph-name="cdotaccent" unicode="&#x10b;" horiz-adv-x="405" 
d="M288 271q-11 -1 -18.5 3.5t-9.5 11.5t1.5 14t14.5 11q33 8 50 27t28 50q1 4 2 11t-1.5 13.5t-9.5 11t-20 4.5q-19 0 -50.5 -27t-62 -67.5t-53.5 -88t-26 -88.5q-3 -35 5 -58.5t40 -25.5q16 0 36 7t48 21q30 16 55.5 38.5t49.5 48.5q15 16 24.5 28t18 23t17 23.5
t21.5 30.5q7 6 15 6.5t13 -3t7 -11t-1 -16.5q-24 -39 -55 -86t-70.5 -88t-88 -70t-106.5 -33q-41 -3 -72 8t-52 30t-32 44t-12 52q-3 49 12.5 96t42.5 89t62.5 78t72.5 62q24 17 60 28.5t71 11.5q43 0 71.5 -24t27.5 -67q-1 -23 -12 -45.5t-28 -40.5t-39.5 -29.5
t-46.5 -13.5zM283 586q6 25 26 43.5t46 21.5q24 2 38 -12.5t8 -40.5q-5 -26 -25.5 -45.5t-46.5 -24.5q-24 -2 -37.5 13.5t-8.5 44.5z" />
    <glyph glyph-name="Ccaron" unicode="&#x10c;" horiz-adv-x="1258" 
d="M1335 267q-46 -76 -106 -145.5t-133.5 -121.5t-159.5 -80.5t-184 -23.5q-87 4 -154.5 34.5t-114 80t-70 115t-22.5 140.5q1 88 31 170t81.5 153.5t120.5 132t147 106.5q-52 19 -104 36t-103 30t-99.5 20t-93.5 6q-35 -1 -61 -15.5t-43 -34.5t-25.5 -41t-9.5 -34
q-1 -18 0 -36t7.5 -34t20.5 -28t40 -17q10 -2 22.5 -3.5t29.5 1t39 9.5t49 23q8 5 16.5 -3.5t13 -25t3 -39.5t-12.5 -46q-32 -68 -97 -98.5t-147 -13.5q-81 18 -125 57t-63.5 85t-20 92.5t5.5 79.5q8 42 35 88t72 84.5t107.5 62.5t142.5 23q75 -2 145 -17.5t135 -39.5
t124.5 -53.5t114.5 -58.5q81 35 162 53t156 17q97 -5 150.5 -36t52.5 -78q0 -30 -18 -53.5t-49 -39.5t-72.5 -25t-87.5 -10q-57 -2 -127.5 17t-148.5 47q-70 -41 -131 -98t-105 -124.5t-68 -143.5t-21 -154q3 -68 25.5 -112t55 -70t69 -37t67.5 -11q143 -3 270 63t227 196
q7 9 15.5 10.5t15 -2t9.5 -11.5t-1 -18zM1191 863q-46 -1 -92 -10.5t-91 -26.5q52 -25 98 -40t88 -13q76 3 113.5 18t36.5 31.5t-39.5 29t-113.5 11.5zM1154 1154q6 0 10.5 -1.5t5.5 -5t-4.5 -8.5t-20.5 -12q-36 -16 -61 -29.5t-43.5 -25.5t-33 -22.5t-29.5 -20.5
q-14 -10 -19.5 -2t-6.5 13q-5 18 -8.5 30.5t-8.5 22.5t-11.5 17.5t-15.5 15.5q-12 11 -7 19t16 10q33 6 52 3t29.5 -11t15.5 -17t8 -15q31 11 64 24t68 15z" />
    <glyph glyph-name="ccaron" unicode="&#x10d;" horiz-adv-x="405" 
d="M288 271q-11 -1 -18.5 3.5t-9.5 11.5t1.5 14t14.5 11q33 8 50 27t28 50q1 4 2 11t-1.5 13.5t-9.5 11t-20 4.5q-19 0 -50.5 -27t-62 -67.5t-53.5 -88t-26 -88.5q-3 -35 5 -58.5t40 -25.5q16 0 36 7t48 21q30 16 55.5 38.5t49.5 48.5q15 16 24.5 28t18 23t17 23.5
t21.5 30.5q7 6 15 6.5t13 -3t7 -11t-1 -16.5q-24 -39 -55 -86t-70.5 -88t-88 -70t-106.5 -33q-41 -3 -72 8t-52 30t-32 44t-12 52q-3 49 12.5 96t42.5 89t62.5 78t72.5 62q24 17 60 28.5t71 11.5q43 0 71.5 -24t27.5 -67q-1 -23 -12 -45.5t-28 -40.5t-39.5 -29.5
t-46.5 -13.5zM525 662q6 0 10.5 -1.5t5.5 -5t-4.5 -8.5t-20.5 -12q-36 -16 -61 -29.5t-43.5 -25.5t-33 -22.5t-29.5 -20.5q-14 -10 -19.5 -2t-6.5 13q-5 18 -8.5 30.5t-8.5 22.5t-11.5 17.5t-15.5 15.5q-12 11 -7 19t16 10q33 6 52 3t29.5 -11t15.5 -17t8 -15q31 11 64 24
t68 15z" />
    <glyph glyph-name="Dcaron" unicode="&#x10e;" horiz-adv-x="1301" 
d="M955 937q27 -12 54 -15q27 11 57 14t62 -6q27 -8 33.5 -20t-3.5 -23t-33.5 -17t-55.5 -1q-8 1 -14.5 2t-14.5 3q-14 -8 -26 -15.5t-23 -15.5q-4 -2 -7 -5l-7 -7q26 11 53 17.5t56 4.5q76 -6 128 -36.5t81.5 -79t38.5 -110t0.5 -129t-33.5 -137.5t-62.5 -135t-87 -120.5
t-108 -95.5t-124 -59.5t-135.5 -11.5q-45 5 -86 17.5t-72 35t-49.5 56t-18.5 81.5q0 22 6 44.5t17 35t26 12t34 -23.5q26 -32 60.5 -48t85.5 -20q68 -6 128 18.5t110 68t88 101.5t61.5 120.5t31 123.5t-3.5 110.5t-42.5 83t-85.5 39.5q-20 2 -45 -3t-50 -15.5t-47.5 -24.5
t-37.5 -29q-25 -37 -46 -72.5t-35 -58.5q-42 -71 -89 -147.5t-98.5 -150.5t-107 -140.5t-113.5 -116.5t-117.5 -78.5t-119.5 -26.5q-27 1 -54 9.5t-49.5 24t-38 37.5t-17.5 49q-1 7 0.5 22t6 29.5t12 24t19.5 5.5q30 -8 59.5 -15t60.5 -6q53 0 105.5 25t104 67t101.5 97.5
t98 117.5t93 125.5t87 122t80.5 108t72.5 81.5q10 10 21 19.5t24 17.5q-42 10 -82.5 19.5t-81.5 17t-85 12t-93 3.5q-59 -1 -104.5 -18t-75.5 -43t-45 -58t-13 -63q1 -18 5.5 -35.5t14.5 -31.5t27.5 -22.5t43.5 -7.5q10 0 23 1.5t29 7.5t35 18t42 34q7 6 17 -0.5t18.5 -22
t12 -38t-1.5 -47.5q-16 -73 -72.5 -117.5t-141.5 -44.5q-55 0 -96 12.5t-70.5 33t-49 47.5t-30.5 56.5t-15.5 58t-4.5 53.5q-1 55 20.5 115t69 110t122.5 82.5t180 33.5q51 0 102 -11t101.5 -28.5t100 -39t99.5 -42.5zM1218 1154q6 0 10.5 -1.5t5.5 -5t-4.5 -8.5t-20.5 -12
q-36 -16 -61 -29.5t-43.5 -25.5t-33 -22.5t-29.5 -20.5q-14 -10 -19.5 -2t-6.5 13q-5 18 -8.5 30.5t-8.5 22.5t-11.5 17.5t-15.5 15.5q-12 11 -7 19t16 10q33 6 52 3t29.5 -11t15.5 -17t8 -15q31 11 64 24t68 15z" />
    <glyph glyph-name="dcaron" unicode="&#x10f;" horiz-adv-x="500" 
d="M225 64v10t1 10q-15 -17 -30.5 -32t-32.5 -26.5t-35.5 -18t-39.5 -6.5q-43 1 -67.5 31.5t-26.5 90.5q-1 38 10 80t31.5 83t49.5 78.5t64 65t74.5 43t80.5 13.5q10 0 23 -3.5t25.5 -13t22 -26t11.5 -43.5l176 289q6 10 25 11.5t38.5 -2.5t34 -13t10.5 -19q-2 -4 -18.5 -31
t-41.5 -67.5t-55.5 -88t-58.5 -93t-51.5 -83t-34.5 -57.5q-14 -25 -25 -47.5t-16 -39.5t-2.5 -26.5t15.5 -9.5q12 0 27 10.5t30.5 26t31.5 34.5t29.5 37t24.5 33.5t17 23.5q7 9 15.5 10.5t15 -2t9.5 -11.5t-1 -18q-29 -47 -62 -91.5t-68 -82.5q-10 -10 -26 -27t-35.5 -32.5
t-42.5 -26.5t-46 -10q-43 2 -59 22.5t-17 44.5zM156 120q7 0 21 8t30.5 22t35 33t36.5 42l44 72l-1 -1q1 1 1 2l2 2q5 10 9 29.5t3.5 38t-7 33t-21.5 15.5q-11 1 -34.5 -11t-50 -39t-52 -69.5t-40.5 -103.5q-3 -10 -4.5 -23t0 -24.5t8 -19t20.5 -6.5zM704 565
q-8 -8 -14 -7.5t-8 10.5q-1 5 2.5 11.5t7 15t6.5 18t2 21.5q-1 8 -4 15.5t-5 15.5t-3 18t2 22q3 17 13 31t23 15q20 2 26.5 -20t-0.5 -55q-7 -35 -20 -66t-28 -45zM319 293l3 3z" />
    <glyph glyph-name="Dcroat" unicode="&#x110;" horiz-adv-x="1301" 
d="M491 351q-11 -2 -19 -1.5t-6 8.5q4 16 3.5 28t-1 20t1 12.5t10.5 6.5q20 3 46 2t55 -3q47 61 91.5 124t85.5 120.5t79 106t72 80.5q10 10 21 19.5t24 17.5q-42 10 -82.5 19.5t-81.5 17t-85 12t-93 3.5q-59 -1 -104.5 -18t-75.5 -43t-45 -58t-13 -63q1 -18 5.5 -35.5
t14.5 -31.5t27.5 -22.5t43.5 -7.5q10 0 23 1.5t29 7.5t35 18t42 34q7 6 17 -0.5t18.5 -22t12 -38t-1.5 -47.5q-16 -73 -72.5 -117.5t-141.5 -44.5q-55 0 -96 12.5t-70.5 33t-49 47.5t-30.5 56.5t-15.5 58t-4.5 53.5q-1 55 20.5 115t69 110t122.5 82.5t180 33.5q51 0 102 -11
t101.5 -28.5t100 -39t99.5 -42.5q27 -12 54 -15q27 11 57 14t62 -6q27 -8 33.5 -20t-3.5 -23t-33.5 -17t-55.5 -1q-8 1 -14.5 2t-14.5 3q-14 -8 -26 -15.5t-23 -15.5q-4 -2 -7 -5l-7 -7q26 11 53 17.5t56 4.5q76 -6 128 -36.5t81.5 -79t38.5 -110t0.5 -129t-33.5 -137.5
t-62.5 -135t-87 -120.5t-108 -95.5t-124 -59.5t-135.5 -11.5q-45 5 -86 17.5t-72 35t-49.5 56t-18.5 81.5q0 22 6 44.5t17 35t26 12t34 -23.5q26 -32 60.5 -48t85.5 -20q68 -6 128 18.5t110 68t88 101.5t61.5 120.5t31 123.5t-3.5 110.5t-42.5 83t-85.5 39.5q-20 2 -45 -3
t-50 -15.5t-47.5 -24.5t-37.5 -29q-25 -37 -46 -72.5t-35 -58.5q-25 -42 -51 -84.5t-54 -87.5q6 0 12 0.5t11 1.5q16 2 20.5 1t2.5 -12q-2 -17 -1.5 -29t0.5 -20t-2 -12t-11 -4q-17 -2 -37 -1.5t-42 2.5q-55 -82 -114 -158t-121.5 -134t-127 -91.5t-130.5 -31.5
q-27 1 -54 9.5t-49.5 24t-38 37.5t-17.5 49q-1 7 0.5 22t6 29.5t12 24t19.5 5.5q30 -8 59.5 -15t60.5 -6q46 0 91.5 19t90.5 51.5t89 77t86 95.5l-33 -3v0z" />
    <glyph glyph-name="dcroat" unicode="&#x111;" horiz-adv-x="496" 
d="M358 517q-14 2 -18 10.5t0 18t14.5 17.5t24.5 8h111l72 118q6 10 25 11.5t38.5 -2.5t34 -13t10.5 -19q-2 -4 -18 -30.5t-40 -64.5h14q12 -3 15 -11t-1 -16.5t-13.5 -16t-21.5 -10.5h-27q-24 -38 -49.5 -79t-49 -78t-42 -67t-27.5 -47q-14 -25 -25 -47.5t-16 -39.5
t-2.5 -26.5t15.5 -9.5q12 0 27 10.5t30.5 26t31.5 34.5t29.5 37t24.5 33.5t17 23.5q7 9 15.5 10.5t15 -2t9.5 -11.5t-1 -18q-29 -47 -62 -91.5t-68 -82.5q-10 -10 -26 -27t-35.5 -32.5t-42.5 -26.5t-46 -10q-43 2 -59 22.5t-17 44.5v10t1 10q-15 -17 -30.5 -32t-32.5 -26.5
t-35.5 -18t-39.5 -6.5q-43 1 -67.5 31.5t-26.5 90.5q-1 38 10 80t31.5 83t49.5 78.5t64 65t74.5 43t80.5 13.5q10 0 23 -3.5t25.5 -13t22 -26t11.5 -43.5l71 117h-99zM156 120q7 0 21 8t30.5 22t35 33t36.5 42l44 72l-1 -1q1 1 1 2l2 2q5 10 9 29.5t3.5 38t-7 33t-21.5 15.5
q-11 1 -34.5 -11t-50 -39t-52 -69.5t-40.5 -103.5q-3 -10 -4.5 -23t0 -24.5t8 -19t20.5 -6.5zM319 293l3 3z" />
    <glyph glyph-name="Emacron" unicode="&#x112;" horiz-adv-x="1258" 
d="M1335 267q-46 -76 -106 -145.5t-133.5 -121.5t-159.5 -80.5t-184 -23.5q-85 4 -154 32.5t-116 74.5t-71 106t-19 128q3 48 26 95.5t61.5 89.5t90.5 75.5t114 52.5q-5 31 2 65t24.5 69.5t45 70t62.5 66.5q-43 17 -86.5 32.5t-88 27.5t-89 18t-89.5 5q-35 -2 -61 -16.5
t-43 -34.5t-25.5 -41t-9.5 -34q-1 -18 0 -36t7.5 -34t20 -28t39.5 -17q10 -2 23 -3.5t30 1t38.5 10t48.5 23.5q9 5 17 -3.5t12.5 -25.5t3.5 -40t-12 -46q-32 -68 -97 -98.5t-148 -12.5q-81 18 -125 57t-63 85t-19.5 92t5.5 79q8 43 35 89t72 84t107.5 62t142.5 23
q72 -1 135 -15t118.5 -35t104.5 -47.5t93 -52.5q63 35 136.5 54t155.5 14q97 -7 150.5 -37t52.5 -77q0 -30 -18 -53.5t-49 -39.5t-72.5 -25t-87.5 -10q-61 -2 -126.5 17.5t-136.5 46.5q-49 -39 -76 -87t-31 -95q-1 -7 -1 -13v-13q4 0 7.5 0.5t7.5 0.5q58 0 91.5 -13.5
t47 -32.5t7.5 -40t-26.5 -36.5t-55 -22t-78.5 4.5q-56 13 -89 44q-42 -15 -75 -41t-55 -58.5t-32.5 -69t-7.5 -73.5q3 -54 30 -92.5t64.5 -63.5t78.5 -37t72 -12q143 -3 270 63t227 196q7 9 15.5 10.5t15 -2t9.5 -11.5t-1 -18zM1179 864q-48 -1 -90 -9.5t-78 -23.5
q48 -26 93 -43t90 -15q78 3 115.5 18t35.5 32t-43.5 29.5t-122.5 11.5zM998 1045q-11 -2 -19 -1.5t-6 8.5q4 16 3.5 28t-1 20t1 12.5t10.5 6.5q23 4 55 2.5t66.5 -4.5t68.5 -4.5t61 2.5q16 2 20.5 1t2.5 -12q-2 -17 -1.5 -29t0.5 -20t-2 -12t-11 -4q-24 -3 -56 -1t-66 5
t-67.5 4.5t-59.5 -2.5zM852 483q25 -3 40.5 -0.5t15.5 6.5t-17.5 7t-58.5 0q7 -11 20 -13z" />
    <glyph glyph-name="emacron" unicode="&#x113;" horiz-adv-x="405" 
d="M414 400q-1 -28 -21.5 -62t-57.5 -65t-89 -54.5t-115 -29.5q-2 -9 -3 -17t-1 -16q0 -34 9.5 -57.5t41.5 -25.5q16 0 36 7t48 21q30 16 55.5 38.5t49.5 48.5q15 16 24.5 28t18 23t17 23.5t21.5 30.5q7 6 15 6.5t13 -3t7 -11t-1 -16.5q-24 -39 -55 -86t-70.5 -88t-88 -70
t-106.5 -33q-41 -3 -72 8t-52 30t-32 44t-12 52q-3 49 12.5 96t42.5 89t62.5 78t72.5 62q24 17 60 28.5t71 11.5q43 0 71.5 -24t27.5 -67zM208 553q-11 -2 -19 -1.5t-6 8.5q4 16 3.5 28t-1 20t1 12.5t10.5 6.5q23 4 55 2.5t66.5 -4.5t68.5 -4.5t61 2.5q16 2 20.5 1t2.5 -12
q-2 -17 -1.5 -29t0.5 -20t-2 -12t-11 -4q-24 -3 -56 -1t-66 5t-67.5 4.5t-59.5 -2.5zM325 428q-15 0 -37.5 -16t-47.5 -41.5t-49 -59t-40 -67.5q34 9 68 26.5t62 37.5t46.5 39.5t23.5 33.5q1 4 2.5 12t-0.5 16t-8.5 13.5t-19.5 5.5z" />
    <glyph glyph-name="Ebreve" unicode="&#x114;" horiz-adv-x="1258" 
d="M1335 267q-46 -76 -106 -145.5t-133.5 -121.5t-159.5 -80.5t-184 -23.5q-85 4 -154 32.5t-116 74.5t-71 106t-19 128q3 48 26 95.5t61.5 89.5t90.5 75.5t114 52.5q-5 31 2 65t24.5 69.5t45 70t62.5 66.5q-43 17 -86.5 32.5t-88 27.5t-89 18t-89.5 5q-35 -2 -61 -16.5
t-43 -34.5t-25.5 -41t-9.5 -34q-1 -18 0 -36t7.5 -34t20 -28t39.5 -17q10 -2 23 -3.5t30 1t38.5 10t48.5 23.5q9 5 17 -3.5t12.5 -25.5t3.5 -40t-12 -46q-32 -68 -97 -98.5t-148 -12.5q-81 18 -125 57t-63 85t-19.5 92t5.5 79q8 43 35 89t72 84t107.5 62t142.5 23
q72 -1 135 -15t118.5 -35t104.5 -47.5t93 -52.5q63 35 136.5 54t155.5 14q97 -7 150.5 -37t52.5 -77q0 -30 -18 -53.5t-49 -39.5t-72.5 -25t-87.5 -10q-61 -2 -126.5 17.5t-136.5 46.5q-49 -39 -76 -87t-31 -95q-1 -7 -1 -13v-13q4 0 7.5 0.5t7.5 0.5q58 0 91.5 -13.5
t47 -32.5t7.5 -40t-26.5 -36.5t-55 -22t-78.5 4.5q-56 13 -89 44q-42 -15 -75 -41t-55 -58.5t-32.5 -69t-7.5 -73.5q3 -54 30 -92.5t64.5 -63.5t78.5 -37t72 -12q143 -3 270 63t227 196q7 9 15.5 10.5t15 -2t9.5 -11.5t-1 -18zM1183 1163q7 10 17.5 14.5t19 3.5t12.5 -7
t-1 -16q-3 -6 -7.5 -13t-10.5 -15q-35 -48 -80.5 -72t-86.5 -26q-42 -2 -73.5 19.5t-38.5 66.5q-5 29 11 56q5 7 13 10t15 3t11.5 -4t2.5 -10q-5 -23 0.5 -37t17.5 -22t28.5 -10.5t33.5 -0.5q13 1 29 5.5t32 12t30.5 18t24.5 24.5zM1179 864q-48 -1 -90 -9.5t-78 -23.5
q48 -26 93 -43t90 -15q78 3 115.5 18t35.5 32t-43.5 29.5t-122.5 11.5zM852 483q25 -3 40.5 -0.5t15.5 6.5t-17.5 7t-58.5 0q7 -11 20 -13z" />
    <glyph glyph-name="ebreve" unicode="&#x115;" horiz-adv-x="405" 
d="M414 400q-1 -28 -21.5 -62t-57.5 -65t-89 -54.5t-115 -29.5q-2 -9 -3 -17t-1 -16q0 -34 9.5 -57.5t41.5 -25.5q16 0 36 7t48 21q30 16 55.5 38.5t49.5 48.5q15 16 24.5 28t18 23t17 23.5t21.5 30.5q7 6 15 6.5t13 -3t7 -11t-1 -16.5q-24 -39 -55 -86t-70.5 -88t-88 -70
t-106.5 -33q-41 -3 -72 8t-52 30t-32 44t-12 52q-3 49 12.5 96t42.5 89t62.5 78t72.5 62q24 17 60 28.5t71 11.5q43 0 71.5 -24t27.5 -67zM489 671q7 10 17.5 14.5t19 3.5t12.5 -7t-1 -16q-3 -6 -7.5 -13t-10.5 -15q-35 -48 -80.5 -72t-86.5 -26q-42 -2 -73.5 19.5
t-38.5 66.5q-5 29 11 56q5 7 13 10t15 3t11.5 -4t2.5 -10q-5 -23 0.5 -37t17.5 -22t28.5 -10.5t33.5 -0.5q13 1 29 5.5t32 12t30.5 18t24.5 24.5zM325 428q-15 0 -37.5 -16t-47.5 -41.5t-49 -59t-40 -67.5q34 9 68 26.5t62 37.5t46.5 39.5t23.5 33.5q1 4 2.5 12t-0.5 16
t-8.5 13.5t-19.5 5.5z" />
    <glyph glyph-name="Edotaccent" unicode="&#x116;" horiz-adv-x="1258" 
d="M1335 267q-46 -76 -106 -145.5t-133.5 -121.5t-159.5 -80.5t-184 -23.5q-85 4 -154 32.5t-116 74.5t-71 106t-19 128q3 48 26 95.5t61.5 89.5t90.5 75.5t114 52.5q-5 31 2 65t24.5 69.5t45 70t62.5 66.5q-43 17 -86.5 32.5t-88 27.5t-89 18t-89.5 5q-35 -2 -61 -16.5
t-43 -34.5t-25.5 -41t-9.5 -34q-1 -18 0 -36t7.5 -34t20 -28t39.5 -17q10 -2 23 -3.5t30 1t38.5 10t48.5 23.5q9 5 17 -3.5t12.5 -25.5t3.5 -40t-12 -46q-32 -68 -97 -98.5t-148 -12.5q-81 18 -125 57t-63 85t-19.5 92t5.5 79q8 43 35 89t72 84t107.5 62t142.5 23
q72 -1 135 -15t118.5 -35t104.5 -47.5t93 -52.5q63 35 136.5 54t155.5 14q97 -7 150.5 -37t52.5 -77q0 -30 -18 -53.5t-49 -39.5t-72.5 -25t-87.5 -10q-61 -2 -126.5 17.5t-136.5 46.5q-49 -39 -76 -87t-31 -95q-1 -7 -1 -13v-13q4 0 7.5 0.5t7.5 0.5q58 0 91.5 -13.5
t47 -32.5t7.5 -40t-26.5 -36.5t-55 -22t-78.5 4.5q-56 13 -89 44q-42 -15 -75 -41t-55 -58.5t-32.5 -69t-7.5 -73.5q3 -54 30 -92.5t64.5 -63.5t78.5 -37t72 -12q143 -3 270 63t227 196q7 9 15.5 10.5t15 -2t9.5 -11.5t-1 -18zM1179 864q-48 -1 -90 -9.5t-78 -23.5
q48 -26 93 -43t90 -15q78 3 115.5 18t35.5 32t-43.5 29.5t-122.5 11.5zM975 1078q6 25 26 43.5t46 21.5q24 2 38 -12.5t8 -40.5q-5 -26 -25.5 -45.5t-46.5 -24.5q-24 -2 -37.5 13.5t-8.5 44.5zM852 483q25 -3 40.5 -0.5t15.5 6.5t-17.5 7t-58.5 0q7 -11 20 -13z" />
    <glyph glyph-name="edotaccent" unicode="&#x117;" horiz-adv-x="405" 
d="M414 400q-1 -28 -21.5 -62t-57.5 -65t-89 -54.5t-115 -29.5q-2 -9 -3 -17t-1 -16q0 -34 9.5 -57.5t41.5 -25.5q16 0 36 7t48 21q30 16 55.5 38.5t49.5 48.5q15 16 24.5 28t18 23t17 23.5t21.5 30.5q7 6 15 6.5t13 -3t7 -11t-1 -16.5q-24 -39 -55 -86t-70.5 -88t-88 -70
t-106.5 -33q-41 -3 -72 8t-52 30t-32 44t-12 52q-3 49 12.5 96t42.5 89t62.5 78t72.5 62q24 17 60 28.5t71 11.5q43 0 71.5 -24t27.5 -67zM325 428q-15 0 -37.5 -16t-47.5 -41.5t-49 -59t-40 -67.5q34 9 68 26.5t62 37.5t46.5 39.5t23.5 33.5q1 4 2.5 12t-0.5 16t-8.5 13.5
t-19.5 5.5zM302 586q6 25 26 43.5t46 21.5q24 2 38 -12.5t8 -40.5q-5 -26 -25.5 -45.5t-46.5 -24.5q-24 -2 -37.5 13.5t-8.5 44.5z" />
    <glyph glyph-name="Eogonek" unicode="&#x118;" horiz-adv-x="1258" 
d="M796 -192q5 1 10 1.5t8 -1t3 -6.5t-5 -14q-9 -16 -29 -27t-43 -12q-22 -1 -29.5 12.5t-4.5 35.5t15 48t30 51q-85 4 -153.5 32.5t-116 74.5t-71 106t-18.5 128q3 48 26 95.5t61.5 89.5t90.5 75.5t114 52.5q-5 31 2 65t24.5 69.5t45 70t62.5 66.5q-43 17 -86.5 32.5
t-88 27.5t-89 18t-89.5 5q-35 -2 -61 -16.5t-43 -34.5t-25.5 -41t-9.5 -34q-1 -18 0 -36t7.5 -34t20 -28t39.5 -17q10 -2 23 -3.5t30 1t38.5 10t48.5 23.5q9 5 17 -3.5t12.5 -25.5t3.5 -40t-12 -46q-32 -68 -97 -98.5t-148 -12.5q-81 18 -125 57t-63 85t-19.5 92t5.5 79
q8 43 35 89t72 84t107.5 62t142.5 23q72 -1 135 -15t118.5 -35t104.5 -47.5t93 -52.5q63 35 136.5 54t155.5 14q97 -7 150.5 -37t52.5 -77q0 -30 -18 -53.5t-49 -39.5t-72.5 -25t-87.5 -10q-61 -2 -126.5 17.5t-136.5 46.5q-49 -39 -76 -87t-31 -95q-1 -7 -1 -13v-13
q4 0 7.5 0.5t7.5 0.5q58 0 91.5 -13.5t47 -32.5t7.5 -40t-26.5 -36.5t-55 -22t-78.5 4.5q-56 13 -89 44q-42 -15 -75 -41t-55 -58.5t-32.5 -69t-7.5 -73.5q3 -54 30 -92.5t64.5 -63.5t78.5 -37t72 -12q143 -3 270 63t227 196q7 9 15.5 10.5t15 -2t9.5 -11.5t-1 -18
q-44 -73 -100.5 -139.5t-125 -117.5t-149 -82t-171.5 -32q-9 -17 -15 -34t-6.5 -30.5t6 -20.5t22.5 -3zM1179 864q-48 -1 -90 -9.5t-78 -23.5q48 -26 93 -43t90 -15q78 3 115.5 18t35.5 32t-43.5 29.5t-122.5 11.5zM852 483q25 -3 40.5 -0.5t15.5 6.5t-17.5 7t-58.5 0
q7 -11 20 -13z" />
    <glyph glyph-name="eogonek" unicode="&#x119;" horiz-adv-x="405" 
d="M183 -100q5 1 10 1.5t8 -1t3 -6.5t-5 -14q-9 -16 -29 -27t-43 -12q-22 -1 -29.5 13t-4 36.5t16 49.5t30.5 52q-36 1 -62.5 13t-45 30.5t-28 42t-10.5 48.5q-3 49 12.5 96t42.5 89t62.5 78t72.5 62q24 17 60 28.5t71 11.5q43 0 71.5 -24t27.5 -67q-1 -28 -21.5 -62
t-57.5 -65t-89 -54.5t-115 -29.5q-2 -9 -3 -17t-1 -16q0 -34 9.5 -57.5t41.5 -25.5q16 0 36 7t48 21q30 16 55.5 38.5t49.5 48.5q15 16 24.5 28t18 23t17 23.5t21.5 30.5q7 6 15 6.5t13 -3t7 -11t-1 -16.5q-23 -38 -52.5 -83t-67 -85t-83 -70t-100.5 -37
q-11 -17 -17.5 -35.5t-7.5 -33t5.5 -22t23.5 -3.5zM325 428q-15 0 -37.5 -16t-47.5 -41.5t-49 -59t-40 -67.5q34 9 68 26.5t62 37.5t46.5 39.5t23.5 33.5q1 4 2.5 12t-0.5 16t-8.5 13.5t-19.5 5.5z" />
    <glyph glyph-name="Ecaron" unicode="&#x11a;" horiz-adv-x="1258" 
d="M1335 267q-46 -76 -106 -145.5t-133.5 -121.5t-159.5 -80.5t-184 -23.5q-85 4 -154 32.5t-116 74.5t-71 106t-19 128q3 48 26 95.5t61.5 89.5t90.5 75.5t114 52.5q-5 31 2 65t24.5 69.5t45 70t62.5 66.5q-43 17 -86.5 32.5t-88 27.5t-89 18t-89.5 5q-35 -2 -61 -16.5
t-43 -34.5t-25.5 -41t-9.5 -34q-1 -18 0 -36t7.5 -34t20 -28t39.5 -17q10 -2 23 -3.5t30 1t38.5 10t48.5 23.5q9 5 17 -3.5t12.5 -25.5t3.5 -40t-12 -46q-32 -68 -97 -98.5t-148 -12.5q-81 18 -125 57t-63 85t-19.5 92t5.5 79q8 43 35 89t72 84t107.5 62t142.5 23
q72 -1 135 -15t118.5 -35t104.5 -47.5t93 -52.5q63 35 136.5 54t155.5 14q97 -7 150.5 -37t52.5 -77q0 -30 -18 -53.5t-49 -39.5t-72.5 -25t-87.5 -10q-61 -2 -126.5 17.5t-136.5 46.5q-49 -39 -76 -87t-31 -95q-1 -7 -1 -13v-13q4 0 7.5 0.5t7.5 0.5q58 0 91.5 -13.5
t47 -32.5t7.5 -40t-26.5 -36.5t-55 -22t-78.5 4.5q-56 13 -89 44q-42 -15 -75 -41t-55 -58.5t-32.5 -69t-7.5 -73.5q3 -54 30 -92.5t64.5 -63.5t78.5 -37t72 -12q143 -3 270 63t227 196q7 9 15.5 10.5t15 -2t9.5 -11.5t-1 -18zM1179 864q-48 -1 -90 -9.5t-78 -23.5
q48 -26 93 -43t90 -15q78 3 115.5 18t35.5 32t-43.5 29.5t-122.5 11.5zM1199 1154q6 0 10.5 -1.5t5.5 -5t-4.5 -8.5t-20.5 -12q-36 -16 -61 -29.5t-43.5 -25.5t-33 -22.5t-29.5 -20.5q-14 -10 -19.5 -2t-6.5 13q-5 18 -8.5 30.5t-8.5 22.5t-11.5 17.5t-15.5 15.5
q-12 11 -7 19t16 10q33 6 52 3t29.5 -11t15.5 -17t8 -15q31 11 64 24t68 15zM852 483q25 -3 40.5 -0.5t15.5 6.5t-17.5 7t-58.5 0q7 -11 20 -13z" />
    <glyph glyph-name="ecaron" unicode="&#x11b;" horiz-adv-x="405" 
d="M414 400q-1 -28 -21.5 -62t-57.5 -65t-89 -54.5t-115 -29.5q-2 -9 -3 -17t-1 -16q0 -34 9.5 -57.5t41.5 -25.5q16 0 36 7t48 21q30 16 55.5 38.5t49.5 48.5q15 16 24.5 28t18 23t17 23.5t21.5 30.5q7 6 15 6.5t13 -3t7 -11t-1 -16.5q-24 -39 -55 -86t-70.5 -88t-88 -70
t-106.5 -33q-41 -3 -72 8t-52 30t-32 44t-12 52q-3 49 12.5 96t42.5 89t62.5 78t72.5 62q24 17 60 28.5t71 11.5q43 0 71.5 -24t27.5 -67zM527 662q6 0 10.5 -1.5t5.5 -5t-4.5 -8.5t-20.5 -12q-36 -16 -61 -29.5t-43.5 -25.5t-33 -22.5t-29.5 -20.5q-14 -10 -19.5 -2
t-6.5 13q-5 18 -8.5 30.5t-8.5 22.5t-11.5 17.5t-15.5 15.5q-12 11 -7 19t16 10q33 6 52 3t29.5 -11t15.5 -17t8 -15q31 11 64 24t68 15zM325 428q-15 0 -37.5 -16t-47.5 -41.5t-49 -59t-40 -67.5q34 9 68 26.5t62 37.5t46.5 39.5t23.5 33.5q1 4 2.5 12t-0.5 16t-8.5 13.5
t-19.5 5.5z" />
    <glyph glyph-name="Gcircumflex" unicode="&#x11c;" horiz-adv-x="1302" 
d="M1221 296q11 10 22.5 4.5t13.5 -19.5v-5q-7 -72 -28 -157t-54.5 -169.5t-80 -162t-105.5 -135t-129.5 -89t-152.5 -23.5q-46 4 -76.5 27t-46.5 52.5t-17.5 59.5t10.5 49q7 10 13.5 6t17 -13t28.5 -19t49 -10q72 -1 138.5 30.5t124.5 84.5t107 122t85 144q-34 -41 -75 -75
t-89 -58t-104 -35.5t-120 -8.5q-87 4 -154.5 34.5t-114 80t-70 115t-22.5 140.5q1 88 31 170t81.5 153.5t120.5 132t147 106.5q-52 19 -104 36t-103 30t-99.5 20t-93.5 6q-35 -1 -61 -15.5t-43 -34.5t-25.5 -41t-9.5 -34q-1 -18 3.5 -36t13.5 -33t23 -25.5t34 -13.5
q10 -2 22 -4.5t27.5 -1.5t36.5 7t48 22q8 5 16.5 -3.5t13 -25t3 -39.5t-12.5 -46q-32 -68 -97 -98.5t-147 -13.5q-81 18 -125 57t-63.5 85t-20 92.5t5.5 79.5q8 42 35 88t72 84.5t107.5 62.5t142.5 23q75 -2 145 -17.5t135 -39.5t124.5 -53.5t114.5 -58.5q81 35 162 53
t156 17q97 -5 150.5 -36t52.5 -78q0 -30 -18 -53.5t-49 -39.5t-72.5 -25t-87.5 -10q-58 -2 -129.5 17.5t-150.5 47.5q-69 -42 -129.5 -99.5t-104 -125.5t-67 -143.5t-20.5 -152.5q3 -68 25.5 -112t55 -70t69 -37t67.5 -11q71 -2 130 14t110 48.5t94.5 82t82.5 114.5v1z
M1194 871q-48 -1 -96.5 -11.5t-96.5 -29.5q54 -26 102 -42.5t91 -14.5q76 3 114 19t37.5 34t-38.5 32t-113 13zM906 1043q-6 0 -10.5 1.5t-5.5 5t4.5 8.5t20.5 12q36 16 61 29.5t43.5 25.5t33 22.5t29.5 20.5q7 5 11.5 5t7.5 -3t4.5 -6.5t2.5 -6.5q4 -18 8 -30.5t9 -22.5
t11.5 -17.5t15.5 -15.5q12 -11 7 -19t-16 -10q-33 -6 -52 -3t-29.5 11t-15.5 17t-8 15q-31 -11 -64 -24t-68 -15z" />
    <glyph glyph-name="gcircumflex" unicode="&#x11d;" horiz-adv-x="503" 
d="M524 431q-26 -41 -55.5 -89t-62.5 -101t-69 -108.5t-73 -110.5q57 30 101 67t84 80q15 15 29 32.5t26 34t22 30.5t16 22q7 9 15.5 10.5t15 -2t9.5 -11.5t-1 -18q-47 -77 -104 -145q-22 -25 -50.5 -52t-60.5 -51.5t-66.5 -46t-67.5 -35.5q-8 -3 -18.5 -7.5t-23.5 -11.5
q-45 -60 -90 -114t-90 -96q-14 -14 -34 -28.5t-43 -25t-47 -15t-46 2.5q-23 8 -36 21.5t-14 38.5q-2 36 20 69t55 60.5t70.5 48t67.5 32.5l94 36q11 17 22 32.5t22 32.5q-24 -12 -53 -12q-43 1 -67.5 31.5t-26.5 90.5q-1 38 10 80t31.5 83t49.5 78.5t64 65t74.5 43
t80.5 13.5q10 0 23 -3.5t25.5 -12.5t22 -25t11.5 -41l30 50q6 9 25 10.5t39 -2.5t34 -12.5t10 -18.5zM283 233l36 60l4 4l-4 -4l9 15q4 12 7 30t2 35t-7.5 29.5t-20.5 13.5q-11 1 -34.5 -11t-50 -39t-52 -69.5t-40.5 -103.5q-3 -10 -4.5 -23t0 -24.5t8 -19t20.5 -6.5
q7 0 19.5 7.5t28.5 20t33.5 30.5t34.5 39zM302 551q-6 0 -10.5 1.5t-5.5 5t4.5 8.5t20.5 12q36 16 61 29.5t43.5 25.5t33 22.5t29.5 20.5q7 5 11.5 5t7.5 -3t4.5 -6.5t2.5 -6.5q4 -18 8 -30.5t9 -22.5t11.5 -17.5t15.5 -15.5q12 -11 7 -19t-16 -10q-33 -6 -52 -3t-29.5 11
t-15.5 17t-8 15q-31 -11 -64 -24t-68 -15zM-122 -277q0 -9 8 -6.5t20 12t27 23.5t27.5 27t21 22t9.5 9q-48 -28 -80 -52t-33 -35zM-9 -191l2 2q-1 -1 -2 -1v-1z" />
    <glyph glyph-name="Gbreve" unicode="&#x11e;" horiz-adv-x="1302" 
d="M1220 295q11 11 23 5.5t14 -19.5v-5q-7 -72 -28 -157t-54.5 -169.5t-80 -162t-105.5 -135t-129.5 -89t-152.5 -23.5q-46 4 -76.5 27t-46.5 52.5t-17.5 59.5t10.5 49q7 10 13.5 6t17 -13t28.5 -19t49 -10q72 -1 138.5 30.5t124.5 84.5t107 122t85 144q-34 -41 -75 -75
t-89 -58t-104 -35.5t-120 -8.5q-87 4 -154.5 34.5t-114 80t-70 115t-22.5 140.5q1 88 31 170t81.5 153.5t120.5 132t147 106.5q-52 19 -104 36t-103 30t-99.5 20t-93.5 6q-35 -1 -61 -15.5t-43 -34.5t-25.5 -41t-9.5 -34q-1 -18 3.5 -36t13.5 -33t23 -25.5t34 -13.5
q10 -2 22 -4.5t27.5 -1.5t36.5 7t48 22q8 5 16.5 -3.5t13 -25t3 -39.5t-12.5 -46q-32 -68 -97 -98.5t-147 -13.5q-81 18 -125 57t-63.5 85t-20 92.5t5.5 79.5q8 42 35 88t72 84.5t107.5 62.5t142.5 23q75 -2 145 -17.5t135 -39.5t124.5 -53.5t114.5 -58.5q81 35 162 53
t156 17q97 -5 150.5 -36t52.5 -78q0 -30 -18 -53.5t-49 -39.5t-72.5 -25t-87.5 -10q-58 -2 -129.5 17.5t-150.5 47.5q-69 -42 -129.5 -99.5t-104 -125.5t-67 -143.5t-20.5 -152.5q3 -68 25.5 -112t55 -70t69 -37t67.5 -11q71 -2 130 14t110 48.5t94.5 82t82.5 114.5v1z
M1194 871q-48 -1 -96.5 -11.5t-96.5 -29.5q54 -26 102 -42.5t91 -14.5q76 3 114 19t37.5 34t-38.5 32t-113 13zM1157 1163q7 10 17.5 14.5t19 3.5t12.5 -7t-1 -16q-3 -6 -7.5 -13t-10.5 -15q-35 -48 -80.5 -72t-86.5 -26q-42 -2 -73.5 19.5t-38.5 66.5q-5 29 11 56
q5 7 13 10t15 3t11.5 -4t2.5 -10q-5 -23 0.5 -37t17.5 -22t28.5 -10.5t33.5 -0.5q13 1 29 5.5t32 12t30.5 18t24.5 24.5z" />
    <glyph glyph-name="gbreve" unicode="&#x11f;" horiz-adv-x="503" 
d="M524 431q-26 -41 -55.5 -89t-62.5 -101t-69 -108.5t-73 -110.5q57 30 101 67t84 80q15 15 29 32.5t26 34t22 30.5t16 22q7 9 15.5 10.5t15 -2t9.5 -11.5t-1 -18q-47 -77 -104 -145q-22 -25 -50.5 -52t-60.5 -51.5t-66.5 -46t-67.5 -35.5q-8 -3 -18.5 -7.5t-23.5 -11.5
q-45 -60 -90 -114t-90 -96q-14 -14 -34 -28.5t-43 -25t-47 -15t-46 2.5q-23 8 -36 21.5t-14 38.5q-2 36 20 69t55 60.5t70.5 48t67.5 32.5l94 36q11 17 22 32.5t22 32.5q-24 -12 -53 -12q-43 1 -67.5 31.5t-26.5 90.5q-1 38 10 80t31.5 83t49.5 78.5t64 65t74.5 43
t80.5 13.5q10 0 23 -3.5t25.5 -12.5t22 -25t11.5 -41l30 50q6 9 25 10.5t39 -2.5t34 -12.5t10 -18.5zM283 233l36 60q1 1 2 1.5t2 2.5l-4 -4l9 15q4 12 7 30t2 35t-7.5 29.5t-20.5 13.5q-11 1 -34.5 -11t-50 -39t-52 -69.5t-40.5 -103.5q-3 -10 -4.5 -23t0 -24.5t8 -19
t20.5 -6.5q7 0 19.5 7.5t28.5 20t33.5 30.5t34.5 39zM538 671q7 10 17.5 14.5t19 3.5t12.5 -7t-1 -16q-3 -6 -7.5 -13t-10.5 -15q-35 -48 -80.5 -72t-86.5 -26q-42 -2 -73.5 19.5t-38.5 66.5q-5 29 11 56q5 7 13 10t15 3t11.5 -4t2.5 -10q-5 -23 0.5 -37t17.5 -22
t28.5 -10.5t33.5 -0.5q13 1 29 5.5t32 12t30.5 18t24.5 24.5zM-122 -277q0 -9 8 -6.5t20 12t27 23.5t27.5 27t21 22t9.5 9q-48 -28 -80 -52t-33 -35zM-9 -191l2 2q-1 -1 -2 -1v-1z" />
    <glyph glyph-name="Gdotaccent" unicode="&#x120;" horiz-adv-x="1302" 
d="M1221 296q11 10 22.5 4.5t13.5 -19.5v-5q-7 -72 -28 -157t-54.5 -169.5t-80 -162t-105.5 -135t-129.5 -89t-152.5 -23.5q-46 4 -76.5 27t-46.5 52.5t-17.5 59.5t10.5 49q7 10 13.5 6t17 -13t28.5 -19t49 -10q72 -1 138.5 30.5t124.5 84.5t107 122t85 144q-34 -41 -75 -75
t-89 -58t-104 -35.5t-120 -8.5q-87 4 -154.5 34.5t-114 80t-70 115t-22.5 140.5q1 88 31 170t81.5 153.5t120.5 132t147 106.5q-52 19 -104 36t-103 30t-99.5 20t-93.5 6q-35 -1 -61 -15.5t-43 -34.5t-25.5 -41t-9.5 -34q-1 -18 3.5 -36t13.5 -33t23 -25.5t34 -13.5
q10 -2 22 -4.5t27.5 -1.5t36.5 7t48 22q8 5 16.5 -3.5t13 -25t3 -39.5t-12.5 -46q-32 -68 -97 -98.5t-147 -13.5q-81 18 -125 57t-63.5 85t-20 92.5t5.5 79.5q8 42 35 88t72 84.5t107.5 62.5t142.5 23q75 -2 145 -17.5t135 -39.5t124.5 -53.5t114.5 -58.5q81 35 162 53
t156 17q97 -5 150.5 -36t52.5 -78q0 -30 -18 -53.5t-49 -39.5t-72.5 -25t-87.5 -10q-58 -2 -129.5 17.5t-150.5 47.5q-69 -42 -129.5 -99.5t-104 -125.5t-67 -143.5t-20.5 -152.5q3 -68 25.5 -112t55 -70t69 -37t67.5 -11q71 -2 130 14t110 48.5t94.5 82t82.5 114.5v1z
M1194 871q-48 -1 -96.5 -11.5t-96.5 -29.5q54 -26 102 -42.5t91 -14.5q76 3 114 19t37.5 34t-38.5 32t-113 13zM946 1078q6 25 26 43.5t46 21.5q24 2 38 -12.5t8 -40.5q-5 -26 -25.5 -45.5t-46.5 -24.5q-24 -2 -37.5 13.5t-8.5 44.5z" />
    <glyph glyph-name="gdotaccent" unicode="&#x121;" horiz-adv-x="503" 
d="M524 431q-26 -41 -55.5 -89t-62.5 -101t-69 -108.5t-73 -110.5q57 30 101 67t84 80q15 15 29 32.5t26 34t22 30.5t16 22q7 9 15.5 10.5t15 -2t9.5 -11.5t-1 -18q-47 -77 -104 -145q-22 -25 -50.5 -52t-60.5 -51.5t-66.5 -46t-67.5 -35.5q-8 -3 -18.5 -7.5t-23.5 -11.5
q-45 -60 -90 -114t-90 -96q-14 -14 -34 -28.5t-43 -25t-47 -15t-46 2.5q-23 8 -36 21.5t-14 38.5q-2 36 20 69t55 60.5t70.5 48t67.5 32.5l94 36q11 17 22 32.5t22 32.5q-24 -12 -53 -12q-43 1 -67.5 31.5t-26.5 90.5q-1 38 10 80t31.5 83t49.5 78.5t64 65t74.5 43
t80.5 13.5q10 0 23 -3.5t25.5 -12.5t22 -25t11.5 -41l30 50q6 9 25 10.5t39 -2.5t34 -12.5t10 -18.5zM283 233l36 60q1 1 2 1.5t2 2.5l-4 -4l9 15q4 12 7 30t2 35t-7.5 29.5t-20.5 13.5q-11 1 -34.5 -11t-50 -39t-52 -69.5t-40.5 -103.5q-3 -10 -4.5 -23t0 -24.5t8 -19
t20.5 -6.5q7 0 19.5 7.5t28.5 20t33.5 30.5t34.5 39zM357 586q6 25 26 43.5t46 21.5q24 2 38 -12.5t8 -40.5q-5 -26 -25.5 -45.5t-46.5 -24.5q-24 -2 -37.5 13.5t-8.5 44.5zM-122 -277q0 -9 8 -6.5t20 12t27 23.5t27.5 27t21 22t9.5 9q-48 -28 -80 -52t-33 -35zM-9 -191l2 2
q-1 -1 -2 -1v-1z" />
    <glyph glyph-name="Hcircumflex" unicode="&#x124;" horiz-adv-x="1060" 
d="M617 197q-15 -11 -27.5 -3.5t-19.5 24.5q-47 -62 -95.5 -115t-99.5 -91.5t-103 -60.5t-104 -20q-27 1 -54 9.5t-49.5 24t-38 37.5t-17.5 49q-1 7 0.5 22t6 29.5t12 24t19.5 5.5q30 -8 59.5 -15t60.5 -6q53 0 105.5 25t104 67t101.5 97.5t98 117.5t93 125.5t87 122
t80.5 108t72.5 81.5q10 10 24 21q-40 13 -78.5 25t-77.5 22t-79.5 15.5t-85.5 5.5q-59 -1 -104.5 -18t-75.5 -43t-45 -58t-13 -63q1 -18 5.5 -35.5t14.5 -31.5t27.5 -22.5t43.5 -7.5q10 0 23 1.5t29 7.5t35 18t42 34q7 6 17 -0.5t18.5 -22t12 -38t-1.5 -47.5
q-16 -73 -72.5 -117.5t-141.5 -44.5q-55 0 -96 12.5t-70.5 33t-49 47.5t-30.5 56.5t-15.5 58t-4.5 53.5q-1 55 20.5 115t69 110t122.5 82.5t180 33.5q51 0 102 -11t101.5 -28.5t100 -39t99.5 -42.5l43 -20q36 19 76.5 30t80.5 8q20 -2 35.5 -10.5t24 -21.5t9 -29t-8.5 -31
q-17 -27 -46 -33.5t-64 -0.5q-23 4 -48 10.5t-50 14.5l-16 -11q-20 -15 -45 -47.5t-50 -70.5t-47 -74.5t-36 -59.5q-34 -57 -71 -118.5t-78 -122.5q55 28 112 26t123 -39q52 75 110 149t119.5 140.5t124.5 121.5t125.5 92.5t124 53.5t119.5 5q55 -11 80 -37t29.5 -52.5
t-7 -47t-27.5 -21.5q-11 1 -15 9.5t-13.5 18t-30 17t-63.5 7.5q-89 -1 -166.5 -36.5t-142.5 -93.5t-119.5 -131.5t-97.5 -150.5t-76 -151.5t-56.5 -134t-37.5 -97t-19 -41.5q-5 -6 -22 -9.5t-40 -5t-48 -0.5t-45 3.5t-31.5 7t-7.5 10.5q38 69 91 157t118 182q-38 18 -69 15
t-61 -20t-60.5 -44t-67.5 -56zM1185 1043q-6 0 -10.5 1.5t-5.5 5t4.5 8.5t20.5 12q36 16 61 29.5t43.5 25.5t33 22.5t29.5 20.5q7 5 11.5 5t7.5 -3t4.5 -6.5t2.5 -6.5q4 -18 8 -30.5t9 -22.5t11.5 -17.5t15.5 -15.5q12 -11 7 -19t-16 -10q-33 -6 -52 -3t-29.5 11t-15.5 17
t-8 15q-31 -11 -64 -24t-68 -15zM1130 905q-14 -2 -27.5 -6t-27.5 -9q6 -2 12 -3t13 -2q15 -3 28 0t19.5 7.5t3.5 8.5t-21 4z" />
    <glyph glyph-name="hcircumflex" unicode="&#x125;" 
d="M34 41q-10 -19 -14.5 -28t-9.5 -12t-13.5 -2.5t-25.5 0.5t-27.5 -1t-24.5 0q-10 0 -13 5t-2 12t3.5 13t3.5 8q29 69 85 175t153 258l156 248l3 5q6 10 25 11.5t38.5 -2.5t34 -13t10.5 -19l-4 -7l-155 -248q-7 -12 -19 -31.5t-27 -43.5l14 15q10 10 22 27.5t28 34t35 29.5
t42 15q45 4 69.5 -17.5t22.5 -52.5q-2 -18 -8 -36.5t-14.5 -37t-18 -35.5t-18.5 -31l-25 -43q-13 -23 -23.5 -44t-15.5 -36.5t-3.5 -24.5t12.5 -9q18 1 42 22.5t47 49t42 54.5t29 39q7 9 15 10.5t14.5 -2t9.5 -11.5t-1 -18q-28 -47 -61.5 -91.5t-68.5 -82.5q-10 -10 -26 -27
t-35.5 -32.5t-42.5 -26.5t-46 -10q-21 1 -35 7t-22 15t-12 20.5t-5 23.5q-1 14 4 34.5t14 42.5t19.5 43t20.5 37q16 29 36.5 64.5t35.5 66.5t21 51.5t-7 20.5q-14 0 -33 -13.5t-40 -35t-42 -47.5t-39 -51t-32 -45.5t-20 -30.5q-9 -17 -19 -37.5t-20.5 -42t-20.5 -42
t-18 -37.5zM340 772q-6 0 -10.5 1.5t-5.5 5t4.5 8.5t20.5 12q36 16 61 29.5t43.5 25.5t33 22.5t29.5 20.5q7 5 11.5 5t7.5 -3t4.5 -6.5t2.5 -6.5q4 -18 8 -30.5t9 -22.5t11.5 -17.5t15.5 -15.5q12 -11 7 -19t-16 -10q-33 -6 -52 -3t-29.5 11t-15.5 17t-8 15q-31 -11 -64 -24
t-68 -15z" />
    <glyph glyph-name="Hbar" unicode="&#x126;" horiz-adv-x="1060" 
d="M617 197q-15 -11 -27.5 -3.5t-19.5 24.5q-47 -62 -95.5 -115t-99.5 -91.5t-103 -60.5t-104 -20q-27 1 -54 9.5t-49.5 24t-38 37.5t-17.5 49q-1 7 0.5 22t6 29.5t12 24t19.5 5.5q30 -8 59.5 -15t60.5 -6q48 0 95.5 20.5t94.5 56t93 83.5t90 102t86 112t82 114q-19 0 -14 9
q9 17 7.5 29t-3 20.5t2 13t21.5 6.5l43 2q40 54 76 99.5t68 76.5q10 10 24 21q-40 13 -78.5 25t-77.5 22t-79.5 15.5t-85.5 5.5q-59 -1 -104.5 -18t-75.5 -43t-45 -58t-13 -63q1 -18 5.5 -35.5t14.5 -31.5t27.5 -22.5t43.5 -7.5q10 0 23 1.5t29 7.5t35 18t42 34q7 6 17 -0.5
t18.5 -22t12 -38t-1.5 -47.5q-16 -73 -72.5 -117.5t-141.5 -44.5q-55 0 -96 12.5t-70.5 33t-49 47.5t-30.5 56.5t-15.5 58t-4.5 53.5q-1 55 20.5 115t69 110t122.5 82.5t180 33.5q51 0 102 -11t101.5 -28.5t100 -39t99.5 -42.5l43 -20q36 19 76.5 30t80.5 8
q20 -2 35.5 -10.5t24 -21.5t9 -29t-8.5 -31q-17 -27 -46 -33.5t-64 -0.5q-23 4 -48 10.5t-50 14.5l-16 -11q-13 -10 -28.5 -27.5t-32 -40t-33 -48t-31.5 -49.5q74 -2 154 -5.5t150 -2.5q57 57 114.5 104t115 78.5t113.5 44t109 2.5q55 -11 80 -37t29.5 -52.5t-7 -47
t-27.5 -21.5q-11 1 -15 9.5t-13.5 18t-30 17t-63.5 7.5q-88 -2 -163 -35.5t-140 -89.5q0 -2 -0.5 -3t-0.5 -3q-5 -17 -3 -30t2 -21t-5 -12t-22 -4q-11 -1 -22.5 -1.5t-24.5 -0.5q-54 -61 -98 -130.5t-80 -139t-63.5 -134t-46.5 -115t-31 -82t-17 -35.5q-5 -6 -22 -9.5
t-40 -5t-48 -0.5t-45 3.5t-31.5 7t-7.5 10.5q38 69 91 157t118 182q-38 18 -69 15t-61 -20t-60.5 -44t-67.5 -56zM813 591q-34 -57 -71 -118.5t-78 -122.5q55 28 112 26t123 -39q47 67 96.5 132t103.5 125q-68 2 -140.5 6t-137.5 4zM1130 905q-14 -2 -27.5 -6t-27.5 -9
q6 -2 12 -3t13 -2q15 -3 28 0t19.5 7.5t3.5 8.5t-21 4z" />
    <glyph glyph-name="hbar" unicode="&#x127;" 
d="M193 558q-11 -2 -19 -1.5t-6 8.5q4 16 3.5 28t-1 20t1 12.5t10.5 6.5q27 4 70 1l53 84l3 5q6 10 25 11.5t38.5 -2.5t34 -13t10.5 -19l-4 -7l-41 -66q17 -1 32.5 -0.5t29.5 2.5q16 2 20.5 1t2.5 -12q-2 -17 -1.5 -29t0.5 -20t-2 -12t-11 -4q-23 -3 -53 -1t-62 4l-70 -111
q-7 -12 -19 -31.5t-27 -43.5l14 15q10 10 22 27.5t28 34t35 29.5t42 15q45 4 69.5 -17.5t22.5 -52.5q-2 -18 -8 -36.5t-14.5 -37t-18 -35.5t-18.5 -31l-25 -43q-13 -23 -23.5 -44t-15.5 -36.5t-3.5 -24.5t12.5 -9q18 1 42 22.5t47 49t42 54.5t29 39q7 9 15 10.5t14.5 -2
t9.5 -11.5t-1 -18q-28 -47 -61.5 -91.5t-68.5 -82.5q-10 -10 -26 -27t-35.5 -32.5t-42.5 -26.5t-46 -10q-21 1 -35 7t-22 15t-12 20.5t-5 23.5q-1 14 4 34.5t14 42.5t19.5 43t20.5 37q16 29 36.5 64.5t35.5 66.5t21 51.5t-7 20.5q-14 0 -33 -13.5t-40 -35t-42 -47.5t-39 -51
t-32 -45.5t-20 -30.5q-9 -17 -19 -37.5t-20.5 -42t-20.5 -42t-18 -37.5q-10 -19 -14.5 -28t-9.5 -12t-13.5 -2.5t-25.5 0.5t-27.5 -1t-24.5 0q-10 0 -13 5t-2 12t3.5 13t3.5 8q29 69 85 175t153 258l57 90q-4 0 -7 -0.5t-6 -0.5z" />
    <glyph glyph-name="Itilde" unicode="&#x128;" horiz-adv-x="689" 
d="M565 841q93 24 189 34.5t193 22.5q29 33 61 61t67 43q21 9 39.5 9.5t31.5 -7t19.5 -20.5t5.5 -31q-1 -9 -8.5 -21.5t-19.5 -24.5t-27.5 -22t-31.5 -14q-27 -8 -52.5 -14.5t-50.5 -11.5q-43 -54 -87 -123t-89.5 -144t-93 -152.5t-97.5 -150t-102.5 -136.5t-108 -110.5
t-114 -73t-121.5 -24.5q-27 1 -54 9.5t-49.5 24t-38 37.5t-17.5 49q-1 7 0.5 22t6 29.5t12 24t19.5 5.5q30 -8 59.5 -15t60.5 -6q62 0 123.5 32.5t121 86.5t117.5 122.5t112.5 141t105 142.5t95.5 126l50 66q-63 -11 -126.5 -23t-132.5 -32q-50 -14 -86.5 -35.5t-60 -45.5
t-35 -48.5t-11.5 -43.5q0 -31 23.5 -43t58.5 4q9 4 20.5 11.5t23 22.5t21.5 39.5t16 63.5q4 24 14.5 26.5t20 -12.5t15 -45.5t-1.5 -72.5q-4 -25 -19 -57.5t-36.5 -63.5t-49 -56.5t-57.5 -35.5q-68 -23 -114 -13.5t-75 34.5t-42 55.5t-14 49.5q-3 54 13.5 104t55 93.5
t101 78t151.5 58.5zM890 1134q33 0 63 -6.5t56 -11t50 -3.5t45 16q7 5 12 9.5t8.5 6t5 -1t0.5 -12.5q-2 -23 -11 -40t-22.5 -28t-29.5 -17t-32 -7q-29 -2 -54 5t-49 12t-48.5 5t-51.5 -15q-14 -7 -22.5 -10.5t-7.5 11.5q2 35 26 59.5t62 27.5zM1077 946q-12 -6 -22.5 -15.5
t-20.5 -20.5l24 5q21 5 32.5 13.5t13.5 15.5t-5 8.5t-22 -6.5z" />
    <glyph glyph-name="itilde" unicode="&#x129;" horiz-adv-x="219" 
d="M134 454q6 9 25 10.5t39 -2.5t34 -12.5t10 -18.5q0 -7 -15 -33t-36.5 -60.5t-44 -72.5t-38.5 -70t-20 -52.5t12 -19.5q18 1 42 22.5t47 49t42 54.5t29 39q7 9 15.5 10.5t15 -2t9.5 -11.5t-1 -18q-29 -47 -62 -91.5t-68 -82.5q-10 -10 -26 -27t-36 -32.5t-42.5 -26.5
t-45.5 -10q-21 1 -35 7t-22.5 15t-12 20.5t-4.5 23.5q-2 16 5 40t17 48.5t21.5 47.5t20.5 38zM193 642q33 0 63 -6.5t56 -11t50 -3.5t45 16q7 5 12 9.5t8.5 6t5 -1t0.5 -12.5q-2 -23 -11 -40t-22.5 -28t-29.5 -17t-32 -7q-29 -2 -54 5t-49 12t-48.5 5t-51.5 -15
q-14 -7 -22.5 -10.5t-7.5 11.5q2 35 26 59.5t62 27.5z" />
    <glyph glyph-name="Imacron" unicode="&#x12a;" horiz-adv-x="689" 
d="M565 841q93 24 189 34.5t193 22.5q29 33 61 61t67 43q21 9 39.5 9.5t31.5 -7t19.5 -20.5t5.5 -31q-1 -9 -8.5 -21.5t-19.5 -24.5t-27.5 -22t-31.5 -14q-27 -8 -52.5 -14.5t-50.5 -11.5q-43 -54 -87 -123t-89.5 -144t-93 -152.5t-97.5 -150t-102.5 -136.5t-108 -110.5
t-114 -73t-121.5 -24.5q-27 1 -54 9.5t-49.5 24t-38 37.5t-17.5 49q-1 7 0.5 22t6 29.5t12 24t19.5 5.5q30 -8 59.5 -15t60.5 -6q62 0 123.5 32.5t121 86.5t117.5 122.5t112.5 141t105 142.5t95.5 126l50 66q-63 -11 -126.5 -23t-132.5 -32q-50 -14 -86.5 -35.5t-60 -45.5
t-35 -48.5t-11.5 -43.5q0 -31 23.5 -43t58.5 4q9 4 20.5 11.5t23 22.5t21.5 39.5t16 63.5q4 24 14.5 26.5t20 -12.5t15 -45.5t-1.5 -72.5q-4 -25 -19 -57.5t-36.5 -63.5t-49 -56.5t-57.5 -35.5q-68 -23 -114 -13.5t-75 34.5t-42 55.5t-14 49.5q-3 54 13.5 104t55 93.5
t101 78t151.5 58.5zM797 1045q-11 -2 -19 -1.5t-6 8.5q4 16 3.5 28t-1 20t1 12.5t10.5 6.5q23 4 55 2.5t66.5 -4.5t68.5 -4.5t61 2.5q16 2 20.5 1t2.5 -12q-2 -17 -1.5 -29t0.5 -20t-2 -12t-11 -4q-24 -3 -56 -1t-66 5t-67.5 4.5t-59.5 -2.5zM1077 946q-12 -6 -22.5 -15.5
t-20.5 -20.5l24 5q21 5 32.5 13.5t13.5 15.5t-5 8.5t-22 -6.5z" />
    <glyph glyph-name="imacron" unicode="&#x12b;" horiz-adv-x="219" 
d="M134 454q6 9 25 10.5t39 -2.5t34 -12.5t10 -18.5q0 -7 -15 -33t-36.5 -60.5t-44 -72.5t-38.5 -70t-20 -52.5t12 -19.5q18 1 42 22.5t47 49t42 54.5t29 39q7 9 15.5 10.5t15 -2t9.5 -11.5t-1 -18q-29 -47 -62 -91.5t-68 -82.5q-10 -10 -26 -27t-36 -32.5t-42.5 -26.5
t-45.5 -10q-21 1 -35 7t-22.5 15t-12 20.5t-4.5 23.5q-2 16 5 40t17 48.5t21.5 47.5t20.5 38zM132 553q-11 -2 -19 -1.5t-6 8.5q4 16 3.5 28t-1 20t1 12.5t10.5 6.5q23 4 55 2.5t66.5 -4.5t68.5 -4.5t61 2.5q16 2 20.5 1t2.5 -12q-2 -17 -1.5 -29t0.5 -20t-2 -12t-11 -4
q-24 -3 -56 -1t-66 5t-67.5 4.5t-59.5 -2.5z" />
    <glyph glyph-name="Iogonek" unicode="&#x12e;" horiz-adv-x="689" 
d="M179 -157q5 1 10 1.5t8 -1t3 -6.5t-5 -14q-9 -16 -29 -27t-43 -12q-22 -1 -29.5 13t-4 36.5t16 49.5t30.5 52q-23 4 -45 14t-39.5 25t-29 34.5t-13.5 42.5q-1 7 0.5 22t6 29.5t12 24t19.5 5.5q30 -8 59.5 -15t60.5 -6q62 0 123.5 32.5t121 86.5t117.5 122.5t112.5 141
t105 142.5t95.5 126l50 66q-63 -11 -126.5 -23t-132.5 -32q-50 -14 -86.5 -35.5t-60 -45.5t-35 -48.5t-11.5 -43.5q0 -31 23.5 -43t58.5 4q9 4 20.5 11.5t23 22.5t21.5 39.5t16 63.5q4 24 14.5 26.5t20 -12.5t15 -45.5t-1.5 -72.5q-4 -25 -19 -57.5t-36.5 -63.5t-49 -56.5
t-57.5 -35.5q-68 -23 -114 -13.5t-75 34.5t-42 55.5t-14 49.5q-3 54 13.5 104t55 93.5t101 78t151.5 58.5q93 24 189 34.5t193 22.5q29 33 61 61t67 43q21 9 39.5 9.5t31.5 -7t19.5 -20.5t5.5 -31q-1 -9 -8.5 -21.5t-19.5 -24.5t-27.5 -22t-31.5 -14q-27 -8 -52.5 -14.5
t-50.5 -11.5q-43 -54 -86.5 -122.5t-89 -143t-93 -152t-97 -150t-101.5 -136t-107.5 -110.5t-114 -74t-120.5 -26q-9 -17 -15 -34t-6.5 -30.5t6 -20.5t22.5 -3zM1077 946q-12 -6 -22.5 -15.5t-20.5 -20.5l24 5q21 5 32.5 13.5t13.5 15.5t-5 8.5t-22 -6.5z" />
    <glyph glyph-name="iogonek" unicode="&#x12f;" horiz-adv-x="219" 
d="M21 -100q5 1 10 1.5t8 -1t3 -6.5t-5 -14q-9 -16 -29 -27t-43 -12t-30 15t-2 40t19.5 52.5t34.5 54.5q-23 8 -31.5 24.5t-10.5 35.5q-2 16 5 40t17 48.5t21.5 47.5t20.5 38l125 217q6 9 25 10.5t39 -2.5t34 -12.5t10 -18.5q0 -7 -15 -33t-36.5 -60.5t-44 -72.5t-38.5 -70
t-20 -52.5t12 -19.5q18 1 42 22.5t47 49t42 54.5t29 39q7 9 15.5 10.5t15 -2t9.5 -11.5t-1 -18q-29 -47 -62 -91.5t-68 -82.5q-10 -10 -26 -26.5t-36 -32.5t-42.5 -27t-45.5 -10q-11 -17 -18 -36t-8.5 -34t5 -23t23.5 -4zM234 656q10 15 23 25.5t27 15t28 3.5t26 -8
q24 -16 27 -48.5t-17 -62.5q-10 -15 -23 -25t-27 -14.5t-28 -3.5t-26 9q-25 16 -27.5 47.5t17.5 61.5z" />
    <glyph glyph-name="Idotaccent" unicode="&#x130;" horiz-adv-x="689" 
d="M565 841q93 24 189 34.5t193 22.5q29 33 61 61t67 43q21 9 39.5 9.5t31.5 -7t19.5 -20.5t5.5 -31q-1 -9 -8.5 -21.5t-19.5 -24.5t-27.5 -22t-31.5 -14q-27 -8 -52.5 -14.5t-50.5 -11.5q-43 -54 -87 -123t-89.5 -144t-93 -152.5t-97.5 -150t-102.5 -136.5t-108 -110.5
t-114 -73t-121.5 -24.5q-27 1 -54 9.5t-49.5 24t-38 37.5t-17.5 49q-1 7 0.5 22t6 29.5t12 24t19.5 5.5q30 -8 59.5 -15t60.5 -6q62 0 123.5 32.5t121 86.5t117.5 122.5t112.5 141t105 142.5t95.5 126l50 66q-63 -11 -126.5 -23t-132.5 -32q-50 -14 -86.5 -35.5t-60 -45.5
t-35 -48.5t-11.5 -43.5q0 -31 23.5 -43t58.5 4q9 4 20.5 11.5t23 22.5t21.5 39.5t16 63.5q4 24 14.5 26.5t20 -12.5t15 -45.5t-1.5 -72.5q-4 -25 -19 -57.5t-36.5 -63.5t-49 -56.5t-57.5 -35.5q-68 -23 -114 -13.5t-75 34.5t-42 55.5t-14 49.5q-3 54 13.5 104t55 93.5
t101 78t151.5 58.5zM900 1078q6 25 26 43.5t46 21.5q24 2 38 -12.5t8 -40.5q-5 -26 -25.5 -45.5t-46.5 -24.5q-24 -2 -37.5 13.5t-8.5 44.5zM1077 946q-12 -6 -22.5 -15.5t-20.5 -20.5l24 5q21 5 32.5 13.5t13.5 15.5t-5 8.5t-22 -6.5z" />
    <glyph glyph-name="IJ" unicode="&#x132;" horiz-adv-x="1382" 
d="M1649 901q23 30 51 57t66 44q21 9 39 9.5t31.5 -7t20 -20.5t5.5 -31q-1 -9 -8.5 -21t-19.5 -24t-27.5 -22t-32.5 -15q-20 -8 -44.5 -14t-49.5 -11q-18 -23 -42.5 -57t-50 -70.5t-48 -71t-35.5 -56.5q-31 -53 -68 -117t-79 -132.5t-88.5 -139t-97 -135t-105 -121
t-112.5 -98t-119 -64.5t-124 -21q-37 1 -75.5 11t-70 29t-53 45.5t-24.5 60.5q-1 9 0.5 27.5t7.5 35.5t17 28.5t28 7.5q42 -11 83.5 -19t84.5 -7q72 0 140.5 28.5t133 76t125.5 111t116.5 133.5t107 143t97.5 139.5t86 122.5t75 93q-39 -8 -76 -15t-75 -15t-77.5 -17.5
t-83.5 -21.5q-56 -16 -96.5 -39.5t-66.5 -50t-38.5 -53t-12.5 -47.5q0 -34 26 -47t65 4q10 5 23 13t25.5 24t24 43t17.5 70q4 26 15.5 28.5t22.5 -14t16.5 -49.5t-1.5 -79q-5 -27 -21 -63t-40.5 -70t-55 -61.5t-63.5 -38.5q-50 -17 -89 -17.5t-69.5 10.5t-51.5 29.5
t-34.5 39.5t-20.5 41.5t-7 34.5q-3 59 15 114t61 102t112 85.5t168 64.5q54 14 110 23.5t112 16t112.5 13t112.5 14.5zM565 841q93 24 189 34.5t193 22.5q29 33 61 61t67 43q21 9 39.5 9.5t31.5 -7t19.5 -20.5t5.5 -31q-1 -9 -8.5 -21.5t-19.5 -24.5t-27.5 -22t-31.5 -14
q-27 -8 -52.5 -14.5t-50.5 -11.5q-43 -54 -87 -123t-89.5 -144t-93 -152.5t-97.5 -150t-102.5 -136.5t-108 -110.5t-114 -73t-121.5 -24.5q-27 1 -54 9.5t-49.5 24t-38 37.5t-17.5 49q-1 7 0.5 22t6 29.5t12 24t19.5 5.5q30 -8 59.5 -15t60.5 -6q62 0 123.5 32.5t121 86.5
t117.5 122.5t112.5 141t105 142.5t95.5 126l50 66q-63 -11 -126.5 -23t-132.5 -32q-50 -14 -86.5 -35.5t-60 -45.5t-35 -48.5t-11.5 -43.5q0 -31 23.5 -43t58.5 4q9 4 20.5 11.5t23 22.5t21.5 39.5t16 63.5q4 24 14.5 26.5t20 -12.5t15 -45.5t-1.5 -72.5q-4 -25 -19 -57.5
t-36.5 -63.5t-49 -56.5t-57.5 -35.5q-68 -23 -114 -13.5t-75 34.5t-42 55.5t-14 49.5q-3 54 13.5 104t55 93.5t101 78t151.5 58.5zM1077 946q-12 -6 -22.5 -15.5t-20.5 -20.5l24 5q21 5 32.5 13.5t13.5 15.5t-5 8.5t-22 -6.5zM1767 946q-13 -7 -24 -17t-22 -23q12 3 28 9
q19 7 30.5 16t14 15t-4 7t-22.5 -7z" />
    <glyph glyph-name="ij" unicode="&#x133;" horiz-adv-x="494" 
d="M502 431q-23 -40 -50.5 -87.5t-59 -99.5t-66.5 -106.5t-72 -108.5q54 29 102.5 64t86.5 76q15 15 29 32.5t26 34t22 30.5t16 22q7 9 15.5 10.5t15 -2t9.5 -11.5t-1 -18q-47 -77 -104 -145q-22 -25 -53 -52t-66.5 -51.5t-72 -46t-70.5 -35.5q-12 -5 -31 -14
q-47 -63 -94.5 -117.5t-95.5 -97.5q-14 -13 -34 -27.5t-43 -25.5t-47 -15.5t-46 2.5q-23 8 -36 21.5t-14 38.5q-2 36 20 69t55 60.5t70.5 48t67.5 32.5l94 37q26 38 51 75.5t50 75.5l-3.5 -3.5l-3.5 -3.5q-10 -10 -26 -27t-36 -32.5t-42.5 -26.5t-45.5 -10q-21 1 -35 7
t-22.5 15t-12 20.5t-4.5 23.5q-2 16 5 40t17 48.5t21.5 47.5t20.5 38l125 217q6 9 25 10.5t39 -2.5t34 -12.5t10 -18.5q0 -7 -15 -33t-36.5 -60.5t-44 -72.5t-38.5 -70t-20 -52.5t12 -19.5q18 1 42 22.5t47 49t42 54.5t29 39q5 6 11 8q12 16 29 40.5t35 48.5t34 44t25 28v-3
q6 9 25 10.5t39 -2.5t34 -12.5t10 -18.5zM450 656q20 30 50.5 40.5t54.5 -4.5q23 -16 26 -48.5t-17 -62.5t-50 -40t-54 6t-27 47.5t17 61.5zM234 656q10 15 23 25.5t27 15t28 3.5t26 -8q24 -16 27 -48.5t-17 -62.5q-10 -15 -23 -25t-27 -14.5t-28 -3.5t-26 9
q-25 16 -27.5 47.5t17.5 61.5zM-144 -277q0 -10 9 -6.5t22 14t28.5 25.5t28 27.5t20 20.5t5.5 5l3 3q-48 -29 -81.5 -53t-34.5 -36z" />
    <glyph glyph-name="Jcircumflex" unicode="&#x134;" horiz-adv-x="896" 
d="M1167 910q22 28 48 52.5t62 39.5q21 9 39 9.5t31.5 -7t20 -20.5t5.5 -31q-1 -9 -8.5 -21t-19.5 -24t-27.5 -22t-32.5 -15q-20 -8 -46 -14t-48 -11q-18 -23 -42.5 -57t-50 -70.5t-48 -71t-35.5 -56.5q-31 -53 -68 -117t-79 -132.5t-88.5 -139t-97 -135t-105 -121
t-112.5 -98t-119 -64.5t-124 -21q-37 1 -75.5 11t-70 29t-53 45.5t-24.5 60.5q-1 9 0.5 27.5t7.5 35.5t17 28.5t28 7.5q42 -11 83.5 -19t84.5 -7q72 0 140.5 28.5t133 76t125.5 111t116.5 133.5t107 143t97.5 139.5t86 122.5t75 93q-39 -8 -76 -15t-75 -15t-77.5 -17.5
t-83.5 -21.5q-56 -16 -96.5 -39.5t-66.5 -50t-38.5 -53t-12.5 -47.5q0 -34 26 -47t65 4q10 5 23 13t25.5 24t24 43t17.5 70q4 26 15.5 28.5t22.5 -14t16.5 -49.5t-1.5 -79q-5 -27 -21 -63t-40.5 -70t-55 -61.5t-63.5 -38.5q-50 -17 -89 -17.5t-69.5 10.5t-51.5 29.5
t-34.5 39.5t-20.5 41.5t-7 34.5q-3 59 15 114t61 102t112 85.5t168 64.5q54 14 110 23.5t112 16t112.5 13t112.5 14.5zM923 1043q-6 0 -10.5 1.5t-5.5 5t4.5 8.5t20.5 12q36 16 61 29.5t43.5 25.5t33 22.5t29.5 20.5q7 5 11.5 5t7.5 -3t4.5 -6.5t2.5 -6.5q4 -18 8 -30.5
t9 -22.5t11.5 -17.5t15.5 -15.5q12 -11 7 -19t-16 -10q-33 -6 -52 -3t-29.5 11t-15.5 17t-8 15q-31 -11 -64 -24t-68 -15zM1278 946q-13 -7 -24 -17t-22 -23q12 3 28 9q19 7 30.5 16t14 15t-4 7t-22.5 -7z" />
    <glyph glyph-name="jcircumflex" unicode="&#x135;" horiz-adv-x="275" 
d="M175 454q6 9 25 10.5t39 -2.5t34 -12.5t10 -18.5q-23 -40 -50.5 -87.5t-59 -99.5t-66.5 -106.5t-72 -108.5q54 29 102.5 64t86.5 76q15 15 29 32.5t26 34t22 30.5t16 22q7 9 15.5 10.5t15 -2t9.5 -11.5t-1 -18q-47 -77 -104 -145q-22 -25 -53 -52t-66.5 -51.5t-72 -46
t-70.5 -35.5q-6 -2 -13.5 -5.5t-17.5 -8.5q-47 -63 -94.5 -117.5t-95.5 -97.5q-14 -13 -34 -27.5t-43 -25.5t-47 -15.5t-46 2.5q-23 8 -36 21.5t-14 38.5q-2 36 20 69t55 60.5t70.5 48t67.5 32.5l95 37q49 69 93.5 140.5t91.5 143.5l6 10q-9 5 -13 15t4 21q7 10 25.5 35.5
t39.5 54t40.5 54t30.5 34.5v-3zM146 551q-6 0 -10.5 1.5t-5.5 5t4.5 8.5t20.5 12q36 16 61 29.5t43.5 25.5t33 22.5t29.5 20.5q7 5 11.5 5t7.5 -3t4.5 -6.5t2.5 -6.5q4 -18 8 -30.5t9 -22.5t11.5 -17.5t15.5 -15.5q12 -11 7 -19t-16 -10q-33 -6 -52 -3t-29.5 11t-15.5 17
t-8 15q-31 -11 -64 -24t-68 -15zM-363 -277q0 -10 9 -6.5t22 14t28.5 25.5t28 27.5t20 20.5t5.5 5l3 3q-48 -29 -81.5 -53t-34.5 -36z" />
    </font>
</defs>
</svg>
